  0
SECTION
  2
HEADER
  9
$ACADVER
  1
AC1015
  9
$ACADMAINTVER
 70
    20
  9
$DWGCODEPAGE
  3
ANSI_932
  9
$INSBASE
 10
0.0
 20
0.0
 30
0.0
  9
$EXTMIN
 10
591.1055947728091
 20
-2072.578751848099
 30
-0.0015258207003583
  9
$EXTMAX
 10
888.3910534254374
 20
-1862.492171713128
 30
0.0000000349246037
  9
$LIMMIN
 10
-2862.041034734776
 20
-541.7625498422129
  9
$LIMMAX
 10
-1377.041034734775
 20
508.2374501577867
  9
$ORTHOMODE
 70
     0
  9
$REGENMODE
 70
     1
  9
$FILLMODE
 70
     1
  9
$QTEXTMODE
 70
     0
  9
$MIRRTEXT
 70
     0
  9
$LTSCALE
 40
5.0
  9
$ATTMODE
 70
     1
  9
$TEXTSIZE
 40
3.2
  9
$TRACEWID
 40
1.0
  9
$TEXTSTYLE
  7
STANDARD
  9
$CLAYER
  8
AM_CL
  9
$CELTYPE
  6
ByLayer
  9
$CECOLOR
 62
   256
  9
$CELTSCALE
 40
1.0
  9
$DISPSILH
 70
     0
  9
$DIMSCALE
 40
1.0
  9
$DIMASZ
 40
1.0
  9
$DIMEXO
 40
1.0
  9
$DIMDLI
 40
10.0
  9
$DIMRND
 40
0.0
  9
$DIMDLE
 40
0.0
  9
$DIMEXE
 40
1.0
  9
$DIMTP
 40
0.1
  9
$DIMTM
 40
0.1
  9
$DIMTXT
 40
3.5
  9
$DIMCEN
 40
0.0
  9
$DIMTSZ
 40
0.0
  9
$DIMTOL
 70
     0
  9
$DIMLIM
 70
     0
  9
$DIMTIH
 70
     0
  9
$DIMTOH
 70
     0
  9
$DIMSE1
 70
     0
  9
$DIMSE2
 70
     0
  9
$DIMTAD
 70
     1
  9
$DIMZIN
 70
     8
  9
$DIMBLK
  1

  9
$DIMASO
 70
     1
  9
$DIMSHO
 70
     1
  9
$DIMPOST
  1

  9
$DIMAPOST
  1
"
  9
$DIMALT
 70
     0
  9
$DIMALTD
 70
     2
  9
$DIMALTF
 40
0.0393701
  9
$DIMLFAC
 40
1.0
  9
$DIMTOFL
 70
     1
  9
$DIMTVP
 40
0.0
  9
$DIMTIX
 70
     0
  9
$DIMSOXD
 70
     0
  9
$DIMSAH
 70
     0
  9
$DIMBLK1
  1

  9
$DIMBLK2
  1

  9
$DIMSTYLE
  2
SYS
  9
$DIMCLRD
 70
   256
  9
$DIMCLRE
 70
   256
  9
$DIMCLRT
 70
     7
  9
$DIMTFAC
 40
0.71
  9
$DIMGAP
 40
1.5
  9
$DIMJUST
 70
     0
  9
$DIMSD1
 70
     0
  9
$DIMSD2
 70
     0
  9
$DIMTOLJ
 70
     0
  9
$DIMTZIN
 70
     8
  9
$DIMALTZ
 70
     0
  9
$DIMALTTZ
 70
     0
  9
$DIMUPT
 70
     0
  9
$DIMDEC
 70
     0
  9
$DIMTDEC
 70
     2
  9
$DIMALTU
 70
     2
  9
$DIMALTTD
 70
     2
  9
$DIMTXSTY
  7
STANDARD
  9
$DIMAUNIT
 70
     0
  9
$DIMADEC
 70
     0
  9
$DIMALTRND
 40
0.0
  9
$DIMAZIN
 70
     2
  9
$DIMDSEP
 70
    46
  9
$DIMATFIT
 70
     3
  9
$DIMFRAC
 70
     0
  9
$DIMLDRBLK
  1

  9
$DIMLUNIT
 70
     2
  9
$DIMLWD
 70
    -1
  9
$DIMLWE
 70
    -1
  9
$DIMTMOVE
 70
     0
  9
$LUNITS
 70
     2
  9
$LUPREC
 70
     2
  9
$SKETCHINC
 40
1.0
  9
$FILLETRAD
 40
3.0
  9
$AUNITS
 70
     0
  9
$AUPREC
 70
     0
  9
$MENU
  1
.
  9
$ELEVATION
 40
0.0
  9
$PELEVATION
 40
0.0
  9
$THICKNESS
 40
0.0
  9
$LIMCHECK
 70
     0
  9
$CHAMFERA
 40
0.0
  9
$CHAMFERB
 40
0.0
  9
$CHAMFERC
 40
0.0
  9
$CHAMFERD
 40
0.0
  9
$SKPOLY
 70
     0
  9
$TDCREATE
 40
2456062.408044699
  9
$TDUCREATE
 40
2456062.033044699
  9
$TDUPDATE
 40
2456314.418130961
  9
$TDUUPDATE
 40
2456314.043130961
  9
$TDINDWG
 40
1.4036973611
  9
$TDUSRTIMER
 40
1.4036966319
  9
$USRTIMER
 70
     1
  9
$ANGBASE
 50
0.0
  9
$ANGDIR
 70
     0
  9
$PDMODE
 70
     0
  9
$PDSIZE
 40
0.0
  9
$PLINEWID
 40
0.0
  9
$SPLFRAME
 70
     0
  9
$SPLINETYPE
 70
     6
  9
$SPLINESEGS
 70
     8
  9
$HANDSEED
  5
5FDD9
  9
$SURFTAB1
 70
     6
  9
$SURFTAB2
 70
     6
  9
$SURFTYPE
 70
     6
  9
$SURFU
 70
     6
  9
$SURFV
 70
     6
  9
$UCSBASE
  2

  9
$UCSNAME
  2

  9
$UCSORG
 10
0.0
 20
0.0
 30
0.0
  9
$UCSXDIR
 10
1.0
 20
0.0
 30
0.0
  9
$UCSYDIR
 10
0.0
 20
1.0
 30
0.0
  9
$UCSORTHOREF
  2

  9
$UCSORTHOVIEW
 70
     0
  9
$UCSORGTOP
 10
0.0
 20
0.0
 30
0.0
  9
$UCSORGBOTTOM
 10
0.0
 20
0.0
 30
0.0
  9
$UCSORGLEFT
 10
0.0
 20
0.0
 30
0.0
  9
$UCSORGRIGHT
 10
0.0
 20
0.0
 30
0.0
  9
$UCSORGFRONT
 10
0.0
 20
0.0
 30
0.0
  9
$UCSORGBACK
 10
0.0
 20
0.0
 30
0.0
  9
$PUCSBASE
  2

  9
$PUCSNAME
  2

  9
$PUCSORG
 10
0.0
 20
0.0
 30
0.0
  9
$PUCSXDIR
 10
1.0
 20
0.0
 30
0.0
  9
$PUCSYDIR
 10
0.0
 20
1.0
 30
0.0
  9
$PUCSORTHOREF
  2

  9
$PUCSORTHOVIEW
 70
     0
  9
$PUCSORGTOP
 10
0.0
 20
0.0
 30
0.0
  9
$PUCSORGBOTTOM
 10
0.0
 20
0.0
 30
0.0
  9
$PUCSORGLEFT
 10
0.0
 20
0.0
 30
0.0
  9
$PUCSORGRIGHT
 10
0.0
 20
0.0
 30
0.0
  9
$PUCSORGFRONT
 10
0.0
 20
0.0
 30
0.0
  9
$PUCSORGBACK
 10
0.0
 20
0.0
 30
0.0
  9
$USERI1
 70
     0
  9
$USERI2
 70
     0
  9
$USERI3
 70
     0
  9
$USERI4
 70
     0
  9
$USERI5
 70
     0
  9
$USERR1
 40
0.0
  9
$USERR2
 40
0.0
  9
$USERR3
 40
0.0
  9
$USERR4
 40
0.0
  9
$USERR5
 40
0.0
  9
$WORLDVIEW
 70
     1
  9
$SHADEDGE
 70
     3
  9
$SHADEDIF
 70
    70
  9
$TILEMODE
 70
     1
  9
$MAXACTVP
 70
    64
  9
$PINSBASE
 10
0.0
 20
0.0
 30
0.0
  9
$PLIMCHECK
 70
     0
  9
$PEXTMIN
 10
1.000000000000000E+20
 20
1.000000000000000E+20
 30
1.000000000000000E+20
  9
$PEXTMAX
 10
-1.000000000000000E+20
 20
-1.000000000000000E+20
 30
-1.000000000000000E+20
  9
$PLIMMIN
 10
0.0
 20
0.0
  9
$PLIMMAX
 10
420.0
 20
297.0
  9
$UNITMODE
 70
     0
  9
$VISRETAIN
 70
     1
  9
$PLINEGEN
 70
     0
  9
$PSLTSCALE
 70
     1
  9
$TREEDEPTH
 70
  3020
  9
$CMLSTYLE
  2
Standard
  9
$CMLJUST
 70
     0
  9
$CMLSCALE
 40
20.0
  9
$PROXYGRAPHICS
 70
     1
  9
$MEASUREMENT
 70
     1
  9
$CELWEIGHT
370
    -1
  9
$ENDCAPS
280
     0
  9
$JOINSTYLE
280
     0
  9
$LWDISPLAY
290
     1
  9
$INSUNITS
 70
     4
  9
$HYPERLINKBASE
  1

  9
$STYLESHEET
  1
MONOCHROME.CTB
  9
$XEDIT
290
     1
  9
$CEPSNTYPE
380
     0
  9
$PSTYLEMODE
290
     1
  9
$FINGERPRINTGUID
  2
{E59D273A-4D9A-4EE6-8293-2BEC031FC160}
  9
$VERSIONGUID
  2
{FD9B86B9-995B-4FC9-BFDA-C58A9471F08F}
  9
$EXTNAMES
290
     1
  9
$PSVPSCALE
 40
0.0
  9
$OLESTARTUP
290
     0
  0
ENDSEC
  0
SECTION
  2
CLASSES
  0
CLASS
  1
ACDBDICTIONARYWDFLT
  2
AcDbDictionaryWithDefault
  3
ObjectDBX Classes
 90
        0
280
     0
281
     0
  0
CLASS
  1
MATERIAL
  2
AcDbMaterial
  3
ObjectDBX Classes
 90
     1024
280
     0
281
     0
  0
CLASS
  1
VISUALSTYLE
  2
AcDbVisualStyle
  3
ObjectDBX Classes
 90
     4095
280
     0
281
     0
  0
CLASS
  1
TABLESTYLE
  2
AcDbTableStyle
  3
ObjectDBX Classes
 90
     4095
280
     0
281
     0
  0
CLASS
  1
ACME_DOCUMENT
  2
AcMeDbDoc
  3
AcMeServices
 90
        0
280
     0
281
     0
  0
CLASS
  1
ACMESCOPE
  2
AcMeScope
  3
AcMeServices
 90
        0
280
     0
281
     0
  0
CLASS
  1
ACMECOMMANDHISTORY
  2
AcMeCommandHistory
  3
AcMeServices
 90
        0
280
     0
281
     0
  0
CLASS
  1
ACIMSYSVARMAN
  2
AcImSysVarManager
  3
AcMeServices
 90
        0
280
     0
281
     0
  0
CLASS
  1
ACIMINTSYSVAR
  2
AcImIntSysVar
  3
AcMeServices
 90
        0
280
     0
281
     0
  0
CLASS
  1
ACMEDRAWINGMAN
  2
AcMeDrawingMan
  3
AcMeServices
 90
        0
280
     0
281
     0
  0
CLASS
  1
ACMEVIEW
  2
AcMeView
  3
AcMeServices
 90
        0
280
     0
281
     0
  0
CLASS
  1
ACDBENTITYCACHE
  2
AcMeEntityCache
  3
AcMeServices
 90
        0
280
     0
281
     0
  0
CLASS
  1
GSMANAGER
  2
AcMeGSManager
  3
AcMeServices
 90
        0
280
     0
281
     0
  0
CLASS
  1
AMDTINTERNALREACTOR
  2
AmdtInternalReactor
  3
AcMeServices
 90
        0
280
     0
281
     0
  0
CLASS
  1
ACMESTATEMGR
  2
AcMeStateMgr
  3
AcMeServices
 90
        0
280
     0
281
     0
  0
CLASS
  1
ACGREFMASTER
  2
AcGrefMaster
  3
AcAttribServices
 90
        0
280
     0
281
     0
  0
CLASS
  1
AM_DRAWING_MGR
  2
AcDmDwgMgr
  3
AcMechDwgViewMgmt
 90
        0
280
     0
281
     0
  0
CLASS
  1
AM_DWG_DOCUMENT
  2
AcDmDwgDocument
  3
AcMechDwgViewMgmt
 90
        0
280
     0
281
     0
  0
CLASS
  1
AM_DWG_SHEET
  2
AcDmSheet
  3
AcMechDwgViewMgmt
 90
        0
280
     0
281
     0
  0
CLASS
  1
AM_VIEWDIMPARMAP
  2
AcDmViewDimParMap
  3
AcMechDwgViewMgmt
 90
        0
280
     0
281
     0
  0
CLASS
  1
ACIMREALSYSVAR
  2
AcImRealSysVar
  3
AcMeServices
 90
        0
280
     0
281
     0
  0
CLASS
  1
AM_DWGMGR_NAME
  2
AcDmDwgMgrName
  3
AcMechDwgViewMgmt
 90
        0
280
     0
281
     0
  0
CLASS
  1
ACME_DATABASE
  2
AcMeDbDatabase
  3
AcMeServices
 90
        0
280
     0
281
     0
  0
CLASS
  1
ACRFINSADJUSTERMGR
  2
AcRfInsAdjusterMgr
  3
AcMeServices
 90
        0
280
     0
281
     0
  0
CLASS
  1
ACGREFACADMASTER
  2
AcGrefacadMaster
  3
AcGrefServices
 90
        0
280
     0
281
     0
  0
CLASS
  1
AMDTMENUSTATEMGR
  2
AmdtMenuStateMgr
  3
McadcomServices
 90
        0
280
     0
281
     0
  0
CLASS
  1
AMDTMCOMMENUSTATE
  2
AmdtMcomMenuState
  3
McadcomServices
 90
        0
280
     0
281
     0
  0
CLASS
  1
AMIMASTER
  2
AmiMaster
  3
AmiServices
 90
        0
280
     0
281
     0
  0
CLASS
  1
AMGSETTINGSOBJ
  2
AmgSettingsObj
  3
"AcadM|Product Description: AutoCAD Mechanical|Company: Autodesk"
 90
        0
280
     0
281
     0
  0
CLASS
  1
AMGOBJPROPCFG
  2
AmgObjPropCfg
  3
"AmgLay|Product Description: AutoCAD Mechanical|Company: Autodesk"
 90
        1
280
     0
281
     0
  0
CLASS
  1
MAPIAMMOUDLE
  2
MApiAmModule
  3
MApiAmServices
 90
        0
280
     0
281
     0
  0
CLASS
  1
ACMSTANDARDISO
  2
AcmStandardISO
  3
"Amdt_StdImp|Product Description: AutoCAD Mechanical|Company: Autodesk"
 90
        0
280
     0
281
     0
  0
CLASS
  1
AMDTEDGESTANDARDISO
  2
AmdtEdgeStdISO
  3
"Amdt_StdImp|Product Description: AutoCAD Mechanical|Company: Autodesk"
 90
    32768
280
     0
281
     0
  0
CLASS
  1
ACMSURFSTANDARDISO
  2
AcmSurfTextStdISO
  3
"Amdt_StdImp|Product Description: AutoCAD Mechanical|Company: Autodesk"
 90
        0
280
     0
281
     0
  0
CLASS
  1
ACMFCFSTANDARDISO
  2
AcmFCFStdISO
  3
"Amdt_StdImp|Product Description: AutoCAD Mechanical|Company: Autodesk"
 90
        0
280
     0
281
     0
  0
CLASS
  1
ACMWELDSTANDARDISO
  2
AcmWeldingStdISO
  3
"Amdt_StdImp|Product Description: AutoCAD Mechanical|Company: Autodesk"
 90
        0
280
     0
281
     0
  0
CLASS
  1
ACMIDSTANDARDISO
  2
AcmIdStdISO
  3
"Amdt_StdImp|Product Description: AutoCAD Mechanical|Company: Autodesk"
 90
        0
280
     0
281
     0
  0
CLASS
  1
ACMDATUMSTANDARDISO
  2
AcmDatumStdISO
  3
"Amdt_StdImp|Product Description: AutoCAD Mechanical|Company: Autodesk"
 90
        0
280
     0
281
     0
  0
CLASS
  1
ACMBOMSTANDARDISO
  2
AcmBOMStdISO
  3
"Amdt_StdImp|Product Description: AutoCAD Mechanical|Company: Autodesk"
 90
        0
280
     0
281
     0
  0
CLASS
  1
ACMDETAILSTANDARDISO
  2
AmdtDetailSymStdISO
  3
"Amdt_StdImp|Product Description: AutoCAD Mechanical|Company: Autodesk"
 90
        0
280
     0
281
     0
  0
CLASS
  1
ACMSECTIONSTANDARDISO
  2
AmdtSectionSymStdISO
  3
"Amdt_StdImp|Product Description: AutoCAD Mechanical|Company: Autodesk"
 90
        0
280
     0
281
     0
  0
CLASS
  1
ACMCENTERLINESTANDARDISO
  2
AmdtCenterLineStdISO
  3
"Amdt_StdImp|Product Description: AutoCAD Mechanical|Company: Autodesk"
 90
        0
280
     0
281
     0
  0
CLASS
  1
ACAMGLAYSTD
  2
AcAmgLayStd
  3
"AmgLay|Product Description: AutoCAD Mechanical|Company: Autodesk"
 90
        0
280
     0
281
     0
  0
CLASS
  1
ACAMGDIMSTD
  2
AcAmgDimStd
  3
"AmgDim|Product Description: AutoCAD Mechanical|Company: Autodesk"
 90
        0
280
     0
281
     0
  0
CLASS
  1
ACAMGTITLESTD
  2
AcAmgTitleStd
  3
"AmgTitle|Product Description: AutoCAD Mechanical|Company: Autodesk"
 90
        0
280
     0
281
     0
  0
CLASS
  1
ACMNOTESTANDARDISO
  2
AmdtNoteStdISO
  3
"Amdt_StdImp|Product Description: AutoCAD Mechanical|Company: Autodesk"
 90
        0
280
     0
281
     0
  0
CLASS
  1
ACMTHREADLINESTANDARDISO
  2
AmdtThreadLineStdISO
  3
"Amdt_StdImp|Product Description: AutoCAD Mechanical|Company: Autodesk"
 90
        0
280
     0
281
     0
  0
CLASS
  1
ACMTAPERSTANDARDISO
  2
AcmTaperStdISO
  3
"Amdt_StdImp|Product Description: AutoCAD Mechanical|Company: Autodesk"
 90
        0
280
     0
281
     0
  0
CLASS
  1
ACIMSTRSYSVAR
  2
AcImStrSysVar
  3
AcMeServices
 90
        0
280
     0
281
     0
  0
CLASS
  1
AMDTADMENUSTATE
  2
AmdtAdMenuState
  3
DesignerServices
 90
        0
280
     0
281
     0
  0
CLASS
  1
ADAPPL
  2
AcAdAppl
  3
DesignerServices
 90
        0
280
     0
281
     0
  0
CLASS
  1
DEPMGR
  2
AcAdDepMgr
  3
DesignerServices
 90
        0
280
     0
281
     0
  0
CLASS
  1
PARAMMGR
  2
AcAdParamMgr
  3
DesignerServices
 90
        0
280
     0
281
     0
  0
CLASS
  1
PARAMSCOPE
  2
AcAdParamScope
  3
DesignerServices
 90
        0
280
     0
281
     0
  0
CLASS
  1
NAMEDAPPL
  2
AcAdNamedAppl
  3
DesignerServices
 90
        0
280
     0
281
     0
  0
CLASS
  1
AMDTDMMENUSTATE
  2
AmdtDmMenuState
  3
AcMechDwgViewMgmt
 90
        0
280
     0
281
     0
  0
CLASS
  1
AMDTAMMENUSTATE
  2
AmdtAmMenuState
  3
DesignerAssemblies
 90
        0
280
     0
281
     0
  0
CLASS
  1
ACAMPROJECT
  2
AcAmProject
  3
DesignerAssemblies
 90
        0
280
     0
281
     0
  0
CLASS
  1
ACAMGRCOMPDEF
  2
AcAmGrCompDef
  3
DesignerAssemblies
 90
        0
280
     0
281
     0
  0
CLASS
  1
ACCMCONTEXT
  2
AcCmContext
  3
DesignerAssemblies
 90
        0
280
     0
281
     0
  0
CLASS
  1
ACAMCOMPDEF
  2
AcAmCompDef
  3
DesignerAssemblies
 90
        0
280
     0
281
     0
  0
CLASS
  1
ACAMCOMPDEFMGR
  2
AcAmCompDefMgr
  3
DesignerAssemblies
 90
        0
280
     0
281
     0
  0
CLASS
  1
AMCONTEXTMGR
  2
AcAmContextMgr
  3
DesignerAssemblies
 90
        0
280
     0
281
     0
  0
CLASS
  1
ACAMCONTEXTMODELER
  2
AcAmContextModeler
  3
DesignerAssemblies
 90
        0
280
     0
281
     0
  0
CLASS
  1
ACMDATADICTIONARY
  2
AcmDataDictionary
  3
"AcmSymBB|Product Description: AutoCAD Mechanical|Company: Autodesk"
 90
        0
280
     0
281
     0
  0
CLASS
  1
CATALOGSTATE
  2
AcAmCatalogState
  3
DesignerAssemblies
 90
        0
280
     0
281
     0
  0
CLASS
  1
ACAMGRCOMPDEFSET
  2
AcAmGrCompDefSet
  3
DesignerAssemblies
 90
        0
280
     0
281
     0
  0
CLASS
  1
AMDTBROWSERDBTAB
  2
AmdtBrowserDbTab
  3
McadcomServices
 90
        0
280
     0
281
     0
  0
CLASS
  1
CBROWSERAPPOBJECT
  2
CBrowserAppObject
  3
McadcomServices
 90
        0
280
     0
281
     0
  0
CLASS
  1
DM_PLACEHOLDER
  2
AcDmSelsetPlaceholder
  3
AcMechDwgViewMgmt
 90
        0
280
     0
281
     0
  0
CLASS
  1
SORTENTSTABLE
  2
AcDbSortentsTable
  3
ObjectDBX Classes
 90
        0
280
     0
281
     0
  0
CLASS
  1
ACRFATTGENMGR
  2
AcRfAttGeneralMgr
  3
AcAttribServices
 90
    32768
280
     0
281
     0
  0
CLASS
  1
ACRFMCADAPIATTHOLDER
  2
AcRfMCADAPIAttHolder
  3
AcAttribServices
 90
    32768
280
     0
281
     0
  0
CLASS
  1
AMDTSYSATTR
  2
AmdtSystemAttribute
  3
AcAttribServices
 90
    32768
280
     0
281
     0
  0
CLASS
  1
ACMDATAENTRYBLOCK
  2
AcmDataEntryBlock
  3
"AcmSymBB|Product Description: AutoCAD Mechanical|Company: Autodesk"
 90
    32768
280
     0
281
     0
  0
CLASS
  1
ACMDATAENTRY
  2
AcmDataEntry
  3
"AcmSymBB|Product Description: AutoCAD Mechanical|Company: Autodesk"
 90
    32768
280
     0
281
     0
  0
CLASS
  1
ACAMGFILTERDAT
  2
AcAmgFilterDat
  3
"AcadM|Product Description: AutoCAD Mechanical|Company: Autodesk"
 90
    32768
280
     0
281
     0
  0
CLASS
  1
AMDTACMWBLOCKBOMENTITY
  2
AmdtAcmWblockBomEntity
  3
"AcmSymBB|Product Description: AutoCAD Mechanical|Company: Autodesk"
 90
    35839
280
     0
281
     1
  0
CLASS
  1
CAMSSTRUCTBTNSTATE
  2
StructBtnState
  3
L"DesignerAssemblies"
 90
    32768
280
     0
281
     0
  0
CLASS
  1
DICTIONARYVAR
  2
AcDbDictionaryVar
  3
ObjectDBX Classes
 90
        0
280
     0
281
     0
  0
CLASS
  1
DIMASSOC
  2
AcDbDimAssoc
  3
"AcDbDimAssoc|Product Desc:     AcDim ARX App For Dimension|Company:          Autodesk, Inc.|WEB Address:      www.autodesk.com"
 90
        0
280
     0
281
     0
  0
CLASS
  1
ACDBPOLYLINERES
  2
AcDbPolylineRes
  3
AcGrefServices
 90
    32768
280
     0
281
     0
  0
CLASS
  1
AMDTNOTE
  2
AmdtNote
  3
"AcmSymBB|Product Description: AutoCAD Mechanical|Company: Autodesk"
 90
    35839
280
     0
281
     1
  0
CLASS
  1
AMDTFORMULAUPDATEDISPATCHER
  2
AmdtFormulaUpdateDispatcher
  3
AcMeServices
 90
    32768
280
     0
281
     0
  0
CLASS
  1
AMDTNOTETEMPLATEDB
  2
AmdtNoteTemplateDB
  3
AMDT_STDIMP_MODULE_NAME
 90
        0
280
     0
281
     0
  0
CLASS
  1
ACMSTANDARDANSI
  2
AcmStandardANSI
  3
"Amdt_StdImp|Product Description: AutoCAD Mechanical|Company: Autodesk"
 90
    32768
280
     0
281
     0
  0
CLASS
  1
ACMSURFSTANDARDANSI
  2
AcmSurfTextStdANSI
  3
"Amdt_StdImp|Product Description: AutoCAD Mechanical|Company: Autodesk"
 90
    32768
280
     0
281
     0
  0
CLASS
  1
ACMFCFSTANDARDANSI
  2
AcmFCFStdANSI
  3
"Amdt_StdImp|Product Description: AutoCAD Mechanical|Company: Autodesk"
 90
    32768
280
     0
281
     0
  0
CLASS
  1
ACMWELDSTANDARDANSI
  2
AcmWeldingStdANSI
  3
"Amdt_StdImp|Product Description: AutoCAD Mechanical|Company: Autodesk"
 90
    32768
280
     0
281
     0
  0
CLASS
  1
ACMIDSTANDARDANSI
  2
AcmIdStdANSI
  3
"Amdt_StdImp|Product Description: AutoCAD Mechanical|Company: Autodesk"
 90
    32768
280
     0
281
     0
  0
CLASS
  1
ACMDATUMSTANDARDANSI
  2
AcmDatumStdANSI
  3
"Amdt_StdImp|Product Description: AutoCAD Mechanical|Company: Autodesk"
 90
    32768
280
     0
281
     0
  0
CLASS
  1
ACMBOMSTANDARDANSI
  2
AcmBOMStdANSI
  3
"Amdt_StdImp|Product Description: AutoCAD Mechanical|Company: Autodesk"
 90
    32768
280
     0
281
     0
  0
CLASS
  1
ACMDETAILSTANDARDANSI
  2
AmdtDetailSymStdANSI
  3
"Amdt_StdImp|Product Description: AutoCAD Mechanical|Company: Autodesk"
 90
    32768
280
     0
281
     0
  0
CLASS
  1
ACMSECTIONSTANDARDANSI
  2
AmdtSectionSymStdANSI
  3
"Amdt_StdImp|Product Description: AutoCAD Mechanical|Company: Autodesk"
 90
    32768
280
     0
281
     0
  0
CLASS
  1
ACMCENTERLINESTANDARDANSI
  2
AmdtCenterLineStdANSI
  3
"Amdt_StdImp|Product Description: AutoCAD Mechanical|Company: Autodesk"
 90
    32768
280
     0
281
     0
  0
CLASS
  1
ACMTHREADLINESTANDARDANSI
  2
AmdtThreadLineStdANSI
  3
"Amdt_StdImp|Product Description: AutoCAD Mechanical|Company: Autodesk"
 90
    32768
280
     0
281
     0
  0
CLASS
  1
ACMNOTESTANDARDANSI
  2
AmdtNoteStdANSI
  3
"Amdt_StdImp|Product Description: AutoCAD Mechanical|Company: Autodesk"
 90
    32768
280
     0
281
     0
  0
CLASS
  1
ACMTAPERSTANDARDANSI
  2
AcmTaperStdANSI
  3
"Amdt_StdImp|Product Description: AutoCAD Mechanical|Company: Autodesk"
 90
    32768
280
     0
281
     0
  0
CLASS
  1
ACAMGHOLECHARTSTDANSI
  2
AcAmgHoleChartStdANSI
  3
ACMSYMBB_MODULE_NAME
 90
    32768
280
     0
281
     0
  0
CLASS
  1
ACDBOPPOLYLINERES
  2
AcDbOpPolylineRes
  3
AcGrefServices
 90
    32768
280
     0
281
     0
  0
CLASS
  1
ACDBPLACEHOLDER
  2
AcDbPlaceHolder
  3
ObjectDBX Classes
 90
        0
280
     0
281
     0
  0
CLASS
  1
LAYOUT
  2
AcDbLayout
  3
ObjectDBX Classes
 90
        0
280
     0
281
     0
  0
CLASS
  1
AMDTEDGESTANDARDISO13715
  2
AmdtEdgeStdISO13715
  3
"Amdt_StdImp|Product Description: AutoCAD Mechanical|Company: Autodesk"
 90
        0
280
     0
281
     0
  0
CLASS
  1
ACAMGHOLECHARTSTDISO
  2
AcAmgHoleChartStdISO
  3
ACMSYMBB_MODULE_NAME
 90
        0
280
     0
281
     0
  0
ENDSEC
  0
SECTION
  2
TABLES
  0
TABLE
  2
VPORT
  5
8
102
{ACAD_XDICTIONARY
360
5F9AB
102
}
330
0
100
AcDbSymbolTable
 70
     1
  0
VPORT
  5
28
330
8
100
AcDbSymbolTableRecord
100
AcDbViewportTableRecord
  2
*Active
 70
     0
 10
0.0
 20
0.0
 11
1.0
 21
1.0
 12
739.7483240991232
 22
-1967.535461780614
 13
0.0
 23
0.0
 14
12.5
 24
12.5
 15
50.0
 25
50.0
 16
0.0
 26
0.0
 36
1.0
 17
0.0
 27
0.0
 37
0.0
 40
211.6332298046764
 41
1.648648648648648
 42
50.0
 43
0.0
 44
0.0
 50
0.0
 51
0.0
 71
     0
 72
  1000
 73
     1
 74
     3
 75
     0
 76
     0
 77
     0
 78
     0
281
     0
 65
     0
110
0.0
120
0.0
130
0.0
111
1.0
121
0.0
131
0.0
112
0.0
122
1.0
132
0.0
 79
     0
146
0.0
  0
ENDTAB
  0
TABLE
  2
LTYPE
  5
5
330
0
100
AcDbSymbolTable
 70
   154
  0
LTYPE
  5
29
330
5
100
AcDbSymbolTableRecord
100
AcDbLinetypeTableRecord
  2
ByBlock
 70
     0
  3

 72
    65
 73
     0
 40
0.0
  0
LTYPE
  5
2A
330
5
100
AcDbSymbolTableRecord
100
AcDbLinetypeTableRecord
  2
ByLayer
 70
     0
  3

 72
    65
 73
     0
 40
0.0
  0
LTYPE
  5
2B
330
5
100
AcDbSymbolTableRecord
100
AcDbLinetypeTableRecord
  2
Continuous
 70
     0
  3
Solid line
 72
    65
 73
     0
 40
0.0
  0
LTYPE
  5
72
330
5
100
AcDbSymbolTableRecord
100
AcDbLinetypeTableRecord
  2
HIDDEN
 70
     0
  3
Hidden __ __ __ __ __ __ __ __ __ __ __ __ __ _
 72
    65
 73
     2
 40
9.524999999999996
 49
6.349999999999997
 74
     0
 49
-3.174999999999998
 74
     0
  0
LTYPE
  5
73
330
5
100
AcDbSymbolTableRecord
100
AcDbLinetypeTableRecord
  2
PHANTOM2
 70
     0
  3
Phantom (.5x) ___ _ _ ___ _ _ ___ _ _ ___ _ _
 72
    65
 73
     6
 40
31.75
 49
15.875
 74
     0
 49
-3.174999999999998
 74
     0
 49
3.174999999999998
 74
     0
 49
-3.174999999999998
 74
     0
 49
3.174999999999998
 74
     0
 49
-3.174999999999998
 74
     0
  0
LTYPE
  5
74
330
5
100
AcDbSymbolTableRecord
100
AcDbLinetypeTableRecord
  2
CENTER
 70
     0
  3
Center ____ _ ____ _ ____ _ ____ _ ____ _ ____
 72
    65
 73
     4
 40
50.8
 49
31.75
 74
     0
 49
-6.349999999999997
 74
     0
 49
6.349999999999997
 74
     0
 49
-6.349999999999997
 74
     0
  0
LTYPE
  5
B6
330
5
100
AcDbSymbolTableRecord
100
AcDbLinetypeTableRecord
  2
中線
 70
     0
  3
___________________
 72
    65
 73
     2
 40
2.0
 49
1.0
 74
     0
 49
1.0
 74
     0
  0
LTYPE
  5
B7
330
5
100
AcDbSymbolTableRecord
100
AcDbLinetypeTableRecord
  2
太線
 70
     0
  3
___________________
 72
    65
 73
     2
 40
2.0
 49
1.0
 74
     0
 49
1.0
 74
     0
  0
LTYPE
  5
B8
330
5
100
AcDbSymbolTableRecord
100
AcDbLinetypeTableRecord
  2
細線
 70
     0
  3
___________________
 72
    65
 73
     2
 40
2.0
 49
1.0
 74
     0
 49
1.0
 74
     0
  0
LTYPE
  5
B9
330
5
100
AcDbSymbolTableRecord
100
AcDbLinetypeTableRecord
  2
陰線1
 70
     0
  3
__ __ __ __
 72
    65
 73
     2
 40
4.0
 49
2.2
 74
     0
 49
-1.8
 74
     0
  0
LTYPE
  5
BA
330
5
100
AcDbSymbolTableRecord
100
AcDbLinetypeTableRecord
  2
補助線
 70
     0
  3
______________
 72
    65
 73
     2
 40
2.0
 49
1.0
 74
     0
 49
1.0
 74
     0
  0
LTYPE
  5
BB
330
5
100
AcDbSymbolTableRecord
100
AcDbLinetypeTableRecord
  2
寸法線
 70
     0
  3
________________
 72
    65
 73
     2
 40
2.0
 49
1.0
 74
     0
 49
1.0
 74
     0
  0
LTYPE
  5
BC
330
5
100
AcDbSymbolTableRecord
100
AcDbLinetypeTableRecord
  2
文字
 70
     0
  3
_________________
 72
    65
 73
     2
 40
2.0
 49
1.0
 74
     0
 49
1.0
 74
     0
  0
LTYPE
  5
BD
330
5
100
AcDbSymbolTableRecord
100
AcDbLinetypeTableRecord
  2
中心線1
 70
     0
  3
___ _ ___ _ ___
 72
    65
 73
     4
 40
18.0
 49
12.0
 74
     0
 49
-2.0
 74
     0
 49
2.0
 74
     0
 49
-2.0
 74
     0
  0
LTYPE
  5
BE
330
5
100
AcDbSymbolTableRecord
100
AcDbLinetypeTableRecord
  2
ハッチング
 70
     0
  3
_________________
 72
    65
 73
     2
 40
2.0
 49
1.0
 74
     0
 49
1.0
 74
     0
  0
LTYPE
  5
BF
330
5
100
AcDbSymbolTableRecord
100
AcDbLinetypeTableRecord
  2
切断線
 70
     0
  3
/\/-/\/-/\/-/\/-/\/-/\/
 72
    65
 73
     2
 40
11.0001
 49
0.0001
 74
     4
 75
   135
340
C0
 46
0.04
 50
0.0
 44
0.0
 45
0.0
 49
-11.0
 74
     0
  0
LTYPE
  5
C1
330
5
100
AcDbSymbolTableRecord
100
AcDbLinetypeTableRecord
  2
想像線1
 70
     0
  3
__ __ __ _____ __ __ ____
 72
    65
 73
     6
 40
14.5
 49
6.0
 74
     0
 49
-1.5
 74
     0
 49
2.0
 74
     0
 49
-1.5
 74
     0
 49
2.0
 74
     0
 49
-1.5
 74
     0
  0
LTYPE
  5
C2
330
5
100
AcDbSymbolTableRecord
100
AcDbLinetypeTableRecord
  2
Amconstr
 70
     0
  3
_______________________
 72
    65
 73
     2
 40
9999.0
 49
9999.0
 74
     0
 49
0.0
 74
     0
  0
LTYPE
  5
C3
330
5
100
AcDbSymbolTableRecord
100
AcDbLinetypeTableRecord
  2
AM_ISO02W050
 70
     0
  3
__ __ __ __ __ __ __ __ __ __ __ __ __ __ __
 72
    65
 73
     2
 40
7.5
 49
6.0
 74
     0
 49
-1.5
 74
     0
  0
LTYPE
  5
CF
330
5
100
AcDbSymbolTableRecord
100
AcDbLinetypeTableRecord
  2
ACISOWELD
 70
     0
  3
_ _ _ _ _
 72
    65
 73
     2
 40
2.0
 49
2.0
 74
     0
 49
-1.0
 74
     0
  0
LTYPE
  5
D2
330
5
100
AcDbSymbolTableRecord
100
AcDbLinetypeTableRecord
  2
ACISOTGB
 70
     0
  3
__ . . __ . .
 72
    65
 73
     6
 40
9.0
 49
4.0
 74
     0
 49
-1.0
 74
     0
 49
1.0
 74
     0
 49
-1.0
 74
     0
 49
1.0
 74
     0
 49
-1.0
 74
     0
  0
LTYPE
  5
D3
330
5
100
AcDbSymbolTableRecord
100
AcDbLinetypeTableRecord
  2
ACISOTGL
 70
     0
  3
_ _ _ _ _
 72
    65
 73
     2
 40
3.0
 49
2.0
 74
     0
 49
-1.0
 74
     0
  0
LTYPE
  5
130
330
5
100
AcDbSymbolTableRecord
100
AcDbLinetypeTableRecord
  2
AM_ISO08W050
 70
     0
  3
____ . ____ . ____ . ____ . ____ . ____ . ____
 72
    65
 73
     4
 40
18.0
 49
12.0
 74
     0
 49
-1.5
 74
     0
 49
3.0
 74
     0
 49
-1.5
 74
     0
  0
LTYPE
  5
131
330
5
100
AcDbSymbolTableRecord
100
AcDbLinetypeTableRecord
  2
AM_ISO09W050
 70
     0
  3
_____ . . _____ . . _____ . . ____ .. ____
 72
    65
 73
     6
 40
22.5
 49
12.0
 74
     0
 49
-1.5
 74
     0
 49
3.0
 74
     0
 49
-1.5
 74
     0
 49
3.0
 74
     0
 49
-1.5
 74
     0
  0
LTYPE
  5
132
330
5
100
AcDbSymbolTableRecord
100
AcDbLinetypeTableRecord
  2
AM_ISO08W050x2
 70
     0
  3
__ . __ . __ . __ . __ . __
 72
    65
 73
     4
 40
9.0
 49
6.0
 74
     0
 49
-0.75
 74
     0
 49
1.5
 74
     0
 49
-0.75
 74
     0
  0
LTYPE
  5
133
330
5
100
AcDbSymbolTableRecord
100
AcDbLinetypeTableRecord
  2
AM_ISO02W050x2
 70
     0
  3
 _ _ _ _ _ _ _ _ _ _ _ _
 72
    65
 73
     2
 40
3.75
 49
3.0
 74
     0
 49
-0.75
 74
     0
  0
LTYPE
  5
134
330
5
100
AcDbSymbolTableRecord
100
AcDbLinetypeTableRecord
  2
Amzigzag
 70
     0
  3
/\/-/\/-/\/-/\/-/\/-/\/
 72
    65
 73
     2
 40
11.0001
 49
0.0001
 74
     4
 75
   135
340
C0
 46
0.04
 50
0.0
 44
0.0
 45
0.0
 49
-11.0
 74
     0
  0
LTYPE
  5
24B
330
5
100
AcDbSymbolTableRecord
100
AcDbLinetypeTableRecord
  2
AI-Linetype-4
 70
     0
  3
Adobe Illustrator Linetype No. 4
 72
    65
 73
     4
 40
6.702782197890261
 49
5.291670156229153
 74
     0
 49
-0.3527780104152769
 74
     0
 49
0.7055560208305538
 74
     0
 49
-0.3527780104152769
 74
     0
  0
LTYPE
  5
24C
330
5
100
AcDbSymbolTableRecord
100
AcDbLinetypeTableRecord
  2
AI-Linetype-5
 70
     0
  3
Adobe Illustrator Linetype No. 5
 72
    65
 73
     4
 40
8.408816391820371
 49
6.228754241031785
 74
     0
 49
-0.3114324216060576
 74
     0
 49
1.55719730757647
 74
     0
 49
-0.3114324216060576
 74
     0
  0
LTYPE
  5
24D
330
5
100
AcDbSymbolTableRecord
100
AcDbLinetypeTableRecord
  2
AI-Linetype-6
 70
     0
  3
Adobe Illustrator Linetype No. 6
 72
    65
 73
     4
 40
8.408816391820371
 49
6.228754241031785
 74
     0
 49
-0.3114324216060576
 74
     0
 49
1.55719730757647
 74
     0
 49
-0.3114324216060576
 74
     0
  0
LTYPE
  5
24E
330
5
100
AcDbSymbolTableRecord
100
AcDbLinetypeTableRecord
  2
AI-Linetype-7
 70
     0
  3
Adobe Illustrator Linetype No. 7
 72
    65
 73
     4
 40
3.527780104152768
 49
2.469446072906936
 74
     0
 49
-0.3527780104152769
 74
     0
 49
0.3527780104152769
 74
     0
 49
-0.3527780104152769
 74
     0
  0
LTYPE
  5
24F
330
5
100
AcDbSymbolTableRecord
100
AcDbLinetypeTableRecord
  2
AI-Linetype-8
 70
     0
  3
Adobe Illustrator Linetype No. 8
 72
    65
 73
     4
 40
3.527780104152768
 49
2.469446072906936
 74
     0
 49
-0.3527780104152769
 74
     0
 49
0.3527780104152769
 74
     0
 49
-0.3527780104152769
 74
     0
  0
LTYPE
  5
250
330
5
100
AcDbSymbolTableRecord
100
AcDbLinetypeTableRecord
  2
AI-Linetype-9
 70
     0
  3
Adobe Illustrator Linetype No. 9
 72
    65
 73
     4
 40
3.527780104152768
 49
2.469446072906936
 74
     0
 49
-0.3527780104152769
 74
     0
 49
0.3527780104152769
 74
     0
 49
-0.3527780104152769
 74
     0
  0
LTYPE
  5
251
330
5
100
AcDbSymbolTableRecord
100
AcDbLinetypeTableRecord
  2
AI-Linetype-10
 70
     0
  3
Adobe Illustrator Linetype No. 10
 72
    65
 73
     4
 40
3.527780104152768
 49
2.469446072906936
 74
     0
 49
-0.3527780104152769
 74
     0
 49
0.3527780104152769
 74
     0
 49
-0.3527780104152769
 74
     0
  0
LTYPE
  5
252
330
5
100
AcDbSymbolTableRecord
100
AcDbLinetypeTableRecord
  2
AI-Linetype-11
 70
     0
  3
Adobe Illustrator Linetype No. 11
 72
    65
 73
     4
 40
3.527780104152768
 49
2.469446072906936
 74
     0
 49
-0.3527780104152769
 74
     0
 49
0.3527780104152769
 74
     0
 49
-0.3527780104152769
 74
     0
  0
LTYPE
  5
13FDD
330
5
100
AcDbSymbolTableRecord
100
AcDbLinetypeTableRecord
  2
AI-Linetype-22
 70
     0
  3
Adobe Illustrator Linetype No. 22
 72
    65
 73
     4
 40
5.125511770853997
 49
3.41736068378616
 74
     0
 49
-0.5693836956892792
 74
     0
 49
0.5693836956892792
 74
     0
 49
-0.5693836956892792
 74
     0
  0
LTYPE
  5
13FDE
330
5
100
AcDbSymbolTableRecord
100
AcDbLinetypeTableRecord
  2
AI-Linetype-23
 70
     0
  3
Adobe Illustrator Linetype No. 23
 72
    65
 73
     4
 40
5.125511770853997
 49
3.41736068378616
 74
     0
 49
-0.5693836956892792
 74
     0
 49
0.5693836956892792
 74
     0
 49
-0.5693836956892792
 74
     0
  0
LTYPE
  5
13FE1
330
5
100
AcDbSymbolTableRecord
100
AcDbLinetypeTableRecord
  2
AI-Linetype-26
 70
     0
  3
Adobe Illustrator Linetype No. 26
 72
    65
 73
     4
 40
5.125511770853997
 49
3.41736068378616
 74
     0
 49
-0.5693836956892792
 74
     0
 49
0.5693836956892792
 74
     0
 49
-0.5693836956892792
 74
     0
  0
LTYPE
  5
13FE2
330
5
100
AcDbSymbolTableRecord
100
AcDbLinetypeTableRecord
  2
AI-Linetype-27
 70
     0
  3
Adobe Illustrator Linetype No. 27
 72
    65
 73
     4
 40
5.125511770853997
 49
3.41736068378616
 74
     0
 49
-0.5693836956892792
 74
     0
 49
0.5693836956892792
 74
     0
 49
-0.5693836956892792
 74
     0
  0
LTYPE
  5
13FE3
330
5
100
AcDbSymbolTableRecord
100
AcDbLinetypeTableRecord
  2
AI-Linetype-28
 70
     0
  3
Adobe Illustrator Linetype No. 28
 72
    65
 73
     4
 40
5.125511770853997
 49
3.41736068378616
 74
     0
 49
-0.5693836956892792
 74
     0
 49
0.5693836956892792
 74
     0
 49
-0.5693836956892792
 74
     0
  0
LTYPE
  5
13FE4
330
5
100
AcDbSymbolTableRecord
100
AcDbLinetypeTableRecord
  2
AI-Linetype-29
 70
     0
  3
Adobe Illustrator Linetype No. 29
 72
    65
 73
     4
 40
5.125511770853997
 49
3.41736068378616
 74
     0
 49
-0.5693836956892792
 74
     0
 49
0.5693836956892792
 74
     0
 49
-0.5693836956892792
 74
     0
  0
LTYPE
  5
13FE5
330
5
100
AcDbSymbolTableRecord
100
AcDbLinetypeTableRecord
  2
AI-Linetype-30
 70
     0
  3
Adobe Illustrator Linetype No. 30
 72
    65
 73
     4
 40
5.125511770853997
 49
3.41736068378616
 74
     0
 49
-0.5693836956892792
 74
     0
 49
0.5693836956892792
 74
     0
 49
-0.5693836956892792
 74
     0
  0
LTYPE
  5
13FE6
330
5
100
AcDbSymbolTableRecord
100
AcDbLinetypeTableRecord
  2
AI-Linetype-31
 70
     0
  3
Adobe Illustrator Linetype No. 31
 72
    65
 73
     4
 40
5.125511770853997
 49
3.41736068378616
 74
     0
 49
-0.5693836956892792
 74
     0
 49
0.5693836956892792
 74
     0
 49
-0.5693836956892792
 74
     0
  0
LTYPE
  5
13FE7
330
5
100
AcDbSymbolTableRecord
100
AcDbLinetypeTableRecord
  2
AI-Linetype-32
 70
     0
  3
Adobe Illustrator Linetype No. 32
 72
    65
 73
     4
 40
5.125511770853997
 49
3.41736068378616
 74
     0
 49
-0.5693836956892792
 74
     0
 49
0.5693836956892792
 74
     0
 49
-0.5693836956892792
 74
     0
  0
LTYPE
  5
13FE8
330
5
100
AcDbSymbolTableRecord
100
AcDbLinetypeTableRecord
  2
AI-Linetype-33
 70
     0
  3
Adobe Illustrator Linetype No. 33
 72
    65
 73
     4
 40
3.527780104152768
 49
2.469446072906936
 74
     0
 49
-0.3527780104152769
 74
     0
 49
0.3527780104152769
 74
     0
 49
-0.3527780104152769
 74
     0
  0
LTYPE
  5
13FE9
330
5
100
AcDbSymbolTableRecord
100
AcDbLinetypeTableRecord
  2
AI-Linetype-34
 70
     0
  3
Adobe Illustrator Linetype No. 34
 72
    65
 73
     4
 40
5.125511770853997
 49
3.41736068378616
 74
     0
 49
-0.5693836956892792
 74
     0
 49
0.5693836956892792
 74
     0
 49
-0.5693836956892792
 74
     0
  0
LTYPE
  5
13FEA
330
5
100
AcDbSymbolTableRecord
100
AcDbLinetypeTableRecord
  2
AI-Linetype-35
 70
     0
  3
Adobe Illustrator Linetype No. 35
 72
    65
 73
     4
 40
3.527780104152768
 49
2.469446072906936
 74
     0
 49
-0.3527780104152769
 74
     0
 49
0.3527780104152769
 74
     0
 49
-0.3527780104152769
 74
     0
  0
LTYPE
  5
13FEB
330
5
100
AcDbSymbolTableRecord
100
AcDbLinetypeTableRecord
  2
AI-Linetype-36
 70
     0
  3
Adobe Illustrator Linetype No. 36
 72
    65
 73
     4
 40
5.125511770853997
 49
3.41736068378616
 74
     0
 49
-0.5693836956892792
 74
     0
 49
0.5693836956892792
 74
     0
 49
-0.5693836956892792
 74
     0
  0
LTYPE
  5
13FEC
330
5
100
AcDbSymbolTableRecord
100
AcDbLinetypeTableRecord
  2
AI-Linetype-37
 70
     0
  3
Adobe Illustrator Linetype No. 37
 72
    65
 73
     4
 40
9.112961823429763
 49
5.695601139643602
 74
     0
 49
-1.13912022792872
 74
     0
 49
1.13912022792872
 74
     0
 49
-1.13912022792872
 74
     0
  0
LTYPE
  5
13FED
330
5
100
AcDbSymbolTableRecord
100
AcDbLinetypeTableRecord
  2
AI-Linetype-38
 70
     0
  3
Adobe Illustrator Linetype No. 38
 72
    65
 73
     4
 40
9.112961823429763
 49
5.695601139643602
 74
     0
 49
-1.13912022792872
 74
     0
 49
1.13912022792872
 74
     0
 49
-1.13912022792872
 74
     0
  0
LTYPE
  5
13FEE
330
5
100
AcDbSymbolTableRecord
100
AcDbLinetypeTableRecord
  2
AI-Linetype-39
 70
     0
  3
Adobe Illustrator Linetype No. 39
 72
    65
 73
     4
 40
3.527780104152768
 49
2.469446072906936
 74
     0
 49
-0.3527780104152769
 74
     0
 49
0.3527780104152769
 74
     0
 49
-0.3527780104152769
 74
     0
  0
LTYPE
  5
13FEF
330
5
100
AcDbSymbolTableRecord
100
AcDbLinetypeTableRecord
  2
AI-Linetype-40
 70
     0
  3
Adobe Illustrator Linetype No. 40
 72
    65
 73
     4
 40
9.112961823429763
 49
5.695601139643602
 74
     0
 49
-1.13912022792872
 74
     0
 49
1.13912022792872
 74
     0
 49
-1.13912022792872
 74
     0
  0
LTYPE
  5
13FF0
330
5
100
AcDbSymbolTableRecord
100
AcDbLinetypeTableRecord
  2
AI-Linetype-41
 70
     0
  3
Adobe Illustrator Linetype No. 41
 72
    65
 73
     4
 40
9.112961823429763
 49
5.695601139643602
 74
     0
 49
-1.13912022792872
 74
     0
 49
1.13912022792872
 74
     0
 49
-1.13912022792872
 74
     0
  0
LTYPE
  5
13FF1
330
5
100
AcDbSymbolTableRecord
100
AcDbLinetypeTableRecord
  2
AI-Linetype-42
 70
     0
  3
Adobe Illustrator Linetype No. 42
 72
    65
 73
     4
 40
9.112961823429763
 49
5.695601139643602
 74
     0
 49
-1.13912022792872
 74
     0
 49
1.13912022792872
 74
     0
 49
-1.13912022792872
 74
     0
  0
LTYPE
  5
13FF2
330
5
100
AcDbSymbolTableRecord
100
AcDbLinetypeTableRecord
  2
AI-Linetype-43
 70
     0
  3
Adobe Illustrator Linetype No. 43
 72
    65
 73
     4
 40
9.112961823429763
 49
5.695601139643602
 74
     0
 49
-1.13912022792872
 74
     0
 49
1.13912022792872
 74
     0
 49
-1.13912022792872
 74
     0
  0
LTYPE
  5
13FF3
330
5
100
AcDbSymbolTableRecord
100
AcDbLinetypeTableRecord
  2
AI-Linetype-44
 70
     0
  3
Adobe Illustrator Linetype No. 44
 72
    65
 73
     4
 40
9.112961823429763
 49
5.695601139643602
 74
     0
 49
-1.13912022792872
 74
     0
 49
1.13912022792872
 74
     0
 49
-1.13912022792872
 74
     0
  0
LTYPE
  5
13FFC
330
5
100
AcDbSymbolTableRecord
100
AcDbLinetypeTableRecord
  2
AI-Linetype-53
 70
     0
  3
Adobe Illustrator Linetype No. 53
 72
    65
 73
     4
 40
3.527780104152768
 49
2.469446072906936
 74
     0
 49
-0.3527780104152769
 74
     0
 49
0.3527780104152769
 74
     0
 49
-0.3527780104152769
 74
     0
  0
LTYPE
  5
13FFD
330
5
100
AcDbSymbolTableRecord
100
AcDbLinetypeTableRecord
  2
AI-Linetype-54
 70
     0
  3
Adobe Illustrator Linetype No. 54
 72
    65
 73
     4
 40
3.527780104152768
 49
2.469446072906936
 74
     0
 49
-0.3527780104152769
 74
     0
 49
0.3527780104152769
 74
     0
 49
-0.3527780104152769
 74
     0
  0
LTYPE
  5
14004
330
5
100
AcDbSymbolTableRecord
100
AcDbLinetypeTableRecord
  2
AI-Linetype-61
 70
     0
  3
Adobe Illustrator Linetype No. 61
 72
    65
 73
     4
 40
9.112961823429763
 49
5.695601139643602
 74
     0
 49
-1.13912022792872
 74
     0
 49
1.13912022792872
 74
     0
 49
-1.13912022792872
 74
     0
  0
LTYPE
  5
14005
330
5
100
AcDbSymbolTableRecord
100
AcDbLinetypeTableRecord
  2
AI-Linetype-62
 70
     0
  3
Adobe Illustrator Linetype No. 62
 72
    65
 73
     4
 40
9.112961823429763
 49
5.695601139643602
 74
     0
 49
-1.13912022792872
 74
     0
 49
1.13912022792872
 74
     0
 49
-1.13912022792872
 74
     0
  0
LTYPE
  5
353AA
330
5
100
AcDbSymbolTableRecord
100
AcDbLinetypeTableRecord
  2
AI-Linetype-63
 70
     0
  3
Adobe Illustrator Linetype No. 63
 72
    65
 73
     4
 40
6.205012504593041
 49
4.137027811575912
 74
     0
 49
-0.68932823100571
 74
     0
 49
0.68932823100571
 74
     0
 49
-0.68932823100571
 74
     0
  0
LTYPE
  5
353AC
330
5
100
AcDbSymbolTableRecord
100
AcDbLinetypeTableRecord
  2
AI-Linetype-65
 70
     0
  3
Adobe Illustrator Linetype No. 65
 72
    65
 73
     4
 40
6.205012504593041
 49
4.137027811575912
 74
     0
 49
-0.68932823100571
 74
     0
 49
0.68932823100571
 74
     0
 49
-0.68932823100571
 74
     0
  0
LTYPE
  5
353AD
330
5
100
AcDbSymbolTableRecord
100
AcDbLinetypeTableRecord
  2
AI-Linetype-66
 70
     0
  3
Adobe Illustrator Linetype No. 66
 72
    65
 73
     4
 40
6.205012504593041
 49
4.137027811575912
 74
     0
 49
-0.68932823100571
 74
     0
 49
0.68932823100571
 74
     0
 49
-0.68932823100571
 74
     0
  0
LTYPE
  5
353B8
330
5
100
AcDbSymbolTableRecord
100
AcDbLinetypeTableRecord
  2
AI-Linetype-77
 70
     0
  3
Adobe Illustrator Linetype No. 77
 72
    65
 73
     4
 40
6.205012504593041
 49
4.137027811575912
 74
     0
 49
-0.68932823100571
 74
     0
 49
0.68932823100571
 74
     0
 49
-0.68932823100571
 74
     0
  0
LTYPE
  5
353C0
330
5
100
AcDbSymbolTableRecord
100
AcDbLinetypeTableRecord
  2
AI-Linetype-85
 70
     0
  3
Adobe Illustrator Linetype No. 85
 72
    65
 73
     4
 40
6.205012504593041
 49
4.137027811575912
 74
     0
 49
-0.68932823100571
 74
     0
 49
0.68932823100571
 74
     0
 49
-0.68932823100571
 74
     0
  0
LTYPE
  5
353C1
330
5
100
AcDbSymbolTableRecord
100
AcDbLinetypeTableRecord
  2
AI-Linetype-86
 70
     0
  3
Adobe Illustrator Linetype No. 86
 72
    65
 73
     4
 40
6.205012504593041
 49
4.137027811575912
 74
     0
 49
-0.68932823100571
 74
     0
 49
0.68932823100571
 74
     0
 49
-0.68932823100571
 74
     0
  0
LTYPE
  5
39F8F
330
5
100
AcDbSymbolTableRecord
100
AcDbLinetypeTableRecord
  2
AI-Linetype-87
 70
     0
  3
Adobe Illustrator Linetype No. 87
 72
    65
 73
     4
 40
1.229431318775749
 49
0.8198560544871227
 74
     0
 49
-0.136525088096209
 74
     0
 49
0.136525088096209
 74
     0
 49
-0.136525088096209
 74
     0
  0
LTYPE
  5
39F90
330
5
100
AcDbSymbolTableRecord
100
AcDbLinetypeTableRecord
  2
AI-Linetype-88
 70
     0
  3
Adobe Illustrator Linetype No. 88
 72
    65
 73
     4
 40
6.14997900241274
 49
4.099985945535936
 74
     0
 49
-0.6833310189589338
 74
     0
 49
0.6833310189589338
 74
     0
 49
-0.6833310189589338
 74
     0
  0
LTYPE
  5
39F91
330
5
100
AcDbSymbolTableRecord
100
AcDbLinetypeTableRecord
  2
AI-Linetype-89
 70
     0
  3
Adobe Illustrator Linetype No. 89
 72
    65
 73
     4
 40
6.14997900241274
 49
4.099985945535936
 74
     0
 49
-0.6833310189589338
 74
     0
 49
0.6833310189589338
 74
     0
 49
-0.6833310189589338
 74
     0
  0
LTYPE
  5
3CF67
330
5
100
AcDbSymbolTableRecord
100
AcDbLinetypeTableRecord
  2
AI-Linetype-102
 70
     0
  3
Adobe Illustrator Linetype No. 102
 72
    65
 73
     4
 40
4.962880909892148
 49
3.308704857408542
 74
     0
 49
-0.5513920174945354
 74
     0
 49
0.5513920174945354
 74
     0
 49
-0.5513920174945354
 74
     0
  0
LTYPE
  5
3CF6A
330
5
100
AcDbSymbolTableRecord
100
AcDbLinetypeTableRecord
  2
AI-Linetype-105
 70
     0
  3
Adobe Illustrator Linetype No. 105
 72
    65
 73
     4
 40
4.962880909892148
 49
3.308704857408542
 74
     0
 49
-0.5513920174945354
 74
     0
 49
0.5513920174945354
 74
     0
 49
-0.5513920174945354
 74
     0
  0
LTYPE
  5
3CF6D
330
5
100
AcDbSymbolTableRecord
100
AcDbLinetypeTableRecord
  2
AI-Linetype-108
 70
     0
  3
Adobe Illustrator Linetype No. 108
 72
    65
 73
     4
 40
4.962880909892148
 49
3.308704857408542
 74
     0
 49
-0.5513920174945354
 74
     0
 49
0.5513920174945354
 74
     0
 49
-0.5513920174945354
 74
     0
  0
LTYPE
  5
3CF6F
330
5
100
AcDbSymbolTableRecord
100
AcDbLinetypeTableRecord
  2
AI-Linetype-110
 70
     0
  3
Adobe Illustrator Linetype No. 110
 72
    65
 73
     4
 40
4.962880909892148
 49
3.308704857408542
 74
     0
 49
-0.5513920174945354
 74
     0
 49
0.5513920174945354
 74
     0
 49
-0.5513920174945354
 74
     0
  0
LTYPE
  5
3CF71
330
5
100
AcDbSymbolTableRecord
100
AcDbLinetypeTableRecord
  2
AI-Linetype-112
 70
     0
  3
Adobe Illustrator Linetype No. 112
 72
    65
 73
     4
 40
4.962880909892148
 49
3.308704857408542
 74
     0
 49
-0.5513920174945354
 74
     0
 49
0.5513920174945354
 74
     0
 49
-0.5513920174945354
 74
     0
  0
ENDTAB
  0
TABLE
  2
LAYER
  5
2
102
{ACAD_XDICTIONARY
360
156
102
}
330
0
100
AcDbSymbolTable
 70
    22
  0
LAYER
  5
25
330
2
100
AcDbSymbolTableRecord
100
AcDbLayerTableRecord
  2
0
 70
     0
 62
     7
  6
Continuous
370
    -3
390
F
  0
LAYER
  5
80
330
2
100
AcDbSymbolTableRecord
100
AcDbLayerTableRecord
  2
Defpoints
 70
     0
 62
     7
  6
Continuous
290
     0
370
    -3
390
F
  0
LAYER
  5
12B
330
2
100
AcDbSymbolTableRecord
100
AcDbLayerTableRecord
  2
AM_0
 70
     0
 62
     7
  6
中線
370
    30
390
F
1001
AcAecLayerStandard
1000

1000

  0
LAYER
  5
135
102
{ACAD_XDICTIONARY
360
136
102
}
330
2
100
AcDbSymbolTableRecord
100
AcDbLayerTableRecord
  2
size
 70
     0
 62
     5
  6
Continuous
370
    30
390
F
  0
LAYER
  5
138
102
{ACAD_XDICTIONARY
360
139
102
}
330
2
100
AcDbSymbolTableRecord
100
AcDbLayerTableRecord
  2
waku
 70
     0
 62
     7
  6
Continuous
370
    40
390
F
  0
LAYER
  5
13B
102
{ACAD_XDICTIONARY
360
13C
102
}
330
2
100
AcDbSymbolTableRecord
100
AcDbLayerTableRecord
  2
AM_6
 70
     0
 62
     2
  6
文字
370
    15
390
F
  0
LAYER
  5
13E
102
{ACAD_XDICTIONARY
360
13F
102
}
330
2
100
AcDbSymbolTableRecord
100
AcDbLayerTableRecord
  2
hyomoji
 70
     0
 62
     2
  6
Continuous
370
    13
390
F
  0
LAYER
  5
141
102
{ACAD_XDICTIONARY
360
142
102
}
330
2
100
AcDbSymbolTableRecord
100
AcDbLayerTableRecord
  2
hyosen1
 70
     0
 62
     1
  6
Continuous
370
    25
390
F
  0
LAYER
  5
144
102
{ACAD_XDICTIONARY
360
145
102
}
330
2
100
AcDbSymbolTableRecord
100
AcDbLayerTableRecord
  2
hyosen2
 70
     0
 62
     1
  6
Continuous
370
    15
390
F
  0
LAYER
  5
147
102
{ACAD_XDICTIONARY
360
148
102
}
330
2
100
AcDbSymbolTableRecord
100
AcDbLayerTableRecord
  2
AM_2
 70
     0
 62
     1
  6
細線
370
    15
390
F
1001
AcAecLayerStandard
1000

1000

  0
LAYER
  5
14A
102
{ACAD_XDICTIONARY
360
14B
102
}
330
2
100
AcDbSymbolTableRecord
100
AcDbLayerTableRecord
  2
AM_CL
 70
     0
 62
     1
  6
Amconstr
370
    15
390
F
1001
AcAecLayerStandard
1000

1000

  0
LAYER
  5
193
102
{ACAD_XDICTIONARY
360
194
102
}
330
2
100
AcDbSymbolTableRecord
100
AcDbLayerTableRecord
  2
AM_3
 70
     0
 62
     6
  6
陰線1
370
    15
390
F
1001
AcAecLayerStandard
1000

1000

  0
LAYER
  5
196
102
{ACAD_XDICTIONARY
360
197
102
}
330
2
100
AcDbSymbolTableRecord
100
AcDbLayerTableRecord
  2
AM_5
 70
     0
 62
     3
  6
寸法線
370
    15
390
F
1001
AcAecLayerStandard
1000

1000

  0
LAYER
  5
199
102
{ACAD_XDICTIONARY
360
19A
102
}
330
2
100
AcDbSymbolTableRecord
100
AcDbLayerTableRecord
  2
AM_7
 70
     0
 62
     4
  6
中心線1
370
    15
390
F
1001
AcAecLayerStandard
1000

1000

  0
LAYER
  5
19C
102
{ACAD_XDICTIONARY
360
19D
102
}
330
2
100
AcDbSymbolTableRecord
100
AcDbLayerTableRecord
  2
AM_8
 70
     0
 62
     1
  6
ハッチング
370
    15
390
F
1001
AcAecLayerStandard
1000

1000

  0
LAYER
  5
1A2
102
{ACAD_XDICTIONARY
360
1A3
102
}
330
2
100
AcDbSymbolTableRecord
100
AcDbLayerTableRecord
  2
AM_11
 70
     0
 62
     2
  6
想像線1
370
    15
390
F
1001
AcAecLayerStandard
1000

1000

  0
LAYER
  5
253
330
2
100
AcDbSymbolTableRecord
100
AcDbLayerTableRecord
  2
AM_4
 70
     0
 62
     3
  6
補助線
370
    15
390
F
  0
LAYER
  5
254
330
2
100
AcDbSymbolTableRecord
100
AcDbLayerTableRecord
  2
レイヤー 1
 70
     0
 62
     7
  6
Continuous
370
    -3
390
F
  0
ENDTAB
  0
TABLE
  2
STYLE
  5
3
330
0
100
AcDbSymbolTable
 70
    11
  0
STYLE
  5
26
330
3
100
AcDbSymbolTableRecord
100
AcDbTextStyleTableRecord
  2
STANDARD
 70
     0
 40
0.0
 41
0.7
 50
0.0
 71
     0
 42
3.2
  3
romans.shx
  4
extfont.shx
  0
STYLE
  5
C0
330
3
100
AcDbSymbolTableRecord
100
AcDbTextStyleTableRecord
  2

 70
     1
 40
0.0
 41
1.0
 50
0.0
 71
     0
 42
2.5
  3
ltypeshp.shx
  4

  0
STYLE
  5
CD
330
3
100
AcDbSymbolTableRecord
100
AcDbTextStyleTableRecord
  2
ACISOGDT
 70
     0
 40
0.0
 41
1.0
 50
0.0
 71
     0
 42
2.5
  3
amgdt.shx
  4

  0
STYLE
  5
D6
330
3
100
AcDbSymbolTableRecord
100
AcDbTextStyleTableRecord
  2
ACISOTS
 70
     0
 40
1.0
 41
1.0
 50
0.0
 71
     0
 42
2.5
  3
isocp.shx
  4
extfont.shx
  0
STYLE
  5
12A
330
3
100
AcDbSymbolTableRecord
100
AcDbTextStyleTableRecord
  2
DIM
 70
     0
 40
0.0
 41
1.0
 50
0.0
 71
     0
 42
2.5
  3
monotxt.shx
  4
extfont.shx
  0
STYLE
  5
1AB
330
3
100
AcDbSymbolTableRecord
100
AcDbTextStyleTableRecord
  2

 70
     1
 40
0.0
 41
1.0
 50
0.0
 71
     0
 42
3.2
  3
genltshp.shx
  4

  0
ENDTAB
  0
TABLE
  2
VIEW
  5
6
330
0
100
AcDbSymbolTable
 70
     6
  0
VIEW
  5
231
330
6
100
AcDbSymbolTableRecord
100
AcDbViewTableRecord
  2
AM_VIEW1
 70
     0
 40
525.0
 10
-2364.404671098412
 20
245.737450157787
 41
995.2727272727273
 11
0.0
 21
0.0
 31
1.0
 12
0.0
 22
0.0
 32
0.0
 42
50.0
 43
0.0
 44
0.0
 50
0.0
 71
     0
281
     0
 72
     0
  0
VIEW
  5
232
330
6
100
AcDbSymbolTableRecord
100
AcDbViewTableRecord
  2
AM_VIEW2
 70
     0
 40
525.0
 10
-1874.677398371139
 20
245.737450157787
 41
995.2727272727273
 11
0.0
 21
0.0
 31
1.0
 12
0.0
 22
0.0
 32
0.0
 42
50.0
 43
0.0
 44
0.0
 50
0.0
 71
     0
281
     0
 72
     0
  0
VIEW
  5
233
330
6
100
AcDbSymbolTableRecord
100
AcDbViewTableRecord
  2
AM_VIEW3
 70
     0
 40
525.0
 10
-2364.404671098412
 20
-279.262549842213
 41
995.2727272727273
 11
0.0
 21
0.0
 31
1.0
 12
0.0
 22
0.0
 32
0.0
 42
50.0
 43
0.0
 44
0.0
 50
0.0
 71
     0
281
     0
 72
     0
  0
VIEW
  5
234
330
6
100
AcDbSymbolTableRecord
100
AcDbViewTableRecord
  2
AM_VIEW4
 70
     0
 40
525.0
 10
-1874.677398371139
 20
-279.262549842213
 41
995.2727272727273
 11
0.0
 21
0.0
 31
1.0
 12
0.0
 22
0.0
 32
0.0
 42
50.0
 43
0.0
 44
0.0
 50
0.0
 71
     0
281
     0
 72
     0
  0
VIEW
  5
235
330
6
100
AcDbSymbolTableRecord
100
AcDbViewTableRecord
  2
AM_VIEW5
 70
     0
 40
525.0
 10
-2119.541034734776
 20
-16.76254984221305
 41
995.2727272727273
 11
0.0
 21
0.0
 31
1.0
 12
0.0
 22
0.0
 32
0.0
 42
50.0
 43
0.0
 44
0.0
 50
0.0
 71
     0
281
     0
 72
     0
  0
VIEW
  5
236
330
6
100
AcDbSymbolTableRecord
100
AcDbViewTableRecord
  2
AM_VIEW6
 70
     0
 40
1049.9895
 10
-2119.541034734776
 20
-16.76254984221305
 41
1990.525549090909
 11
0.0
 21
0.0
 31
1.0
 12
0.0
 22
0.0
 32
0.0
 42
50.0
 43
0.0
 44
0.0
 50
0.0
 71
     0
281
     0
 72
     0
  0
ENDTAB
  0
TABLE
  2
UCS
  5
7
330
0
100
AcDbSymbolTable
 70
     0
  0
ENDTAB
  0
TABLE
  2
APPID
  5
9
330
0
100
AcDbSymbolTable
 70
    61
  0
APPID
  5
27
330
9
100
AcDbSymbolTableRecord
100
AcDbRegAppTableRecord
  2
ACAD
 70
     0
  0
APPID
  5
43
330
9
100
AcDbSymbolTableRecord
100
AcDbRegAppTableRecord
  2
MCAD_NO_VIS
 70
     0
  0
APPID
  5
44
330
9
100
AcDbSymbolTableRecord
100
AcDbRegAppTableRecord
  2
ACAD_TEMP_GRAPHIC
 70
     0
  0
APPID
  5
76
330
9
100
AcDbSymbolTableRecord
100
AcDbRegAppTableRecord
  2
AD_DRAW
 70
     0
  0
APPID
  5
79
330
9
100
AcDbSymbolTableRecord
100
AcDbRegAppTableRecord
  2
ACATTRIBSERVICES
 70
     0
  0
APPID
  5
81
330
9
100
AcDbSymbolTableRecord
100
AcDbRegAppTableRecord
  2
GENIUS_GENDIMSH_14
 70
     0
  0
APPID
  5
82
330
9
100
AcDbSymbolTableRecord
100
AcDbRegAppTableRecord
  2
GENIUS_GENREC_14
 70
     0
  0
APPID
  5
83
330
9
100
AcDbSymbolTableRecord
100
AcDbRegAppTableRecord
  2
GENIUS_GENOBJ-N-REC_13
 70
     0
  0
APPID
  5
84
330
9
100
AcDbSymbolTableRecord
100
AcDbRegAppTableRecord
  2
GENIUS_GENODEF_13
 70
     0
  0
APPID
  5
85
330
9
100
AcDbSymbolTableRecord
100
AcDbRegAppTableRecord
  2
DCO15
 70
     0
  0
APPID
  5
86
330
9
100
AcDbSymbolTableRecord
100
AcDbRegAppTableRecord
  2
GENIUS_GENOLIS_13
 70
     0
  0
APPID
  5
87
330
9
100
AcDbSymbolTableRecord
100
AcDbRegAppTableRecord
  2
GENIUS_GENOENT_13
 70
     0
  0
APPID
  5
88
330
9
100
AcDbSymbolTableRecord
100
AcDbRegAppTableRecord
  2
GENIUS_GENOBJ-N-TIT_13
 70
     0
  0
APPID
  5
89
330
9
100
AcDbSymbolTableRecord
100
AcDbRegAppTableRecord
  2
GENIUS_GENTITLE_13
 70
     0
  0
APPID
  5
8A
330
9
100
AcDbSymbolTableRecord
100
AcDbRegAppTableRecord
  2
GENIUS_GENOREF_13
 70
     0
  0
APPID
  5
8B
330
9
100
AcDbSymbolTableRecord
100
AcDbRegAppTableRecord
  2
GENIUS_GENSCREG_15
 70
     0
  0
APPID
  5
8C
330
9
100
AcDbSymbolTableRecord
100
AcDbRegAppTableRecord
  2
GENIUS_GENOBJ-N-SDF_13
 70
     0
  0
APPID
  5
8D
330
9
100
AcDbSymbolTableRecord
100
AcDbRegAppTableRecord
  2
GENIUS_GENBLLY_14
 70
     0
  0
APPID
  5
8E
330
9
100
AcDbSymbolTableRecord
100
AcDbRegAppTableRecord
  2
GENIUS_GENTRA_14
 70
     0
  0
APPID
  5
8F
330
9
100
AcDbSymbolTableRecord
100
AcDbRegAppTableRecord
  2
GENIUS_GENDTOL_13
 70
     0
  0
APPID
  5
90
330
9
100
AcDbSymbolTableRecord
100
AcDbRegAppTableRecord
  2
GENIUS_GENOBJ-N-CEN_13
 70
     0
  0
APPID
  5
91
330
9
100
AcDbSymbolTableRecord
100
AcDbRegAppTableRecord
  2
GENIUS_GENOBJ-N-CRS_13
 70
     0
  0
APPID
  5
92
330
9
100
AcDbSymbolTableRecord
100
AcDbRegAppTableRecord
  2
GENIUS_GENOBJ-N-HTC_13
 70
     0
  0
APPID
  5
93
330
9
100
AcDbSymbolTableRecord
100
AcDbRegAppTableRecord
  2
GENIUS_GENHATCH_13
 70
     0
  0
APPID
  5
94
330
9
100
AcDbSymbolTableRecord
100
AcDbRegAppTableRecord
  2
GENIUS_GENOBJ-N-FIL_13
 70
     0
  0
APPID
  5
95
330
9
100
AcDbSymbolTableRecord
100
AcDbRegAppTableRecord
  2
GEVID990412420
 70
     0
  0
APPID
  5
96
330
9
100
AcDbSymbolTableRecord
100
AcDbRegAppTableRecord
  2
GEVDC
 70
     0
  0
APPID
  5
97
330
9
100
AcDbSymbolTableRecord
100
AcDbRegAppTableRecord
  2
GEVCON
 70
     0
  0
APPID
  5
98
330
9
100
AcDbSymbolTableRecord
100
AcDbRegAppTableRecord
  2
GEVRADREF
 70
     0
  0
APPID
  5
99
330
9
100
AcDbSymbolTableRecord
100
AcDbRegAppTableRecord
  2
GENIUS_GENBH_13
 70
     0
  0
APPID
  5
9A
330
9
100
AcDbSymbolTableRecord
100
AcDbRegAppTableRecord
  2
GENIUS_GENOBJ-NBEHI-BHF_13
 70
     0
  0
APPID
  5
9B
330
9
100
AcDbSymbolTableRecord
100
AcDbRegAppTableRecord
  2
GENIUS_GENOBJ-NBEHI-BHB_13
 70
     0
  0
APPID
  5
9C
330
9
100
AcDbSymbolTableRecord
100
AcDbRegAppTableRecord
  2
GENIUS_GENOBJ-F-SCPASSM_13
 70
     0
  0
APPID
  5
9D
330
9
100
AcDbSymbolTableRecord
100
AcDbRegAppTableRecord
  2
GENIUS_GENDIM_13
 70
     0
  0
APPID
  5
9E
330
9
100
AcDbSymbolTableRecord
100
AcDbRegAppTableRecord
  2
GENIUS_GE3DTOL_13
 70
     0
  0
APPID
  5
9F
330
9
100
AcDbSymbolTableRecord
100
AcDbRegAppTableRecord
  2
ASURF_PCURVE_APPNAME
 70
     0
  0
APPID
  5
A0
330
9
100
AcDbSymbolTableRecord
100
AcDbRegAppTableRecord
  2
AMG_3D2D_5.0
 70
     0
  0
APPID
  5
A1
330
9
100
AcDbSymbolTableRecord
100
AcDbRegAppTableRecord
  2
DESIGNERASSEMBLIES
 70
     0
  0
APPID
  5
A2
330
9
100
AcDbSymbolTableRecord
100
AcDbRegAppTableRecord
  2
ACADM_DIM_EDIT
 70
     0
  0
APPID
  5
A3
330
9
100
AcDbSymbolTableRecord
100
AcDbRegAppTableRecord
  2
AMDT_DM_ADJ
 70
     0
  0
APPID
  5
A4
330
9
100
AcDbSymbolTableRecord
100
AcDbRegAppTableRecord
  2
GENIUS_GENFIL_13
 70
     0
  0
APPID
  5
A5
330
9
100
AcDbSymbolTableRecord
100
AcDbRegAppTableRecord
  2
GENIUS_GENOBJ-N-CHA_13
 70
     0
  0
APPID
  5
A6
330
9
100
AcDbSymbolTableRecord
100
AcDbRegAppTableRecord
  2
GEVID1008153417
 70
     0
  0
APPID
  5
A7
330
9
100
AcDbSymbolTableRecord
100
AcDbRegAppTableRecord
  2
GEVID1008153418
 70
     0
  0
APPID
  5
A8
330
9
100
AcDbSymbolTableRecord
100
AcDbRegAppTableRecord
  2
GEVID1008153419
 70
     0
  0
APPID
  5
A9
330
9
100
AcDbSymbolTableRecord
100
AcDbRegAppTableRecord
  2
GEVID1008153420
 70
     0
  0
APPID
  5
AA
330
9
100
AcDbSymbolTableRecord
100
AcDbRegAppTableRecord
  2
GEVID1008153421
 70
     0
  0
APPID
  5
AB
330
9
100
AcDbSymbolTableRecord
100
AcDbRegAppTableRecord
  2
GENIUS_AMGTXT_16
 70
     0
  0
APPID
  5
AC
330
9
100
AcDbSymbolTableRecord
100
AcDbRegAppTableRecord
  2
GENIUS_GENOBJ-N-DIM_13
 70
     0
  0
APPID
  5
AD
330
9
100
AcDbSymbolTableRecord
100
AcDbRegAppTableRecord
  2
ACAD_DSTYLE_DIMARC_LENGTH_SYMBOL
 70
     0
  0
APPID
  5
AE
330
9
100
AcDbSymbolTableRecord
100
AcDbRegAppTableRecord
  2
ACAD_DSTYLE_DIMJOGGED_JOGANGLE_SYMBOL
 70
     0
  0
APPID
  5
AF
330
9
100
AcDbSymbolTableRecord
100
AcDbRegAppTableRecord
  2
ACAD_PSEXT
 70
     0
  0
APPID
  5
B0
330
9
100
AcDbSymbolTableRecord
100
AcDbRegAppTableRecord
  2
AcAecLayerStandard
 70
     0
  0
APPID
  5
B1
330
9
100
AcDbSymbolTableRecord
100
AcDbRegAppTableRecord
  2
ACAD_EXEMPT_FROM_CAD_STANDARDS
 70
     0
  0
APPID
  5
B2
330
9
100
AcDbSymbolTableRecord
100
AcDbRegAppTableRecord
  2
GENIUS_GENCEN_19
 70
     0
  0
APPID
  5
155
330
9
100
AcDbSymbolTableRecord
100
AcDbRegAppTableRecord
  2
ACAD_MLEADERVER
 70
     0
  0
APPID
  5
1AC
330
9
100
AcDbSymbolTableRecord
100
AcDbRegAppTableRecord
  2
ACAUTHENVIRON
 70
     0
  0
APPID
  5
1AD
330
9
100
AcDbSymbolTableRecord
100
AcDbRegAppTableRecord
  2
AcDbDynamicBlockTrueName
 70
     0
  0
APPID
  5
1AE
330
9
100
AcDbSymbolTableRecord
100
AcDbRegAppTableRecord
  2
AcDbDynamicBlockGUID
 70
     0
  0
APPID
  5
1AF
330
9
100
AcDbSymbolTableRecord
100
AcDbRegAppTableRecord
  2
ACDBBLOCKREPETAG
 70
     0
  0
APPID
  5
5F9D2
330
9
100
AcDbSymbolTableRecord
100
AcDbRegAppTableRecord
  2
AcDbAttr
 70
     0
  0
ENDTAB
  0
TABLE
  2
DIMSTYLE
  5
A
330
0
100
AcDbSymbolTable
 70
    24
100
AcDbDimStyleTable
 71
     1
340
E9
  0
DIMSTYLE
105
E9
330
A
100
AcDbSymbolTableRecord
100
AcDbDimStyleTableRecord
  2
SYS
 70
     0
  4
"
 41
1.0
 42
1.0
 43
10.0
 44
1.0
 47
0.1
 48
0.1
 73
     0
 74
     0
 77
     1
 78
     8
 79
     2
140
3.5
141
0.0
143
0.0393701
146
0.71
147
1.5
172
     1
176
   256
177
   256
178
     7
271
     2
272
     2
283
     0
284
     8
340
26
371
    -1
372
    -1
1001
ACAD_DSTYLE_DIMJOGGED_JOGANGLE_SYMBOL
1070
   384
1040
0.7853981633974483
1001
ACAD_DSTYLE_DIMARC_LENGTH_SYMBOL
1070
   379
1070
     1
  0
DIMSTYLE
105
EA
102
{ACAD_REACTORS
330
2559A
330
2559D
330
255A0
102
}
330
A
100
AcDbSymbolTableRecord
100
AcDbDimStyleTableRecord
  2
SYS$0
 70
     0
  4
"
 41
1.0
 42
1.0
 43
10.0
 44
1.0
 47
0.1
 48
0.1
 73
     0
 74
     0
 77
     1
 78
     8
 79
     2
140
3.200000000000001
141
0.0
143
0.0393701
146
0.71
147
1.5
172
     1
176
   256
177
   256
178
     2
271
     2
272
     2
283
     0
284
     8
340
26
341
EB
342
F1
371
    -1
372
    -1
1001
ACAD_DSTYLE_DIMJOGGED_JOGANGLE_SYMBOL
1070
   384
1040
0.7853981633974483
1001
ACAD_DSTYLE_DIMARC_LENGTH_SYMBOL
1070
   379
1070
     1
  0
DIMSTYLE
105
14D
330
A
100
AcDbSymbolTableRecord
100
AcDbDimStyleTableRecord
  2
STANDARD
 70
     0
 41
3.0
 42
1.0
 43
7.0
 44
2.0
 73
     0
 74
     0
 77
     1
140
2.799999999999998
141
0.0
143
0.0394
147
0.7
171
     4
172
     1
173
     1
176
     3
177
     3
178
     2
271
     3
272
     3
273
     8
274
     4
289
     0
340
12A
341
EB
343
EB
344
EB
  0
DIMSTYLE
105
14E
330
A
100
AcDbSymbolTableRecord
100
AcDbDimStyleTableRecord
  2
AM_ISO
 70
     0
  4
"
 41
2.5
 42
1.0
 43
10.0
 44
1.0
 47
0.1
 48
0.1
 73
     0
 74
     0
 77
     1
 78
     8
 79
     2
140
3.5
141
0.0
143
0.0393701
146
0.71
147
1.5
172
     1
176
   256
177
   256
178
     2
271
     2
272
     3
274
     4
283
     0
284
     8
340
26
371
    -1
372
    -1
  0
DIMSTYLE
105
14F
330
A
100
AcDbSymbolTableRecord
100
AcDbDimStyleTableRecord
  2
AM_ISO$3
 70
     0
  4
"
 41
2.5
 42
1.0
 43
10.0
 44
1.0
 47
0.1
 48
0.1
 73
     0
 77
     1
 78
     8
 79
     2
140
3.5
141
0.0
143
0.0393701
146
0.71
147
1.5
176
   256
177
   256
178
     2
271
     2
272
     3
274
     4
283
     0
284
     8
288
     1
289
     0
340
26
371
    -1
372
    -1
  0
DIMSTYLE
105
150
330
A
100
AcDbSymbolTableRecord
100
AcDbDimStyleTableRecord
  2
AM_ISO$4
 70
     0
  4
"
 41
2.5
 42
1.0
 43
10.0
 44
1.0
 47
0.1
 48
0.1
 73
     0
 77
     1
 78
     8
 79
     2
140
3.5
141
0.0
143
0.0393701
146
0.71
147
1.5
176
   256
177
   256
178
     2
271
     2
272
     3
274
     4
283
     0
284
     8
288
     1
289
     0
340
26
371
    -1
372
    -1
  0
DIMSTYLE
105
151
330
A
100
AcDbSymbolTableRecord
100
AcDbDimStyleTableRecord
  2
AM_ISO$6
 70
     0
  4
"
 41
2.5
 42
1.0
 43
10.0
 44
1.0
 47
0.1
 48
0.1
 73
     0
 74
     0
 78
     8
 79
     2
140
3.5
141
0.0
143
0.0393701
146
0.71
147
1.5
172
     1
176
   256
177
   256
178
     2
271
     2
272
     3
274
     4
283
     0
284
     8
340
26
371
    -1
372
    -1
  0
DIMSTYLE
105
152
330
A
100
AcDbSymbolTableRecord
100
AcDbDimStyleTableRecord
  2
AM_ISO$7
 70
     0
  4
"
 41
2.5
 42
1.0
 43
10.0
 44
1.0
 47
0.1
 48
0.1
 73
     0
 74
     0
 77
     1
 78
     8
 79
     2
140
5.0
141
0.0
143
0.0393701
146
0.71
147
1.5
172
     1
176
   256
177
   256
178
     2
271
     2
272
     3
274
     4
283
     0
284
     8
340
26
371
    -1
372
    -1
  0
DIMSTYLE
105
153
330
A
100
AcDbSymbolTableRecord
100
AcDbDimStyleTableRecord
  2
AM_ISO$SF
 70
     0
  4
"
 41
2.5
 42
1.0
 43
10.0
 44
1.0
 47
0.1
 48
0.1
 73
     0
 74
     0
 75
     1
 76
     1
 77
     1
 78
     8
 79
     2
140
3.5
141
0.0
143
0.0393701
146
0.71
147
1.5
172
     1
176
   256
177
   256
178
     2
271
     2
272
     3
274
     4
283
     0
284
     8
340
26
371
    -1
372
    -1
  0
DIMSTYLE
105
154
330
A
100
AcDbSymbolTableRecord
100
AcDbDimStyleTableRecord
  2
AM_ISO$SH
 70
     0
  4
"
 41
2.5
 42
1.0
 43
10.0
 44
1.0
 47
0.1
 48
0.1
 73
     0
 74
     0
 75
     1
 76
     1
 77
     1
 78
     8
 79
     2
140
3.5
141
0.0
143
0.0393701
144
2.0
146
0.71
147
1.5
172
     1
173
     1
176
   256
177
   256
178
     2
271
     2
272
     3
274
     4
283
     0
284
     8
340
26
343
FD
371
    -1
372
    -1
  0
DIMSTYLE
105
1400D
330
A
100
AcDbSymbolTableRecord
100
AcDbDimStyleTableRecord
  2
AM_ANSI
 70
     0
  4
mm
 41
0.1
 42
0.05
 43
0.5
 44
0.1
 47
0.1
 48
0.1
 78
     7
 79
     2
140
0.12
141
0.0
146
0.71
147
0.06
176
   256
177
   256
178
     2
274
     4
284
     7
340
26
371
    -1
372
    -1
1001
ACAD_DSTYLE_DIMARC_LENGTH_SYMBOL
1070
   379
1070
     1
  0
ENDTAB
  0
TABLE
  2
BLOCK_RECORD
  5
1
330
0
100
AcDbSymbolTable
 70
    49
  0
BLOCK_RECORD
  5
37
102
{ACAD_XDICTIONARY
360
D14B
102
}
330
1
100
AcDbSymbolTableRecord
100
AcDbBlockTableRecord
  2
*Model_Space
340
3A
  0
BLOCK_RECORD
  5
33
330
1
100
AcDbSymbolTableRecord
100
AcDbBlockTableRecord
  2
*Paper_Space
340
36
  0
BLOCK_RECORD
  5
3B
330
1
100
AcDbSymbolTableRecord
100
AcDbBlockTableRecord
  2
*Paper_Space0
340
3E
  0
BLOCK_RECORD
  5
EB
330
1
100
AcDbSymbolTableRecord
100
AcDbBlockTableRecord
  2
_OPEN30
340
0
  0
BLOCK_RECORD
  5
F1
330
1
100
AcDbSymbolTableRecord
100
AcDbBlockTableRecord
  2
_Dot
340
0
102
{BLKREFS
331
5FC7F
331
5FC80
331
5FC8A
331
5FC8B
331
5FC94
331
5FC95
102
}
  0
BLOCK_RECORD
  5
FD
330
1
100
AcDbSymbolTableRecord
100
AcDbBlockTableRecord
  2
GENAXEH
340
0
  0
BLOCK_RECORD
  5
255A1
330
1
100
AcDbSymbolTableRecord
100
AcDbBlockTableRecord
  2
*D13
340
0
  0
BLOCK_RECORD
  5
255AD
330
1
100
AcDbSymbolTableRecord
100
AcDbBlockTableRecord
  2
*D14
340
0
  0
BLOCK_RECORD
  5
255BB
330
1
100
AcDbSymbolTableRecord
100
AcDbBlockTableRecord
  2
*D15
340
0
  0
BLOCK_RECORD
  5
35374
330
1
100
AcDbSymbolTableRecord
100
AcDbBlockTableRecord
  2
block 3
340
0
102
{BLKREFS
331
35372
102
}
  0
BLOCK_RECORD
  5
35378
330
1
100
AcDbSymbolTableRecord
100
AcDbBlockTableRecord
  2
block 4
340
0
102
{BLKREFS
331
35376
102
}
  0
BLOCK_RECORD
  5
3537C
330
1
100
AcDbSymbolTableRecord
100
AcDbBlockTableRecord
  2
block 5
340
0
102
{BLKREFS
331
3537A
102
}
  0
BLOCK_RECORD
  5
3538A
330
1
100
AcDbSymbolTableRecord
100
AcDbBlockTableRecord
  2
block 11
340
0
102
{BLKREFS
331
41CC6
102
}
  0
BLOCK_RECORD
  5
3538E
330
1
100
AcDbSymbolTableRecord
100
AcDbBlockTableRecord
  2
block 12
340
0
102
{BLKREFS
331
3538C
102
}
  0
BLOCK_RECORD
  5
35392
330
1
100
AcDbSymbolTableRecord
100
AcDbBlockTableRecord
  2
block 13
340
0
102
{BLKREFS
331
35390
102
}
  0
BLOCK_RECORD
  5
35396
330
1
100
AcDbSymbolTableRecord
100
AcDbBlockTableRecord
  2
block 14
340
0
102
{BLKREFS
331
35394
102
}
  0
ENDTAB
  0
ENDSEC
  0
SECTION
  2
BLOCKS
  0
BLOCK
  5
38
330
37
100
AcDbEntity
  8
0
100
AcDbBlockBegin
  2
*Model_Space
 70
     0
 10
0.0
 20
0.0
 30
0.0
  3
*Model_Space
  1

  0
ENDBLK
  5
39
330
37
100
AcDbEntity
  8
0
100
AcDbBlockEnd
  0
BLOCK
  5
34
330
33
100
AcDbEntity
 67
     1
  8
0
100
AcDbBlockBegin
  2
*Paper_Space
 70
     0
 10
0.0
 20
0.0
 30
0.0
  3
*Paper_Space
  1

  0
ENDBLK
  5
35
330
33
100
AcDbEntity
 67
     1
  8
0
100
AcDbBlockEnd
  0
BLOCK
  5
3C
330
3B
100
AcDbEntity
 67
     1
  8
0
100
AcDbBlockBegin
  2
*Paper_Space0
 70
     0
 10
0.0
 20
0.0
 30
0.0
  3
*Paper_Space0
  1

  0
ENDBLK
  5
3D
330
3B
100
AcDbEntity
 67
     1
  8
0
100
AcDbBlockEnd
  0
BLOCK
  5
5FB3F
330
EB
100
AcDbEntity
  8
0
100
AcDbBlockBegin
  2
_OPEN30
 70
     0
 10
0.0
 20
0.0
 30
0.0
  3
_OPEN30
  1

  0
LINE
  5
5FB40
330
EB
100
AcDbEntity
  8
0
  6
ByBlock
 62
     0
100
AcDbLine
 10
-1.0
 20
0.26794919
 30
0.0
 11
0.0
 21
0.0
 31
0.0
  0
LINE
  5
5FB41
330
EB
100
AcDbEntity
  8
0
  6
ByBlock
 62
     0
100
AcDbLine
 10
0.0
 20
0.0
 30
0.0
 11
-1.0
 21
-0.26794919
 31
0.0
  0
LINE
  5
5FB42
330
EB
100
AcDbEntity
  8
0
  6
ByBlock
 62
     0
100
AcDbLine
 10
0.0
 20
0.0
 30
0.0
 11
-1.0
 21
0.0
 31
0.0
  0
ENDBLK
  5
5FB43
330
EB
100
AcDbEntity
  8
0
100
AcDbBlockEnd
  0
BLOCK
  5
5FB45
330
F1
100
AcDbEntity
  8
0
100
AcDbBlockBegin
  2
_Dot
 70
     0
 10
0.0
 20
0.0
 30
0.0
  3
_Dot
  1

  0
LWPOLYLINE
  5
5FB46
330
F1
100
AcDbEntity
  8
0
  6
ByBlock
 62
     0
100
AcDbPolyline
 90
        2
 70
     1
 43
0.5
 10
-0.25
 20
0.0
 42
1.0
 10
0.25
 20
0.0
 42
1.0
  0
LINE
  5
5FB47
330
F1
100
AcDbEntity
  8
0
  6
ByBlock
 62
     0
370
    -2
100
AcDbLine
 10
-0.5
 20
0.0
 30
0.0
 11
-1.0
 21
0.0
 31
0.0
  0
ENDBLK
  5
5FB48
330
F1
100
AcDbEntity
  8
0
100
AcDbBlockEnd
  0
BLOCK
  5
5FB51
330
FD
100
AcDbEntity
  8
0
100
AcDbBlockBegin
  2
GENAXEH
 70
     0
 10
0.0
 20
0.0
 30
0.0
  3
GENAXEH
  1

  0
LINE
  5
5FB52
330
FD
100
AcDbEntity
  8
0
100
AcDbLine
 10
-1.0
 20
0.0
 30
0.0
 11
1.0
 21
0.0
 31
0.0
  0
ENDBLK
  5
5FB53
330
FD
100
AcDbEntity
  8
0
100
AcDbBlockEnd
  0
BLOCK
  5
255AB
330
255A1
100
AcDbEntity
  8
0
100
AcDbBlockBegin
  2
*D13
 70
     1
 10
0.0
 20
0.0
 30
0.0
  3
*D13
  1

  0
LINE
  5
5FC91
330
255A1
100
AcDbEntity
  8
AM_5
100
AcDbLine
 10
625.6883677751346
 20
-1980.930245346311
 30
0.0
 11
625.6883677751346
 21
-1968.930245346311
 31
0.0
  0
LINE
  5
5FC92
330
255A1
100
AcDbEntity
  8
AM_5
100
AcDbLine
 10
800.1853947340013
 20
-1980.930245346311
 30
0.0
 11
800.1853947340013
 21
-1968.930245346311
 31
0.0
  0
LINE
  5
5FC93
330
255A1
100
AcDbEntity
  8
AM_5
100
AcDbLine
 10
626.6883677751346
 20
-1969.930245346311
 30
0.0
 11
799.1853947340013
 21
-1969.930245346311
 31
0.0
  0
INSERT
  5
5FC94
330
255A1
100
AcDbEntity
  8
AM_5
100
AcDbBlockReference
  2
_Dot
 10
625.6883677751346
 20
-1969.930245346311
 30
0.0
 50
180.0
  0
INSERT
  5
5FC95
330
255A1
100
AcDbEntity
  8
AM_5
100
AcDbBlockReference
  2
_Dot
 10
800.1853947340013
 20
-1969.930245346311
 30
0.0
  0
MTEXT
  5
5FC96
330
255A1
100
AcDbEntity
  8
AM_5
 62
     2
100
AcDbMText
 10
712.936881254568
 20
-1966.830245346311
 30
0.0
 40
3.200000000000001
 41
0.0
 71
     5
 72
     1
  1
L=3000
 73
     1
 44
1.0
1001
ACAD
1000
MTEXTBEGIN
1070
    73
1070
     1
1070
    44
1040
1.0
1070
    74
1070
     0
1000
MTEXTEND
  0
POINT
  5
5FC97
330
255A1
100
AcDbEntity
  8
Defpoints
 62
     0
100
AcDbPoint
 10
625.6883677751346
 20
-1981.930245346311
 30
0.0
  0
POINT
  5
5FC98
330
255A1
100
AcDbEntity
  8
Defpoints
 62
     0
100
AcDbPoint
 10
800.1853947340013
 20
-1981.930245346311
 30
0.0
  0
POINT
  5
5FC99
330
255A1
100
AcDbEntity
  8
Defpoints
 62
     0
100
AcDbPoint
 10
800.1853947340013
 20
-1969.930245346311
 30
0.0
  0
ENDBLK
  5
255AC
330
255A1
100
AcDbEntity
  8
0
100
AcDbBlockEnd
  0
BLOCK
  5
255B9
330
255AD
100
AcDbEntity
  8
0
100
AcDbBlockBegin
  2
*D14
 70
     1
 10
0.0
 20
0.0
 30
0.0
  3
*D14
  1

  0
LINE
  5
5FC85
330
255AD
100
AcDbEntity
  8
AM_5
100
AcDbLine
 10
801.1853947340012
 20
-2012.930245346312
 30
0.0
 11
815.2567362701802
 21
-2012.930245346312
 31
0.0
  0
LINE
  5
5FC86
330
255AD
100
AcDbEntity
  8
AM_5
100
AcDbLine
 10
801.1853947340012
 20
-2015.930245346312
 30
0.0
 11
815.2567362701802
 21
-2015.930245346312
 31
0.0
  0
LINE
  5
5FC87
330
255AD
100
AcDbEntity
  8
AM_5
100
AcDbLine
 10
814.2567362701802
 20
-2011.930245346312
 30
0.0
 11
814.2567362701802
 21
-2010.930245346312
 31
0.0
  0
LINE
  5
5FC88
330
255AD
100
AcDbEntity
  8
AM_5
100
AcDbLine
 10
814.2567362701802
 20
-2016.930245346312
 30
0.0
 11
814.2567362701802
 21
-2022.423578679645
 31
0.0
  0
LINE
  5
5FC89
330
255AD
100
AcDbEntity
  8
AM_5
100
AcDbLine
 10
814.2567362701802
 20
-2012.930245346312
 30
0.0
 11
814.2567362701802
 21
-2015.930245346312
 31
0.0
  0
INSERT
  5
5FC8A
330
255AD
100
AcDbEntity
  8
AM_5
100
AcDbBlockReference
  2
_Dot
 10
814.2567362701802
 20
-2012.930245346312
 30
0.0
 50
270.0
  0
INSERT
  5
5FC8B
330
255AD
100
AcDbEntity
  8
AM_5
100
AcDbBlockReference
  2
_Dot
 10
814.2567362701802
 20
-2015.930245346312
 30
0.0
 50
90.0
  0
MTEXT
  5
5FC8C
330
255AD
100
AcDbEntity
  8
AM_5
 62
     2
100
AcDbMText
 10
811.1567362701805
 20
-2020.176912012978
 30
0.0
 40
3.200000000000001
 41
0.0
 71
     5
 72
     1
  1
3
 11
0.0000000000000001
 21
1.0
 31
0.0
 73
     1
 44
1.0
1001
ACAD
1000
MTEXTBEGIN
1070
    73
1070
     1
1070
    44
1040
1.0
1070
    74
1070
     0
1000
MTEXTEND
  0
POINT
  5
5FC8D
330
255AD
100
AcDbEntity
  8
Defpoints
 62
     0
100
AcDbPoint
 10
800.1853947340013
 20
-2012.930245346312
 30
0.0
  0
POINT
  5
5FC8E
330
255AD
100
AcDbEntity
  8
Defpoints
 62
     0
100
AcDbPoint
 10
800.1853947340013
 20
-2015.930245346312
 30
0.0
  0
POINT
  5
5FC8F
330
255AD
100
AcDbEntity
  8
Defpoints
 62
     0
100
AcDbPoint
 10
814.2567362701802
 20
-2015.930245346312
 30
0.0
  0
ENDBLK
  5
255BA
330
255AD
100
AcDbEntity
  8
0
100
AcDbBlockEnd
  0
BLOCK
  5
255C5
330
255BB
100
AcDbEntity
  8
0
100
AcDbBlockBegin
  2
*D15
 70
     1
 10
0.0
 20
0.0
 30
0.0
  3
*D15
  1

  0
LINE
  5
5FC7C
330
255BB
100
AcDbEntity
  8
AM_5
100
AcDbLine
 10
801.1853947340012
 20
-2015.930245346312
 30
0.0
 11
824.560188562099
 21
-2015.930245346312
 31
0.0
  0
LINE
  5
5FC7D
330
255BB
100
AcDbEntity
  8
AM_5
100
AcDbLine
 10
801.1853947340012
 20
-1981.930245346311
 30
0.0
 11
824.560188562099
 21
-1981.930245346311
 31
0.0
  0
LINE
  5
5FC7E
330
255BB
100
AcDbEntity
  8
AM_5
100
AcDbLine
 10
823.560188562099
 20
-2014.930245346311
 30
0.0
 11
823.560188562099
 21
-1982.930245346311
 31
0.0
  0
INSERT
  5
5FC7F
330
255BB
100
AcDbEntity
  8
AM_5
100
AcDbBlockReference
  2
_Dot
 10
823.560188562099
 20
-2015.930245346312
 30
0.0
 50
270.0
  0
INSERT
  5
5FC80
330
255BB
100
AcDbEntity
  8
AM_5
100
AcDbBlockReference
  2
_Dot
 10
823.560188562099
 20
-1981.930245346311
 30
0.0
 50
90.0
  0
MTEXT
  5
5FC81
330
255BB
100
AcDbEntity
  8
AM_5
 62
     2
100
AcDbMText
 10
820.4601885620993
 20
-1998.930245346311
 30
0.0
 40
3.200000000000001
 41
0.0
 71
     5
 72
     1
  1
%%c34
 11
0.0000000000000001
 21
1.0
 31
0.0
 73
     1
 44
1.0
1001
ACAD
1000
MTEXTBEGIN
1070
    73
1070
     1
1070
    44
1040
1.0
1070
    74
1070
     0
1000
MTEXTEND
  0
POINT
  5
5FC82
330
255BB
100
AcDbEntity
  8
Defpoints
 62
     0
100
AcDbPoint
 10
800.1853947340013
 20
-2015.930245346312
 30
0.0
  0
POINT
  5
5FC83
330
255BB
100
AcDbEntity
  8
Defpoints
 62
     0
100
AcDbPoint
 10
800.1853947340013
 20
-1981.930245346311
 30
0.0
  0
POINT
  5
5FC84
330
255BB
100
AcDbEntity
  8
Defpoints
 62
     0
100
AcDbPoint
 10
823.560188562099
 20
-1981.930245346311
 30
0.0
  0
ENDBLK
  5
255C6
330
255BB
100
AcDbEntity
  8
0
100
AcDbBlockEnd
  0
BLOCK
  5
35375
330
35374
100
AcDbEntity
  8
0
100
AcDbBlockBegin
  2
block 3
 70
     0
 10
0.0
 20
0.0
 30
0.0
  3
block 3
  1

  0
INSERT
  5
35376
330
35374
100
AcDbEntity
  8
レイヤー 1
100
AcDbBlockReference
  2
block 4
 10
0.0
 20
0.0
 30
0.0
  0
ENDBLK
  5
35377
330
35374
100
AcDbEntity
  8
0
100
AcDbBlockEnd
  0
BLOCK
  5
35379
330
35378
100
AcDbEntity
  8
0
100
AcDbBlockBegin
  2
block 4
 70
     0
 10
0.0
 20
0.0
 30
0.0
  3
block 4
  1

  0
INSERT
  5
3537A
330
35378
100
AcDbEntity
  8
レイヤー 1
100
AcDbBlockReference
  2
block 5
 10
0.0
 20
0.0
 30
0.0
  0
ENDBLK
  5
3537B
330
35378
100
AcDbEntity
  8
0
100
AcDbBlockEnd
  0
BLOCK
  5
3537D
330
3537C
100
AcDbEntity
  8
0
100
AcDbBlockBegin
  2
block 5
 70
     0
 10
0.0
 20
0.0
 30
0.0
  3
block 5
  1

  0
MTEXT
  5
3537E
102
{ACAD_XDICTIONARY
360
5FDD2
102
}
330
3537C
100
AcDbEntity
  8
レイヤー 1
 62
    18
100
AcDbMText
 10
12.30898977942131
 20
36.67272112372638
 30
0.0
 40
2.398890470823883
 41
0.0
 71
     7
 72
     1
  1
\fShinGo Medium|b0|i0|c0|p34;\W1;\U+30B3\U+30FC\U+30C9No
 73
     1
 44
1.0
1001
ACAD
1000
MTEXTBEGIN
1070
    73
1070
     1
1070
    44
1040
1.0
1070
    74
1070
     0
1000
MTEXTEND
  0
MTEXT
  5
3537F
102
{ACAD_XDICTIONARY
360
5FDD5
102
}
330
3537C
100
AcDbEntity
  8
レイヤー 1
 62
    18
100
AcDbMText
 10
84.25089920028048
 20
37.14986716320407
 30
0.0
 40
2.398890470823883
 41
0.0
 71
     7
 72
     1
  1
\fShinGo Medium|b0|i0|c0|p34;\W1;\U+54C1\U+2003\U+2003\U+2003\U+2003\U+2003\U+2003\U+2003\U+540D 
 73
     1
 44
1.0
1001
ACAD
1000
MTEXTBEGIN
1070
    73
1070
     1
1070
    44
1040
1.0
1070
    74
1070
     0
1000
MTEXTEND
  0
MTEXT
  5
35380
102
{ACAD_XDICTIONARY
360
5FDD7
102
}
330
3537C
100
AcDbEntity
  8
レイヤー 1
 62
    18
100
AcDbMText
 10
172.4722735666118
 20
36.86495757862064
 30
0.0
 40
2.398890470823883
 41
0.0
 71
     7
 72
     1
  1
\fShinGo Medium|b0|i0|c0|p34;\W1;\U+91CD\U+91CF(kg)
 73
     1
 44
1.0
1001
ACAD
1000
MTEXTBEGIN
1070
    73
1070
     1
1070
    44
1040
1.0
1070
    74
1070
     0
1000
MTEXTEND
  0
POLYLINE
  5
35381
330
3537C
100
AcDbEntity
  8
レイヤー 1
 62
    18
370
     9
100
AcDb2dPolyline
 66
     1
 10
0.0
 20
0.0
 30
0.0
  0
VERTEX
  5
35382
330
35381
100
AcDbEntity
  8
レイヤー 1
 62
    18
370
     9
100
AcDbVertex
100
AcDb2dVertex
 10
169.0275203184259
 20
40.6542206026027
 30
0.0
  0
VERTEX
  5
35383
330
35381
100
AcDbEntity
  8
レイヤー 1
 62
    18
370
     9
100
AcDbVertex
100
AcDb2dVertex
 10
169.0275203184259
 20
35.71463943723723
 30
0.0
  0
SEQEND
  5
35384
330
35381
100
AcDbEntity
  8
レイヤー 1
 62
    18
370
     9
  0
POLYLINE
  5
35385
330
3537C
100
AcDbEntity
  8
レイヤー 1
 62
    18
370
     9
100
AcDb2dPolyline
 66
     1
 10
0.0
 20
0.0
 30
0.0
  0
VERTEX
  5
35386
330
35385
100
AcDbEntity
  8
レイヤー 1
 62
    18
370
     9
100
AcDbVertex
100
AcDb2dVertex
 10
30.40453800800298
 20
40.6542206026027
 30
0.0
  0
VERTEX
  5
35387
330
35385
100
AcDbEntity
  8
レイヤー 1
 62
    18
370
     9
100
AcDbVertex
100
AcDb2dVertex
 10
30.40453800800298
 20
35.62851199328818
 30
0.0
  0
SEQEND
  5
35388
330
35385
100
AcDbEntity
  8
レイヤー 1
 62
    18
370
     9
  0
ENDBLK
  5
35389
330
3537C
100
AcDbEntity
  8
0
100
AcDbBlockEnd
  0
BLOCK
  5
3538B
330
3538A
100
AcDbEntity
  8
0
100
AcDbBlockBegin
  2
block 11
 70
     0
 10
0.0
 20
0.0
 30
0.0
  3
block 11
  1

  0
INSERT
  5
3538C
330
3538A
100
AcDbEntity
  8
レイヤー 1
100
AcDbBlockReference
  2
block 12
 10
0.0
 20
0.0
 30
0.0
  0
ENDBLK
  5
3538D
330
3538A
100
AcDbEntity
  8
0
100
AcDbBlockEnd
  0
BLOCK
  5
3538F
330
3538E
100
AcDbEntity
  8
0
100
AcDbBlockBegin
  2
block 12
 70
     0
 10
0.0
 20
0.0
 30
0.0
  3
block 12
  1

  0
INSERT
  5
35390
330
3538E
100
AcDbEntity
  8
レイヤー 1
100
AcDbBlockReference
  2
block 13
 10
0.0
 20
0.0
 30
0.0
  0
ENDBLK
  5
35391
330
3538E
100
AcDbEntity
  8
0
100
AcDbBlockEnd
  0
BLOCK
  5
35393
330
35392
100
AcDbEntity
  8
0
100
AcDbBlockBegin
  2
block 13
 70
     0
 10
0.0
 20
0.0
 30
0.0
  3
block 13
  1

  0
INSERT
  5
35394
330
35392
100
AcDbEntity
  8
レイヤー 1
100
AcDbBlockReference
  2
block 14
 10
0.0
 20
0.0
 30
0.0
  0
ENDBLK
  5
35395
330
35392
100
AcDbEntity
  8
0
100
AcDbBlockEnd
  0
BLOCK
  5
35397
330
35396
100
AcDbEntity
  8
0
100
AcDbBlockBegin
  2
block 14
 70
     0
 10
0.0
 20
0.0
 30
0.0
  3
block 14
  1

  0
SPLINE
  5
35398
330
35396
100
AcDbEntity
  8
レイヤー 1
 62
     7
370
    13
100
AcDbSpline
210
0.0
220
0.0
230
1.0
 70
    11
 71
     3
 72
    17
 73
    13
 74
     0
 42
0.0000000001
 43
0.0000000001
 40
0.0
 40
0.0
 40
0.0
 40
0.0
 40
1.0
 40
1.0
 40
1.0
 40
2.0
 40
2.0
 40
2.0
 40
3.0
 40
3.0
 40
3.0
 40
4.0
 40
4.0
 40
4.0
 40
4.0
 10
72.28521341244004
 20
162.8914567017203
 30
0.0
 10
72.28521341244004
 20
164.0155921001432
 30
0.0
 10
71.372607016356
 20
164.9280262413394
 30
0.0
 10
70.24795485326939
 20
164.9280262413394
 30
0.0
 10
69.12261367063121
 20
164.9280262413394
 30
0.0
 10
68.21035178432295
 20
164.0155921001432
 30
0.0
 10
68.21035178432295
 20
162.8914567017203
 30
0.0
 10
68.21035178432295
 20
161.7652542446426
 30
0.0
 10
69.12261367063121
 20
160.853681377886
 30
0.0
 10
70.24795485326939
 20
160.853681377886
 30
0.0
 10
71.372607016356
 20
160.853681377886
 30
0.0
 10
72.28521341244004
 20
161.7652542446426
 30
0.0
 10
72.28521341244004
 20
162.8914567017203
 30
0.0
  0
MTEXT
  5
35399
330
35396
100
AcDbEntity
  8
レイヤー 1
 62
     7
100
AcDbMText
 10
69.19082660623885
 20
161.5151401474146
 30
0.0
 40
2.586003863490859
 41
0.0
 71
     7
 72
     1
  1
\fGothicBBB Medium|b0|i0|c0|p34;\W1;1
 73
     1
 44
1.0
1001
ACAD
1000
MTEXTBEGIN
1070
    73
1070
     1
1070
    44
1040
1.0
1070
    74
1070
     0
1000
MTEXTEND
  0
SPLINE
  5
3539A
330
35396
100
AcDbEntity
  8
レイヤー 1
 62
     7
370
    13
100
AcDbSpline
210
0.0
220
0.0
230
1.0
 70
    11
 71
     3
 72
    17
 73
    13
 74
     0
 42
0.0000000001
 43
0.0000000001
 40
0.0
 40
0.0
 40
0.0
 40
0.0
 40
1.0
 40
1.0
 40
1.0
 40
2.0
 40
2.0
 40
2.0
 40
3.0
 40
3.0
 40
3.0
 40
4.0
 40
4.0
 40
4.0
 40
4.0
 10
119.9190298177852
 20
163.0861047250452
 30
0.0
 10
119.9190298177852
 20
164.2107568881318
 30
0.0
 10
119.0064234217012
 20
165.12301877444
 30
0.0
 10
117.8822880232782
 20
165.12301877444
 30
0.0
 10
116.7564300759764
 20
165.12301877444
 30
0.0
 10
115.8441681896681
 20
164.2107568881318
 30
0.0
 10
115.8441681896681
 20
163.0861047250452
 30
0.0
 10
115.8441681896681
 20
161.9604190326312
 30
0.0
 10
116.7564300759764
 20
161.0488461658745
 30
0.0
 10
117.8822880232782
 20
161.0488461658745
 30
0.0
 10
119.0064234217012
 20
161.0488461658745
 30
0.0
 10
119.9190298177852
 20
161.9604190326312
 30
0.0
 10
119.9190298177852
 20
163.0861047250452
 30
0.0
  0
MTEXT
  5
3539B
330
35396
100
AcDbEntity
  8
レイヤー 1
 62
     7
100
AcDbMText
 10
116.824643011584
 20
161.7103049354031
 30
0.0
 40
2.586003863490859
 41
0.0
 71
     7
 72
     1
  1
\fGothicBBB Medium|b0|i0|c0|p34;\W1;2
 73
     1
 44
1.0
1001
ACAD
1000
MTEXTBEGIN
1070
    73
1070
     1
1070
    44
1040
1.0
1070
    74
1070
     0
1000
MTEXTEND
  0
SPLINE
  5
3539C
330
35396
100
AcDbEntity
  8
レイヤー 1
 62
     7
370
    13
100
AcDbSpline
210
0.0
220
0.0
230
1.0
 70
    11
 71
     3
 72
    17
 73
    13
 74
     0
 42
0.0000000001
 43
0.0000000001
 40
0.0
 40
0.0
 40
0.0
 40
0.0
 40
1.0
 40
1.0
 40
1.0
 40
2.0
 40
2.0
 40
2.0
 40
3.0
 40
3.0
 40
3.0
 40
4.0
 40
4.0
 40
4.0
 40
4.0
 10
159.7391922531854
 20
163.03735659177
 30
0.0
 10
159.7391922531854
 20
164.1620087548566
 30
0.0
 10
158.8265858571013
 20
165.0742706411648
 30
0.0
 10
157.7021059489027
 20
165.0742706411648
 30
0.0
 10
156.5765925113766
 20
165.0742706411648
 30
0.0
 10
155.6643306250683
 20
164.1620087548566
 30
0.0
 10
155.6643306250683
 20
163.03735659177
 30
0.0
 10
155.6643306250683
 20
161.911670899356
 30
0.0
 10
156.5765925113766
 20
161.0000980325994
 30
0.0
 10
157.7021059489027
 20
161.0000980325994
 30
0.0
 10
158.8265858571013
 20
161.0000980325994
 30
0.0
 10
159.7391922531854
 20
161.911670899356
 30
0.0
 10
159.7391922531854
 20
163.03735659177
 30
0.0
  0
MTEXT
  5
3539D
330
35396
100
AcDbEntity
  8
レイヤー 1
 62
     7
100
AcDbMText
 10
156.64514995676
 20
161.7619814017726
 30
0.0
 40
2.586003863490859
 41
0.0
 71
     7
 72
     1
  1
\fGothicBBB Medium|b0|i0|c0|p34;\W1;8
 73
     1
 44
1.0
1001
ACAD
1000
MTEXTBEGIN
1070
    73
1070
     1
1070
    44
1040
1.0
1070
    74
1070
     0
1000
MTEXTEND
  0
SPLINE
  5
3539E
330
35396
100
AcDbEntity
  8
レイヤー 1
 62
     7
370
    13
100
AcDbSpline
210
0.0
220
0.0
230
1.0
 70
    11
 71
     3
 72
    17
 73
    13
 74
     0
 42
0.0000000001
 43
0.0000000001
 40
0.0
 40
0.0
 40
0.0
 40
0.0
 40
1.0
 40
1.0
 40
1.0
 40
2.0
 40
2.0
 40
2.0
 40
3.0
 40
3.0
 40
3.0
 40
4.0
 40
4.0
 40
4.0
 40
4.0
 10
81.7387339151748
 20
120.8984711103737
 30
0.0
 10
81.7387339151748
 20
122.0226065087966
 30
0.0
 10
80.82595526420286
 20
122.9348683951049
 30
0.0
 10
79.70130310111628
 20
122.9348683951049
 30
0.0
 10
78.57596191847806
 20
122.9348683951049
 30
0.0
 10
77.66370003216983
 20
122.0226065087966
 30
0.0
 10
77.66370003216983
 20
120.8984711103737
 30
0.0
 10
77.66370003216983
 20
119.772268653296
 30
0.0
 10
78.57596191847806
 20
118.8606957865394
 30
0.0
 10
79.70130310111628
 20
118.8606957865394
 30
0.0
 10
80.82595526420286
 20
118.8606957865394
 30
0.0
 10
81.7387339151748
 20
119.772268653296
 30
0.0
 10
81.7387339151748
 20
120.8984711103737
 30
0.0
  0
MTEXT
  5
3539F
330
35396
100
AcDbEntity
  8
レイヤー 1
 62
     7
100
AcDbMText
 10
78.5442670191048
 20
119.5228435756196
 30
0.0
 40
2.586003863490859
 41
0.0
 71
     7
 72
     1
  1
\fGothicBBB Medium|b0|i0|c0|p34;\W1;4
 73
     1
 44
1.0
1001
ACAD
1000
MTEXTBEGIN
1070
    73
1070
     1
1070
    44
1040
1.0
1070
    74
1070
     0
1000
MTEXTEND
  0
SPLINE
  5
353A0
330
35396
100
AcDbEntity
  8
レイヤー 1
 62
     7
370
    13
100
AcDbSpline
210
0.0
220
0.0
230
1.0
 70
    11
 71
     3
 72
    17
 73
    13
 74
     0
 42
0.0000000001
 43
0.0000000001
 40
0.0
 40
0.0
 40
0.0
 40
0.0
 40
1.0
 40
1.0
 40
1.0
 40
2.0
 40
2.0
 40
2.0
 40
3.0
 40
3.0
 40
3.0
 40
4.0
 40
4.0
 40
4.0
 40
4.0
 10
120.2187533227279
 20
121.0579791365673
 30
0.0
 10
120.2187533227279
 20
122.1821145349902
 30
0.0
 10
119.3061469266438
 20
123.0943764212985
 30
0.0
 10
118.1813225086693
 20
123.0943764212985
 30
0.0
 10
117.056153580919
 20
123.0943764212985
 30
0.0
 10
116.143547184835
 20
122.1821145349902
 30
0.0
 10
116.143547184835
 20
121.0579791365673
 30
0.0
 10
116.143547184835
 20
119.9317766794897
 30
0.0
 10
117.056153580919
 20
119.020203812733
 30
0.0
 10
118.1813225086693
 20
119.020203812733
 30
0.0
 10
119.3061469266438
 20
119.020203812733
 30
0.0
 10
120.2187533227279
 20
119.9317766794897
 30
0.0
 10
120.2187533227279
 20
121.0579791365673
 30
0.0
  0
MTEXT
  5
353A1
330
35396
100
AcDbEntity
  8
レイヤー 1
 62
     7
100
AcDbMText
 10
117.02411417177
 20
119.7822594367941
 30
0.0
 40
2.586003863490859
 41
0.0
 71
     7
 72
     1
  1
\fGothicBBB Medium|b0|i0|c0|p34;\W1;5
 73
     1
 44
1.0
1001
ACAD
1000
MTEXTBEGIN
1070
    73
1070
     1
1070
    44
1040
1.0
1070
    74
1070
     0
1000
MTEXTEND
  0
MTEXT
  5
353A2
330
35396
100
AcDbEntity
  8
レイヤー 1
 62
     7
100
AcDbMText
 10
155.9020423703675
 20
119.8046525722209
 30
0.0
 40
2.590801754244997
 41
0.0
 71
     7
 72
     1
  1
\fGothicBBB Medium|b0|i0|c0|p34;\W1;10
 73
     1
 44
1.0
1001
ACAD
1000
MTEXTBEGIN
1070
    73
1070
     1
1070
    44
1040
1.0
1070
    74
1070
     0
1000
MTEXTEND
  0
SPLINE
  5
353A3
330
35396
100
AcDbEntity
  8
レイヤー 1
 62
     7
370
    13
100
AcDbSpline
210
0.0
220
0.0
230
1.0
 70
    11
 71
     3
 72
    17
 73
    13
 74
     0
 42
0.0000000001
 43
0.0000000001
 40
0.0
 40
0.0
 40
0.0
 40
0.0
 40
1.0
 40
1.0
 40
1.0
 40
2.0
 40
2.0
 40
2.0
 40
3.0
 40
3.0
 40
3.0
 40
4.0
 40
4.0
 40
4.0
 40
4.0
 10
159.7391922531854
 20
84.9326840465811
 30
0.0
 10
159.7391922531854
 20
86.0564749352282
 30
0.0
 10
158.8265858571013
 20
86.96873682153643
 30
0.0
 10
157.7021059489027
 20
86.96873682153643
 30
0.0
 10
156.5765925113766
 20
86.96873682153643
 30
0.0
 10
155.6643306250683
 20
86.0564749352282
 30
0.0
 10
155.6643306250683
 20
84.9326840465811
 30
0.0
 10
155.6643306250683
 20
83.80717060905501
 30
0.0
 10
156.5765925113766
 20
82.89525323252254
 30
0.0
 10
157.7021059489027
 20
82.89525323252254
 30
0.0
 10
158.8265858571013
 20
82.89525323252254
 30
0.0
 10
159.7391922531854
 20
83.80717060905501
 30
0.0
 10
159.7391922531854
 20
84.9326840465811
 30
0.0
  0
SPLINE
  5
353A4
330
35396
100
AcDbEntity
  8
レイヤー 1
 62
     7
370
    13
100
AcDbSpline
210
0.0
220
0.0
230
1.0
 70
    11
 71
     3
 72
    17
 73
    13
 74
     0
 42
0.0000000001
 43
0.0000000001
 40
0.0
 40
0.0
 40
0.0
 40
0.0
 40
1.0
 40
1.0
 40
1.0
 40
2.0
 40
2.0
 40
2.0
 40
3.0
 40
3.0
 40
3.0
 40
4.0
 40
4.0
 40
4.0
 40
4.0
 10
159.7388477434096
 20
121.0586681561189
 30
0.0
 10
159.7388477434096
 20
122.1828035545418
 30
0.0
 10
158.8262413473255
 20
123.0950654408501
 30
0.0
 10
157.7021059489027
 20
123.0950654408501
 30
0.0
 10
156.5765925113766
 20
123.0950654408501
 30
0.0
 10
155.6643306250683
 20
122.1828035545418
 30
0.0
 10
155.6643306250683
 20
121.0586681561189
 30
0.0
 10
155.6643306250683
 20
119.9324656990413
 30
0.0
 10
156.5765925113766
 20
119.0208928322846
 30
0.0
 10
157.7021059489027
 20
119.0208928322846
 30
0.0
 10
158.8262413473255
 20
119.0208928322846
 30
0.0
 10
159.7388477434096
 20
119.9324656990413
 30
0.0
 10
159.7388477434096
 20
121.0586681561189
 30
0.0
  0
MTEXT
  5
353A5
330
35396
100
AcDbEntity
  8
レイヤー 1
 62
     7
100
AcDbMText
 10
156.64514995676
 20
83.85609099721808
 30
0.0
 40
2.586003863490859
 41
0.0
 71
     7
 72
     1
  1
\fGothicBBB Medium|b0|i0|c0|p34;\W1;6
 73
     1
 44
1.0
1001
ACAD
1000
MTEXTBEGIN
1070
    73
1070
     1
1070
    44
1040
1.0
1070
    74
1070
     0
1000
MTEXTEND
  0
SPLINE
  5
353A6
330
35396
100
AcDbEntity
  8
レイヤー 1
 62
     7
370
    13
100
AcDbSpline
210
0.0
220
0.0
230
1.0
 70
    11
 71
     3
 72
    17
 73
    13
 74
     0
 42
0.0000000001
 43
0.0000000001
 40
0.0
 40
0.0
 40
0.0
 40
0.0
 40
1.0
 40
1.0
 40
1.0
 40
2.0
 40
2.0
 40
2.0
 40
3.0
 40
3.0
 40
3.0
 40
4.0
 40
4.0
 40
4.0
 40
4.0
 10
159.7770883285229
 20
61.38716341979193
 30
0.0
 10
159.7770883285229
 20
62.51198783776643
 30
0.0
 10
158.8644819324389
 20
63.42424972407467
 30
0.0
 10
157.7396575144644
 20
63.42424972407467
 30
0.0
 10
156.6144885867141
 20
63.42424972407467
 30
0.0
 10
155.7022267004059
 20
62.51198783776643
 30
0.0
 10
155.7022267004059
 20
61.38716341979193
 30
0.0
 10
155.7022267004059
 20
60.26164998226587
 30
0.0
 10
156.6144885867141
 20
59.3500771155092
 30
0.0
 10
157.7396575144644
 20
59.3500771155092
 30
0.0
 10
158.8644819324389
 20
59.3500771155092
 30
0.0
 10
159.7770883285229
 20
60.26164998226587
 30
0.0
 10
159.7770883285229
 20
61.38716341979193
 30
0.0
  0
MTEXT
  5
353A7
330
35396
100
AcDbEntity
  8
レイヤー 1
 62
     7
100
AcDbMText
 10
156.6827015223218
 20
60.11178822979452
 30
0.0
 40
2.586003863490859
 41
0.0
 71
     7
 72
     1
  1
\fGothicBBB Medium|b0|i0|c0|p34;\W1;9
 73
     1
 44
1.0
1001
ACAD
1000
MTEXTBEGIN
1070
    73
1070
     1
1070
    44
1040
1.0
1070
    74
1070
     0
1000
MTEXTEND
  0
MTEXT
  5
353A8
330
35396
100
AcDbEntity
  8
レイヤー 1
 62
     7
100
AcDbMText
 10
43.61614340001024
 20
72.06696646947317
 30
0.0
 40
1.48971099153267
 41
0.0
 71
     7
 72
     1
  1
\fGothicBBB Medium|b0|i0|c0|p34;\W1; 
 73
     1
 44
1.0
1001
ACAD
1000
MTEXTBEGIN
1070
    73
1070
     1
1070
    44
1040
1.0
1070
    74
1070
     0
1000
MTEXTEND
  0
ENDBLK
  5
353A9
330
35396
100
AcDbEntity
  8
0
100
AcDbBlockEnd
  0
ENDSEC
  0
SECTION
  2
ENTITIES
  0
TEXT
  5
D38C
330
37
100
AcDbEntity
  8
AM_6
 60
     1
100
AcDbText
 10
3125.635126950367
 20
203.7097876686228
 30
0.0
 40
25.0
  1
!GENTITLE-INSERT
100
AcDbText
  0
TEXT
  5
D38D
330
37
100
AcDbEntity
  8
AM_6
 60
     1
100
AcDbText
 10
3240.635126950368
 20
2218.709787668623
 30
0.0
 40
25.0
  1
!GENTITLE-MAX
100
AcDbText
  0
TEXT
  5
D38E
330
37
100
AcDbEntity
  8
AM_6
 60
     1
100
AcDbText
 10
3240.635126950368
 20
2218.709787668623
 30
0.0
 40
25.0
  1
!GENTITLE-RU
100
AcDbText
  0
TEXT
  5
D390
330
37
100
AcDbEntity
  8
AM_6
 60
     1
100
AcDbText
 10
270.6351269503673
 20
118.7097876686227
 30
0.0
 40
25.0
  1
!GENTITLE-LL
100
AcDbText
  0
TEXT
  5
1AACF
330
37
100
AcDbEntity
  8
AM_6
 60
     1
100
AcDbText
 10
1824.648146508858
 20
-3351.021422942294
 30
0.0
 40
12.5
  1
!GENTITLE-INSERT
100
AcDbText
  0
TEXT
  5
1AAD0
330
37
100
AcDbEntity
  8
AM_6
 60
     1
100
AcDbText
 10
1882.148146508858
 20
-2343.521422942293
 30
0.0
 40
12.5
  1
!GENTITLE-MAX
100
AcDbText
  0
TEXT
  5
1AAD1
330
37
100
AcDbEntity
  8
AM_6
 60
     1
100
AcDbText
 10
1882.148146508858
 20
-2343.521422942293
 30
0.0
 40
12.5
  1
!GENTITLE-RU
100
AcDbText
  0
TEXT
  5
1AAD3
330
37
100
AcDbEntity
  8
AM_6
 60
     1
100
AcDbText
 10
397.1481465088582
 20
-3393.521422942292
 30
0.0
 40
12.5
  1
!GENTITLE-LL
100
AcDbText
  0
TEXT
  5
21E26
330
37
100
AcDbEntity
  8
AM_6
 60
     1
100
AcDbText
 10
1824.648146508858
 20
-3351.021422942294
 30
0.0
 40
12.5
  1
!GENTITLE-INSERT
100
AcDbText
  0
TEXT
  5
21E27
330
37
100
AcDbEntity
  8
AM_6
 60
     1
100
AcDbText
 10
1882.148146508858
 20
-2343.521422942293
 30
0.0
 40
12.5
  1
!GENTITLE-MAX
100
AcDbText
  0
TEXT
  5
21E28
330
37
100
AcDbEntity
  8
AM_6
 60
     1
100
AcDbText
 10
1882.148146508858
 20
-2343.521422942293
 30
0.0
 40
12.5
  1
!GENTITLE-RU
100
AcDbText
  0
TEXT
  5
21E2A
330
37
100
AcDbEntity
  8
AM_6
 60
     1
100
AcDbText
 10
397.1481465088582
 20
-3393.521422942292
 30
0.0
 40
12.5
  1
!GENTITLE-LL
100
AcDbText
  0
LINE
  5
2556D
330
37
100
AcDbEntity
  8
size
100
AcDbLine
 10
591.2765940821835
 20
-1862.5
 30
0.0
 11
888.2765940821837
 21
-1862.5
 31
0.0
1001
GENIUS_GENREC_14
1002
{
1000
PYDIR
1011
591.2765940821835
1021
-1565.5
1031
0.0
1002
}
1002
{
1000
PXDIR
1011
1011.276594082183
1021
-1862.5
1031
0.0
1002
}
1002
{
1000
PORI
1011
591.2765940821835
1021
-1862.5
1031
0.0
1002
}
1002
{
1000
PINS
1011
801.2765940821836
1021
-1714.0
1031
0.0
1002
}
1002
{
1000
HVAL
1000
297
1002
}
1002
{
1000
H
1070
     2
1002
}
1002
{
1000
WVAL
1000
420
1002
}
1002
{
1000
W
1070
     2
1002
}
1002
{
1000
C
1070
     4
1002
}
1001
GENIUS_GENOBJ-N-REC_13
1002
{
1000
OWNER
1000
GEN
1002
}
1001
GENIUS_GENODEF_13
1002
{
1000
HIER
1070
     0
1002
}
1002
{
1000
MANEDIT
1070
     0
1002
}
1002
{
1000
NOSEL
1070
     0
1002
}
1002
{
1000
BEHIND
1070
     0
1002
}
1002
{
1000
OTHER
1070
     0
1002
}
1002
{
1000
REACTOR
1002
}
  0
LINE
  5
2556E
330
37
100
AcDbEntity
  8
size
100
AcDbLine
 10
591.2765940821835
 20
-1862.5
 30
0.0
 11
888.2765940821837
 21
-1862.5
 31
0.0
1001
GENIUS_GENREC_14
1002
{
1000
PYDIR
1011
591.2765940821835
1021
-1565.5
1031
0.0
1002
}
1002
{
1000
PXDIR
1011
1011.276594082183
1021
-1862.5
1031
0.0
1002
}
1002
{
1000
PORI
1011
591.2765940821835
1021
-1862.5
1031
0.0
1002
}
1002
{
1000
PINS
1011
801.2765940821836
1021
-1714.0
1031
0.0
1002
}
1002
{
1000
HVAL
1000
297
1002
}
1002
{
1000
H
1070
     2
1002
}
1002
{
1000
WVAL
1000
420
1002
}
1002
{
1000
W
1070
     2
1002
}
1002
{
1000
C
1070
     4
1002
}
1001
GENIUS_GENOBJ-N-REC_13
1002
{
1000
OWNER
1000
GEN
1002
}
1001
GENIUS_GENODEF_13
1002
{
1000
HIER
1070
     0
1002
}
1002
{
1000
MANEDIT
1070
     0
1002
}
1002
{
1000
NOSEL
1070
     0
1002
}
1002
{
1000
BEHIND
1070
     0
1002
}
1002
{
1000
OTHER
1070
     0
1002
}
1002
{
1000
REACTOR
1002
}
  0
LINE
  5
2556F
330
37
100
AcDbEntity
  8
AM_0
100
AcDbLine
 10
622.7765940821837
 20
-1871.0
 30
0.0
 11
622.7765940821837
 21
-1951.0
 31
0.0
  0
LINE
  5
25570
330
37
100
AcDbEntity
  8
AM_4
100
AcDbLine
 10
602.7765940821836
 20
-1879.0
 30
0.0
 11
700.8969717350642
 21
-1879.0
 31
0.0
  0
LINE
  5
25571
330
37
100
AcDbEntity
  8
AM_4
100
AcDbLine
 10
602.7765940821836
 20
-1887.0
 30
0.0
 11
700.8969717350642
 21
-1887.0
 31
0.0
  0
LINE
  5
25572
330
37
100
AcDbEntity
  8
AM_4
100
AcDbLine
 10
602.7765940821836
 20
-1903.0
 30
0.0
 11
700.8969717350642
 21
-1903.0
 31
0.0
  0
LINE
  5
25573
330
37
100
AcDbEntity
  8
AM_4
100
AcDbLine
 10
602.7765940821836
 20
-1919.0
 30
0.0
 11
700.8969717350642
 21
-1919.0
 31
0.0
  0
LINE
  5
25574
330
37
100
AcDbEntity
  8
AM_4
100
AcDbLine
 10
602.7765940821836
 20
-1935.0
 30
0.0
 11
700.8969717350642
 21
-1935.0
 31
0.0
  0
LINE
  5
25575
330
37
100
AcDbEntity
  8
AM_0
100
AcDbLine
 10
602.7765940821836
 20
-1871.0
 30
0.0
 11
602.7765940821836
 21
-1951.0
 31
0.0
  0
LINE
  5
25576
330
37
100
AcDbEntity
  8
AM_0
100
AcDbLine
 10
602.7765940821836
 20
-1871.0
 30
0.0
 11
700.8969717350642
 21
-1871.0
 31
0.0
  0
LINE
  5
25577
330
37
100
AcDbEntity
  8
AM_0
100
AcDbLine
 10
700.8969717350642
 20
-1871.0
 30
0.0
 11
700.8969717350642
 21
-1951.0
 31
0.0
  0
TEXT
  5
25578
330
37
100
AcDbEntity
  8
AM_6
100
AcDbText
 10
608.4335940821837
 20
-1876.6
 30
0.0
 40
3.2
  1
品　名
 41
0.85537027
100
AcDbText
  0
TEXT
  5
25579
330
37
100
AcDbEntity
  8
AM_6
100
AcDbText
 10
608.4335940821837
 20
-1884.6
 30
0.0
 40
3.2
  1
品　番
 41
0.85537027
100
AcDbText
  0
TEXT
  5
2557A
330
37
100
AcDbEntity
  8
AM_6
100
AcDbText
 10
608.4335940821837
 20
-1893.038238760279
 30
0.0
 40
3.2
  1
材　質
 41
0.85537027
100
AcDbText
  0
TEXT
  5
2557B
330
37
100
AcDbEntity
  8
AM_6
100
AcDbText
 10
608.4335940821837
 20
-1908.747991500865
 30
0.0
 40
3.2
  1
仕上げ
 41
0.85537027
100
AcDbText
  0
TEXT
  5
2557C
330
37
100
AcDbEntity
  8
AM_6
100
AcDbText
 10
610.0335940821832
 20
-1940.543710365888
 30
0.0
 40
3.2
  1
備考
 41
0.8643907499999999
100
AcDbText
  0
TEXT
  5
2557D
330
37
100
AcDbEntity
  8
AM_6
100
AcDbText
 10
625.6335940821836
 20
-1876.6
 30
0.0
 40
3.2
  1
ハンマーロック用パイプ
 41
0.84306961
100
AcDbText
  0
TEXT
  5
2557E
330
37
100
AcDbEntity
  8
AM_6
100
AcDbText
 10
625.6335940821836
 20
-1884.6
 30
0.0
 40
3.2
  1
S4206318
 41
0.84741102
100
AcDbText
  0
TEXT
  5
2557F
330
37
100
AcDbEntity
  8
AM_6
100
AcDbText
 10
625.6335940821836
 20
-1892.6
 30
0.0
 40
3.2
  1
パイプ：ステンレス
 41
0.84634979
100
AcDbText
  0
TEXT
  5
25580
330
37
100
AcDbEntity
  8
AM_6
100
AcDbText
 10
625.6335940821836
 20
-1908.6
 30
0.0
 40
3.2
  1
パイプ：鏡面
 41
0.84350122
100
AcDbText
  0
TEXT
  5
25581
330
37
100
AcDbEntity
  8
AM_6
100
AcDbText
 10
610.0335940821832
 20
-1924.6
 30
0.0
 40
3.2
  1
勝手
 41
0.8643907499999999
100
AcDbText
  0
LINE
  5
25582
330
37
100
AcDbEntity
  8
AM_0
100
AcDbLine
 10
602.7765940821836
 20
-1951.0
 30
0.0
 11
700.8969717350642
 21
-1951.0
 31
0.0
  0
LINE
  5
25583
330
37
100
AcDbEntity
  8
size
100
AcDbLine
 10
591.2765940821835
 20
-1862.5
 30
0.0
 11
888.2765940821837
 21
-1862.5
 31
0.0
1001
GENIUS_GENREC_14
1002
{
1000
PYDIR
1011
591.2765940821835
1021
-1775.5
1031
0.0
1002
}
1002
{
1000
PXDIR
1011
1011.276594082183
1021
-2072.5
1031
0.0
1002
}
1002
{
1000
PORI
1011
591.2765940821835
1021
-2072.5
1031
0.0
1002
}
1002
{
1000
PINS
1011
801.2765940821836
1021
-1924.0
1031
0.0
1002
}
1002
{
1000
HVAL
1000
297
1002
}
1002
{
1000
H
1070
     2
1002
}
1002
{
1000
WVAL
1000
420
1002
}
1002
{
1000
W
1070
     2
1002
}
1002
{
1000
C
1070
     4
1002
}
1001
GENIUS_GENOBJ-N-REC_13
1002
{
1000
OWNER
1000
GEN
1002
}
1001
GENIUS_GENODEF_13
1002
{
1000
HIER
1070
     0
1002
}
1002
{
1000
MANEDIT
1070
     0
1002
}
1002
{
1000
NOSEL
1070
     0
1002
}
1002
{
1000
BEHIND
1070
     0
1002
}
1002
{
1000
OTHER
1070
     0
1002
}
1002
{
1000
REACTOR
1002
}
  0
LINE
  5
25584
330
37
100
AcDbEntity
  8
size
100
AcDbLine
 10
888.2765940821837
 20
-1862.5
 30
0.0
 11
888.2765940821837
 21
-2072.5
 31
0.0
1001
GENIUS_GENREC_14
1002
{
1000
PYDIR
1011
591.2765940821835
1021
-1775.5
1031
0.0
1002
}
1002
{
1000
PXDIR
1011
1011.276594082183
1021
-2072.5
1031
0.0
1002
}
1002
{
1000
PORI
1011
591.2765940821835
1021
-2072.5
1031
0.0
1002
}
1002
{
1000
PINS
1011
801.2765940821836
1021
-1924.0
1031
0.0
1002
}
1002
{
1000
HVAL
1000
297
1002
}
1002
{
1000
H
1070
     2
1002
}
1002
{
1000
WVAL
1000
420
1002
}
1002
{
1000
W
1070
     2
1002
}
1002
{
1000
C
1070
     4
1002
}
1001
GENIUS_GENOBJ-N-REC_13
1002
{
1000
OWNER
1000
GEN
1002
}
1001
GENIUS_GENODEF_13
1002
{
1000
HIER
1070
     0
1002
}
1002
{
1000
MANEDIT
1070
     0
1002
}
1002
{
1000
NOSEL
1070
     0
1002
}
1002
{
1000
BEHIND
1070
     0
1002
}
1002
{
1000
OTHER
1070
     0
1002
}
1002
{
1000
REACTOR
1002
}
  0
LINE
  5
25585
330
37
100
AcDbEntity
  8
waku
100
AcDbLine
 10
602.7765940821836
 20
-2064.0
 30
0.0
 11
876.7765940821837
 21
-2064.0
 31
0.0
1001
GENIUS_GENREC_14
1002
{
1000
PYDIR
1011
591.2765940821835
1021
-1775.5
1031
0.0
1002
}
1002
{
1000
PXDIR
1011
1011.276594082183
1021
-2072.5
1031
0.0
1002
}
1002
{
1000
PORI
1011
591.2765940821835
1021
-2072.5
1031
0.0
1002
}
1002
{
1000
PINS
1011
801.2765940821836
1021
-1924.0
1031
0.0
1002
}
1002
{
1000
HVAL
1000
297
1002
}
1002
{
1000
H
1070
     2
1002
}
1002
{
1000
WVAL
1000
420
1002
}
1002
{
1000
W
1070
     2
1002
}
1002
{
1000
C
1070
     4
1002
}
  0
LINE
  5
25586
330
37
100
AcDbEntity
  8
waku
100
AcDbLine
 10
876.7765940821837
 20
-1871.0
 30
0.0
 11
602.7765940821836
 21
-1871.0
 31
0.0
1001
GENIUS_GENREC_14
1002
{
1000
PYDIR
1011
468.2765940821837
1021
-1862.5
1031
0.0
1002
}
1002
{
1000
PXDIR
1011
888.2765940821837
1021
-2159.5
1031
0.0
1002
}
1002
{
1000
PORI
1011
468.2765940821837
1021
-2159.5
1031
0.0
1002
}
1002
{
1000
PINS
1011
678.2765940821835
1021
-2011.0
1031
0.0
1002
}
1002
{
1000
HVAL
1000
297
1002
}
1002
{
1000
H
1070
     2
1002
}
1002
{
1000
WVAL
1000
420
1002
}
1002
{
1000
W
1070
     2
1002
}
1002
{
1000
C
1070
     4
1002
}
1001
GENIUS_GENOBJ-N-REC_13
1002
{
1000
OWNER
1000
GEN
1002
}
1001
GENIUS_GENODEF_13
1002
{
1000
HIER
1070
     0
1002
}
1002
{
1000
MANEDIT
1070
     0
1002
}
1002
{
1000
NOSEL
1070
     0
1002
}
1002
{
1000
BEHIND
1070
     0
1002
}
1002
{
1000
OTHER
1070
     0
1002
}
1002
{
1000
REACTOR
1002
}
  0
LINE
  5
25587
330
37
100
AcDbEntity
  8
waku
100
AcDbLine
 10
602.7765940821836
 20
-1871.0
 30
0.0
 11
602.7765940821836
 21
-2064.0
 31
0.0
1001
GENIUS_GENREC_14
1002
{
1000
PYDIR
1011
591.2765940821835
1021
-1775.5
1031
0.0
1002
}
1002
{
1000
PXDIR
1011
1011.276594082183
1021
-2072.5
1031
0.0
1002
}
1002
{
1000
PORI
1011
591.2765940821835
1021
-2072.5
1031
0.0
1002
}
1002
{
1000
PINS
1011
801.2765940821836
1021
-1924.0
1031
0.0
1002
}
1002
{
1000
HVAL
1000
297
1002
}
1002
{
1000
H
1070
     2
1002
}
1002
{
1000
WVAL
1000
420
1002
}
1002
{
1000
W
1070
     2
1002
}
1002
{
1000
C
1070
     4
1002
}
1001
GENIUS_GENOBJ-N-REC_13
1002
{
1000
OWNER
1000
GEN
1002
}
1001
GENIUS_GENODEF_13
1002
{
1000
HIER
1070
     0
1002
}
1002
{
1000
MANEDIT
1070
     0
1002
}
1002
{
1000
NOSEL
1070
     0
1002
}
1002
{
1000
BEHIND
1070
     0
1002
}
1002
{
1000
OTHER
1070
     0
1002
}
1002
{
1000
REACTOR
1002
}
  0
LINE
  5
25588
330
37
100
AcDbEntity
  8
waku
100
AcDbLine
 10
876.7765940821837
 20
-2064.0
 30
0.0
 11
876.7765940821837
 21
-1871.0
 31
0.0
1001
GENIUS_GENREC_14
1002
{
1000
PYDIR
1011
468.2765940821837
1021
-1856.5
1031
0.0
1002
}
1002
{
1000
PXDIR
1011
888.2765940821837
1021
-2153.5
1031
0.0
1002
}
1002
{
1000
PORI
1011
468.2765940821837
1021
-2153.5
1031
0.0
1002
}
1002
{
1000
PINS
1011
678.2765940821835
1021
-2005.0
1031
0.0
1002
}
1002
{
1000
HVAL
1000
297
1002
}
1002
{
1000
H
1070
     2
1002
}
1002
{
1000
WVAL
1000
420
1002
}
1002
{
1000
W
1070
     2
1002
}
1002
{
1000
C
1070
     4
1002
}
1001
GENIUS_GENOBJ-N-REC_13
1002
{
1000
OWNER
1000
GEN
1002
}
1001
GENIUS_GENODEF_13
1002
{
1000
HIER
1070
     0
1002
}
1002
{
1000
MANEDIT
1070
     0
1002
}
1002
{
1000
NOSEL
1070
     0
1002
}
1002
{
1000
BEHIND
1070
     0
1002
}
1002
{
1000
OTHER
1070
     0
1002
}
1002
{
1000
REACTOR
1002
}
  0
LINE
  5
25589
330
37
100
AcDbEntity
  8
size
100
AcDbLine
 10
591.2765940821835
 20
-1862.5
 30
0.0
 11
591.2765940821835
 21
-2072.5
 31
0.0
1001
GENIUS_GENREC_14
1002
{
1000
PYDIR
1011
591.2765940821835
1021
-1775.5
1031
0.0
1002
}
1002
{
1000
PXDIR
1011
1011.276594082183
1021
-2072.5
1031
0.0
1002
}
1002
{
1000
PORI
1011
591.2765940821835
1021
-2072.5
1031
0.0
1002
}
1002
{
1000
PINS
1011
801.2765940821836
1021
-1924.0
1031
0.0
1002
}
1002
{
1000
HVAL
1000
297
1002
}
1002
{
1000
H
1070
     2
1002
}
1002
{
1000
WVAL
1000
420
1002
}
1002
{
1000
W
1070
     2
1002
}
1002
{
1000
C
1070
     4
1002
}
1001
GENIUS_GENOBJ-N-REC_13
1002
{
1000
OWNER
1000
GEN
1002
}
1001
GENIUS_GENODEF_13
1002
{
1000
HIER
1070
     0
1002
}
1002
{
1000
MANEDIT
1070
     0
1002
}
1002
{
1000
NOSEL
1070
     0
1002
}
1002
{
1000
BEHIND
1070
     0
1002
}
1002
{
1000
OTHER
1070
     0
1002
}
1002
{
1000
REACTOR
1002
}
  0
LINE
  5
2558A
330
37
100
AcDbEntity
  8
size
100
AcDbLine
 10
591.2765940821835
 20
-2072.5
 30
0.0
 11
888.2765940821837
 21
-2072.5
 31
0.0
1001
GENIUS_GENREC_14
1002
{
1000
PYDIR
1011
591.2765940821835
1021
-1775.5
1031
0.0
1002
}
1002
{
1000
PXDIR
1011
1011.276594082183
1021
-2072.5
1031
0.0
1002
}
1002
{
1000
PORI
1011
591.2765940821835
1021
-2072.5
1031
0.0
1002
}
1002
{
1000
PINS
1011
801.2765940821836
1021
-1924.0
1031
0.0
1002
}
1002
{
1000
HVAL
1000
297
1002
}
1002
{
1000
H
1070
     2
1002
}
1002
{
1000
WVAL
1000
420
1002
}
1002
{
1000
W
1070
     2
1002
}
1002
{
1000
C
1070
     4
1002
}
1001
GENIUS_GENOBJ-N-REC_13
1002
{
1000
OWNER
1000
GEN
1002
}
1001
GENIUS_GENODEF_13
1002
{
1000
HIER
1070
     0
1002
}
1002
{
1000
MANEDIT
1070
     0
1002
}
1002
{
1000
NOSEL
1070
     0
1002
}
1002
{
1000
BEHIND
1070
     0
1002
}
1002
{
1000
OTHER
1070
     0
1002
}
1002
{
1000
REACTOR
1002
}
  0
LINE
  5
2558D
330
37
100
AcDbEntity
  8
AM_0
100
AcDbLine
 10
625.6883677751346
 20
-1981.930245346311
 30
0.0
 11
800.1853947340013
 21
-1981.930245346311
 31
0.0
  0
HATCH
  5
2558E
330
37
100
AcDbEntity
  8
AM_8
100
AcDbHatch
 10
0.0
 20
0.0
 30
0.0
210
0.0
220
0.0
230
1.0
  2
ANSI31
 70
     0
 71
     0
 91
        2
 92
        5
 93
        4
 72
     4
 94
        3
 73
     0
 74
     0
 95
        8
 96
        4
 40
35.45376825771564
 40
35.45376825771564
 40
35.45376825771564
 40
35.45376825771564
 40
38.69763680095532
 40
38.69763680095532
 40
38.69763680095532
 40
38.69763680095532
 10
732.5315619819125
 20
-2012.93024534631
 10
732.9181810992308
 20
-2013.933040484628
 10
733.3883928533383
 20
-2014.932685783659
 10
733.9139573374922
 20
-2015.930245346309
 72
     1
 10
733.9139573374938
 20
-2015.930245346312
 11
800.1853947340013
 21
-2015.930245346312
 72
     1
 10
800.1853947340013
 20
-2015.930245346312
 11
800.1853947340013
 21
-2012.930245346311
 72
     1
 10
800.1853947340013
 20
-2012.930245346311
 11
732.531561981913
 21
-2012.930245346311
 97
        0
 92
        5
 93
        4
 72
     4
 94
        3
 73
     0
 74
     0
 95
        8
 96
        4
 40
35.45376825771565
 40
35.45376825771565
 40
35.45376825771565
 40
35.45376825771565
 40
38.69763680095533
 40
38.69763680095533
 40
38.69763680095533
 40
38.69763680095533
 10
733.9139573374922
 20
-2015.930245346309
 10
733.3883928533383
 20
-2014.932685783659
 10
732.9181810992308
 20
-2013.933040484628
 10
732.5315619819125
 20
-2012.93024534631
 72
     1
 10
732.5315619819129
 20
-2012.930245346312
 11
625.6883677751346
 21
-2012.930245346312
 72
     1
 10
625.6883677751346
 20
-2012.930245346312
 11
625.6883677751346
 21
-2015.930245346312
 72
     1
 10
625.6883677751346
 20
-2015.930245346312
 11
733.9139573374938
 21
-2015.930245346312
 97
        0
 75
     0
 76
     1
 52
0.0
 41
0.5
 77
     0
 78
     1
 53
45.0
 43
-893.7234059178162
 44
2353.318225041028
 45
-1.122532015133643
 46
1.122532015133643
 79
     0
 47
0.2143301194945216
 98
        2
 10
762.3791024840237
 20
-2014.177695209184
 10
728.2810800631696
 20
-2015.035017480734
1001
ACAD
1010
0.0
1020
0.0
1030
0.0
  0
LINE
  5
2558F
330
37
100
AcDbEntity
  8
AM_0
100
AcDbLine
 10
625.6883677751346
 20
-2015.930245346312
 30
0.0
 11
800.1853947340013
 21
-2015.930245346312
 31
0.0
  0
LINE
  5
25590
102
{ACAD_REACTORS
330
2559C
102
}
330
37
100
AcDbEntity
  8
AM_0
100
AcDbLine
 10
625.6883677751346
 20
-2012.930245346312
 30
0.0
 11
800.1853947340013
 21
-2012.930245346312
 31
0.0
  0
LINE
  5
25591
330
37
100
AcDbEntity
  8
AM_0
100
AcDbLine
 10
625.6883677751346
 20
-1981.930245346311
 30
0.0
 11
625.6883677751346
 21
-2015.930245346312
 31
0.0
  0
LINE
  5
25592
102
{ACAD_REACTORS
330
2559F
102
}
330
37
100
AcDbEntity
  8
AM_0
100
AcDbLine
 10
800.1853947340013
 20
-1981.930245346311
 30
0.0
 11
800.1853947340013
 21
-2015.930245346312
 31
0.0
  0
LINE
  5
25593
330
37
100
AcDbEntity
  8
AM_7
 48
0.1
100
AcDbLine
 10
620.4947196549667
 20
-1998.930245346311
 30
0.0
 11
804.1110500664466
 21
-1998.930245346311
 31
0.0
  0
SPLINE
  5
25594
330
37
100
AcDbEntity
  8
AM_2
100
AcDbSpline
210
0.0
220
0.0
230
1.0
 70
     8
 71
     3
 72
    10
 73
     6
 74
     4
 42
0.0000000001
 43
0.0000000001
 44
0.0000000001
 40
0.0
 40
0.0
 40
0.0
 40
0.0
 40
11.02669017819663
 40
31.02675906529672
 40
46.98323025344268
 40
46.98323025344268
 40
46.98323025344268
 40
46.98323025344268
 10
713.8231114636238
 20
-1976.997324738183
 30
0.0
 10
715.2679046737785
 20
-1980.538628706511
 30
0.0
 10
719.3332452343831
 20
-1990.503104285915
 30
0.0
 10
707.7398071438495
 20
-2005.916461736398
 30
0.0
 10
714.5655031578016
 20
-2016.904127443698
 30
0.0
 10
717.5945493774252
 20
-2021.780135283068
 30
0.0
 11
713.8231114636238
 21
-1976.997324738183
 31
0.0
 11
716.6770288861861
 21
-1987.648289559791
 31
0.0
 11
711.5989044860597
 21
-2006.992937606876
 31
0.0
 11
717.5945493774252
 21
-2021.780135283068
 31
0.0
  0
LINE
  5
25595
330
37
100
AcDbEntity
  8
AM_3
 48
0.1
100
AcDbLine
 10
625.6883677751346
 20
-1984.93024534631
 30
0.0
 11
800.1853947340013
 21
-1984.93024534631
 31
0.0
  0
DIMENSION
  5
2559A
102
{ACAD_XDICTIONARY
360
2559B
102
}
102
{ACAD_REACTORS
330
2559C
102
}
330
37
100
AcDbEntity
  8
AM_5
100
AcDbDimension
  2
*D14
 10
814.2567362701802
 20
-2015.930245346312
 30
0.0
 11
811.1567362701805
 21
-2020.176912012978
 31
0.0
 70
    32
 71
     5
 42
3.0
  3
SYS$0
100
AcDbAlignedDimension
 13
800.1853947340013
 23
-2012.930245346312
 33
0.0
 14
800.1853947340013
 24
-2015.930245346312
 34
0.0
 50
90.0
100
AcDbRotatedDimension
1001
ACAD
1000
DSTYLE
1002
{
1070
    40
1040
1.0
1070
   271
1070
     1
1002
}
  0
DIMENSION
  5
2559D
102
{ACAD_XDICTIONARY
360
2559E
102
}
102
{ACAD_REACTORS
330
2559F
102
}
330
37
100
AcDbEntity
  8
AM_5
100
AcDbDimension
  2
*D15
 10
823.560188562099
 20
-1981.930245346311
 30
0.0
 11
820.4601885620993
 21
-1998.930245346311
 31
0.0
 70
    32
  1
%%c<>
 71
     5
 42
34.00000000000068
  3
SYS$0
100
AcDbAlignedDimension
 13
800.1853947340013
 23
-2015.930245346312
 33
0.0
 14
800.1853947340013
 24
-1981.930245346311
 34
0.0
 50
90.0
100
AcDbRotatedDimension
1001
ACAD
1000
DSTYLE
1002
{
1070
    40
1040
1.0
1070
   271
1070
     1
1002
}
  0
DIMENSION
  5
255A0
330
37
100
AcDbEntity
  8
AM_5
100
AcDbDimension
  2
*D13
 10
800.1853947340013
 20
-1969.930245346311
 30
0.0
 11
712.936881254568
 21
-1966.830245346311
 31
0.0
 70
    32
  1
L=3000
 71
     5
 42
174.4970269588665
  3
SYS$0
100
AcDbAlignedDimension
 13
625.6883677751346
 23
-1981.930245346311
 33
0.0
 14
800.1853947340013
 24
-1981.930245346311
 34
0.0
 50
180.0
100
AcDbRotatedDimension
1001
ACAD
1000
DSTYLE
1002
{
1070
    40
1040
1.0
1070
   271
1070
     1
1002
}
  0
CIRCLE
  5
255E9
330
37
100
AcDbEntity
  8
AM_0
100
AcDbCircle
 10
851.754188849757
 20
-1998.930245346311
 30
0.0
 40
17.0
  0
LINE
  5
255EC
330
37
100
AcDbEntity
  8
AM_7
 48
0.1
100
AcDbLine
 10
851.754188849757
 20
-2018.930245346311
 30
0.0
 11
851.754188849757
 21
-1978.93024534631
 31
0.0
  0
LINE
  5
255ED
330
37
100
AcDbEntity
  8
AM_7
 48
0.1
100
AcDbLine
 10
871.7541888497571
 20
-1998.930245346311
 30
0.0
 11
831.7541888497569
 21
-1998.930245346311
 31
0.0
  0
TEXT
  5
46C60
330
37
100
AcDbEntity
  8
AM_6
 60
     1
100
AcDbText
 10
-795.5785272793876
 20
3418.998205108394
 30
0.0
 40
12.5
  1
!GENTITLE-INSERT
100
AcDbText
  0
TEXT
  5
46C61
330
37
100
AcDbEntity
  8
AM_6
 60
     1
100
AcDbText
 10
-2838.078527279387
 20
3376.498205108395
 30
0.0
 40
12.5
  1
!GENTITLE-LL
100
AcDbText
  0
TEXT
  5
46C62
330
37
100
AcDbEntity
  8
AM_6
 60
     1
100
AcDbText
 10
-738.0785272793872
 20
4861.498205108394
 30
0.0
 40
12.5
  1
!GENTITLE-RU
100
AcDbText
  0
TEXT
  5
46C63
330
37
100
AcDbEntity
  8
AM_6
 60
     1
100
AcDbText
 10
-738.0785272793872
 20
4861.498205108394
 30
0.0
 40
12.5
  1
!GENTITLE-MAX
100
AcDbText
  0
TEXT
  5
46C6B
330
37
100
AcDbEntity
  8
AM_6
 60
     1
100
AcDbText
 10
-2838.078527279387
 20
3376.498205108395
 30
0.0
 40
12.5
  1
!GENTITLE-LL
100
AcDbText
  0
TEXT
  5
46C6C
330
37
100
AcDbEntity
  8
AM_6
 60
     1
100
AcDbText
 10
-795.5785272793872
 20
4818.998205108394
 30
0.0
 40
12.5
  1
!GENTITLE-RU
100
AcDbText
  0
TEXT
  5
46C6D
330
37
100
AcDbEntity
  8
AM_6
 60
     1
100
AcDbText
 10
-738.0785272793872
 20
4861.498205108394
 30
0.0
 40
12.5
  1
!GENTITLE-MAX
100
AcDbText
  0
TEXT
  5
46C6E
330
37
100
AcDbEntity
  8
AM_6
 60
     1
100
AcDbText
 10
-795.5785272793876
 20
3418.998205108394
 30
0.0
 40
12.5
  1
!GENTITLE-INSERT
100
AcDbText
  0
TEXT
  5
4E673
330
37
100
AcDbEntity
  8
AM_6
 60
     1
100
AcDbText
 10
-1434.541034734776
 20
-3507.796649266734
 30
0.0
 40
12.5
  1
!GENTITLE-INSERT
100
AcDbText
  0
TEXT
  5
4E674
330
37
100
AcDbEntity
  8
AM_6
 60
     1
100
AcDbText
 10
-1377.041034734776
 20
-2500.296649266735
 30
0.0
 40
12.5
  1
!GENTITLE-MAX
100
AcDbText
  0
TEXT
  5
4E675
330
37
100
AcDbEntity
  8
AM_6
 60
     1
100
AcDbText
 10
-1377.041034734776
 20
-2500.296649266735
 30
0.0
 40
12.5
  1
!GENTITLE-RU
100
AcDbText
  0
TEXT
  5
4E677
330
37
100
AcDbEntity
  8
AM_6
 60
     1
100
AcDbText
 10
-2862.041034734776
 20
-3550.296649266734
 30
0.0
 40
12.5
  1
!GENTITLE-LL
100
AcDbText
  0
CIRCLE
  5
5FC67
330
37
100
AcDbEntity
  8
AM_0
100
AcDbCircle
 10
851.754188849757
 20
-1998.930245346311
 30
0.0
 40
14.0
  0
ENDSEC
  0
SECTION
  2
OBJECTS
  0
DICTIONARY
  5
C
330
0
100
AcDbDictionary
281
     1
  3
ACAD_2007HEADERVARS_RT
350
5FDC8
  3
ACAD_COLOR
350
30
  3
ACAD_GROUP
350
D
  3
ACAD_LAYOUT
350
2F
  3
ACAD_MATERIAL
350
10
  3
ACAD_MLINESTYLE
350
2C
  3
ACAD_PLOTSETTINGS
350
2E
  3
ACAD_PLOTSTYLENAME
350
E
  3
ACAD_TABLESTYLE
350
31
  3
ACAD_VISUALSTYLE
350
14
  3
AcDbVariableDictionary
350
A758
  3
AcmDictionary
350
C7
  3
AMG
350
7E
  3
AMGSNAPSETTINGS
350
182
  3
DWGPROPS
350
5FDC7
  0
DICTIONARY
  5
5F9AB
330
8
100
AcDbDictionary
280
     1
281
     1
  0
DICTIONARY
  5
156
330
2
100
AcDbDictionary
280
     1
281
     1
  3
ACAD_LAYERSTATES
360
157
  0
DICTIONARY
  5
136
330
135
100
AcDbDictionary
280
     1
281
     1
  3
ADSK_XREC_LAYER_RECONCILED
360
137
  0
DICTIONARY
  5
139
330
138
100
AcDbDictionary
280
     1
281
     1
  3
ADSK_XREC_LAYER_RECONCILED
360
13A
  0
DICTIONARY
  5
13C
330
13B
100
AcDbDictionary
280
     1
281
     1
  3
ADSK_XREC_LAYER_RECONCILED
360
13D
  0
DICTIONARY
  5
13F
330
13E
100
AcDbDictionary
280
     1
281
     1
  3
ADSK_XREC_LAYER_RECONCILED
360
140
  0
DICTIONARY
  5
142
330
141
100
AcDbDictionary
280
     1
281
     1
  3
ADSK_XREC_LAYER_RECONCILED
360
143
  0
DICTIONARY
  5
145
330
144
100
AcDbDictionary
280
     1
281
     1
  3
ADSK_XREC_LAYER_RECONCILED
360
146
  0
DICTIONARY
  5
148
330
147
100
AcDbDictionary
280
     1
281
     1
  3
ADSK_XREC_LAYER_RECONCILED
360
149
  0
DICTIONARY
  5
14B
330
14A
100
AcDbDictionary
280
     1
281
     1
  3
ADSK_XREC_LAYER_RECONCILED
360
14C
  0
DICTIONARY
  5
194
330
193
100
AcDbDictionary
280
     1
281
     1
  3
ADSK_XREC_LAYER_RECONCILED
360
195
  0
DICTIONARY
  5
197
330
196
100
AcDbDictionary
280
     1
281
     1
  3
ADSK_XREC_LAYER_RECONCILED
360
198
  0
DICTIONARY
  5
19A
330
199
100
AcDbDictionary
280
     1
281
     1
  3
ADSK_XREC_LAYER_RECONCILED
360
19B
  0
DICTIONARY
  5
19D
330
19C
100
AcDbDictionary
280
     1
281
     1
  3
ADSK_XREC_LAYER_RECONCILED
360
19E
  0
DICTIONARY
  5
1A3
330
1A2
100
AcDbDictionary
280
     1
281
     1
  3
ADSK_XREC_LAYER_RECONCILED
360
1A4
  0
DICTIONARY
  5
D14B
330
37
100
AcDbDictionary
280
     1
281
     1
  3
ACAD_SORTENTS
360
D14C
  0
DICTIONARY
  5
5FDD2
330
3537E
100
AcDbDictionary
280
     1
281
     1
  3
ACAD_MTEXT_RT
360
5FDD3
  0
DICTIONARY
  5
5FDD5
330
3537F
100
AcDbDictionary
280
     1
281
     1
  3
ACAD_MTEXT_RT
360
5FDD6
  0
DICTIONARY
  5
5FDD7
330
35380
100
AcDbDictionary
280
     1
281
     1
  3
ACAD_MTEXT_RT
360
5FDD8
  0
DICTIONARY
  5
2559B
330
2559A
100
AcDbDictionary
280
     1
281
     1
  3
ACAD_DIMASSOC
360
2559C
  0
DICTIONARY
  5
2559E
330
2559D
100
AcDbDictionary
280
     1
281
     1
  3
ACAD_DIMASSOC
360
2559F
  0
DICTIONARY
  5
5FDC8
102
{ACAD_REACTORS
330
C
102
}
330
C
100
AcDbDictionary
281
     1
  3
DIMARCSYM
350
5FDC9
  0
DICTIONARY
  5
30
102
{ACAD_REACTORS
330
C
102
}
330
C
100
AcDbDictionary
281
     1
  0
DICTIONARY
  5
D
102
{ACAD_REACTORS
330
C
102
}
330
C
100
AcDbDictionary
281
     1
  0
DICTIONARY
  5
2F
102
{ACAD_REACTORS
330
C
102
}
330
C
100
AcDbDictionary
281
     1
  3
Model
350
3A
  3
レイアウト1
350
36
  3
レイアウト2
350
3E
  0
DICTIONARY
  5
10
102
{ACAD_REACTORS
330
C
102
}
330
C
100
AcDbDictionary
281
     1
  3
ByBlock
350
12
  3
ByLayer
350
11
  3
Global
350
13
  0
DICTIONARY
  5
2C
102
{ACAD_REACTORS
330
C
102
}
330
C
100
AcDbDictionary
281
     1
  3
Standard
350
2D
  0
DICTIONARY
  5
2E
102
{ACAD_REACTORS
330
C
102
}
330
C
100
AcDbDictionary
281
     1
  0
ACDBDICTIONARYWDFLT
  5
E
102
{ACAD_REACTORS
330
C
102
}
330
C
100
AcDbDictionary
281
     1
  3
Normal
350
F
100
AcDbDictionaryWithDefault
340
F
  0
DICTIONARY
  5
31
102
{ACAD_REACTORS
330
C
102
}
330
C
100
AcDbDictionary
281
     1
  3
Standard
350
32
  0
DICTIONARY
  5
14
102
{ACAD_REACTORS
330
C
102
}
330
C
100
AcDbDictionary
281
     1
  3
2dWireframe
350
1A
  3
3D Hidden
350
1C
  3
3dWireframe
350
1B
  3
Basic
350
19
  3
Brighten
350
20
  3
ColorChange
350
24
  3
Conceptual
350
1D
  3
Dim
350
1F
  3
Facepattern
350
23
  3
Flat
350
15
  3
FlatWithEdges
350
16
  3
Gouraud
350
17
  3
GouraudWithEdges
350
18
  3
Linepattern
350
22
  3
Realistic
350
1E
  3
Thicken
350
21
  0
DICTIONARY
  5
A758
102
{ACAD_REACTORS
330
C
102
}
330
C
100
AcDbDictionary
281
     1
  3
CTABLESTYLE
350
A759
  3
DIMASSOC
350
5F9ED
  3
HIDETEXT
350
5F9EC
  3
INDEXCTL
350
5F9EB
  3
SORTENTS
350
5F9EA
  0
DICTIONARY
  5
C7
102
{ACAD_REACTORS
330
C
102
}
330
C
100
AcDbDictionary
281
     1
  3
AcmStdDictionary
350
C8
  3
AMDTSECTSYM_ARROWCOLOR
350
13FCB
  0
DICTIONARY
  5
7E
102
{ACAD_REACTORS
330
C
102
}
330
C
100
AcDbDictionary
281
     1
  0
DICTIONARY
  5
182
102
{ACAD_REACTORS
330
C
102
}
330
C
100
AcDbDictionary
281
     1
  0
XRECORD
  5
5FDC7
102
{ACAD_REACTORS
330
C
102
}
330
C
100
AcDbXrecord
280
     1
  1
DWGPROPS COOKIE
  2

  3

  4

  6

  7

  8
Administrator
  9

300
=
301
=
302
=
303
=
304
=
305
=
306
=
307
=
308
=
309
=
 40
1.403692106481481
 41
2456062.408044699
 42
2456314.418130961
  1

 90
        0
  0
DICTIONARY
  5
157
102
{ACAD_REACTORS
330
156
102
}
330
156
100
AcDbDictionary
281
     1
  3
20011210
350
158
  0
XRECORD
  5
137
102
{ACAD_REACTORS
330
136
102
}
330
136
100
AcDbXrecord
280
     1
290
     1
  0
XRECORD
  5
13A
102
{ACAD_REACTORS
330
139
102
}
330
139
100
AcDbXrecord
280
     1
290
     1
  0
XRECORD
  5
13D
102
{ACAD_REACTORS
330
13C
102
}
330
13C
100
AcDbXrecord
280
     1
290
     1
  0
XRECORD
  5
140
102
{ACAD_REACTORS
330
13F
102
}
330
13F
100
AcDbXrecord
280
     1
290
     1
  0
XRECORD
  5
143
102
{ACAD_REACTORS
330
142
102
}
330
142
100
AcDbXrecord
280
     1
290
     1
  0
XRECORD
  5
146
102
{ACAD_REACTORS
330
145
102
}
330
145
100
AcDbXrecord
280
     1
290
     1
  0
XRECORD
  5
149
102
{ACAD_REACTORS
330
148
102
}
330
148
100
AcDbXrecord
280
     1
290
     1
  0
XRECORD
  5
14C
102
{ACAD_REACTORS
330
14B
102
}
330
14B
100
AcDbXrecord
280
     1
290
     1
  0
XRECORD
  5
195
102
{ACAD_REACTORS
330
194
102
}
330
194
100
AcDbXrecord
280
     1
290
     1
  0
XRECORD
  5
198
102
{ACAD_REACTORS
330
197
102
}
330
197
100
AcDbXrecord
280
     1
290
     1
  0
XRECORD
  5
19B
102
{ACAD_REACTORS
330
19A
102
}
330
19A
100
AcDbXrecord
280
     1
290
     1
  0
XRECORD
  5
19E
102
{ACAD_REACTORS
330
19D
102
}
330
19D
100
AcDbXrecord
280
     1
290
     1
  0
XRECORD
  5
1A4
102
{ACAD_REACTORS
330
1A3
102
}
330
1A3
100
AcDbXrecord
280
     1
290
     1
  0
SORTENTSTABLE
  5
D14C
102
{ACAD_REACTORS
330
D14B
102
}
330
D14B
100
AcDbSortentsTable
330
37
331
25581
  5
2F6C2
331
4E674
  5
5FC67
331
2558A
  5
2F6E3
331
25593
  5
2F707
331
25575
  5
2F6A1
331
25579
  5
2F6B1
331
2559A
  5
2F757
331
25582
  5
2F6C3
331
4E675
  5
5FC79
331
2556D
  5
2F685
331
25594
  5
2F73F
331
25576
  5
2F6A5
331
D38C
  5
54DD
331
2557A
  5
2F6B5
331
25583
  5
2F6C7
331
1AACF
  5
1ACC6
331
46C60
  5
DBFF
331
2556E
  5
2F689
331
25595
  5
2F743
331
25577
  5
2F6A9
331
D38D
  5
54DE
331
255E9
  5
2F74F
331
2557B
  5
2F6B9
331
25584
  5
2F6CB
331
1AAD0
  5
1ACCB
331
4E677
  5
5FC90
331
46C61
  5
DC00
331
2558D
  5
2F6EB
331
2556F
  5
2F68D
331
D38E
  5
54DF
331
2557C
  5
2F6BD
331
2559D
  5
2F75B
331
21E26
  5
1C52A
331
25585
  5
2F6CF
331
1AAD1
  5
1ACCC
331
46C62
  5
DC01
331
2558E
  5
2F6F3
331
25570
  5
2F691
331
46C6B
  5
DC0A
331
5FC67
  5
2F753
331
2557D
  5
2F6BE
331
21E27
  5
1C52E
331
25586
  5
2F6D3
331
46C63
  5
DC02
331
25571
  5
2F695
331
2558F
  5
2F6F7
331
46C6C
  5
DC0B
331
D390
  5
54E1
331
255EC
  5
5165F
331
21E28
  5
1C532
331
2557E
  5
2F6BF
331
25587
  5
2F6D7
331
1AAD3
  5
1ACD0
331
25590
  5
2F6FB
331
25572
  5
2F696
331
46C6D
  5
DC0C
331
255ED
  5
51660
331
2557F
  5
2F6C0
331
255A0
  5
5165E
331
25588
  5
2F6DB
331
25573
  5
2F699
331
25591
  5
2F6FF
331
46C6E
  5
DC0D
331
21E2A
  5
1C536
331
25580
  5
2F6C1
331
4E673
  5
51668
331
25589
  5
2F6DF
331
25592
  5
2F703
331
25574
  5
2F69D
331
25578
  5
2F6AD
  0
XRECORD
  5
5FDD3
102
{ACAD_REACTORS
330
5FDD2
102
}
330
5FDD2
100
AcDbXrecord
280
     1
 40
116104.0
  1
\fShinGo Medium|b0|i0|c0|p34;\W1;コードNo
  0
XRECORD
  5
5FDD6
102
{ACAD_REACTORS
330
5FDD5
102
}
330
5FDD5
100
AcDbXrecord
280
     1
 40
295733.0
  1
\fShinGo Medium|b0|i0|c0|p34;\W1;品\U+2003\U+2003\U+2003\U+2003\U+2003\U+2003\U+2003名 
  0
XRECORD
  5
5FDD8
102
{ACAD_REACTORS
330
5FDD7
102
}
330
5FDD7
100
AcDbXrecord
280
     1
 40
98836.0
  1
\fShinGo Medium|b0|i0|c0|p34;\W1;重量(kg)
  0
DIMASSOC
  5
2559C
102
{ACAD_REACTORS
330
2559B
102
}
330
2559B
100
AcDbDimAssoc
330
2559A
 90
        1
 70
     0
 71
     0
  1
AcDbOsnapPointRef
 72
     1
331
25590
 73
     0
 91
        0
 40
0.0
 10
0.0
 20
0.0
 30
2.000000000000000E+50
 75
     0
  0
DIMASSOC
  5
2559F
102
{ACAD_REACTORS
330
2559E
102
}
330
2559E
100
AcDbDimAssoc
330
2559D
 90
        3
 70
     0
 71
     0
  1
AcDbOsnapPointRef
 72
     1
331
25592
 73
     0
 91
        0
 40
0.0
 10
0.0
 20
0.0
 30
2.000000000000000E+50
 75
     0
  1
AcDbOsnapPointRef
 72
    13
331
25592
 73
     0
 91
        0
 40
0.0
 10
0.0
 20
0.0
 30
2.000000000000000E+50
 75
     0
  0
XRECORD
  5
5FDC9
102
{ACAD_REACTORS
330
5FDC8
102
}
330
5FDC8
100
AcDbXrecord
280
     1
 70
     1
  0
LAYOUT
  5
3A
102
{ACAD_XDICTIONARY
360
5FDCE
102
}
102
{ACAD_REACTORS
330
2F
102
}
330
2F
100
AcDbPlotSettings
  1

  2
DocuCentre-II C5400
  4
A3
  6

 40
4.857749938964841
 41
4.942420959472656
 42
4.9423828125
 43
4.857757568359375
 44
297.0106506347656
 45
420.0313415527343
 46
0.0
 47
0.0
 48
888.2765940821837
 49
27.5
140
2373.276594082184
141
2127.5
142
1.0
143
5.170423461314128
 70
 11952
 72
     1
 73
     0
 74
     4
  7
monochrome.ctb
 75
     0
147
0.1934077561503709
148
-888.2765940821837
149
-27.5
100
AcDbLayout
  1
Model
 70
     1
 71
     0
 10
0.0
 20
0.0
 11
12.0
 21
9.0
 12
0.0
 22
0.0
 32
0.0
 14
0.0
 24
0.0
 34
0.0
 15
0.0
 25
0.0
 35
0.0
146
0.0
 13
0.0
 23
0.0
 33
0.0
 16
1.0
 26
0.0
 36
0.0
 17
0.0
 27
1.0
 37
0.0
 76
     0
330
37
331
28
1001
ACAD_PSEXT
1000
DocuCentre-II C5400
1000
FX DocuCentre-II C5400
1000
192.168.2.200
1000

1070
     0
  0
LAYOUT
  5
36
102
{ACAD_XDICTIONARY
360
5FDCC
102
}
102
{ACAD_REACTORS
330
2F
102
}
330
2F
100
AcDbPlotSettings
  1

  2
DocuWide2055
  4

  6

 40
0.0
 41
0.0
 42
0.0
 43
0.0
 44
0.0
 45
0.0
 46
0.0
 47
0.0
 48
0.0
 49
0.0
140
0.0
141
0.0
142
1.0
143
1.0
 70
   688
 72
     0
 73
     0
 74
     5
  7
monochrome.ctb
 75
    16
147
1.0
148
0.0
149
0.0
100
AcDbLayout
  1
レイアウト1
 70
     1
 71
     1
 10
0.0
 20
0.0
 11
420.0
 21
297.0
 12
0.0
 22
0.0
 32
0.0
 14
1.000000000000000E+20
 24
1.000000000000000E+20
 34
1.000000000000000E+20
 15
-1.000000000000000E+20
 25
-1.000000000000000E+20
 35
-1.000000000000000E+20
146
0.0
 13
0.0
 23
0.0
 33
0.0
 16
1.0
 26
0.0
 36
0.0
 17
0.0
 27
1.0
 37
0.0
 76
     0
330
33
  0
LAYOUT
  5
3E
102
{ACAD_XDICTIONARY
360
5FDD0
102
}
102
{ACAD_REACTORS
330
2F
102
}
330
2F
100
AcDbPlotSettings
  1

  2
DocuWide2055
  4

  6

 40
0.0
 41
0.0
 42
0.0
 43
0.0
 44
0.0
 45
0.0
 46
0.0
 47
0.0
 48
0.0
 49
0.0
140
0.0
141
0.0
142
1.0
143
1.0
 70
   688
 72
     0
 73
     0
 74
     5
  7
monochrome.ctb
 75
    16
147
1.0
148
0.0
149
0.0
100
AcDbLayout
  1
レイアウト2
 70
     1
 71
     2
 10
0.0
 20
0.0
 11
12.0
 21
9.0
 12
0.0
 22
0.0
 32
0.0
 14
0.0
 24
0.0
 34
0.0
 15
0.0
 25
0.0
 35
0.0
146
0.0
 13
0.0
 23
0.0
 33
0.0
 16
1.0
 26
0.0
 36
0.0
 17
0.0
 27
1.0
 37
0.0
 76
     0
330
3B
  0
MATERIAL
  5
12
102
{ACAD_XDICTIONARY
360
5FCA0
102
}
102
{ACAD_REACTORS
330
10
102
}
330
10
100
AcDbMaterial
  1
ByBlock
  0
MATERIAL
  5
11
102
{ACAD_XDICTIONARY
360
5FC9E
102
}
102
{ACAD_REACTORS
330
10
102
}
330
10
100
AcDbMaterial
  1
ByLayer
  0
MATERIAL
  5
13
102
{ACAD_XDICTIONARY
360
5FCA2
102
}
102
{ACAD_REACTORS
330
10
102
}
330
10
100
AcDbMaterial
  1
Global
  0
MLINESTYLE
  5
2D
102
{ACAD_REACTORS
330
2C
102
}
330
2C
100
AcDbMlineStyle
  2
STANDARD
 70
     0
  3

 62
   256
 51
90.0
 52
90.0
 71
     2
 49
0.5
 62
   256
  6
BYLAYER
 49
-0.5
 62
   256
  6
BYLAYER
  0
ACDBPLACEHOLDER
  5
F
102
{ACAD_REACTORS
330
E
102
}
330
E
  0
TABLESTYLE
  5
32
102
{ACAD_XDICTIONARY
360
5FDCA
102
}
102
{ACAD_REACTORS
330
31
102
}
330
31
100
AcDbTableStyle
  3
Standard
 70
     0
 71
     0
 40
1.5
 41
1.5
280
     0
281
     0
  7
STANDARD
140
4.5
170
     2
 62
     0
 63
     7
283
     0
274
    -2
284
     1
 64
     0
275
    -2
285
     1
 65
     0
276
    -2
286
     1
 66
     0
277
    -2
287
     1
 67
     0
278
    -2
288
     1
 68
     0
279
    -2
289
     1
 69
     0
  7
STANDARD
140
6.0
170
     5
 62
     0
 63
     7
283
     0
274
    -2
284
     1
 64
     0
275
    -2
285
     1
 65
     0
276
    -2
286
     1
 66
     0
277
    -2
287
     1
 67
     0
278
    -2
288
     1
 68
     0
279
    -2
289
     1
 69
     0
  7
STANDARD
140
4.5
170
     5
 62
     0
 63
     7
283
     0
274
    -2
284
     1
 64
     0
275
    -2
285
     1
 65
     0
276
    -2
286
     1
 66
     0
277
    -2
287
     1
 67
     0
278
    -2
288
     1
 68
     0
279
    -2
289
     1
 69
     0
  0
VISUALSTYLE
  5
1A
102
{ACAD_REACTORS
330
14
102
}
330
14
100
AcDbVisualStyle
  2
2dWireframe
 70
     4
 71
     0
 72
     2
 73
     0
 90
        0
 40
-0.6
 41
-30.0
 62
     5
 63
     7
 74
     1
 91
        4
 64
     7
 65
   257
 75
     1
175
     1
 42
1.0
 92
        0
 66
   257
 43
1.0
 76
     1
 77
     6
 78
     2
 67
     7
 79
     5
170
     0
171
     0
290
     0
174
     0
 93
        1
 44
0.0
173
     0
291
     0
 45
0.0
1001
ACAD
1000
AcDbSavedByObjectVersion
1070
     0
1000
AcDbSavedByObjectVersion
1070
     0
1000
AcDbSavedByObjectVersion
1070
     0
  0
VISUALSTYLE
  5
1C
102
{ACAD_REACTORS
330
14
102
}
330
14
100
AcDbVisualStyle
  2
3D Hidden
 70
     6
 71
     1
 72
     2
 73
     2
 90
        0
 40
-0.6
 41
-30.0
 62
     5
 63
     7
 74
     2
 91
        2
 64
     7
 65
   257
 75
     2
175
     1
 42
40.0
 92
        0
 66
   257
 43
1.0
 76
     1
 77
     6
 78
     2
 67
     7
 79
     3
170
     0
171
     0
290
     0
174
     0
 93
        1
 44
0.0
173
     0
291
     0
 45
0.0
1001
ACAD
1000
AcDbSavedByObjectVersion
1070
     0
1000
AcDbSavedByObjectVersion
1070
     0
1000
AcDbSavedByObjectVersion
1070
     0
  0
VISUALSTYLE
  5
1B
102
{ACAD_REACTORS
330
14
102
}
330
14
100
AcDbVisualStyle
  2
3dWireframe
 70
     5
 71
     0
 72
     2
 73
     0
 90
        0
 40
-0.6
 41
-30.0
 62
     5
 63
     7
 74
     1
 91
        4
 64
     7
 65
   257
 75
     1
175
     1
 42
1.0
 92
        0
 66
   257
 43
1.0
 76
     1
 77
     6
 78
     2
 67
     7
 79
     5
170
     0
171
     0
290
     0
174
     0
 93
        1
 44
0.0
173
     0
291
     0
 45
0.0
1001
ACAD
1000
AcDbSavedByObjectVersion
1070
     0
1000
AcDbSavedByObjectVersion
1070
     0
1000
AcDbSavedByObjectVersion
1070
     0
  0
VISUALSTYLE
  5
19
102
{ACAD_REACTORS
330
14
102
}
330
14
100
AcDbVisualStyle
  2
Basic
 70
     7
 71
     1
 72
     0
 73
     1
 90
        0
 40
-0.6
 41
-30.0
 62
     5
 63
     7
 74
     0
 91
        4
 64
     7
 65
   257
 75
     1
175
     1
 42
1.0
 92
        8
 66
     7
 43
1.0
 76
     1
 77
     6
 78
     2
 67
     7
 79
     5
170
     0
171
     0
290
     0
174
     0
 93
        1
 44
0.0
173
     0
291
     1
 45
0.0
1001
ACAD
1000
AcDbSavedByObjectVersion
1070
     0
1000
AcDbSavedByObjectVersion
1070
     0
1000
AcDbSavedByObjectVersion
1070
     0
  0
VISUALSTYLE
  5
20
102
{ACAD_REACTORS
330
14
102
}
330
14
100
AcDbVisualStyle
  2
Brighten
 70
    12
 71
     2
 72
     2
 73
     0
 90
        0
 40
-0.6
 41
-30.0
 62
     5
 63
     7
 74
     1
 91
        4
 64
     7
 65
   257
 75
     1
175
     1
 42
1.0
 92
        8
 66
     7
 43
1.0
 76
     1
 77
     6
 78
     2
 67
     7
 79
     5
170
     0
171
     0
290
     0
174
     0
 93
        1
 44
50.0
173
     0
291
     1
 45
0.0
1001
ACAD
1000
AcDbSavedByObjectVersion
1070
     0
1000
AcDbSavedByObjectVersion
1070
     0
1000
AcDbSavedByObjectVersion
1070
     0
  0
VISUALSTYLE
  5
24
102
{ACAD_REACTORS
330
14
102
}
330
14
100
AcDbVisualStyle
  2
ColorChange
 70
    16
 71
     2
 72
     2
 73
     3
 90
        0
 40
-0.6
 41
-30.0
 62
     5
 63
     8
 74
     1
 91
        4
 64
     7
 65
   257
 75
     1
175
     1
 42
1.0
 92
        8
 66
     8
 43
1.0
 76
     1
 77
     6
 78
     2
 67
     7
 79
     5
170
     0
171
     0
290
     0
174
     0
 93
        1
 44
0.0
173
     0
291
     1
 45
0.0
1001
ACAD
1000
AcDbSavedByObjectVersion
1070
     0
1000
AcDbSavedByObjectVersion
1070
     0
1000
AcDbSavedByObjectVersion
1070
     0
  0
VISUALSTYLE
  5
1D
102
{ACAD_REACTORS
330
14
102
}
330
14
100
AcDbVisualStyle
  2
Conceptual
 70
     9
 71
     3
 72
     2
 73
     0
 90
        0
 40
-0.6
 41
-30.0
 62
     5
 63
     7
 74
     2
 91
        2
 64
     7
 65
   257
 75
     1
175
     1
 42
40.0
 92
        8
 66
     7
 43
1.0
 76
     1
 77
     6
 78
     2
 67
     7
 79
     3
170
     0
171
     0
290
     0
174
     0
 93
        1
 44
0.0
173
     0
291
     0
 45
0.0
1001
ACAD
1000
AcDbSavedByObjectVersion
1070
     0
1000
AcDbSavedByObjectVersion
1070
     0
1000
AcDbSavedByObjectVersion
1070
     0
  0
VISUALSTYLE
  5
1F
102
{ACAD_REACTORS
330
14
102
}
330
14
100
AcDbVisualStyle
  2
Dim
 70
    11
 71
     2
 72
     2
 73
     0
 90
        0
 40
-0.6
 41
-30.0
 62
     5
 63
     7
 74
     1
 91
        4
 64
     7
 65
   257
 75
     1
175
     1
 42
1.0
 92
        8
 66
     7
 43
1.0
 76
     1
 77
     6
 78
     2
 67
     7
 79
     5
170
     0
171
     0
290
     0
174
     0
 93
        1
 44
-50.0
173
     0
291
     1
 45
0.0
1001
ACAD
1000
AcDbSavedByObjectVersion
1070
     0
1000
AcDbSavedByObjectVersion
1070
     0
1000
AcDbSavedByObjectVersion
1070
     0
  0
VISUALSTYLE
  5
23
102
{ACAD_REACTORS
330
14
102
}
330
14
100
AcDbVisualStyle
  2
Facepattern
 70
    15
 71
     2
 72
     2
 73
     0
 90
        0
 40
-0.6
 41
-30.0
 62
     5
 63
     7
 74
     1
 91
        4
 64
     7
 65
   257
 75
     1
175
     1
 42
1.0
 92
        8
 66
     7
 43
1.0
 76
     1
 77
     6
 78
     2
 67
     7
 79
     5
170
     0
171
     0
290
     0
174
     0
 93
        1
 44
0.0
173
     0
291
     1
 45
0.0
1001
ACAD
1000
AcDbSavedByObjectVersion
1070
     0
1000
AcDbSavedByObjectVersion
1070
     0
1000
AcDbSavedByObjectVersion
1070
     0
  0
VISUALSTYLE
  5
15
102
{ACAD_REACTORS
330
14
102
}
330
14
100
AcDbVisualStyle
  2
Flat
 70
     0
 71
     2
 72
     1
 73
     1
 90
        2
 40
-0.6
 41
30.0
 62
     5
 63
     7
 74
     0
 91
        4
 64
     7
 65
   257
 75
     1
175
     1
 42
1.0
 92
        8
 66
     7
 43
1.0
 76
     1
 77
     6
 78
     2
 67
     7
 79
     5
170
     0
171
     0
290
     0
174
     0
 93
       13
 44
0.0
173
     0
291
     1
 45
0.0
1001
ACAD
1000
AcDbSavedByObjectVersion
1070
     0
1000
AcDbSavedByObjectVersion
1070
     0
1000
AcDbSavedByObjectVersion
1070
     0
  0
VISUALSTYLE
  5
16
102
{ACAD_REACTORS
330
14
102
}
330
14
100
AcDbVisualStyle
  2
FlatWithEdges
 70
     1
 71
     2
 72
     1
 73
     1
 90
        2
 40
-0.6
 41
30.0
 62
     5
 63
     7
 74
     1
 91
        4
 64
     7
 65
   257
 75
     1
175
     1
 42
1.0
 92
        0
 66
   257
 43
1.0
 76
     1
 77
     6
 78
     2
 67
     7
 79
     5
170
     0
171
     0
290
     0
174
     0
 93
       13
 44
0.0
173
     0
291
     1
 45
0.0
1001
ACAD
1000
AcDbSavedByObjectVersion
1070
     0
1000
AcDbSavedByObjectVersion
1070
     0
1000
AcDbSavedByObjectVersion
1070
     0
  0
VISUALSTYLE
  5
17
102
{ACAD_REACTORS
330
14
102
}
330
14
100
AcDbVisualStyle
  2
Gouraud
 70
     2
 71
     2
 72
     2
 73
     1
 90
        2
 40
-0.6
 41
30.0
 62
     5
 63
     7
 74
     0
 91
        4
 64
     7
 65
   257
 75
     1
175
     1
 42
1.0
 92
        0
 66
     7
 43
1.0
 76
     1
 77
     6
 78
     2
 67
     7
 79
     5
170
     0
171
     0
290
     0
174
     0
 93
       13
 44
0.0
173
     0
291
     1
 45
0.0
1001
ACAD
1000
AcDbSavedByObjectVersion
1070
     0
1000
AcDbSavedByObjectVersion
1070
     0
1000
AcDbSavedByObjectVersion
1070
     0
  0
VISUALSTYLE
  5
18
102
{ACAD_REACTORS
330
14
102
}
330
14
100
AcDbVisualStyle
  2
GouraudWithEdges
 70
     3
 71
     2
 72
     2
 73
     1
 90
        2
 40
-0.6
 41
30.0
 62
     5
 63
     7
 74
     1
 91
        4
 64
     7
 65
   257
 75
     1
175
     1
 42
1.0
 92
        0
 66
   257
 43
1.0
 76
     1
 77
     6
 78
     2
 67
     7
 79
     5
170
     0
171
     0
290
     0
174
     0
 93
       13
 44
0.0
173
     0
291
     1
 45
0.0
1001
ACAD
1000
AcDbSavedByObjectVersion
1070
     0
1000
AcDbSavedByObjectVersion
1070
     0
1000
AcDbSavedByObjectVersion
1070
     0
  0
VISUALSTYLE
  5
22
102
{ACAD_REACTORS
330
14
102
}
330
14
100
AcDbVisualStyle
  2
Linepattern
 70
    14
 71
     2
 72
     2
 73
     0
 90
        0
 40
-0.6
 41
-30.0
 62
     5
 63
     7
 74
     1
 91
        4
 64
     7
 65
   257
 75
     7
175
     7
 42
1.0
 92
        8
 66
     7
 43
1.0
 76
     1
 77
     6
 78
     2
 67
     7
 79
     5
170
     0
171
     0
290
     0
174
     0
 93
        1
 44
0.0
173
     0
291
     1
 45
0.0
1001
ACAD
1000
AcDbSavedByObjectVersion
1070
     0
1000
AcDbSavedByObjectVersion
1070
     0
1000
AcDbSavedByObjectVersion
1070
     0
  0
VISUALSTYLE
  5
1E
102
{ACAD_REACTORS
330
14
102
}
330
14
100
AcDbVisualStyle
  2
Realistic
 70
     8
 71
     2
 72
     2
 73
     0
 90
        0
 40
-0.6
 41
-30.0
 62
     5
 63
     7
 74
     1
 91
        0
 64
     7
 65
   257
 75
     1
175
     1
 42
1.0
 92
        8
 66
     8
 43
1.0
 76
     1
 77
     6
 78
     2
 67
     7
 79
     5
170
     0
171
     0
290
     0
174
     0
 93
       13
 44
0.0
173
     0
291
     0
 45
0.0
1001
ACAD
1000
AcDbSavedByObjectVersion
1070
     0
1000
AcDbSavedByObjectVersion
1070
     0
1000
AcDbSavedByObjectVersion
1070
     0
  0
VISUALSTYLE
  5
21
102
{ACAD_REACTORS
330
14
102
}
330
14
100
AcDbVisualStyle
  2
Thicken
 70
    13
 71
     2
 72
     2
 73
     0
 90
        0
 40
-0.6
 41
-30.0
 62
     5
 63
     7
 74
     1
 91
        4
 64
     7
 65
   257
 75
     1
175
     1
 42
1.0
 92
       12
 66
     7
 43
1.0
 76
     1
 77
     6
 78
     2
 67
     7
 79
     5
170
     0
171
     0
290
     0
174
     0
 93
        1
 44
0.0
173
     0
291
     1
 45
0.0
1001
ACAD
1000
AcDbSavedByObjectVersion
1070
     0
1000
AcDbSavedByObjectVersion
1070
     0
1000
AcDbSavedByObjectVersion
1070
     0
  0
DICTIONARYVAR
  5
A759
102
{ACAD_REACTORS
330
A758
102
}
330
A758
100
DictionaryVariables
280
     0
  1
STANDARD
  0
DICTIONARYVAR
  5
5F9ED
102
{ACAD_REACTORS
330
A758
102
}
330
A758
100
DictionaryVariables
280
     0
  1
2
  0
DICTIONARYVAR
  5
5F9EC
102
{ACAD_REACTORS
330
A758
102
}
330
A758
100
DictionaryVariables
280
     0
  1
1
  0
DICTIONARYVAR
  5
5F9EB
102
{ACAD_REACTORS
330
A758
102
}
330
A758
100
DictionaryVariables
280
     0
  1
0
  0
DICTIONARYVAR
  5
5F9EA
102
{ACAD_REACTORS
330
A758
102
}
330
A758
100
DictionaryVariables
280
     0
  1
127
  0
DICTIONARY
  5
C8
102
{ACAD_REACTORS
330
C7
102
}
330
C7
100
AcDbDictionary
281
     1
  0
XRECORD
  5
13FCB
102
{ACAD_REACTORS
330
C7
102
}
330
C7
100
AcDbXrecord
280
     1
 90
-1023410169
  0
XRECORD
  5
158
102
{ACAD_REACTORS
330
157
102
}
330
157
100
AcDbXrecord
280
     1
 91
        3
330
0
 90
        8
 62
     7
370
    40
331
2B
  1
Color_7
330
0
 90
        0
 62
    14
370
    -3
331
2B
  1
Color_14
330
0
 90
        8
 62
     7
370
    20
331
2B
  1
Color_7
330
80
 90
        0
 62
     7
370
    -3
331
2B
  1
Color_7
330
0
 90
        8
 62
     7
370
    50
331
2B
  1
Color_7
330
0
 90
        8
 62
     2
370
    35
331
2B
  1
Color_2
330
0
 90
        8
 62
     7
370
    -3
331
2B
  1
Color_7
330
25
 90
        8
 62
     7
370
    -3
331
2B
  1
Color_7
  0
DICTIONARY
  5
5FDCE
330
3A
100
AcDbDictionary
280
     1
281
     1
  3
ACAD_XREC_ROUNDTRIP
360
5FDCF
  0
DICTIONARY
  5
5FDCC
330
36
100
AcDbDictionary
280
     1
281
     1
  3
ACAD_XREC_ROUNDTRIP
360
5FDCD
  0
DICTIONARY
  5
5FDD0
330
3E
100
AcDbDictionary
280
     1
281
     1
  3
ACAD_XREC_ROUNDTRIP
360
5FDD1
  0
DICTIONARY
  5
5FCA0
330
12
100
AcDbDictionary
280
     1
281
     1
  3
ACAD_XREC_ROUNDTRIP
360
5FCA1
  0
DICTIONARY
  5
5FC9E
330
11
100
AcDbDictionary
280
     1
281
     1
  3
ACAD_XREC_ROUNDTRIP
360
5FC9F
  0
DICTIONARY
  5
5FCA2
330
13
100
AcDbDictionary
280
     1
281
     1
  3
ACAD_XREC_ROUNDTRIP
360
5FCA3
  0
DICTIONARY
  5
5FDCA
330
32
100
AcDbDictionary
280
     1
281
     1
  3
ACAD_XREC_ROUNDTRIP
360
5FDCB
  0
XRECORD
  5
5FDCF
102
{ACAD_REACTORS
330
5FDCE
102
}
330
5FDCE
100
AcDbXrecord
280
     1
102
SHADEPLOT
 70
     0
102
SHADEPLOTRESLEVEL
 70
     2
102
SHADEPLOTCUSTOMDPI
 70
   300
  0
XRECORD
  5
5FDCD
102
{ACAD_REACTORS
330
5FDCC
102
}
330
5FDCC
100
AcDbXrecord
280
     1
102
SHADEPLOT
 70
     0
102
SHADEPLOTRESLEVEL
 70
     2
102
SHADEPLOTCUSTOMDPI
 70
   300
  0
XRECORD
  5
5FDD1
102
{ACAD_REACTORS
330
5FDD0
102
}
330
5FDD0
100
AcDbXrecord
280
     1
102
SHADEPLOT
 70
     0
102
SHADEPLOTRESLEVEL
 70
     2
102
SHADEPLOTCUSTOMDPI
 70
   300
  0
XRECORD
  5
5FCA1
102
{ACAD_REACTORS
330
5FCA0
102
}
330
5FCA0
100
AcDbXrecord
280
     1
102
MATERIAL
148
0.0
149
0.0
149
0.0
 93
        0
 94
       63
282
     0
 72
     1
 77
     1
171
     1
175
     1
179
     1
273
     0
  0
XRECORD
  5
5FC9F
102
{ACAD_REACTORS
330
5FC9E
102
}
330
5FC9E
100
AcDbXrecord
280
     1
102
MATERIAL
148
0.0
149
0.0
149
0.0
 93
        0
 94
       63
282
     0
 72
     1
 77
     1
171
     1
175
     1
179
     1
273
     0
  0
XRECORD
  5
5FCA3
102
{ACAD_REACTORS
330
5FCA2
102
}
330
5FCA2
100
AcDbXrecord
280
     1
102
MATERIAL
148
0.0
149
0.0
149
0.0
 93
        0
 94
       63
282
     0
 72
     1
 77
     1
171
     1
175
     1
179
     1
273
     0
  0
XRECORD
  5
5FDCB
102
{ACAD_REACTORS
330
5FDCA
102
}
330
5FDCA
100
AcDbXrecord
280
     1
102
ACAD_ROUNDTRIP_PRE2007_TABLESTYLE
 90
      512
 91
        0
  1

 92
      512
 93
        0
  2

 94
      512
 95
        0
  3

  0
ENDSEC
  0
EOF
