  0
SECTION
  2
HEADER
  9
$ACADVER
  1
AC1024
  9
$ACADMAINTVER
 70
   183
  9
$DWGCODEPAGE
  3
ANSI_932
  9
$LASTSAVEDBY
  1
C2217U
  9
$INSBASE
 10
10.0
 20
10.0
 30
1.0
  9
$EXTMIN
 10
-3422.266293122381
 20
600.6581664815252
 30
-1.0
  9
$EXTMAX
 10
-299.8055481273795
 20
1704.796763196734
 30
1.0
  9
$LIMMIN
 10
0.0
 20
0.0
  9
$LIMMAX
 10
420.0
 20
297.0
  9
$ORTHOMODE
 70
     0
  9
$REGENMODE
 70
     1
  9
$FILLMODE
 70
     1
  9
$QTEXTMODE
 70
     0
  9
$MIRRTEXT
 70
     1
  9
$LTSCALE
 40
1.0
  9
$ATTMODE
 70
     1
  9
$TEXTSIZE
 40
4.0
  9
$TRACEWID
 40
1.0
  9
$TEXTSTYLE
  7
EXTFONT
  9
$CLAYER
  8
DIMS
  9
$CELTYPE
  6
BYLAYER
  9
$CECOLOR
 62
   256
  9
$CELTSCALE
 40
0.2
  9
$DISPSILH
 70
     0
  9
$DIMSCALE
 40
0.0
  9
$DIMASZ
 40
3.5
  9
$DIMEXO
 40
0.63
  9
$DIMDLI
 40
3.75
  9
$DIMRND
 40
0.0
  9
$DIMDLE
 40
0.0
  9
$DIMEXE
 40
1.25
  9
$DIMTP
 40
0.0
  9
$DIMTM
 40
0.0
  9
$DIMTXT
 40
3.5
  9
$DIMCEN
 40
-1.5
  9
$DIMTSZ
 40
0.0
  9
$DIMTOL
 70
     0
  9
$DIMLIM
 70
     0
  9
$DIMTIH
 70
     0
  9
$DIMTOH
 70
     0
  9
$DIMSE1
 70
     0
  9
$DIMSE2
 70
     0
  9
$DIMTAD
 70
     1
  9
$DIMZIN
 70
     8
  9
$DIMBLK
  1

  9
$DIMASO
 70
     1
  9
$DIMSHO
 70
     1
  9
$DIMPOST
  1

  9
$DIMAPOST
  1

  9
$DIMALT
 70
     0
  9
$DIMALTD
 70
     2
  9
$DIMALTF
 40
0.04
  9
$DIMLFAC
 40
0.5
  9
$DIMTOFL
 70
     1
  9
$DIMTVP
 40
0.0
  9
$DIMTIX
 70
     0
  9
$DIMSOXD
 70
     0
  9
$DIMSAH
 70
     1
  9
$DIMBLK1
  1
OPEN
  9
$DIMBLK2
  1
OPEN
  9
$DIMSTYLE
  2
STANDARD
  9
$DIMCLRD
 70
     0
  9
$DIMCLRE
 70
     0
  9
$DIMCLRT
 70
     0
  9
$DIMTFAC
 40
0.4285714285714287
  9
$DIMGAP
 40
0.63
  9
$DIMJUST
 70
     0
  9
$DIMSD1
 70
     0
  9
$DIMSD2
 70
     0
  9
$DIMTOLJ
 70
     1
  9
$DIMTZIN
 70
     8
  9
$DIMALTZ
 70
     0
  9
$DIMALTTZ
 70
     0
  9
$DIMUPT
 70
     0
  9
$DIMDEC
 70
     2
  9
$DIMTDEC
 70
     2
  9
$DIMALTU
 70
     2
  9
$DIMALTTD
 70
     2
  9
$DIMTXSTY
  7
EXTFONT
  9
$DIMAUNIT
 70
     0
  9
$DIMADEC
 70
     0
  9
$DIMALTRND
 40
0.0
  9
$DIMAZIN
 70
     0
  9
$DIMDSEP
 70
    46
  9
$DIMATFIT
 70
     3
  9
$DIMFRAC
 70
     0
  9
$DIMLDRBLK
  1
OPEN
  9
$DIMLUNIT
 70
     2
  9
$DIMLWD
 70
    -2
  9
$DIMLWE
 70
    -2
  9
$DIMTMOVE
 70
     0
  9
$DIMFXL
 40
1.0
  9
$DIMFXLON
 70
     0
  9
$DIMJOGANG
 40
0.7853981633974483
  9
$DIMTFILL
 70
     0
  9
$DIMTFILLCLR
 70
     0
  9
$DIMARCSYM
 70
     0
  9
$DIMLTYPE
  6

  9
$DIMLTEX1
  6

  9
$DIMLTEX2
  6

  9
$DIMTXTDIRECTION
 70
     0
  9
$LUNITS
 70
     2
  9
$LUPREC
 70
     2
  9
$SKETCHINC
 40
1.0
  9
$FILLETRAD
 40
3.0
  9
$AUNITS
 70
     0
  9
$AUPREC
 70
     0
  9
$MENU
  1
acad
  9
$ELEVATION
 40
1.0
  9
$PELEVATION
 40
0.0
  9
$THICKNESS
 40
0.0
  9
$LIMCHECK
 70
     0
  9
$CHAMFERA
 40
0.5
  9
$CHAMFERB
 40
0.5
  9
$CHAMFERC
 40
0.0
  9
$CHAMFERD
 40
0.0
  9
$SKPOLY
 70
     0
  9
$TDCREATE
 40
2450199.713679711
  9
$TDUCREATE
 40
2450199.338679711
  9
$TDUPDATE
 40
2459479.495866470
  9
$TDUUPDATE
 40
2459479.120866470
  9
$TDINDWG
 40
64.3516790625
  9
$TDUSRTIMER
 40
64.3516790278
  9
$USRTIMER
 70
     1
  9
$ANGBASE
 50
0.0
  9
$ANGDIR
 70
     0
  9
$PDMODE
 70
     0
  9
$PDSIZE
 40
-5.0
  9
$PLINEWID
 40
0.0
  9
$SPLFRAME
 70
     0
  9
$SPLINETYPE
 70
     6
  9
$SPLINESEGS
 70
     8
  9
$HANDSEED
  5
6355C
  9
$SURFTAB1
 70
     6
  9
$SURFTAB2
 70
     6
  9
$SURFTYPE
 70
     6
  9
$SURFU
 70
     6
  9
$SURFV
 70
     6
  9
$UCSBASE
  2

  9
$UCSNAME
  2

  9
$UCSORG
 10
0.0
 20
0.0
 30
0.0
  9
$UCSXDIR
 10
1.0
 20
0.0
 30
0.0
  9
$UCSYDIR
 10
0.0
 20
1.0
 30
0.0
  9
$UCSORTHOREF
  2

  9
$UCSORTHOVIEW
 70
     0
  9
$UCSORGTOP
 10
0.0
 20
0.0
 30
0.0
  9
$UCSORGBOTTOM
 10
0.0
 20
0.0
 30
0.0
  9
$UCSORGLEFT
 10
0.0
 20
0.0
 30
0.0
  9
$UCSORGRIGHT
 10
0.0
 20
0.0
 30
0.0
  9
$UCSORGFRONT
 10
0.0
 20
0.0
 30
0.0
  9
$UCSORGBACK
 10
0.0
 20
0.0
 30
0.0
  9
$PUCSBASE
  2

  9
$PUCSNAME
  2

  9
$PUCSORG
 10
0.0
 20
0.0
 30
0.0
  9
$PUCSXDIR
 10
1.0
 20
0.0
 30
0.0
  9
$PUCSYDIR
 10
0.0
 20
1.0
 30
0.0
  9
$PUCSORTHOREF
  2

  9
$PUCSORTHOVIEW
 70
     0
  9
$PUCSORGTOP
 10
0.0
 20
0.0
 30
0.0
  9
$PUCSORGBOTTOM
 10
0.0
 20
0.0
 30
0.0
  9
$PUCSORGLEFT
 10
0.0
 20
0.0
 30
0.0
  9
$PUCSORGRIGHT
 10
0.0
 20
0.0
 30
0.0
  9
$PUCSORGFRONT
 10
0.0
 20
0.0
 30
0.0
  9
$PUCSORGBACK
 10
0.0
 20
0.0
 30
0.0
  9
$USERI1
 70
     0
  9
$USERI2
 70
     0
  9
$USERI3
 70
     0
  9
$USERI4
 70
     0
  9
$USERI5
 70
     0
  9
$USERR1
 40
0.0
  9
$USERR2
 40
0.0
  9
$USERR3
 40
0.0
  9
$USERR4
 40
0.0
  9
$USERR5
 40
0.0
  9
$WORLDVIEW
 70
     1
  9
$SHADEDGE
 70
     3
  9
$SHADEDIF
 70
    70
  9
$TILEMODE
 70
     1
  9
$MAXACTVP
 70
    16
  9
$PINSBASE
 10
0.0
 20
0.0
 30
0.0
  9
$PLIMCHECK
 70
     0
  9
$PEXTMIN
 10
1.127749989351888
 20
0.7854166669169747
 30
0.0
  9
$PEXTMAX
 10
10.14974990416699
 20
7.068750002252772
 30
0.0
  9
$PLIMMIN
 10
-0.2062495674673967
 20
-0.207916657755694
  9
$PLIMMAX
 10
11.48541668268639
 20
8.058749784634807
  9
$UNITMODE
 70
     0
  9
$VISRETAIN
 70
     0
  9
$PLINEGEN
 70
     0
  9
$PSLTSCALE
 70
     0
  9
$TREEDEPTH
 70
  3020
  9
$CMLSTYLE
  2
STANDARD
  9
$CMLJUST
 70
     0
  9
$CMLSCALE
 40
1.0
  9
$PROXYGRAPHICS
 70
     1
  9
$MEASUREMENT
 70
     0
  9
$CELWEIGHT
370
    -1
  9
$ENDCAPS
280
     0
  9
$JOINSTYLE
280
     0
  9
$LWDISPLAY
290
     0
  9
$INSUNITS
 70
     0
  9
$HYPERLINKBASE
  1

  9
$STYLESHEET
  1
MARUKO.CTB
  9
$XEDIT
290
     1
  9
$CEPSNTYPE
380
     0
  9
$PSTYLEMODE
290
     1
  9
$FINGERPRINTGUID
  2
{9B64B186-D009-4434-8A34-872B74BBDAE5}
  9
$VERSIONGUID
  2
{33A6C74D-0839-468F-8A7F-9AB323D4DD30}
  9
$EXTNAMES
290
     1
  9
$PSVPSCALE
 40
0.0
  9
$OLESTARTUP
290
     0
  9
$SORTENTS
280
    96
  9
$INDEXCTL
280
     0
  9
$HIDETEXT
280
     1
  9
$XCLIPFRAME
280
     0
  9
$HALOGAP
280
     0
  9
$OBSCOLOR
 70
   257
  9
$OBSLTYPE
280
     0
  9
$INTERSECTIONDISPLAY
280
     0
  9
$INTERSECTIONCOLOR
 70
   257
  9
$DIMASSOC
280
     2
  9
$PROJECTNAME
  1

  9
$CAMERADISPLAY
290
     0
  9
$LENSLENGTH
 40
50.0
  9
$CAMERAHEIGHT
 40
0.0
  9
$STEPSPERSEC
 40
2.0
  9
$STEPSIZE
 40
6.0
  9
$3DDWFPREC
 40
2.0
  9
$PSOLWIDTH
 40
0.25
  9
$PSOLHEIGHT
 40
4.0
  9
$LOFTANG1
 40
1.570796326794896
  9
$LOFTANG2
 40
1.570796326794896
  9
$LOFTMAG1
 40
0.0
  9
$LOFTMAG2
 40
0.0
  9
$LOFTPARAM
 70
     7
  9
$LOFTNORMALS
280
     1
  9
$LATITUDE
 40
37.795
  9
$LONGITUDE
 40
-122.394
  9
$NORTHDIRECTION
 40
0.0
  9
$TIMEZONE
 70
 -8000
  9
$LIGHTGLYPHDISPLAY
280
     1
  9
$TILEMODELIGHTSYNCH
280
     1
  9
$CMATERIAL
347
628CF
  9
$SOLIDHIST
280
     1
  9
$SHOWHIST
280
     1
  9
$DWFFRAME
280
     2
  9
$DGNFRAME
280
     2
  9
$REALWORLDSCALE
290
     1
  9
$INTERFERECOLOR
 62
   256
  9
$INTERFEREOBJVS
345
628DB
  9
$INTERFEREVPVS
346
628D8
  9
$CSHADOW
280
     0
  9
$SHADOWPLANELOCATION
 40
0.0
  0
ENDSEC
  0
SECTION
  2
CLASSES
  0
CLASS
  1
ACDBDICTIONARYWDFLT
  2
AcDbDictionaryWithDefault
  3
ObjectDBX Classes
 90
        0
 91
        1
280
     0
281
     0
  0
CLASS
  1
DICTIONARYVAR
  2
AcDbDictionaryVar
  3
ObjectDBX Classes
 90
        0
 91
       17
280
     0
281
     0
  0
CLASS
  1
SCALE
  2
AcDbScale
  3
ObjectDBX Classes
 90
     1153
 91
       33
280
     0
281
     0
  0
CLASS
  1
MATERIAL
  2
AcDbMaterial
  3
ObjectDBX Classes
 90
     1153
 91
        3
280
     0
281
     0
  0
CLASS
  1
VISUALSTYLE
  2
AcDbVisualStyle
  3
ObjectDBX Classes
 90
     4095
 91
       24
280
     0
281
     0
  0
CLASS
  1
TABLESTYLE
  2
AcDbTableStyle
  3
ObjectDBX Classes
 90
     4095
 91
        1
280
     0
281
     0
  0
CLASS
  1
MLEADERSTYLE
  2
AcDbMLeaderStyle
  3
ACDB_MLEADERSTYLE_CLASS
 90
     4095
 91
        1
280
     0
281
     0
  0
CLASS
  1
ACDBSECTIONVIEWSTYLE
  2
AcDbSectionViewStyle
  3
ObjectDBX Classes
 90
     1025
 91
        2
280
     0
281
     0
  0
CLASS
  1
ACDBDETAILVIEWSTYLE
  2
AcDbDetailViewStyle
  3
ObjectDBX Classes
 90
     1025
 91
        2
280
     0
281
     0
  0
CLASS
  1
SORTENTSTABLE
  2
AcDbSortentsTable
  3
ObjectDBX Classes
 90
        0
 91
        4
280
     0
281
     0
  0
CLASS
  1
DIMASSOC
  2
AcDbDimAssoc
  3
"AcDbDimAssoc|Product Desc:     AcDim ARX App For Dimension|Company:          Autodesk, Inc.|WEB Address:      www.autodesk.com"
 90
        0
 91
        1
280
     0
281
     0
  0
CLASS
  1
CELLSTYLEMAP
  2
AcDbCellStyleMap
  3
ObjectDBX Classes
 90
     1152
 91
        2
280
     0
281
     0
  0
ENDSEC
  0
SECTION
  2
TABLES
  0
TABLE
  2
VPORT
  5
228
330
0
100
AcDbSymbolTable
 70
     1
  0
VPORT
  5
61829
330
228
100
AcDbSymbolTableRecord
100
AcDbViewportTableRecord
  2
*Active
 70
     0
 10
0.0
 20
0.0
 11
1.0
 21
1.0
 12
-2080.736741639285
 22
1115.626856366231
 13
0.0
 23
0.0
 14
5.0
 24
5.0
 15
10.0
 25
10.0
 16
0.0
 26
0.0
 36
1.0
 17
0.0
 27
0.0
 37
0.0
 40
1349.471226848806
 41
1.667105263157894
 42
50.0
 43
0.0
 44
0.0
 50
0.0
 51
0.0
 71
    16
 72
   100
 73
     1
 74
     0
 75
     0
 76
     0
 77
     0
 78
     0
281
     0
 65
     1
110
0.0
120
0.0
130
0.0
111
1.0
121
0.0
131
0.0
112
0.0
122
1.0
132
0.0
 79
     0
146
1.0
348
628D7
 60
     3
 61
     5
292
     1
282
     1
141
0.0
142
0.0
1001
ACAD_NAV_VCDISPLAY
1070
     3
  0
ENDTAB
  0
TABLE
  2
LTYPE
  5
225
330
0
100
AcDbSymbolTable
 70
    34
  0
LTYPE
  5
232
330
225
100
AcDbSymbolTableRecord
100
AcDbLinetypeTableRecord
  2
BYBLOCK
 70
     0
  3

 72
    65
 73
     0
 40
0.0
  0
LTYPE
  5
233
330
225
100
AcDbSymbolTableRecord
100
AcDbLinetypeTableRecord
  2
BYLAYER
 70
     0
  3

 72
    65
 73
     0
 40
0.0
  0
LTYPE
  5
234
330
225
100
AcDbSymbolTableRecord
100
AcDbLinetypeTableRecord
  2
CONTINUOUS
 70
     0
  3
Solid line
 72
    65
 73
     0
 40
0.0
  0
LTYPE
  5
241
330
225
100
AcDbSymbolTableRecord
100
AcDbLinetypeTableRecord
  2
CENTER2
 70
     0
  3
___ _ ___ _ ___ _ ___ _ ___ _ ___ _ ___ _ ___ _
 72
    65
 73
     4
 40
28.575
 49
19.05
 74
     0
 49
-3.174999999999998
 74
     0
 49
3.174999999999998
 74
     0
 49
-3.174999999999998
 74
     0
  0
LTYPE
  5
252
330
225
100
AcDbSymbolTableRecord
100
AcDbLinetypeTableRecord
  2
HIDDEN
 70
     0
  3
__ __ __ __ __ __ __ __ __ __ __ __ __ __ __ __
 72
    65
 73
     2
 40
9.524999999999996
 49
6.349999999999998
 74
     0
 49
-3.174999999999998
 74
     0
  0
LTYPE
  5
255
330
225
100
AcDbSymbolTableRecord
100
AcDbLinetypeTableRecord
  2
PHANTOM
 70
     0
  3
______  __  __  ______  __  __  ______  __  __ 
 72
    65
 73
     6
 40
63.5
 49
31.75
 74
     0
 49
-6.349999999999998
 74
     0
 49
6.349999999999998
 74
     0
 49
-6.349999999999998
 74
     0
 49
6.349999999999998
 74
     0
 49
-6.349999999999998
 74
     0
  0
LTYPE
  5
62907
330
225
100
AcDbSymbolTableRecord
100
AcDbLinetypeTableRecord
  2
中線
 70
     0
  3
___________________
 72
    65
 73
     2
 40
2.0
 49
1.0
 74
     0
 49
1.0
 74
     0
  0
LTYPE
  5
62908
330
225
100
AcDbSymbolTableRecord
100
AcDbLinetypeTableRecord
  2
細線
 70
     0
  3
___________________
 72
    65
 73
     2
 40
2.0
 49
1.0
 74
     0
 49
1.0
 74
     0
  0
LTYPE
  5
62909
330
225
100
AcDbSymbolTableRecord
100
AcDbLinetypeTableRecord
  2
文字
 70
     0
  3
_________________
 72
    65
 73
     2
 40
2.0
 49
1.0
 74
     0
 49
1.0
 74
     0
  0
ENDTAB
  0
TABLE
  2
LAYER
  5
222
102
{ACAD_XDICTIONARY
360
62919
102
}
330
0
100
AcDbSymbolTable
 70
    25
  0
LAYER
  5
22F
330
222
100
AcDbSymbolTableRecord
100
AcDbLayerTableRecord
  2
0
 70
     0
 62
     7
  6
CONTINUOUS
370
    -3
390
2C49
347
628D1
  0
LAYER
  5
25A
330
222
100
AcDbSymbolTableRecord
100
AcDbLayerTableRecord
  2
CENTER
 70
     0
 62
     1
  6
CENTER2
370
    -3
390
2C49
347
628D1
  0
LAYER
  5
25B
330
222
100
AcDbSymbolTableRecord
100
AcDbLayerTableRecord
  2
DIMS
 70
     0
 62
     6
  6
CONTINUOUS
370
    -3
390
2C49
347
628D1
  0
LAYER
  5
25C
330
222
100
AcDbSymbolTableRecord
100
AcDbLayerTableRecord
  2
HIDDEN
 70
     0
 62
     2
  6
HIDDEN
370
    -3
390
2C49
347
628D1
  0
LAYER
  5
25D
330
222
100
AcDbSymbolTableRecord
100
AcDbLayerTableRecord
  2
OBJECT
 70
     0
 62
     3
  6
CONTINUOUS
370
    -3
390
2C49
347
628D1
  0
LAYER
  5
25E
330
222
100
AcDbSymbolTableRecord
100
AcDbLayerTableRecord
  2
TEXT
 70
     0
 62
     4
  6
CONTINUOUS
370
    -3
390
2C49
347
628D1
  0
LAYER
  5
260
330
222
100
AcDbSymbolTableRecord
100
AcDbLayerTableRecord
  2
PHANTOM
 70
     0
 62
     8
  6
PHANTOM
370
    -3
390
2C49
347
628D1
  0
LAYER
  5
2A1
330
222
100
AcDbSymbolTableRecord
100
AcDbLayerTableRecord
  2
DEFPOINTS
 70
     0
 62
     7
  6
CONTINUOUS
290
     0
370
    -3
390
2C49
347
628D1
  0
LAYER
  5
6290A
102
{ACAD_XDICTIONARY
360
6290B
102
}
330
222
100
AcDbSymbolTableRecord
100
AcDbLayerTableRecord
  2
AM_0
 70
     0
 62
     7
  6
中線
370
    30
390
2C49
347
628D1
1001
AcAecLayerStandard
1000

1000

  0
LAYER
  5
6290E
102
{ACAD_XDICTIONARY
360
6290F
102
}
330
222
100
AcDbSymbolTableRecord
100
AcDbLayerTableRecord
  2
waku
 70
     0
 62
     7
  6
CONTINUOUS
370
    35
390
2C49
347
628D1
  0
LAYER
  5
62910
102
{ACAD_XDICTIONARY
360
62911
102
}
330
222
100
AcDbSymbolTableRecord
100
AcDbLayerTableRecord
  2
AM_6
 70
     0
 62
     2
  6
文字
370
    13
390
2C49
347
628D1
1001
AcAecLayerStandard
1000

1000

  0
LAYER
  5
62912
102
{ACAD_XDICTIONARY
360
62913
102
}
330
222
100
AcDbSymbolTableRecord
100
AcDbLayerTableRecord
  2
AM_2
 70
     0
 62
     1
  6
細線
370
    13
390
2C49
347
628D1
1001
AcAecLayerStandard
1000

1000

  0
ENDTAB
  0
TABLE
  2
STYLE
  5
223
330
0
100
AcDbSymbolTable
 70
     4
  0
STYLE
  5
230
330
223
100
AcDbSymbolTableRecord
100
AcDbTextStyleTableRecord
  2
STANDARD
 70
     0
 40
0.0
 41
1.0
 50
0.0
 71
     0
 42
3.5
  3
txt
  4

  0
STYLE
  5
23C
330
223
100
AcDbSymbolTableRecord
100
AcDbTextStyleTableRecord
  2
EXTFONT
 70
     0
 40
0.0
 41
0.85
 50
0.0
 71
     0
 42
4.0
  3
txt.shx
  4
C:\PROGRA~1\AUTOCA~1\EXTFONT.SHX
  0
ENDTAB
  0
TABLE
  2
VIEW
  5
226
330
0
100
AcDbSymbolTable
 70
     1
  0
VIEW
  5
2392
330
226
100
AcDbSymbolTableRecord
100
AcDbViewTableRecord
  2
OLE1
 70
     0
 40
417.5143708876015
 10
309.3404672597972
 20
190.7819041883092
 41
764.7540456852111
 11
0.0
 21
0.0
 31
1.0
 12
0.0
 22
0.0
 32
0.0
 42
50.0
 43
0.0
 44
0.0
 50
0.0
 71
     0
281
     0
 72
     0
 73
     0
  0
ENDTAB
  0
TABLE
  2
UCS
  5
227
330
0
100
AcDbSymbolTable
 70
     0
  0
ENDTAB
  0
TABLE
  2
APPID
  5
229
330
0
100
AcDbSymbolTable
 70
    14
  0
APPID
  5
231
330
229
100
AcDbSymbolTableRecord
100
AcDbRegAppTableRecord
  2
ACAD
 70
     0
  0
APPID
  5
62914
330
229
100
AcDbSymbolTableRecord
100
AcDbRegAppTableRecord
  2
GENIUS_GENREC_14
 70
     0
  0
APPID
  5
62915
330
229
100
AcDbSymbolTableRecord
100
AcDbRegAppTableRecord
  2
GENIUS_GENOBJ-N-REC_13
 70
     0
  0
APPID
  5
62916
330
229
100
AcDbSymbolTableRecord
100
AcDbRegAppTableRecord
  2
GENIUS_GENODEF_13
 70
     0
  0
APPID
  5
62917
330
229
100
AcDbSymbolTableRecord
100
AcDbRegAppTableRecord
  2
AcAecLayerStandard
 70
     0
  0
APPID
  5
62918
330
229
100
AcDbSymbolTableRecord
100
AcDbRegAppTableRecord
  2
ACAD_NAV_VCDISPLAY
 70
     0
  0
APPID
  5
6299E
330
229
100
AcDbSymbolTableRecord
100
AcDbRegAppTableRecord
  2
ACAD_DSTYLE_DIMJOGGED_JOGANGLE_SYMBOL
 70
     0
  0
APPID
  5
6299F
330
229
100
AcDbSymbolTableRecord
100
AcDbRegAppTableRecord
  2
ACAD_PSEXT
 70
     0
  0
APPID
  5
629A0
330
229
100
AcDbSymbolTableRecord
100
AcDbRegAppTableRecord
  2
ACAD_DSTYLE_DIMJAG
 70
     0
  0
APPID
  5
629A1
330
229
100
AcDbSymbolTableRecord
100
AcDbRegAppTableRecord
  2
ACAD_DSTYLE_DIMTALN
 70
     0
  0
APPID
  5
629A2
330
229
100
AcDbSymbolTableRecord
100
AcDbRegAppTableRecord
  2
ACAD_DSTYLE_DIMBREAK
 70
     0
  0
APPID
  5
629A3
330
229
100
AcDbSymbolTableRecord
100
AcDbRegAppTableRecord
  2
ACAD_DSTYLE_DIMINSPECT
 70
     0
  0
APPID
  5
629A4
330
229
100
AcDbSymbolTableRecord
100
AcDbRegAppTableRecord
  2
ACAD_DSTYLE_DIMRADIAL_EXTENSION
 70
     0
  0
APPID
  5
62EB9
330
229
100
AcDbSymbolTableRecord
100
AcDbRegAppTableRecord
  2
ACAD_EXEMPT_FROM_CAD_STANDARDS
 70
     0
  0
ENDTAB
  0
TABLE
  2
DIMSTYLE
  5
22A
330
0
100
AcDbSymbolTable
 70
     5
100
AcDbDimStyleTable
 71
     2
340
265
340
6299B
  0
DIMSTYLE
105
265
330
22A
100
AcDbSymbolTableRecord
100
AcDbDimStyleTableRecord
  2
STANDARD
 70
     0
 40
0.0
 41
3.5
 42
0.63
 43
3.75
 44
1.25
 73
     0
 74
     0
 77
     1
 78
     8
140
3.5
141
-1.5
143
0.04
144
0.5
146
0.4285714285714287
147
0.63
172
     1
173
     1
271
     2
272
     2
340
23C
341
272
343
272
344
272
  0
DIMSTYLE
105
6299B
330
22A
100
AcDbSymbolTableRecord
100
AcDbDimStyleTableRecord
  2
SYS
 70
     0
  4
"
 41
1.0
 42
1.0
 43
10.0
 44
0.0
 47
0.1
 48
0.1
 73
     0
 74
     0
 77
     1
 78
     8
 79
     2
 90
     1
140
3.5
141
0.0
143
0.0393701
146
0.71
147
1.5
172
     1
176
   256
177
   256
178
     7
271
     2
272
     2
283
     0
284
     8
340
230
371
    -1
372
    -1
1001
ACAD_DSTYLE_DIMJOGGED_JOGANGLE_SYMBOL
1070
   384
1040
0.7853981633974483
1001
ACAD_DSTYLE_DIMJAG
1070
   388
1040
1.5
1001
ACAD_DSTYLE_DIMTALN
1070
   392
1070
     0
  0
DIMSTYLE
105
6299D
102
{ACAD_REACTORS
330
629A8
330
629AA
330
626AA
330
62614
330
62621
330
6265E
330
62884
330
62891
330
62569
330
62877
330
624BE
330
62521
330
624EB
330
624F8
330
624CF
330
624DC
330
62505
330
6259B
330
6268C
330
6269D
330
625F8
330
62605
330
6262E
330
62650
330
626C0
330
6248C
330
627FE
330
62774
330
6279B
330
62499
330
6278E
330
62834
330
62781
330
6280B
330
6281A
102
}
330
22A
100
AcDbSymbolTableRecord
100
AcDbDimStyleTableRecord
  2
SYS$0
 70
     0
  4
"
 41
1.0
 42
1.0
 43
10.0
 44
0.0
 47
0.1
 48
0.1
 73
     0
 74
     0
 77
     1
 78
     8
 79
     2
 90
     1
140
3.200000000000001
141
0.0
143
0.0393701
146
0.71
147
1.5
172
     1
176
   256
177
   256
178
     7
271
     2
272
     2
283
     0
284
     8
340
230
341
62970
342
6296B
371
    -1
372
    -1
1001
ACAD_DSTYLE_DIMJOGGED_JOGANGLE_SYMBOL
1070
   384
1040
0.7853981633974483
1001
ACAD_DSTYLE_DIMBREAK
1070
   391
1040
3.75
1001
ACAD_DSTYLE_DIMJAG
1070
   388
1040
1.5
1001
ACAD_DSTYLE_DIMTALN
1070
   392
1070
     0
  0
ENDTAB
  0
TABLE
  2
BLOCK_RECORD
  5
221
330
0
100
AcDbSymbolTable
 70
   805
  0
BLOCK_RECORD
  5
238
330
221
100
AcDbSymbolTableRecord
100
AcDbBlockTableRecord
  2
*MODEL_SPACE
340
2C4C
 70
     0
280
     1
281
     0
  0
BLOCK_RECORD
  5
235
330
221
100
AcDbSymbolTableRecord
100
AcDbBlockTableRecord
  2
*PAPER_SPACE
340
2C4D
 70
     0
280
     1
281
     0
  0
BLOCK_RECORD
  5
272
330
221
100
AcDbSymbolTableRecord
100
AcDbBlockTableRecord
  2
_OPEN
340
0
 70
     0
280
     1
281
     0
  0
BLOCK_RECORD
  5
6248D
330
221
100
AcDbSymbolTableRecord
100
AcDbBlockTableRecord
  2
*D719
340
0
 70
     0
280
     1
281
     0
  0
BLOCK_RECORD
  5
6249A
330
221
100
AcDbSymbolTableRecord
100
AcDbBlockTableRecord
  2
*D720
340
0
 70
     0
280
     1
281
     0
  0
BLOCK_RECORD
  5
624BF
330
221
100
AcDbSymbolTableRecord
100
AcDbBlockTableRecord
  2
*D722
340
0
 70
     0
280
     1
281
     0
  0
BLOCK_RECORD
  5
624D0
330
221
100
AcDbSymbolTableRecord
100
AcDbBlockTableRecord
  2
*D723
340
0
 70
     0
280
     1
281
     0
  0
BLOCK_RECORD
  5
624DD
330
221
100
AcDbSymbolTableRecord
100
AcDbBlockTableRecord
  2
*D724
340
0
 70
     0
280
     1
281
     0
  0
BLOCK_RECORD
  5
624EC
330
221
100
AcDbSymbolTableRecord
100
AcDbBlockTableRecord
  2
*D725
340
0
 70
     0
280
     1
281
     0
  0
BLOCK_RECORD
  5
624F9
330
221
100
AcDbSymbolTableRecord
100
AcDbBlockTableRecord
  2
*D726
340
0
 70
     0
280
     1
281
     0
  0
BLOCK_RECORD
  5
62506
330
221
100
AcDbSymbolTableRecord
100
AcDbBlockTableRecord
  2
*D727
340
0
 70
     0
280
     1
281
     0
  0
BLOCK_RECORD
  5
62522
330
221
100
AcDbSymbolTableRecord
100
AcDbBlockTableRecord
  2
*D728
340
0
 70
     0
280
     1
281
     0
  0
BLOCK_RECORD
  5
6256A
330
221
100
AcDbSymbolTableRecord
100
AcDbBlockTableRecord
  2
*D729
340
0
 70
     0
280
     1
281
     0
  0
BLOCK_RECORD
  5
6259C
330
221
100
AcDbSymbolTableRecord
100
AcDbBlockTableRecord
  2
*D730
340
0
 70
     0
280
     1
281
     0
  0
BLOCK_RECORD
  5
625F9
330
221
100
AcDbSymbolTableRecord
100
AcDbBlockTableRecord
  2
*D731
340
0
 70
     0
280
     1
281
     0
  0
BLOCK_RECORD
  5
62606
330
221
100
AcDbSymbolTableRecord
100
AcDbBlockTableRecord
  2
*D732
340
0
 70
     0
280
     1
281
     0
  0
BLOCK_RECORD
  5
62615
330
221
100
AcDbSymbolTableRecord
100
AcDbBlockTableRecord
  2
*D733
340
0
 70
     0
280
     1
281
     0
  0
BLOCK_RECORD
  5
62622
330
221
100
AcDbSymbolTableRecord
100
AcDbBlockTableRecord
  2
*D734
340
0
 70
     0
280
     1
281
     0
  0
BLOCK_RECORD
  5
6262F
330
221
100
AcDbSymbolTableRecord
100
AcDbBlockTableRecord
  2
*D735
340
0
 70
     0
280
     1
281
     0
  0
BLOCK_RECORD
  5
62651
330
221
100
AcDbSymbolTableRecord
100
AcDbBlockTableRecord
  2
*D736
340
0
 70
     0
280
     1
281
     0
  0
BLOCK_RECORD
  5
6265F
330
221
100
AcDbSymbolTableRecord
100
AcDbBlockTableRecord
  2
*D737
340
0
 70
     0
280
     1
281
     0
  0
BLOCK_RECORD
  5
6268D
330
221
100
AcDbSymbolTableRecord
100
AcDbBlockTableRecord
  2
*D738
340
0
 70
     0
280
     1
281
     0
  0
BLOCK_RECORD
  5
6269E
330
221
100
AcDbSymbolTableRecord
100
AcDbBlockTableRecord
  2
*D739
340
0
 70
     0
280
     1
281
     0
  0
BLOCK_RECORD
  5
626AB
330
221
100
AcDbSymbolTableRecord
100
AcDbBlockTableRecord
  2
*D740
340
0
 70
     0
280
     1
281
     0
  0
BLOCK_RECORD
  5
626C1
330
221
100
AcDbSymbolTableRecord
100
AcDbBlockTableRecord
  2
*D741
340
0
 70
     0
280
     1
281
     0
  0
BLOCK_RECORD
  5
62775
330
221
100
AcDbSymbolTableRecord
100
AcDbBlockTableRecord
  2
*D742
340
0
 70
     0
280
     1
281
     0
  0
BLOCK_RECORD
  5
62782
330
221
100
AcDbSymbolTableRecord
100
AcDbBlockTableRecord
  2
*D743
340
0
 70
     0
280
     1
281
     0
  0
BLOCK_RECORD
  5
6278F
330
221
100
AcDbSymbolTableRecord
100
AcDbBlockTableRecord
  2
*D744
340
0
 70
     0
280
     1
281
     0
  0
BLOCK_RECORD
  5
6279C
330
221
100
AcDbSymbolTableRecord
100
AcDbBlockTableRecord
  2
*D745
340
0
 70
     0
280
     1
281
     0
  0
BLOCK_RECORD
  5
627FF
330
221
100
AcDbSymbolTableRecord
100
AcDbBlockTableRecord
  2
*D746
340
0
 70
     0
280
     1
281
     0
  0
BLOCK_RECORD
  5
6280C
330
221
100
AcDbSymbolTableRecord
100
AcDbBlockTableRecord
  2
*D747
340
0
 70
     0
280
     1
281
     0
  0
BLOCK_RECORD
  5
6281B
330
221
100
AcDbSymbolTableRecord
100
AcDbBlockTableRecord
  2
*D748
340
0
 70
     0
280
     1
281
     0
  0
BLOCK_RECORD
  5
62835
330
221
100
AcDbSymbolTableRecord
100
AcDbBlockTableRecord
  2
*D749
340
0
 70
     0
280
     1
281
     0
  0
BLOCK_RECORD
  5
62878
330
221
100
AcDbSymbolTableRecord
100
AcDbBlockTableRecord
  2
*D750
340
0
 70
     0
280
     1
281
     0
  0
BLOCK_RECORD
  5
62885
330
221
100
AcDbSymbolTableRecord
100
AcDbBlockTableRecord
  2
*D751
340
0
 70
     0
280
     1
281
     0
  0
BLOCK_RECORD
  5
62892
330
221
100
AcDbSymbolTableRecord
100
AcDbBlockTableRecord
  2
*D752
340
0
 70
     0
280
     1
281
     0
  0
BLOCK_RECORD
  5
6296B
330
221
100
AcDbSymbolTableRecord
100
AcDbBlockTableRecord
  2
_Dot
340
0
102
{BLKREFS
331
63356
331
63357
331
6335F
331
63360
331
63369
331
6336A
331
63373
331
63374
331
6337C
331
6337D
331
63385
331
63386
331
63397
331
63398
331
633A0
331
633A1
331
633A9
331
633AA
331
633B2
331
633B3
331
633BB
331
633BC
331
633C4
331
633C5
331
633CF
331
633D0
331
633DA
331
633DB
331
633E3
331
633E4
331
633EC
331
633ED
331
633F5
331
633F6
331
633FE
331
633FF
331
63407
331
63408
331
63410
331
63411
331
63419
331
6341A
331
6344F
331
63450
331
63458
331
63459
331
63461
331
63462
331
6346A
331
6346B
331
63473
331
63474
331
6347C
331
6347D
331
63485
331
63486
331
6348E
331
6348F
331
63497
331
63498
331
634A0
331
634A1
331
634A9
331
634AA
331
634B3
331
634B4
102
}
 70
     0
280
     1
281
     0
  0
BLOCK_RECORD
  5
62970
330
221
100
AcDbSymbolTableRecord
100
AcDbBlockTableRecord
  2
_OPEN30
340
0
 70
     0
280
     1
281
     0
  0
ENDTAB
  0
ENDSEC
  0
SECTION
  2
BLOCKS
  0
BLOCK
  5
263
330
238
100
AcDbEntity
  8
0
100
AcDbBlockBegin
  2
*MODEL_SPACE
 70
     0
 10
0.0
 20
0.0
 30
0.0
  3
*MODEL_SPACE
  1

  0
ENDBLK
  5
264
330
238
100
AcDbEntity
  8
0
100
AcDbBlockEnd
  0
BLOCK
  5
261
330
235
100
AcDbEntity
 67
     1
  8
0
100
AcDbBlockBegin
  2
*PAPER_SPACE
 70
     0
 10
0.0
 20
0.0
 30
0.0
  3
*PAPER_SPACE
  1

  0
ENDBLK
  5
262
330
235
100
AcDbEntity
 67
     1
  8
0
100
AcDbBlockEnd
  0
BLOCK
  5
273
330
272
100
AcDbEntity
  8
0
100
AcDbBlockBegin
  2
_OPEN
 70
     0
 10
0.0
 20
0.0
 30
0.0
  3
_OPEN
  1

  0
LINE
  5
274
330
272
100
AcDbEntity
  8
0
  6
ByBlock
 62
     0
100
AcDbLine
 10
-1.0
 20
0.1666666666666666
 30
0.0
 11
0.0
 21
0.0
 31
0.0
  0
LINE
  5
275
330
272
100
AcDbEntity
  8
0
  6
ByBlock
 62
     0
100
AcDbLine
 10
0.0
 20
0.0
 30
0.0
 11
-1.0
 21
-0.1666666666666666
 31
0.0
  0
LINE
  5
276
330
272
100
AcDbEntity
  8
0
  6
ByBlock
 62
     0
100
AcDbLine
 10
0.0
 20
0.0
 30
0.0
 11
-1.0
 21
0.0
 31
0.0
  0
ENDBLK
  5
277
330
272
100
AcDbEntity
  8
0
100
AcDbBlockEnd
  0
BLOCK
  5
6248E
330
6248D
100
AcDbEntity
  8
0
 48
0.2
100
AcDbBlockBegin
  2
*D719
 70
     1
 10
0.0
 20
0.0
 30
0.0
  3
*D719
  1

  0
LINE
  5
63382
330
6248D
100
AcDbEntity
  8
DIMS
440
 16777216
 48
0.2
100
AcDbLine
 10
-1968.512573831308
 20
999.093040072857
 30
0.0
 11
-2051.223398428961
 21
999.093040072857
 31
0.0
  0
LINE
  5
63383
330
6248D
100
AcDbEntity
  8
DIMS
440
 16777216
 48
0.2
100
AcDbLine
 10
-1998.512573831309
 20
1112.393040072855
 30
0.0
 11
-2051.223398428961
 21
1112.393040072855
 31
0.0
  0
LINE
  5
63384
330
6248D
100
AcDbEntity
  8
DIMS
440
 16777216
 48
0.2
100
AcDbLine
 10
-2051.223398428961
 20
1000.093040072857
 30
0.0
 11
-2051.223398428961
 21
1111.393040072855
 31
0.0
  0
INSERT
  5
63385
330
6248D
100
AcDbEntity
  8
DIMS
440
 16777216
 48
0.2
100
AcDbBlockReference
  2
_Dot
 10
-2051.223398428961
 20
999.093040072857
 30
0.0
 50
270.0
  0
INSERT
  5
63386
330
6248D
100
AcDbEntity
  8
DIMS
440
 16777216
 48
0.2
100
AcDbBlockReference
  2
_Dot
 10
-2051.223398428961
 20
1112.393040072855
 30
0.0
 50
90.0
  0
MTEXT
  5
63387
330
6248D
100
AcDbEntity
  8
DIMS
 62
     7
440
 16777216
 48
0.2
100
AcDbMText
 10
-2054.323398428961
 20
1055.743040072856
 30
0.0
 40
3.200000000000001
 41
0.0
 46
0.0
 71
     5
 72
     1
  1
113.3
 11
0.0000000000000001
 21
1.0
 31
0.0
 73
     1
 44
1.0
  0
POINT
  5
63388
330
6248D
100
AcDbEntity
  8
DEFPOINTS
 62
     0
440
 16777216
 48
0.2
100
AcDbPoint
 10
-1967.512573831308
 20
999.093040072857
 30
0.0
  0
POINT
  5
63389
330
6248D
100
AcDbEntity
  8
DEFPOINTS
 62
     0
440
 16777216
 48
0.2
100
AcDbPoint
 10
-1997.512573831308
 20
1112.393040072855
 30
0.0
  0
POINT
  5
6338A
330
6248D
100
AcDbEntity
  8
DEFPOINTS
 62
     0
440
 16777216
 48
0.2
100
AcDbPoint
 10
-2051.223398428961
 20
1112.393040072855
 30
0.0
  0
ENDBLK
  5
62498
330
6248D
100
AcDbEntity
  8
0
 48
0.2
100
AcDbBlockEnd
  0
BLOCK
  5
6249B
330
6249A
100
AcDbEntity
  8
0
 48
0.2
100
AcDbBlockBegin
  2
*D720
 70
     1
 10
0.0
 20
0.0
 30
0.0
  3
*D720
  1

  0
LINE
  5
633A6
330
6249A
100
AcDbEntity
  8
DIMS
440
 16777216
 48
0.2
100
AcDbLine
 10
-1998.512573831309
 20
1112.393040072855
 30
0.0
 11
-2051.223398428961
 21
1112.393040072855
 31
0.0
  0
LINE
  5
633A7
330
6249A
100
AcDbEntity
  8
DIMS
440
 16777216
 48
0.2
100
AcDbLine
 10
-1964.41989744537
 20
1159.593040072857
 30
0.0
 11
-2051.223398428961
 21
1159.593040072857
 31
0.0
  0
LINE
  5
633A8
330
6249A
100
AcDbEntity
  8
DIMS
440
 16777216
 48
0.2
100
AcDbLine
 10
-2051.223398428961
 20
1113.393040072855
 30
0.0
 11
-2051.223398428961
 21
1158.593040072857
 31
0.0
  0
INSERT
  5
633A9
330
6249A
100
AcDbEntity
  8
DIMS
440
 16777216
 48
0.2
100
AcDbBlockReference
  2
_Dot
 10
-2051.223398428961
 20
1112.393040072855
 30
0.0
 50
270.0
  0
INSERT
  5
633AA
330
6249A
100
AcDbEntity
  8
DIMS
440
 16777216
 48
0.2
100
AcDbBlockReference
  2
_Dot
 10
-2051.223398428961
 20
1159.593040072857
 30
0.0
 50
90.0
  0
MTEXT
  5
633AB
330
6249A
100
AcDbEntity
  8
DIMS
 62
     7
440
 16777216
 48
0.2
100
AcDbMText
 10
-2054.323398428961
 20
1135.993040072856
 30
0.0
 40
3.200000000000001
 41
0.0
 46
0.0
 71
     5
 72
     1
  1
47.2
 11
0.0000000000000001
 21
1.0
 31
0.0
 73
     1
 44
1.0
  0
POINT
  5
633AC
330
6249A
100
AcDbEntity
  8
DEFPOINTS
 62
     0
440
 16777216
 48
0.2
100
AcDbPoint
 10
-1997.512573831308
 20
1112.393040072855
 30
0.0
  0
POINT
  5
633AD
330
6249A
100
AcDbEntity
  8
DEFPOINTS
 62
     0
440
 16777216
 48
0.2
100
AcDbPoint
 10
-1963.419897445371
 20
1159.593040072857
 30
0.0
  0
POINT
  5
633AE
330
6249A
100
AcDbEntity
  8
DEFPOINTS
 62
     0
440
 16777216
 48
0.2
100
AcDbPoint
 10
-2051.223398428961
 20
1159.593040072857
 30
0.0
  0
ENDBLK
  5
624A5
330
6249A
100
AcDbEntity
  8
0
 48
0.2
100
AcDbBlockEnd
  0
BLOCK
  5
624C0
330
624BF
100
AcDbEntity
  8
0
 48
0.2
100
AcDbBlockBegin
  2
*D722
 70
     1
 10
0.0
 20
0.0
 30
0.0
  3
*D722
  1

  0
LINE
  5
6344C
330
624BF
100
AcDbEntity
  8
DIMS
440
 16777216
 48
0.2
100
AcDbLine
 10
-2285.689573987695
 20
921.7119340281724
 30
0.0
 11
-2249.522628208358
 21
921.7119340281724
 31
0.0
  0
LINE
  5
6344D
330
624BF
100
AcDbEntity
  8
DIMS
440
 16777216
 48
0.2
100
AcDbLine
 10
-2285.68957398769
 20
934.2119340281742
 30
0.0
 11
-2249.522628208358
 21
934.2119340281742
 31
0.0
  0
LINE
  5
6344E
330
624BF
100
AcDbEntity
  8
DIMS
440
 16777216
 48
0.2
100
AcDbLine
 10
-2249.522628208358
 20
922.7119340281724
 30
0.0
 11
-2249.522628208358
 21
933.2119340281742
 31
0.0
  0
INSERT
  5
6344F
330
624BF
100
AcDbEntity
  8
DIMS
440
 16777216
 48
0.2
100
AcDbBlockReference
  2
_Dot
 10
-2249.522628208358
 20
921.7119340281724
 30
0.0
 50
270.0
  0
INSERT
  5
63450
330
624BF
100
AcDbEntity
  8
DIMS
440
 16777216
 48
0.2
100
AcDbBlockReference
  2
_Dot
 10
-2249.522628208358
 20
934.2119340281742
 30
0.0
 50
90.0
  0
MTEXT
  5
63451
330
624BF
100
AcDbEntity
  8
DIMS
 62
     7
440
 16777216
 48
0.2
100
AcDbMText
 10
-2252.622628208358
 20
927.961934028173
 30
0.0
 40
3.200000000000001
 41
0.0
 46
0.0
 71
     5
 72
     1
  1
12.5
 11
0.0000000000000001
 21
1.0
 31
0.0
 73
     1
 44
1.0
  0
POINT
  5
63452
330
624BF
100
AcDbEntity
  8
DEFPOINTS
 62
     0
440
 16777216
 48
0.2
100
AcDbPoint
 10
-2286.689573987695
 20
921.7119340281724
 30
0.0
  0
POINT
  5
63453
330
624BF
100
AcDbEntity
  8
DEFPOINTS
 62
     0
440
 16777216
 48
0.2
100
AcDbPoint
 10
-2286.689573987691
 20
934.2119340281742
 30
0.0
  0
POINT
  5
63454
330
624BF
100
AcDbEntity
  8
DEFPOINTS
 62
     0
440
 16777216
 48
0.2
100
AcDbPoint
 10
-2249.522628208358
 20
934.2119340281742
 30
0.0
  0
ENDBLK
  5
624CC
330
624BF
100
AcDbEntity
  8
0
 48
0.2
100
AcDbBlockEnd
  0
BLOCK
  5
624D1
330
624D0
100
AcDbEntity
  8
0
 48
0.2
100
AcDbBlockBegin
  2
*D723
 70
     1
 10
0.0
 20
0.0
 30
0.0
  3
*D723
  1

  0
LINE
  5
63455
330
624D0
100
AcDbEntity
  8
DIMS
440
 16777216
 48
0.2
100
AcDbLine
 10
-2285.689573987695
 20
882.7119340281724
 30
0.0
 11
-2249.522628208358
 21
882.7119340281724
 31
0.0
  0
LINE
  5
63456
330
624D0
100
AcDbEntity
  8
DIMS
440
 16777216
 48
0.2
100
AcDbLine
 10
-2285.689573987695
 20
843.711934028173
 30
0.0
 11
-2249.522628208358
 21
843.711934028173
 31
0.0
  0
LINE
  5
63457
330
624D0
100
AcDbEntity
  8
DIMS
440
 16777216
 48
0.2
100
AcDbLine
 10
-2249.522628208358
 20
881.7119340281724
 30
0.0
 11
-2249.522628208358
 21
844.711934028173
 31
0.0
  0
INSERT
  5
63458
330
624D0
100
AcDbEntity
  8
DIMS
440
 16777216
 48
0.2
100
AcDbBlockReference
  2
_Dot
 10
-2249.522628208358
 20
882.7119340281724
 30
0.0
 50
90.0
  0
INSERT
  5
63459
330
624D0
100
AcDbEntity
  8
DIMS
440
 16777216
 48
0.2
100
AcDbBlockReference
  2
_Dot
 10
-2249.522628208358
 20
843.711934028173
 30
0.0
 50
270.0
  0
MTEXT
  5
6345A
330
624D0
100
AcDbEntity
  8
DIMS
 62
     7
440
 16777216
 48
0.2
100
AcDbMText
 10
-2252.622628208358
 20
863.2119340281724
 30
0.0
 40
3.200000000000001
 41
0.0
 46
0.0
 71
     5
 72
     1
  1
39
 11
0.0000000000000001
 21
1.0
 31
0.0
 73
     1
 44
1.0
  0
POINT
  5
6345B
330
624D0
100
AcDbEntity
  8
DEFPOINTS
 62
     0
440
 16777216
 48
0.2
100
AcDbPoint
 10
-2286.689573987695
 20
882.7119340281724
 30
0.0
  0
POINT
  5
6345C
330
624D0
100
AcDbEntity
  8
DEFPOINTS
 62
     0
440
 16777216
 48
0.2
100
AcDbPoint
 10
-2286.689573987695
 20
843.711934028173
 30
0.0
  0
POINT
  5
6345D
330
624D0
100
AcDbEntity
  8
DEFPOINTS
 62
     0
440
 16777216
 48
0.2
100
AcDbPoint
 10
-2249.522628208358
 20
843.711934028173
 30
0.0
  0
ENDBLK
  5
624DB
330
624D0
100
AcDbEntity
  8
0
 48
0.2
100
AcDbBlockEnd
  0
BLOCK
  5
624DE
330
624DD
100
AcDbEntity
  8
0
 48
0.2
100
AcDbBlockBegin
  2
*D724
 70
     1
 10
0.0
 20
0.0
 30
0.0
  3
*D724
  1

  0
LINE
  5
6345E
330
624DD
100
AcDbEntity
  8
DIMS
440
 16777216
 48
0.2
100
AcDbLine
 10
-2285.689573987695
 20
843.711934028173
 30
0.0
 11
-2249.522628208358
 21
843.711934028173
 31
0.0
  0
LINE
  5
6345F
330
624DD
100
AcDbEntity
  8
DIMS
440
 16777216
 48
0.2
100
AcDbLine
 10
-2285.68957398769
 20
834.2119340281731
 30
0.0
 11
-2249.522628208358
 21
834.2119340281731
 31
0.0
  0
LINE
  5
63460
330
624DD
100
AcDbEntity
  8
DIMS
440
 16777216
 48
0.2
100
AcDbLine
 10
-2249.522628208358
 20
842.7119340281731
 30
0.0
 11
-2249.522628208358
 21
835.2119340281731
 31
0.0
  0
INSERT
  5
63461
330
624DD
100
AcDbEntity
  8
DIMS
440
 16777216
 48
0.2
100
AcDbBlockReference
  2
_Dot
 10
-2249.522628208358
 20
843.711934028173
 30
0.0
 50
90.0
  0
INSERT
  5
63462
330
624DD
100
AcDbEntity
  8
DIMS
440
 16777216
 48
0.2
100
AcDbBlockReference
  2
_Dot
 10
-2249.522628208358
 20
834.2119340281731
 30
0.0
 50
270.0
  0
MTEXT
  5
63463
330
624DD
100
AcDbEntity
  8
DIMS
 62
     7
440
 16777216
 48
0.2
100
AcDbMText
 10
-2252.622628208358
 20
838.9619340281727
 30
0.0
 40
3.200000000000001
 41
0.0
 46
0.0
 71
     5
 72
     1
  1
9.5
 11
0.0000000000000001
 21
1.0
 31
0.0
 73
     1
 44
1.0
  0
POINT
  5
63464
330
624DD
100
AcDbEntity
  8
DEFPOINTS
 62
     0
440
 16777216
 48
0.2
100
AcDbPoint
 10
-2286.689573987695
 20
843.711934028173
 30
0.0
  0
POINT
  5
63465
330
624DD
100
AcDbEntity
  8
DEFPOINTS
 62
     0
440
 16777216
 48
0.2
100
AcDbPoint
 10
-2286.689573987691
 20
834.2119340281731
 30
0.0
  0
POINT
  5
63466
330
624DD
100
AcDbEntity
  8
DEFPOINTS
 62
     0
440
 16777216
 48
0.2
100
AcDbPoint
 10
-2249.522628208358
 20
834.2119340281731
 30
0.0
  0
ENDBLK
  5
624EA
330
624DD
100
AcDbEntity
  8
0
 48
0.2
100
AcDbBlockEnd
  0
BLOCK
  5
624ED
330
624EC
100
AcDbEntity
  8
0
 48
0.2
100
AcDbBlockBegin
  2
*D725
 70
     1
 10
0.0
 20
0.0
 30
0.0
  3
*D725
  1

  0
LINE
  5
63467
330
624EC
100
AcDbEntity
  8
DIMS
440
 16777216
 48
0.2
100
AcDbLine
 10
-2289.689573987695
 20
839.7119340281731
 30
0.0
 11
-2289.689573987695
 21
820.9371588452594
 31
0.0
  0
LINE
  5
63468
330
624EC
100
AcDbEntity
  8
DIMS
440
 16777216
 48
0.2
100
AcDbLine
 10
-2200.689573987689
 20
883.2119340281725
 30
0.0
 11
-2200.689573987689
 21
820.9371588452594
 31
0.0
  0
LINE
  5
63469
330
624EC
100
AcDbEntity
  8
DIMS
440
 16777216
 48
0.2
100
AcDbLine
 10
-2288.689573987694
 20
820.9371588452594
 30
0.0
 11
-2201.689573987689
 21
820.9371588452594
 31
0.0
  0
INSERT
  5
6346A
330
624EC
100
AcDbEntity
  8
DIMS
440
 16777216
 48
0.2
100
AcDbBlockReference
  2
_Dot
 10
-2289.689573987695
 20
820.9371588452594
 30
0.0
 50
180.0
  0
INSERT
  5
6346B
330
624EC
100
AcDbEntity
  8
DIMS
440
 16777216
 48
0.2
100
AcDbBlockReference
  2
_Dot
 10
-2200.689573987689
 20
820.9371588452594
 30
0.0
  0
MTEXT
  5
6346C
330
624EC
100
AcDbEntity
  8
DIMS
 62
     7
440
 16777216
 48
0.2
100
AcDbMText
 10
-2245.189573987692
 20
824.0371588452592
 30
0.0
 40
3.200000000000001
 41
0.0
 46
0.0
 71
     5
 72
     1
  1
89
 73
     1
 44
1.0
  0
POINT
  5
6346D
330
624EC
100
AcDbEntity
  8
DEFPOINTS
 62
     0
440
 16777216
 48
0.2
100
AcDbPoint
 10
-2289.689573987695
 20
840.7119340281731
 30
0.0
  0
POINT
  5
6346E
330
624EC
100
AcDbEntity
  8
DEFPOINTS
 62
     0
440
 16777216
 48
0.2
100
AcDbPoint
 10
-2200.689573987689
 20
884.2119340281724
 30
0.0
  0
POINT
  5
6346F
330
624EC
100
AcDbEntity
  8
DEFPOINTS
 62
     0
440
 16777216
 48
0.2
100
AcDbPoint
 10
-2200.689573987689
 20
820.9371588452594
 30
0.0
  0
ENDBLK
  5
624F7
330
624EC
100
AcDbEntity
  8
0
 48
0.2
100
AcDbBlockEnd
  0
BLOCK
  5
624FA
330
624F9
100
AcDbEntity
  8
0
 48
0.2
100
AcDbBlockBegin
  2
*D726
 70
     1
 10
0.0
 20
0.0
 30
0.0
  3
*D726
  1

  0
LINE
  5
63470
330
624F9
100
AcDbEntity
  8
DIMS
440
 16777216
 48
0.2
100
AcDbLine
 10
-2289.689573987695
 20
839.7119340281731
 30
0.0
 11
-2289.689573987695
 21
802.9625076164702
 31
0.0
  0
LINE
  5
63471
330
624F9
100
AcDbEntity
  8
DIMS
440
 16777216
 48
0.2
100
AcDbLine
 10
-2140.689573987689
 20
881.4519340281725
 30
0.0
 11
-2140.689573987689
 21
802.9625076164702
 31
0.0
  0
LINE
  5
63472
330
624F9
100
AcDbEntity
  8
DIMS
440
 16777216
 48
0.2
100
AcDbLine
 10
-2288.689573987694
 20
802.9625076164702
 30
0.0
 11
-2141.689573987688
 21
802.9625076164702
 31
0.0
  0
INSERT
  5
63473
330
624F9
100
AcDbEntity
  8
DIMS
440
 16777216
 48
0.2
100
AcDbBlockReference
  2
_Dot
 10
-2289.689573987695
 20
802.9625076164702
 30
0.0
 50
180.0
  0
INSERT
  5
63474
330
624F9
100
AcDbEntity
  8
DIMS
440
 16777216
 48
0.2
100
AcDbBlockReference
  2
_Dot
 10
-2140.689573987689
 20
802.9625076164702
 30
0.0
  0
MTEXT
  5
63475
330
624F9
100
AcDbEntity
  8
DIMS
 62
     7
440
 16777216
 48
0.2
100
AcDbMText
 10
-2215.189573987692
 20
806.0625076164702
 30
0.0
 40
3.200000000000001
 41
0.0
 46
0.0
 71
     5
 72
     1
  1
149
 73
     1
 44
1.0
  0
POINT
  5
63476
330
624F9
100
AcDbEntity
  8
DEFPOINTS
 62
     0
440
 16777216
 48
0.2
100
AcDbPoint
 10
-2289.689573987695
 20
840.7119340281731
 30
0.0
  0
POINT
  5
63477
330
624F9
100
AcDbEntity
  8
DEFPOINTS
 62
     0
440
 16777216
 48
0.2
100
AcDbPoint
 10
-2140.689573987689
 20
882.4519340281725
 30
0.0
  0
POINT
  5
63478
330
624F9
100
AcDbEntity
  8
DEFPOINTS
 62
     0
440
 16777216
 48
0.2
100
AcDbPoint
 10
-2140.689573987689
 20
802.9625076164702
 30
0.0
  0
ENDBLK
  5
62504
330
624F9
100
AcDbEntity
  8
0
 48
0.2
100
AcDbBlockEnd
  0
BLOCK
  5
62507
330
62506
100
AcDbEntity
  8
0
 48
0.2
100
AcDbBlockBegin
  2
*D727
 70
     1
 10
0.0
 20
0.0
 30
0.0
  3
*D727
  1

  0
LINE
  5
63479
330
62506
100
AcDbEntity
  8
DIMS
440
 16777216
 48
0.2
100
AcDbLine
 10
-2285.689573987695
 20
921.7119340281724
 30
0.0
 11
-2249.522628208358
 21
921.7119340281724
 31
0.0
  0
LINE
  5
6347A
330
62506
100
AcDbEntity
  8
DIMS
440
 16777216
 48
0.2
100
AcDbLine
 10
-2285.689573987695
 20
882.7119340281724
 30
0.0
 11
-2249.522628208358
 21
882.7119340281724
 31
0.0
  0
LINE
  5
6347B
330
62506
100
AcDbEntity
  8
DIMS
440
 16777216
 48
0.2
100
AcDbLine
 10
-2249.522628208358
 20
920.7119340281725
 30
0.0
 11
-2249.522628208358
 21
883.7119340281724
 31
0.0
  0
INSERT
  5
6347C
330
62506
100
AcDbEntity
  8
DIMS
440
 16777216
 48
0.2
100
AcDbBlockReference
  2
_Dot
 10
-2249.522628208358
 20
921.7119340281724
 30
0.0
 50
90.0
  0
INSERT
  5
6347D
330
62506
100
AcDbEntity
  8
DIMS
440
 16777216
 48
0.2
100
AcDbBlockReference
  2
_Dot
 10
-2249.522628208358
 20
882.7119340281724
 30
0.0
 50
270.0
  0
MTEXT
  5
6347E
330
62506
100
AcDbEntity
  8
DIMS
 62
     7
440
 16777216
 48
0.2
100
AcDbMText
 10
-2252.622628208358
 20
902.2119340281721
 30
0.0
 40
3.200000000000001
 41
0.0
 46
0.0
 71
     5
 72
     1
  1
39
 11
0.0000000000000001
 21
1.0
 31
0.0
 73
     1
 44
1.0
  0
POINT
  5
6347F
330
62506
100
AcDbEntity
  8
DEFPOINTS
 62
     0
440
 16777216
 48
0.2
100
AcDbPoint
 10
-2286.689573987695
 20
921.7119340281724
 30
0.0
  0
POINT
  5
63480
330
62506
100
AcDbEntity
  8
DEFPOINTS
 62
     0
440
 16777216
 48
0.2
100
AcDbPoint
 10
-2286.689573987695
 20
882.7119340281724
 30
0.0
  0
POINT
  5
63481
330
62506
100
AcDbEntity
  8
DEFPOINTS
 62
     0
440
 16777216
 48
0.2
100
AcDbPoint
 10
-2249.522628208358
 20
882.7119340281724
 30
0.0
  0
ENDBLK
  5
62511
330
62506
100
AcDbEntity
  8
0
 48
0.2
100
AcDbBlockEnd
  0
BLOCK
  5
62523
330
62522
100
AcDbEntity
  8
0
 48
0.2
100
AcDbBlockBegin
  2
*D728
 70
     1
 10
0.0
 20
0.0
 30
0.0
  3
*D728
  1

  0
LINE
  5
63482
330
62522
100
AcDbEntity
  8
DIMS
440
 16777216
 48
0.2
100
AcDbLine
 10
-2281.689573987691
 20
930.2119340281743
 30
0.0
 11
-2281.689573987691
 21
945.3251117460085
 31
0.0
  0
LINE
  5
63483
330
62522
100
AcDbEntity
  8
DIMS
440
 16777216
 48
0.2
100
AcDbLine
 10
-2289.689573987695
 20
925.7119340281724
 30
0.0
 11
-2289.689573987695
 21
945.3251117460085
 31
0.0
  0
LINE
  5
63484
330
62522
100
AcDbEntity
  8
DIMS
440
 16777216
 48
0.2
100
AcDbLine
 10
-2282.68957398769
 20
945.3251117460085
 30
0.0
 11
-2288.689573987694
 21
945.3251117460085
 31
0.0
  0
INSERT
  5
63485
330
62522
100
AcDbEntity
  8
DIMS
440
 16777216
 48
0.2
100
AcDbBlockReference
  2
_Dot
 10
-2281.689573987691
 20
945.3251117460085
 30
0.0
  0
INSERT
  5
63486
330
62522
100
AcDbEntity
  8
DIMS
440
 16777216
 48
0.2
100
AcDbBlockReference
  2
_Dot
 10
-2289.689573987695
 20
945.3251117460085
 30
0.0
 50
180.0
  0
MTEXT
  5
63487
330
62522
100
AcDbEntity
  8
DIMS
 62
     7
440
 16777216
 48
0.2
100
AcDbMText
 10
-2285.689573987693
 20
948.4251117460086
 30
0.0
 40
3.200000000000001
 41
0.0
 46
0.0
 71
     5
 72
     1
  1
8
 73
     1
 44
1.0
  0
POINT
  5
63488
330
62522
100
AcDbEntity
  8
DEFPOINTS
 62
     0
440
 16777216
 48
0.2
100
AcDbPoint
 10
-2281.689573987691
 20
929.2119340281741
 30
0.0
  0
POINT
  5
63489
330
62522
100
AcDbEntity
  8
DEFPOINTS
 62
     0
440
 16777216
 48
0.2
100
AcDbPoint
 10
-2289.689573987695
 20
924.7119340281724
 30
0.0
  0
POINT
  5
6348A
330
62522
100
AcDbEntity
  8
DEFPOINTS
 62
     0
440
 16777216
 48
0.2
100
AcDbPoint
 10
-2289.689573987695
 20
945.3251117460085
 30
0.0
  0
ENDBLK
  5
6252F
330
62522
100
AcDbEntity
  8
0
 48
0.2
100
AcDbBlockEnd
  0
BLOCK
  5
6256B
330
6256A
100
AcDbEntity
  8
0
 48
0.2
100
AcDbBlockBegin
  2
*D729
 70
     1
 10
0.0
 20
0.0
 30
0.0
  3
*D729
  1

  0
LINE
  5
6348B
330
6256A
100
AcDbEntity
  8
DIMS
440
 16777216
 48
0.2
100
AcDbLine
 10
-2366.689573987691
 20
934.2119340281742
 30
0.0
 11
-2415.869781324497
 21
934.2119340281742
 31
0.0
  0
LINE
  5
6348C
330
6256A
100
AcDbEntity
  8
DIMS
440
 16777216
 48
0.2
100
AcDbLine
 10
-2366.689573987691
 20
834.211934028174
 30
0.0
 11
-2415.869781324497
 21
834.211934028174
 31
0.0
  0
LINE
  5
6348D
330
6256A
100
AcDbEntity
  8
DIMS
440
 16777216
 48
0.2
100
AcDbLine
 10
-2415.869781324497
 20
933.2119340281742
 30
0.0
 11
-2415.869781324497
 21
835.211934028174
 31
0.0
  0
INSERT
  5
6348E
330
6256A
100
AcDbEntity
  8
DIMS
440
 16777216
 48
0.2
100
AcDbBlockReference
  2
_Dot
 10
-2415.869781324497
 20
934.2119340281742
 30
0.0
 50
90.0
  0
INSERT
  5
6348F
330
6256A
100
AcDbEntity
  8
DIMS
440
 16777216
 48
0.2
100
AcDbBlockReference
  2
_Dot
 10
-2415.869781324497
 20
834.211934028174
 30
0.0
 50
270.0
  0
MTEXT
  5
63490
330
6256A
100
AcDbEntity
  8
DIMS
 62
     7
440
 16777216
 48
0.2
100
AcDbMText
 10
-2418.969781324497
 20
876.1707863734976
 30
0.0
 40
3.200000000000001
 41
0.0
 46
0.0
 71
     5
 72
     1
  1
100
 11
0.0000000000000001
 21
1.0
 31
0.0
 73
     1
 44
1.0
  0
POINT
  5
63491
330
6256A
100
AcDbEntity
  8
DEFPOINTS
 62
     0
440
 16777216
 48
0.2
100
AcDbPoint
 10
-2365.689573987691
 20
934.2119340281742
 30
0.0
  0
POINT
  5
63492
330
6256A
100
AcDbEntity
  8
DEFPOINTS
 62
     0
440
 16777216
 48
0.2
100
AcDbPoint
 10
-2365.689573987691
 20
834.211934028174
 30
0.0
  0
POINT
  5
63493
330
6256A
100
AcDbEntity
  8
DEFPOINTS
 62
     0
440
 16777216
 48
0.2
100
AcDbPoint
 10
-2415.869781324497
 20
834.211934028174
 30
0.0
  0
ENDBLK
  5
62575
330
6256A
100
AcDbEntity
  8
0
 48
0.2
100
AcDbBlockEnd
  0
BLOCK
  5
6259D
330
6259C
100
AcDbEntity
  8
0
 48
0.2
100
AcDbBlockBegin
  2
*D730
 70
     1
 10
0.0
 20
0.0
 30
0.0
  3
*D730
  1

  0
LINE
  5
63494
330
6259C
100
AcDbEntity
  8
DIMS
440
 16777216
 48
0.2
100
AcDbLine
 10
-2200.689573987689
 20
881.9519340281724
 30
0.0
 11
-2200.689573987689
 21
820.9371588452594
 31
0.0
  0
LINE
  5
63495
330
6259C
100
AcDbEntity
  8
DIMS
440
 16777216
 48
0.2
100
AcDbLine
 10
-2140.689573987689
 20
882.7119340281724
 30
0.0
 11
-2140.689573987689
 21
820.9371588452594
 31
0.0
  0
LINE
  5
63496
330
6259C
100
AcDbEntity
  8
DIMS
440
 16777216
 48
0.2
100
AcDbLine
 10
-2199.689573987689
 20
820.9371588452594
 30
0.0
 11
-2141.689573987688
 21
820.9371588452594
 31
0.0
  0
INSERT
  5
63497
330
6259C
100
AcDbEntity
  8
DIMS
440
 16777216
 48
0.2
100
AcDbBlockReference
  2
_Dot
 10
-2200.689573987689
 20
820.9371588452594
 30
0.0
 50
180.0
  0
INSERT
  5
63498
330
6259C
100
AcDbEntity
  8
DIMS
440
 16777216
 48
0.2
100
AcDbBlockReference
  2
_Dot
 10
-2140.689573987689
 20
820.9371588452594
 30
0.0
  0
MTEXT
  5
63499
330
6259C
100
AcDbEntity
  8
DIMS
 62
     7
440
 16777216
 48
0.2
100
AcDbMText
 10
-2170.689573987689
 20
824.0371588452592
 30
0.0
 40
3.200000000000001
 41
0.0
 46
0.0
 71
     5
 72
     1
  1
60
 73
     1
 44
1.0
  0
POINT
  5
6349A
330
6259C
100
AcDbEntity
  8
DEFPOINTS
 62
     0
440
 16777216
 48
0.2
100
AcDbPoint
 10
-2200.689573987689
 20
882.9519340281724
 30
0.0
  0
POINT
  5
6349B
330
6259C
100
AcDbEntity
  8
DEFPOINTS
 62
     0
440
 16777216
 48
0.2
100
AcDbPoint
 10
-2140.689573987689
 20
883.7119340281724
 30
0.0
  0
POINT
  5
6349C
330
6259C
100
AcDbEntity
  8
DEFPOINTS
 62
     0
440
 16777216
 48
0.2
100
AcDbPoint
 10
-2140.689573987689
 20
820.9371588452594
 30
0.0
  0
ENDBLK
  5
625A7
330
6259C
100
AcDbEntity
  8
0
 48
0.2
100
AcDbBlockEnd
  0
BLOCK
  5
625FA
330
625F9
100
AcDbEntity
  8
0
 48
0.2
100
AcDbBlockBegin
  2
*D731
 70
     1
 10
0.0
 20
0.0
 30
0.0
  3
*D731
  1

  0
LINE
  5
63353
330
625F9
100
AcDbEntity
  8
DIMS
440
 16777216
 48
0.2
100
AcDbLine
 10
-2281.689573987691
 20
1155.593040072857
 30
0.0
 11
-2281.689573987691
 21
1171.808246337095
 31
0.0
  0
LINE
  5
63354
330
625F9
100
AcDbEntity
  8
DIMS
440
 16777216
 48
0.2
100
AcDbLine
 10
-2331.689573987691
 20
1155.593040072855
 30
0.0
 11
-2331.689573987691
 21
1171.808246337095
 31
0.0
  0
LINE
  5
63355
330
625F9
100
AcDbEntity
  8
DIMS
440
 16777216
 48
0.2
100
AcDbLine
 10
-2282.68957398769
 20
1171.808246337095
 30
0.0
 11
-2330.689573987691
 21
1171.808246337095
 31
0.0
  0
INSERT
  5
63356
330
625F9
100
AcDbEntity
  8
DIMS
440
 16777216
 48
0.2
100
AcDbBlockReference
  2
_Dot
 10
-2281.689573987691
 20
1171.808246337095
 30
0.0
  0
INSERT
  5
63357
330
625F9
100
AcDbEntity
  8
DIMS
440
 16777216
 48
0.2
100
AcDbBlockReference
  2
_Dot
 10
-2331.689573987691
 20
1171.808246337095
 30
0.0
 50
180.0
  0
MTEXT
  5
63358
330
625F9
100
AcDbEntity
  8
DIMS
 62
     7
440
 16777216
 48
0.2
100
AcDbMText
 10
-2306.689573987691
 20
1174.908246337095
 30
0.0
 40
3.200000000000001
 41
0.0
 46
0.0
 71
     5
 72
     1
  1
50
 73
     1
 44
1.0
  0
POINT
  5
63359
330
625F9
100
AcDbEntity
  8
DEFPOINTS
 62
     0
440
 16777216
 48
0.2
100
AcDbPoint
 10
-2281.689573987691
 20
1154.593040072857
 30
0.0
  0
POINT
  5
6335A
330
625F9
100
AcDbEntity
  8
DEFPOINTS
 62
     0
440
 16777216
 48
0.2
100
AcDbPoint
 10
-2331.689573987691
 20
1154.593040072855
 30
0.0
  0
POINT
  5
6335B
330
625F9
100
AcDbEntity
  8
DEFPOINTS
 62
     0
440
 16777216
 48
0.2
100
AcDbPoint
 10
-2331.689573987691
 20
1171.808246337095
 30
0.0
  0
ENDBLK
  5
62604
330
625F9
100
AcDbEntity
  8
0
 48
0.2
100
AcDbBlockEnd
  0
BLOCK
  5
62607
330
62606
100
AcDbEntity
  8
0
 48
0.2
100
AcDbBlockBegin
  2
*D732
 70
     1
 10
0.0
 20
0.0
 30
0.0
  3
*D732
  1

  0
LINE
  5
6335C
330
62606
100
AcDbEntity
  8
DIMS
440
 16777216
 48
0.2
100
AcDbLine
 10
-2354.689573987689
 20
1155.593040072853
 30
0.0
 11
-2354.689573987689
 21
1188.352862119615
 31
0.0
  0
LINE
  5
6335D
330
62606
100
AcDbEntity
  8
DIMS
440
 16777216
 48
0.2
100
AcDbLine
 10
-2120.689573987687
 20
1156.093040072853
 30
0.0
 11
-2120.689573987687
 21
1188.352862119615
 31
0.0
  0
LINE
  5
6335E
330
62606
100
AcDbEntity
  8
DIMS
440
 16777216
 48
0.2
100
AcDbLine
 10
-2353.689573987689
 20
1188.352862119615
 30
0.0
 11
-2121.689573987687
 21
1188.352862119615
 31
0.0
  0
INSERT
  5
6335F
330
62606
100
AcDbEntity
  8
DIMS
440
 16777216
 48
0.2
100
AcDbBlockReference
  2
_Dot
 10
-2354.689573987689
 20
1188.352862119615
 30
0.0
 50
180.0
  0
INSERT
  5
63360
330
62606
100
AcDbEntity
  8
DIMS
440
 16777216
 48
0.2
100
AcDbBlockReference
  2
_Dot
 10
-2120.689573987687
 20
1188.352862119615
 30
0.0
  0
MTEXT
  5
63361
330
62606
100
AcDbEntity
  8
DIMS
 62
     7
440
 16777216
 48
0.2
100
AcDbMText
 10
-2237.689573987688
 20
1191.452862119615
 30
0.0
 40
3.200000000000001
 41
0.0
 46
0.0
 71
     5
 72
     1
  1
234
 73
     1
 44
1.0
  0
POINT
  5
63362
330
62606
100
AcDbEntity
  8
DEFPOINTS
 62
     0
440
 16777216
 48
0.2
100
AcDbPoint
 10
-2354.689573987689
 20
1154.593040072853
 30
0.0
  0
POINT
  5
63363
330
62606
100
AcDbEntity
  8
DEFPOINTS
 62
     0
440
 16777216
 48
0.2
100
AcDbPoint
 10
-2120.689573987687
 20
1155.093040072853
 30
0.0
  0
POINT
  5
63364
330
62606
100
AcDbEntity
  8
DEFPOINTS
 62
     0
440
 16777216
 48
0.2
100
AcDbPoint
 10
-2120.689573987687
 20
1188.352862119615
 30
0.0
  0
ENDBLK
  5
62611
330
62606
100
AcDbEntity
  8
0
 48
0.2
100
AcDbBlockEnd
  0
BLOCK
  5
62616
330
62615
100
AcDbEntity
  8
0
 48
0.2
100
AcDbBlockBegin
  2
*D733
 70
     1
 10
0.0
 20
0.0
 30
0.0
  3
*D733
  1

  0
LINE
  5
633E0
330
62615
100
AcDbEntity
  8
DIMS
440
 16777216
 48
0.2
100
AcDbLine
 10
-2200.689573987685
 20
1001.093040072855
 30
0.0
 11
-2200.689573987685
 21
988.4986304751119
 31
0.0
  0
LINE
  5
633E1
330
62615
100
AcDbEntity
  8
DIMS
440
 16777216
 48
0.2
100
AcDbLine
 10
-2270.689573987691
 20
1111.393040072855
 30
0.0
 11
-2270.689573987691
 21
988.4986304751119
 31
0.0
  0
LINE
  5
633E2
330
62615
100
AcDbEntity
  8
DIMS
440
 16777216
 48
0.2
100
AcDbLine
 10
-2201.689573987685
 20
988.4986304751119
 30
0.0
 11
-2269.68957398769
 21
988.4986304751119
 31
0.0
  0
INSERT
  5
633E3
330
62615
100
AcDbEntity
  8
DIMS
440
 16777216
 48
0.2
100
AcDbBlockReference
  2
_Dot
 10
-2200.689573987685
 20
988.4986304751119
 30
0.0
  0
INSERT
  5
633E4
330
62615
100
AcDbEntity
  8
DIMS
440
 16777216
 48
0.2
100
AcDbBlockReference
  2
_Dot
 10
-2270.689573987691
 20
988.4986304751119
 30
0.0
 50
180.0
  0
MTEXT
  5
633E5
330
62615
100
AcDbEntity
  8
DIMS
 62
     7
440
 16777216
 48
0.2
100
AcDbMText
 10
-2235.689573987688
 20
991.5986304751118
 30
0.0
 40
3.200000000000001
 41
0.0
 46
0.0
 71
     5
 72
     1
  1
70
 73
     1
 44
1.0
  0
POINT
  5
633E6
330
62615
100
AcDbEntity
  8
DEFPOINTS
 62
     0
440
 16777216
 48
0.2
100
AcDbPoint
 10
-2200.689573987685
 20
1002.093040072855
 30
0.0
  0
POINT
  5
633E7
330
62615
100
AcDbEntity
  8
DEFPOINTS
 62
     0
440
 16777216
 48
0.2
100
AcDbPoint
 10
-2270.689573987691
 20
1112.393040072855
 30
0.0
  0
POINT
  5
633E8
330
62615
100
AcDbEntity
  8
DEFPOINTS
 62
     0
440
 16777216
 48
0.2
100
AcDbPoint
 10
-2270.689573987691
 20
988.4986304751119
 30
0.0
  0
ENDBLK
  5
62620
330
62615
100
AcDbEntity
  8
0
 48
0.2
100
AcDbBlockEnd
  0
BLOCK
  5
62623
330
62622
100
AcDbEntity
  8
0
 48
0.2
100
AcDbBlockBegin
  2
*D734
 70
     1
 10
0.0
 20
0.0
 30
0.0
  3
*D734
  1

  0
LINE
  5
6340D
330
62622
100
AcDbEntity
  8
DIMS
440
 16777216
 48
0.2
100
AcDbLine
 10
-2270.689573987691
 20
1111.393040072855
 30
0.0
 11
-2270.689573987691
 21
971.8942066233481
 31
0.0
  0
LINE
  5
6340E
330
62622
100
AcDbEntity
  8
DIMS
440
 16777216
 48
0.2
100
AcDbLine
 10
-2140.689573987687
 20
999.8330400728532
 30
0.0
 11
-2140.689573987687
 21
971.8942066233481
 31
0.0
  0
LINE
  5
6340F
330
62622
100
AcDbEntity
  8
DIMS
440
 16777216
 48
0.2
100
AcDbLine
 10
-2269.68957398769
 20
971.8942066233481
 30
0.0
 11
-2141.689573987687
 21
971.8942066233481
 31
0.0
  0
INSERT
  5
63410
330
62622
100
AcDbEntity
  8
DIMS
440
 16777216
 48
0.2
100
AcDbBlockReference
  2
_Dot
 10
-2270.689573987691
 20
971.8942066233481
 30
0.0
 50
180.0
  0
INSERT
  5
63411
330
62622
100
AcDbEntity
  8
DIMS
440
 16777216
 48
0.2
100
AcDbBlockReference
  2
_Dot
 10
-2140.689573987687
 20
971.8942066233481
 30
0.0
  0
MTEXT
  5
63412
330
62622
100
AcDbEntity
  8
DIMS
 62
     7
440
 16777216
 48
0.2
100
AcDbMText
 10
-2205.689573987688
 20
974.9942066233481
 30
0.0
 40
3.200000000000001
 41
0.0
 46
0.0
 71
     5
 72
     1
  1
130
 73
     1
 44
1.0
  0
POINT
  5
63413
330
62622
100
AcDbEntity
  8
DEFPOINTS
 62
     0
440
 16777216
 48
0.2
100
AcDbPoint
 10
-2270.689573987691
 20
1112.393040072855
 30
0.0
  0
POINT
  5
63414
330
62622
100
AcDbEntity
  8
DEFPOINTS
 62
     0
440
 16777216
 48
0.2
100
AcDbPoint
 10
-2140.689573987687
 20
1000.833040072853
 30
0.0
  0
POINT
  5
63415
330
62622
100
AcDbEntity
  8
DEFPOINTS
 62
     0
440
 16777216
 48
0.2
100
AcDbPoint
 10
-2140.689573987687
 20
971.8942066233481
 30
0.0
  0
ENDBLK
  5
6262D
330
62622
100
AcDbEntity
  8
0
 48
0.2
100
AcDbBlockEnd
  0
BLOCK
  5
62630
330
6262F
100
AcDbEntity
  8
0
 48
0.2
100
AcDbBlockBegin
  2
*D735
 70
     1
 10
0.0
 20
0.0
 30
0.0
  3
*D735
  1

  0
LINE
  5
63365
330
6262F
100
AcDbEntity
  8
DIMS
440
 16777216
 48
0.2
100
AcDbLine
 10
-2212.689573987689
 20
1126.093040072853
 30
0.0
 11
-2225.600649202792
 21
1126.093040072853
 31
0.0
  0
LINE
  5
63366
330
6262F
100
AcDbEntity
  8
DIMS
440
 16777216
 48
0.2
100
AcDbLine
 10
-2280.68957398769
 20
1112.393040072855
 30
0.0
 11
-2225.600649202792
 21
1112.393040072855
 31
0.0
  0
LINE
  5
63367
330
6262F
100
AcDbEntity
  8
DIMS
440
 16777216
 48
0.2
100
AcDbLine
 10
-2225.600649202792
 20
1125.093040072853
 30
0.0
 11
-2225.600649202792
 21
1113.393040072855
 31
0.0
  0
LINE
  5
63368
330
6262F
100
AcDbEntity
  8
DIMS
440
 16777216
 48
0.2
100
AcDbLine
 10
-2225.600649202792
 20
1112.393040072855
 30
0.0
 11
-2225.600649202792
 21
1083.433040072855
 31
0.0
  0
INSERT
  5
63369
330
6262F
100
AcDbEntity
  8
DIMS
440
 16777216
 48
0.2
100
AcDbBlockReference
  2
_Dot
 10
-2225.600649202792
 20
1126.093040072853
 30
0.0
 50
90.0
  0
INSERT
  5
6336A
330
6262F
100
AcDbEntity
  8
DIMS
440
 16777216
 48
0.2
100
AcDbBlockReference
  2
_Dot
 10
-2225.600649202792
 20
1112.393040072855
 30
0.0
 50
270.0
  0
MTEXT
  5
6336B
330
6262F
100
AcDbEntity
  8
DIMS
 62
     7
440
 16777216
 48
0.2
100
AcDbMText
 10
-2228.700649202792
 20
1089.199706739521
 30
0.0
 40
3.200000000000001
 41
0.0
 46
0.0
 71
     5
 72
     1
  1
13.7
 11
0.0000000000000001
 21
1.0
 31
0.0
 73
     1
 44
1.0
  0
POINT
  5
6336C
330
6262F
100
AcDbEntity
  8
DEFPOINTS
 62
     0
440
 16777216
 48
0.2
100
AcDbPoint
 10
-2211.689573987689
 20
1126.093040072853
 30
0.0
  0
POINT
  5
6336D
330
6262F
100
AcDbEntity
  8
DEFPOINTS
 62
     0
440
 16777216
 48
0.2
100
AcDbPoint
 10
-2281.689573987691
 20
1112.393040072855
 30
0.0
  0
POINT
  5
6336E
330
6262F
100
AcDbEntity
  8
DEFPOINTS
 62
     0
440
 16777216
 48
0.2
100
AcDbPoint
 10
-2225.600649202792
 20
1112.393040072855
 30
0.0
  0
ENDBLK
  5
6263C
330
6262F
100
AcDbEntity
  8
0
 48
0.2
100
AcDbBlockEnd
  0
BLOCK
  5
62652
330
62651
100
AcDbEntity
  8
0
 48
0.2
100
AcDbBlockBegin
  2
*D736
 70
     1
 10
0.0
 20
0.0
 30
0.0
  3
*D736
  1

  0
LINE
  5
6336F
330
62651
100
AcDbEntity
  8
DIMS
440
 16777216
 48
0.2
100
AcDbLine
 10
-2263.733191615405
 20
1131.093040072853
 30
0.0
 11
-2254.600868275693
 21
1131.093040072853
 31
0.0
  0
LINE
  5
63370
330
62651
100
AcDbEntity
  8
DIMS
440
 16777216
 48
0.2
100
AcDbLine
 10
-2269.68957398769
 20
1112.393040072855
 30
0.0
 11
-2254.600868275693
 21
1112.393040072855
 31
0.0
  0
LINE
  5
63371
330
62651
100
AcDbEntity
  8
DIMS
440
 16777216
 48
0.2
100
AcDbLine
 10
-2254.600868275693
 20
1130.093040072853
 30
0.0
 11
-2254.600868275693
 21
1113.393040072855
 31
0.0
  0
LINE
  5
63372
330
62651
100
AcDbEntity
  8
DIMS
440
 16777216
 48
0.2
100
AcDbLine
 10
-2254.600868275693
 20
1112.393040072855
 30
0.0
 11
-2254.600868275693
 21
1083.689317742954
 31
0.0
  0
INSERT
  5
63373
330
62651
100
AcDbEntity
  8
DIMS
440
 16777216
 48
0.2
100
AcDbBlockReference
  2
_Dot
 10
-2254.600868275693
 20
1131.093040072853
 30
0.0
 50
90.0
  0
INSERT
  5
63374
330
62651
100
AcDbEntity
  8
DIMS
440
 16777216
 48
0.2
100
AcDbBlockReference
  2
_Dot
 10
-2254.600868275693
 20
1112.393040072855
 30
0.0
 50
270.0
  0
MTEXT
  5
63375
330
62651
100
AcDbEntity
  8
DIMS
 62
     7
440
 16777216
 48
0.2
100
AcDbMText
 10
-2257.700868275693
 20
1089.455984409621
 30
0.0
 40
3.200000000000001
 41
0.0
 46
0.0
 71
     5
 72
     1
  1
18.7
 11
0.0000000000000001
 21
1.0
 31
0.0
 73
     1
 44
1.0
  0
POINT
  5
63376
330
62651
100
AcDbEntity
  8
DEFPOINTS
 62
     0
440
 16777216
 48
0.2
100
AcDbPoint
 10
-2264.733191615405
 20
1131.093040072853
 30
0.0
  0
POINT
  5
63377
330
62651
100
AcDbEntity
  8
DEFPOINTS
 62
     0
440
 16777216
 48
0.2
100
AcDbPoint
 10
-2270.689573987691
 20
1112.393040072855
 30
0.0
  0
POINT
  5
63378
330
62651
100
AcDbEntity
  8
DEFPOINTS
 62
     0
440
 16777216
 48
0.2
100
AcDbPoint
 10
-2254.600868275693
 20
1112.393040072855
 30
0.0
  0
ENDBLK
  5
6265D
330
62651
100
AcDbEntity
  8
0
 48
0.2
100
AcDbBlockEnd
  0
BLOCK
  5
62660
330
6265F
100
AcDbEntity
  8
0
 48
0.2
100
AcDbBlockBegin
  2
*D737
 70
     1
 10
0.0
 20
0.0
 30
0.0
  3
*D737
  1

  0
LINE
  5
63416
330
6265F
100
AcDbEntity
  8
DIMS
440
 16777216
 48
0.2
100
AcDbLine
 10
-2370.689573987691
 20
1111.393040072855
 30
0.0
 11
-2370.689573987691
 21
971.8942066233481
 31
0.0
  0
LINE
  5
63417
330
6265F
100
AcDbEntity
  8
DIMS
440
 16777216
 48
0.2
100
AcDbLine
 10
-2270.689573987691
 20
1111.393040072855
 30
0.0
 11
-2270.689573987691
 21
971.8942066233481
 31
0.0
  0
LINE
  5
63418
330
6265F
100
AcDbEntity
  8
DIMS
440
 16777216
 48
0.2
100
AcDbLine
 10
-2369.689573987691
 20
971.8942066233481
 30
0.0
 11
-2271.689573987691
 21
971.8942066233481
 31
0.0
  0
INSERT
  5
63419
330
6265F
100
AcDbEntity
  8
DIMS
440
 16777216
 48
0.2
100
AcDbBlockReference
  2
_Dot
 10
-2370.689573987691
 20
971.8942066233481
 30
0.0
 50
180.0
  0
INSERT
  5
6341A
330
6265F
100
AcDbEntity
  8
DIMS
440
 16777216
 48
0.2
100
AcDbBlockReference
  2
_Dot
 10
-2270.689573987691
 20
971.8942066233481
 30
0.0
  0
MTEXT
  5
6341B
330
6265F
100
AcDbEntity
  8
DIMS
 62
     7
440
 16777216
 48
0.2
100
AcDbMText
 10
-2320.689573987691
 20
974.9942066233481
 30
0.0
 40
3.200000000000001
 41
0.0
 46
0.0
 71
     5
 72
     1
  1
100
 73
     1
 44
1.0
  0
POINT
  5
6341C
330
6265F
100
AcDbEntity
  8
DEFPOINTS
 62
     0
440
 16777216
 48
0.2
100
AcDbPoint
 10
-2370.689573987691
 20
1112.393040072855
 30
0.0
  0
POINT
  5
6341D
330
6265F
100
AcDbEntity
  8
DEFPOINTS
 62
     0
440
 16777216
 48
0.2
100
AcDbPoint
 10
-2270.689573987691
 20
1112.393040072855
 30
0.0
  0
POINT
  5
6341E
330
6265F
100
AcDbEntity
  8
DEFPOINTS
 62
     0
440
 16777216
 48
0.2
100
AcDbPoint
 10
-2270.689573987691
 20
971.8942066233481
 30
0.0
  0
ENDBLK
  5
6266A
330
6265F
100
AcDbEntity
  8
0
 48
0.2
100
AcDbBlockEnd
  0
BLOCK
  5
6268E
330
6268D
100
AcDbEntity
  8
0
 48
0.2
100
AcDbBlockBegin
  2
*D738
 70
     1
 10
0.0
 20
0.0
 30
0.0
  3
*D738
  1

  0
LINE
  5
633E9
330
6268D
100
AcDbEntity
  8
DIMS
440
 16777216
 48
0.2
100
AcDbLine
 10
-2140.689573987687
 20
1001.093040072855
 30
0.0
 11
-2140.689573987687
 21
988.4986304751119
 31
0.0
  0
LINE
  5
633EA
330
6268D
100
AcDbEntity
  8
DIMS
440
 16777216
 48
0.2
100
AcDbLine
 10
-2200.689573987685
 20
1001.093040072855
 30
0.0
 11
-2200.689573987685
 21
988.4986304751119
 31
0.0
  0
LINE
  5
633EB
330
6268D
100
AcDbEntity
  8
DIMS
440
 16777216
 48
0.2
100
AcDbLine
 10
-2141.689573987687
 20
988.4986304751119
 30
0.0
 11
-2199.689573987685
 21
988.4986304751119
 31
0.0
  0
INSERT
  5
633EC
330
6268D
100
AcDbEntity
  8
DIMS
440
 16777216
 48
0.2
100
AcDbBlockReference
  2
_Dot
 10
-2140.689573987687
 20
988.4986304751119
 30
0.0
  0
INSERT
  5
633ED
330
6268D
100
AcDbEntity
  8
DIMS
440
 16777216
 48
0.2
100
AcDbBlockReference
  2
_Dot
 10
-2200.689573987685
 20
988.4986304751119
 30
0.0
 50
180.0
  0
MTEXT
  5
633EE
330
6268D
100
AcDbEntity
  8
DIMS
 62
     7
440
 16777216
 48
0.2
100
AcDbMText
 10
-2170.689573987686
 20
991.5986304751118
 30
0.0
 40
3.200000000000001
 41
0.0
 46
0.0
 71
     5
 72
     1
  1
60
 73
     1
 44
1.0
  0
POINT
  5
633EF
330
6268D
100
AcDbEntity
  8
DEFPOINTS
 62
     0
440
 16777216
 48
0.2
100
AcDbPoint
 10
-2140.689573987687
 20
1002.093040072855
 30
0.0
  0
POINT
  5
633F0
330
6268D
100
AcDbEntity
  8
DEFPOINTS
 62
     0
440
 16777216
 48
0.2
100
AcDbPoint
 10
-2200.689573987685
 20
1002.093040072855
 30
0.0
  0
POINT
  5
633F1
330
6268D
100
AcDbEntity
  8
DEFPOINTS
 62
     0
440
 16777216
 48
0.2
100
AcDbPoint
 10
-2200.689573987685
 20
988.4986304751119
 30
0.0
  0
ENDBLK
  5
62698
330
6268D
100
AcDbEntity
  8
0
 48
0.2
100
AcDbBlockEnd
  0
BLOCK
  5
6269F
330
6269E
100
AcDbEntity
  8
0
 48
0.2
100
AcDbBlockBegin
  2
*D739
 70
     1
 10
0.0
 20
0.0
 30
0.0
  3
*D739
  1

  0
LINE
  5
633F2
330
6269E
100
AcDbEntity
  8
DIMS
440
 16777216
 48
0.2
100
AcDbLine
 10
-2120.689573987687
 20
1003.093040072853
 30
0.0
 11
-2120.689573987687
 21
988.4986304751119
 31
0.0
  0
LINE
  5
633F3
330
6269E
100
AcDbEntity
  8
DIMS
440
 16777216
 48
0.2
100
AcDbLine
 10
-2140.689573987687
 20
1001.093040072855
 30
0.0
 11
-2140.689573987687
 21
988.4986304751119
 31
0.0
  0
LINE
  5
633F4
330
6269E
100
AcDbEntity
  8
DIMS
440
 16777216
 48
0.2
100
AcDbLine
 10
-2121.689573987687
 20
988.4986304751119
 30
0.0
 11
-2139.689573987687
 21
988.4986304751119
 31
0.0
  0
INSERT
  5
633F5
330
6269E
100
AcDbEntity
  8
DIMS
440
 16777216
 48
0.2
100
AcDbBlockReference
  2
_Dot
 10
-2120.689573987687
 20
988.4986304751119
 30
0.0
  0
INSERT
  5
633F6
330
6269E
100
AcDbEntity
  8
DIMS
440
 16777216
 48
0.2
100
AcDbBlockReference
  2
_Dot
 10
-2140.689573987687
 20
988.4986304751119
 30
0.0
 50
180.0
  0
MTEXT
  5
633F7
330
6269E
100
AcDbEntity
  8
DIMS
 62
     7
440
 16777216
 48
0.2
100
AcDbMText
 10
-2130.689573987687
 20
991.5986304751118
 30
0.0
 40
3.200000000000001
 41
0.0
 46
0.0
 71
     5
 72
     1
  1
20
 73
     1
 44
1.0
  0
POINT
  5
633F8
330
6269E
100
AcDbEntity
  8
DEFPOINTS
 62
     0
440
 16777216
 48
0.2
100
AcDbPoint
 10
-2120.689573987687
 20
1004.093040072853
 30
-0.0000000000000004
  0
POINT
  5
633F9
330
6269E
100
AcDbEntity
  8
DEFPOINTS
 62
     0
440
 16777216
 48
0.2
100
AcDbPoint
 10
-2140.689573987687
 20
1002.093040072855
 30
0.0
  0
POINT
  5
633FA
330
6269E
100
AcDbEntity
  8
DEFPOINTS
 62
     0
440
 16777216
 48
0.2
100
AcDbPoint
 10
-2140.689573987687
 20
988.4986304751119
 30
0.0
  0
ENDBLK
  5
626A9
330
6269E
100
AcDbEntity
  8
0
 48
0.2
100
AcDbBlockEnd
  0
BLOCK
  5
626AC
330
626AB
100
AcDbEntity
  8
0
 48
0.2
100
AcDbBlockBegin
  2
*D740
 70
     1
 10
0.0
 20
0.0
 30
0.0
  3
*D740
  1

  0
LINE
  5
633FB
330
626AB
100
AcDbEntity
  8
DIMS
440
 16777216
 48
0.2
100
AcDbLine
 10
-2107.689573987689
 20
1003.093040072853
 30
0.0
 11
-2107.689573987689
 21
971.8942066233481
 31
0.0
  0
LINE
  5
633FC
330
626AB
100
AcDbEntity
  8
DIMS
440
 16777216
 48
0.2
100
AcDbLine
 10
-2140.689573987687
 20
1001.093040072855
 30
0.0
 11
-2140.689573987687
 21
971.8942066233481
 31
0.0
  0
LINE
  5
633FD
330
626AB
100
AcDbEntity
  8
DIMS
440
 16777216
 48
0.2
100
AcDbLine
 10
-2108.689573987689
 20
971.8942066233481
 30
0.0
 11
-2139.689573987687
 21
971.8942066233481
 31
0.0
  0
INSERT
  5
633FE
330
626AB
100
AcDbEntity
  8
DIMS
440
 16777216
 48
0.2
100
AcDbBlockReference
  2
_Dot
 10
-2107.689573987689
 20
971.8942066233481
 30
0.0
  0
INSERT
  5
633FF
330
626AB
100
AcDbEntity
  8
DIMS
440
 16777216
 48
0.2
100
AcDbBlockReference
  2
_Dot
 10
-2140.689573987687
 20
971.8942066233481
 30
0.0
 50
180.0
  0
MTEXT
  5
63400
330
626AB
100
AcDbEntity
  8
DIMS
 62
     7
440
 16777216
 48
0.2
100
AcDbMText
 10
-2124.189573987688
 20
974.9942066233481
 30
0.0
 40
3.200000000000001
 41
0.0
 46
0.0
 71
     5
 72
     1
  1
33
 73
     1
 44
1.0
  0
POINT
  5
63401
330
626AB
100
AcDbEntity
  8
DEFPOINTS
 62
     0
440
 16777216
 48
0.2
100
AcDbPoint
 10
-2107.689573987689
 20
1004.093040072853
 30
-0.0000000000000004
  0
POINT
  5
63402
330
626AB
100
AcDbEntity
  8
DEFPOINTS
 62
     0
440
 16777216
 48
0.2
100
AcDbPoint
 10
-2140.689573987687
 20
1002.093040072855
 30
0.0
  0
POINT
  5
63403
330
626AB
100
AcDbEntity
  8
DEFPOINTS
 62
     0
440
 16777216
 48
0.2
100
AcDbPoint
 10
-2140.689573987687
 20
971.8942066233481
 30
0.0
  0
ENDBLK
  5
626B6
330
626AB
100
AcDbEntity
  8
0
 48
0.2
100
AcDbBlockEnd
  0
BLOCK
  5
626C2
330
626C1
100
AcDbEntity
  8
0
 48
0.2
100
AcDbBlockBegin
  2
*D741
 70
     1
 10
0.0
 20
0.0
 30
0.0
  3
*D741
  1

  0
LINE
  5
63379
330
626C1
100
AcDbEntity
  8
DIMS
440
 16777216
 48
0.2
100
AcDbLine
 10
-2168.735057831709
 20
1155.093040072853
 30
0.0
 11
-2168.83465506238
 21
1155.093040072853
 31
0.0
  0
LINE
  5
6337A
330
626C1
100
AcDbEntity
  8
DIMS
440
 16777216
 48
0.2
100
AcDbLine
 10
-2168.735057831709
 20
1131.093040072853
 30
0.0
 11
-2168.83465506238
 21
1131.093040072853
 31
0.0
  0
LINE
  5
6337B
330
626C1
100
AcDbEntity
  8
DIMS
440
 16777216
 48
0.2
100
AcDbLine
 10
-2168.83465506238
 20
1154.093040072853
 30
0.0
 11
-2168.83465506238
 21
1132.093040072853
 31
0.0
  0
INSERT
  5
6337C
330
626C1
100
AcDbEntity
  8
DIMS
440
 16777216
 48
0.2
100
AcDbBlockReference
  2
_Dot
 10
-2168.83465506238
 20
1155.093040072853
 30
0.0
 50
90.0
  0
INSERT
  5
6337D
330
626C1
100
AcDbEntity
  8
DIMS
440
 16777216
 48
0.2
100
AcDbBlockReference
  2
_Dot
 10
-2168.83465506238
 20
1131.093040072853
 30
0.0
 50
270.0
  0
MTEXT
  5
6337E
330
626C1
100
AcDbEntity
  8
DIMS
 62
     7
440
 16777216
 48
0.2
100
AcDbMText
 10
-2171.934655062381
 20
1152.99970554227
 30
0.0
 40
3.200000000000001
 41
0.0
 46
0.0
 71
     5
 72
     1
  1
%%C24
 11
0.0000000000000001
 21
1.0
 31
0.0
 73
     1
 44
1.0
  0
POINT
  5
6337F
330
626C1
100
AcDbEntity
  8
DEFPOINTS
 62
     0
440
 16777216
 48
0.2
100
AcDbPoint
 10
-2169.735057831708
 20
1155.093040072853
 30
0.0
  0
POINT
  5
63380
330
626C1
100
AcDbEntity
  8
DEFPOINTS
 62
     0
440
 16777216
 48
0.2
100
AcDbPoint
 10
-2169.735057831708
 20
1131.093040072853
 30
0.0
  0
POINT
  5
63381
330
626C1
100
AcDbEntity
  8
DEFPOINTS
 62
     0
440
 16777216
 48
0.2
100
AcDbPoint
 10
-2168.83465506238
 20
1131.093040072853
 30
0.0
  0
ENDBLK
  5
626CD
330
626C1
100
AcDbEntity
  8
0
 48
0.2
100
AcDbBlockEnd
  0
BLOCK
  5
62776
330
62775
100
AcDbEntity
  8
0
 48
0.2
100
AcDbBlockBegin
  2
*D742
 70
     1
 10
0.0
 20
0.0
 30
0.0
  3
*D742
  1

  0
LINE
  5
63394
330
62775
100
AcDbEntity
  8
DIMS
440
 16777216
 48
0.2
100
AcDbLine
 10
-1929.012573831309
 20
1157.843040072857
 30
0.0
 11
-1929.012573831309
 21
1171.808246337095
 31
0.0
  0
LINE
  5
63395
330
62775
100
AcDbEntity
  8
DIMS
440
 16777216
 48
0.2
100
AcDbLine
 10
-1967.512573831308
 20
1160.553269736389
 30
0.0
 11
-1967.512573831308
 21
1171.808246337095
 31
0.0
  0
LINE
  5
63396
330
62775
100
AcDbEntity
  8
DIMS
440
 16777216
 48
0.2
100
AcDbLine
 10
-1930.012573831308
 20
1171.808246337095
 30
0.0
 11
-1966.512573831309
 21
1171.808246337095
 31
0.0
  0
INSERT
  5
63397
330
62775
100
AcDbEntity
  8
DIMS
440
 16777216
 48
0.2
100
AcDbBlockReference
  2
_Dot
 10
-1929.012573831309
 20
1171.808246337095
 30
0.0
  0
INSERT
  5
63398
330
62775
100
AcDbEntity
  8
DIMS
440
 16777216
 48
0.2
100
AcDbBlockReference
  2
_Dot
 10
-1967.512573831308
 20
1171.808246337095
 30
0.0
 50
180.0
  0
MTEXT
  5
63399
330
62775
100
AcDbEntity
  8
DIMS
 62
     7
440
 16777216
 48
0.2
100
AcDbMText
 10
-1948.262573831308
 20
1174.908246337095
 30
0.0
 40
3.200000000000001
 41
0.0
 46
0.0
 71
     5
 72
     1
  1
38.5
 73
     1
 44
1.0
  0
POINT
  5
6339A
330
62775
100
AcDbEntity
  8
DEFPOINTS
 62
     0
440
 16777216
 48
0.2
100
AcDbPoint
 10
-1929.012573831309
 20
1156.843040072857
 30
0.0
  0
POINT
  5
6339B
330
62775
100
AcDbEntity
  8
DEFPOINTS
 62
     0
440
 16777216
 48
0.2
100
AcDbPoint
 10
-1967.512573831308
 20
1159.553269736389
 30
0.0
  0
POINT
  5
6339C
330
62775
100
AcDbEntity
  8
DEFPOINTS
 62
     0
440
 16777216
 48
0.2
100
AcDbPoint
 10
-1967.512573831308
 20
1171.808246337095
 30
0.0
  0
ENDBLK
  5
62780
330
62775
100
AcDbEntity
  8
0
 48
0.2
100
AcDbBlockEnd
  0
BLOCK
  5
62783
330
62782
100
AcDbEntity
  8
0
 48
0.2
100
AcDbBlockBegin
  2
*D743
 70
     1
 10
0.0
 20
0.0
 30
0.0
  3
*D743
  1

  0
LINE
  5
633C1
330
62782
100
AcDbEntity
  8
DIMS
440
 16777216
 48
0.2
100
AcDbLine
 10
-1929.012573831309
 20
1157.843040072857
 30
0.0
 11
-1929.012573831309
 21
1171.808246337095
 31
0.0
  0
LINE
  5
633C2
330
62782
100
AcDbEntity
  8
DIMS
440
 16777216
 48
0.2
100
AcDbLine
 10
-1900.012573831309
 20
1152.593040072857
 30
0.0
 11
-1900.012573831309
 21
1171.808246337095
 31
0.0
  0
LINE
  5
633C3
330
62782
100
AcDbEntity
  8
DIMS
440
 16777216
 48
0.2
100
AcDbLine
 10
-1928.012573831308
 20
1171.808246337095
 30
0.0
 11
-1901.012573831308
 21
1171.808246337095
 31
0.0
  0
INSERT
  5
633C4
330
62782
100
AcDbEntity
  8
DIMS
440
 16777216
 48
0.2
100
AcDbBlockReference
  2
_Dot
 10
-1929.012573831309
 20
1171.808246337095
 30
0.0
 50
180.0
  0
INSERT
  5
633C5
330
62782
100
AcDbEntity
  8
DIMS
440
 16777216
 48
0.2
100
AcDbBlockReference
  2
_Dot
 10
-1900.012573831309
 20
1171.808246337095
 30
0.0
  0
MTEXT
  5
633C6
330
62782
100
AcDbEntity
  8
DIMS
 62
     7
440
 16777216
 48
0.2
100
AcDbMText
 10
-1914.512573831309
 20
1174.908246337095
 30
0.0
 40
3.200000000000001
 41
0.0
 46
0.0
 71
     5
 72
     1
  1
29
 73
     1
 44
1.0
  0
POINT
  5
633C7
330
62782
100
AcDbEntity
  8
DEFPOINTS
 62
     0
440
 16777216
 48
0.2
100
AcDbPoint
 10
-1929.012573831309
 20
1156.843040072857
 30
0.0
  0
POINT
  5
633C8
330
62782
100
AcDbEntity
  8
DEFPOINTS
 62
     0
440
 16777216
 48
0.2
100
AcDbPoint
 10
-1900.012573831309
 20
1151.593040072857
 30
0.0
  0
POINT
  5
633C9
330
62782
100
AcDbEntity
  8
DEFPOINTS
 62
     0
440
 16777216
 48
0.2
100
AcDbPoint
 10
-1900.012573831309
 20
1171.808246337095
 30
0.0
  0
ENDBLK
  5
6278D
330
62782
100
AcDbEntity
  8
0
 48
0.2
100
AcDbBlockEnd
  0
BLOCK
  5
62790
330
6278F
100
AcDbEntity
  8
0
 48
0.2
100
AcDbBlockBegin
  2
*D744
 70
     1
 10
0.0
 20
0.0
 30
0.0
  3
*D744
  1

  0
LINE
  5
633AF
330
6278F
100
AcDbEntity
  8
DIMS
440
 16777216
 48
0.2
100
AcDbLine
 10
-1995.012573831307
 20
1132.586943418449
 30
0.0
 11
-1995.012573831307
 21
1171.808246337095
 31
0.0
  0
LINE
  5
633B0
330
6278F
100
AcDbEntity
  8
DIMS
440
 16777216
 48
0.2
100
AcDbLine
 10
-1967.512573831308
 20
1162.593040072857
 30
0.0
 11
-1967.512573831308
 21
1171.808246337095
 31
0.0
  0
LINE
  5
633B1
330
6278F
100
AcDbEntity
  8
DIMS
440
 16777216
 48
0.2
100
AcDbLine
 10
-1994.012573831307
 20
1171.808246337095
 30
0.0
 11
-1968.512573831308
 21
1171.808246337095
 31
0.0
  0
INSERT
  5
633B2
330
6278F
100
AcDbEntity
  8
DIMS
440
 16777216
 48
0.2
100
AcDbBlockReference
  2
_Dot
 10
-1995.012573831307
 20
1171.808246337095
 30
0.0
 50
180.0
  0
INSERT
  5
633B3
330
6278F
100
AcDbEntity
  8
DIMS
440
 16777216
 48
0.2
100
AcDbBlockReference
  2
_Dot
 10
-1967.512573831308
 20
1171.808246337095
 30
0.0
  0
MTEXT
  5
633B4
330
6278F
100
AcDbEntity
  8
DIMS
 62
     7
440
 16777216
 48
0.2
100
AcDbMText
 10
-1981.262573831308
 20
1174.908246337095
 30
0.0
 40
3.200000000000001
 41
0.0
 46
0.0
 71
     5
 72
     1
  1
27.5
 73
     1
 44
1.0
  0
POINT
  5
633B5
330
6278F
100
AcDbEntity
  8
DEFPOINTS
 62
     0
440
 16777216
 48
0.2
100
AcDbPoint
 10
-1995.012573831307
 20
1131.586943418449
 30
0.0
  0
POINT
  5
633B6
330
6278F
100
AcDbEntity
  8
DEFPOINTS
 62
     0
440
 16777216
 48
0.2
100
AcDbPoint
 10
-1967.512573831308
 20
1161.593040072857
 30
0.0
  0
POINT
  5
633B7
330
6278F
100
AcDbEntity
  8
DEFPOINTS
 62
     0
440
 16777216
 48
0.2
100
AcDbPoint
 10
-1967.512573831308
 20
1171.808246337095
 30
0.0
  0
ENDBLK
  5
6279A
330
6278F
100
AcDbEntity
  8
0
 48
0.2
100
AcDbBlockEnd
  0
BLOCK
  5
6279D
330
6279C
100
AcDbEntity
  8
0
 48
0.2
100
AcDbBlockBegin
  2
*D745
 70
     1
 10
0.0
 20
0.0
 30
0.0
  3
*D745
  1

  0
LINE
  5
6339D
330
6279C
100
AcDbEntity
  8
DIMS
440
 16777216
 48
0.2
100
AcDbLine
 10
-1900.012573831309
 20
1152.593040072857
 30
0.0
 11
-1900.012573831309
 21
1188.352862119615
 31
0.0
  0
LINE
  5
6339E
330
6279C
100
AcDbEntity
  8
DIMS
440
 16777216
 48
0.2
100
AcDbLine
 10
-1995.012573831307
 20
1132.586943418449
 30
0.0
 11
-1995.012573831307
 21
1188.352862119615
 31
0.0
  0
LINE
  5
6339F
330
6279C
100
AcDbEntity
  8
DIMS
440
 16777216
 48
0.2
100
AcDbLine
 10
-1901.012573831308
 20
1188.352862119615
 30
0.0
 11
-1994.012573831307
 21
1188.352862119615
 31
0.0
  0
INSERT
  5
633A0
330
6279C
100
AcDbEntity
  8
DIMS
440
 16777216
 48
0.2
100
AcDbBlockReference
  2
_Dot
 10
-1900.012573831309
 20
1188.352862119615
 30
0.0
  0
INSERT
  5
633A1
330
6279C
100
AcDbEntity
  8
DIMS
440
 16777216
 48
0.2
100
AcDbBlockReference
  2
_Dot
 10
-1995.012573831307
 20
1188.352862119615
 30
0.0
 50
180.0
  0
MTEXT
  5
633A2
330
6279C
100
AcDbEntity
  8
DIMS
 62
     7
440
 16777216
 48
0.2
100
AcDbMText
 10
-1947.512573831308
 20
1191.452862119615
 30
0.0
 40
3.200000000000001
 41
0.0
 46
0.0
 71
     5
 72
     1
  1
95
 73
     1
 44
1.0
  0
POINT
  5
633A3
330
6279C
100
AcDbEntity
  8
DEFPOINTS
 62
     0
440
 16777216
 48
0.2
100
AcDbPoint
 10
-1900.012573831309
 20
1151.593040072857
 30
0.0
  0
POINT
  5
633A4
330
6279C
100
AcDbEntity
  8
DEFPOINTS
 62
     0
440
 16777216
 48
0.2
100
AcDbPoint
 10
-1995.012573831307
 20
1131.586943418449
 30
0.0
  0
POINT
  5
633A5
330
6279C
100
AcDbEntity
  8
DEFPOINTS
 62
     0
440
 16777216
 48
0.2
100
AcDbPoint
 10
-1995.012573831307
 20
1188.352862119615
 30
0.0
  0
ENDBLK
  5
627A7
330
6279C
100
AcDbEntity
  8
0
 48
0.2
100
AcDbBlockEnd
  0
BLOCK
  5
62800
330
627FF
100
AcDbEntity
  8
0
 48
0.2
100
AcDbBlockBegin
  2
*D746
 70
     1
 10
0.0
 20
0.0
 30
0.0
  3
*D746
  1

  0
LINE
  5
63404
330
627FF
100
AcDbEntity
  8
DIMS
440
 16777216
 48
0.2
100
AcDbLine
 10
-1993.012573831309
 20
1023.593040072857
 30
0.0
 11
-1993.012573831309
 21
971.8942066233481
 31
0.0
  0
LINE
  5
63405
330
627FF
100
AcDbEntity
  8
DIMS
440
 16777216
 48
0.2
100
AcDbLine
 10
-1942.012573831308
 20
1023.593040072857
 30
0.0
 11
-1942.012573831308
 21
971.8942066233481
 31
0.0
  0
LINE
  5
63406
330
627FF
100
AcDbEntity
  8
DIMS
440
 16777216
 48
0.2
100
AcDbLine
 10
-1992.012573831308
 20
971.8942066233481
 30
0.0
 11
-1943.012573831309
 21
971.8942066233481
 31
0.0
  0
INSERT
  5
63407
330
627FF
100
AcDbEntity
  8
DIMS
440
 16777216
 48
0.2
100
AcDbBlockReference
  2
_Dot
 10
-1993.012573831309
 20
971.8942066233481
 30
0.0
 50
180.0
  0
INSERT
  5
63408
330
627FF
100
AcDbEntity
  8
DIMS
440
 16777216
 48
0.2
100
AcDbBlockReference
  2
_Dot
 10
-1942.012573831308
 20
971.8942066233481
 30
0.0
  0
MTEXT
  5
63409
330
627FF
100
AcDbEntity
  8
DIMS
 62
     7
440
 16777216
 48
0.2
100
AcDbMText
 10
-1967.512573831308
 20
974.9942066233481
 30
0.0
 40
3.200000000000001
 41
0.0
 46
0.0
 71
     5
 72
     1
  1
51
 73
     1
 44
1.0
  0
POINT
  5
6340A
330
627FF
100
AcDbEntity
  8
DEFPOINTS
 62
     0
440
 16777216
 48
0.2
100
AcDbPoint
 10
-1993.012573831309
 20
1024.593040072857
 30
0.0
  0
POINT
  5
6340B
330
627FF
100
AcDbEntity
  8
DEFPOINTS
 62
     0
440
 16777216
 48
0.2
100
AcDbPoint
 10
-1942.012573831308
 20
1024.593040072857
 30
0.0
  0
POINT
  5
6340C
330
627FF
100
AcDbEntity
  8
DEFPOINTS
 62
     0
440
 16777216
 48
0.2
100
AcDbPoint
 10
-1942.012573831308
 20
971.8942066233481
 30
0.0
  0
ENDBLK
  5
6280A
330
627FF
100
AcDbEntity
  8
0
 48
0.2
100
AcDbBlockEnd
  0
BLOCK
  5
6280D
330
6280C
100
AcDbEntity
  8
0
 48
0.2
100
AcDbBlockBegin
  2
*D747
 70
     1
 10
0.0
 20
0.0
 30
0.0
  3
*D747
  1

  0
LINE
  5
633CA
330
6280C
100
AcDbEntity
  8
DIMS
440
 16777216
 48
0.2
100
AcDbLine
 10
-1899.012573831308
 20
1119.593040072857
 30
0.0
 11
-1880.766607813068
 21
1119.593040072857
 31
0.0
  0
LINE
  5
633CB
330
6280C
100
AcDbEntity
  8
DIMS
440
 16777216
 48
0.2
100
AcDbLine
 10
-1896.512573831309
 20
1116.393040072855
 30
0.0
 11
-1880.766607813068
 21
1116.393040072855
 31
0.0
  0
LINE
  5
633CC
330
6280C
100
AcDbEntity
  8
DIMS
440
 16777216
 48
0.2
100
AcDbLine
 10
-1880.766607813068
 20
1120.593040072857
 30
0.0
 11
-1880.766607813068
 21
1121.593040072857
 31
0.0
  0
LINE
  5
633CD
330
6280C
100
AcDbEntity
  8
DIMS
440
 16777216
 48
0.2
100
AcDbLine
 10
-1880.766607813068
 20
1115.393040072855
 30
0.0
 11
-1880.766607813068
 21
1104.993040072855
 31
0.0
  0
LINE
  5
633CE
330
6280C
100
AcDbEntity
  8
DIMS
440
 16777216
 48
0.2
100
AcDbLine
 10
-1880.766607813068
 20
1119.593040072857
 30
0.0
 11
-1880.766607813068
 21
1116.393040072855
 31
0.0
  0
INSERT
  5
633CF
330
6280C
100
AcDbEntity
  8
DIMS
440
 16777216
 48
0.2
100
AcDbBlockReference
  2
_Dot
 10
-1880.766607813068
 20
1119.593040072857
 30
0.0
 50
270.0
  0
INSERT
  5
633D0
330
6280C
100
AcDbEntity
  8
DIMS
440
 16777216
 48
0.2
100
AcDbBlockReference
  2
_Dot
 10
-1880.766607813068
 20
1116.393040072855
 30
0.0
 50
90.0
  0
MTEXT
  5
633D1
330
6280C
100
AcDbEntity
  8
DIMS
 62
     7
440
 16777216
 48
0.2
100
AcDbMText
 10
-1883.866607813069
 20
1109.693040072855
 30
0.0
 40
3.200000000000001
 41
0.0
 46
0.0
 71
     5
 72
     1
  1
3.2
 11
0.0000000000000001
 21
1.0
 31
0.0
 73
     1
 44
1.0
  0
POINT
  5
633D2
330
6280C
100
AcDbEntity
  8
DEFPOINTS
 62
     0
440
 16777216
 48
0.2
100
AcDbPoint
 10
-1900.012573831309
 20
1119.593040072857
 30
0.0
  0
POINT
  5
633D3
330
6280C
100
AcDbEntity
  8
DEFPOINTS
 62
     0
440
 16777216
 48
0.2
100
AcDbPoint
 10
-1897.512573831308
 20
1116.393040072855
 30
0.0
  0
POINT
  5
633D4
330
6280C
100
AcDbEntity
  8
DEFPOINTS
 62
     0
440
 16777216
 48
0.2
100
AcDbPoint
 10
-1880.766607813068
 20
1116.393040072855
 30
0.0
  0
ENDBLK
  5
62819
330
6280C
100
AcDbEntity
  8
0
 48
0.2
100
AcDbBlockEnd
  0
BLOCK
  5
6281C
330
6281B
100
AcDbEntity
  8
0
 48
0.2
100
AcDbBlockBegin
  2
*D748
 70
     1
 10
0.0
 20
0.0
 30
0.0
  3
*D748
  1

  0
LINE
  5
633D5
330
6281B
100
AcDbEntity
  8
DIMS
440
 16777216
 48
0.2
100
AcDbLine
 10
-1896.512573831309
 20
1116.393040072855
 30
0.0
 11
-1860.124475646907
 21
1116.393040072855
 31
0.0
  0
LINE
  5
633D6
330
6281B
100
AcDbEntity
  8
DIMS
440
 16777216
 48
0.2
100
AcDbLine
 10
-1896.512573831309
 20
1112.393040072855
 30
0.0
 11
-1860.124475646907
 21
1112.393040072855
 31
0.0
  0
LINE
  5
633D7
330
6281B
100
AcDbEntity
  8
DIMS
440
 16777216
 48
0.2
100
AcDbLine
 10
-1860.124475646907
 20
1117.393040072855
 30
0.0
 11
-1860.124475646907
 21
1118.393040072855
 31
0.0
  0
LINE
  5
633D8
330
6281B
100
AcDbEntity
  8
DIMS
440
 16777216
 48
0.2
100
AcDbLine
 10
-1860.124475646907
 20
1111.393040072855
 30
0.0
 11
-1860.124475646907
 21
1105.259706739521
 31
0.0
  0
LINE
  5
633D9
330
6281B
100
AcDbEntity
  8
DIMS
440
 16777216
 48
0.2
100
AcDbLine
 10
-1860.124475646907
 20
1116.393040072855
 30
0.0
 11
-1860.124475646907
 21
1112.393040072855
 31
0.0
  0
INSERT
  5
633DA
330
6281B
100
AcDbEntity
  8
DIMS
440
 16777216
 48
0.2
100
AcDbBlockReference
  2
_Dot
 10
-1860.124475646907
 20
1116.393040072855
 30
0.0
 50
270.0
  0
INSERT
  5
633DB
330
6281B
100
AcDbEntity
  8
DIMS
440
 16777216
 48
0.2
100
AcDbBlockReference
  2
_Dot
 10
-1860.124475646907
 20
1112.393040072855
 30
0.0
 50
90.0
  0
MTEXT
  5
633DC
330
6281B
100
AcDbEntity
  8
DIMS
 62
     7
440
 16777216
 48
0.2
100
AcDbMText
 10
-1863.224475646907
 20
1107.826373406188
 30
0.0
 40
3.200000000000001
 41
0.0
 46
0.0
 71
     5
 72
     1
  1
4
 11
0.0000000000000001
 21
1.0
 31
0.0
 73
     1
 44
1.0
  0
POINT
  5
633DD
330
6281B
100
AcDbEntity
  8
DEFPOINTS
 62
     0
440
 16777216
 48
0.2
100
AcDbPoint
 10
-1897.512573831308
 20
1116.393040072855
 30
0.0
  0
POINT
  5
633DE
330
6281B
100
AcDbEntity
  8
DEFPOINTS
 62
     0
440
 16777216
 48
0.2
100
AcDbPoint
 10
-1897.512573831308
 20
1112.393040072855
 30
0.0
  0
POINT
  5
633DF
330
6281B
100
AcDbEntity
  8
DEFPOINTS
 62
     0
440
 16777216
 48
0.2
100
AcDbPoint
 10
-1860.124475646907
 20
1112.393040072855
 30
0.0
  0
ENDBLK
  5
62828
330
6281B
100
AcDbEntity
  8
0
 48
0.2
100
AcDbBlockEnd
  0
BLOCK
  5
62836
330
62835
100
AcDbEntity
  8
0
 48
0.2
100
AcDbBlockBegin
  2
*D749
 70
     1
 10
0.0
 20
0.0
 30
0.0
  3
*D749
  1

  0
LINE
  5
633B8
330
62835
100
AcDbEntity
  8
DIMS
440
 16777216
 48
0.2
100
AcDbLine
 10
-1915.262573831309
 20
1143.093040072857
 30
0.0
 11
-1836.009894528218
 21
1143.093040072857
 31
0.0
  0
LINE
  5
633B9
330
62835
100
AcDbEntity
  8
DIMS
440
 16777216
 48
0.2
100
AcDbLine
 10
-1896.512573831309
 20
1112.393040072855
 30
0.0
 11
-1836.009894528218
 21
1112.393040072855
 31
0.0
  0
LINE
  5
633BA
330
62835
100
AcDbEntity
  8
DIMS
440
 16777216
 48
0.2
100
AcDbLine
 10
-1836.009894528218
 20
1142.093040072857
 30
0.0
 11
-1836.009894528218
 21
1113.393040072855
 31
0.0
  0
INSERT
  5
633BB
330
62835
100
AcDbEntity
  8
DIMS
440
 16777216
 48
0.2
100
AcDbBlockReference
  2
_Dot
 10
-1836.009894528218
 20
1143.093040072857
 30
0.0
 50
90.0
  0
INSERT
  5
633BC
330
62835
100
AcDbEntity
  8
DIMS
440
 16777216
 48
0.2
100
AcDbBlockReference
  2
_Dot
 10
-1836.009894528218
 20
1112.393040072855
 30
0.0
 50
270.0
  0
MTEXT
  5
633BD
330
62835
100
AcDbEntity
  8
DIMS
 62
     7
440
 16777216
 48
0.2
100
AcDbMText
 10
-1839.109894528218
 20
1127.743040072855
 30
0.0
 40
3.200000000000001
 41
0.0
 46
0.0
 71
     5
 72
     1
  1
30.7
 11
0.0000000000000001
 21
1.0
 31
0.0
 73
     1
 44
1.0
  0
POINT
  5
633BE
330
62835
100
AcDbEntity
  8
DEFPOINTS
 62
     0
440
 16777216
 48
0.2
100
AcDbPoint
 10
-1916.262573831308
 20
1143.093040072857
 30
0.0
  0
POINT
  5
633BF
330
62835
100
AcDbEntity
  8
DEFPOINTS
 62
     0
440
 16777216
 48
0.2
100
AcDbPoint
 10
-1897.512573831308
 20
1112.393040072855
 30
0.0
  0
POINT
  5
633C0
330
62835
100
AcDbEntity
  8
DEFPOINTS
 62
     0
440
 16777216
 48
0.2
100
AcDbPoint
 10
-1836.009894528218
 20
1112.393040072855
 30
0.0
  0
ENDBLK
  5
62840
330
62835
100
AcDbEntity
  8
0
 48
0.2
100
AcDbBlockEnd
  0
BLOCK
  5
62879
330
62878
100
AcDbEntity
  8
0
 48
0.2
100
AcDbBlockBegin
  2
*D750
 70
     1
 10
0.0
 20
0.0
 30
0.0
  3
*D750
  1

  0
LINE
  5
6349D
330
62878
100
AcDbEntity
  8
DIMS
440
 16777216
 48
0.2
100
AcDbLine
 10
-2289.689573987695
 20
926.9719340281726
 30
0.0
 11
-2289.689573987695
 21
953.314072573683
 31
0.0
  0
LINE
  5
6349E
330
62878
100
AcDbEntity
  8
DIMS
440
 16777216
 48
0.2
100
AcDbLine
 10
-2270.689573987691
 20
930.2119340281743
 30
0.0
 11
-2270.689573987691
 21
953.314072573683
 31
0.0
  0
LINE
  5
6349F
330
62878
100
AcDbEntity
  8
DIMS
440
 16777216
 48
0.2
100
AcDbLine
 10
-2288.689573987694
 20
953.314072573683
 30
0.0
 11
-2271.689573987691
 21
953.314072573683
 31
0.0
  0
INSERT
  5
634A0
330
62878
100
AcDbEntity
  8
DIMS
440
 16777216
 48
0.2
100
AcDbBlockReference
  2
_Dot
 10
-2289.689573987695
 20
953.314072573683
 30
0.0
 50
180.0
  0
INSERT
  5
634A1
330
62878
100
AcDbEntity
  8
DIMS
440
 16777216
 48
0.2
100
AcDbBlockReference
  2
_Dot
 10
-2270.689573987691
 20
953.314072573683
 30
0.0
  0
MTEXT
  5
634A2
330
62878
100
AcDbEntity
  8
DIMS
 62
     7
440
 16777216
 48
0.2
100
AcDbMText
 10
-2280.189573987692
 20
956.414072573683
 30
0.0
 40
3.200000000000001
 41
0.0
 46
0.0
 71
     5
 72
     1
  1
19
 73
     1
 44
1.0
  0
POINT
  5
634A3
330
62878
100
AcDbEntity
  8
DEFPOINTS
 62
     0
440
 16777216
 48
0.2
100
AcDbPoint
 10
-2289.689573987695
 20
925.9719340281726
 30
0.0
  0
POINT
  5
634A4
330
62878
100
AcDbEntity
  8
DEFPOINTS
 62
     0
440
 16777216
 48
0.2
100
AcDbPoint
 10
-2270.689573987691
 20
929.2119340281741
 30
0.0
  0
POINT
  5
634A5
330
62878
100
AcDbEntity
  8
DEFPOINTS
 62
     0
440
 16777216
 48
0.2
100
AcDbPoint
 10
-2270.689573987691
 20
953.314072573683
 30
0.0
  0
ENDBLK
  5
62883
330
62878
100
AcDbEntity
  8
0
 48
0.2
100
AcDbBlockEnd
  0
BLOCK
  5
62886
330
62885
100
AcDbEntity
  8
0
 48
0.2
100
AcDbBlockBegin
  2
*D751
 70
     1
 10
0.0
 20
0.0
 30
0.0
  3
*D751
  1

  0
LINE
  5
634A6
330
62885
100
AcDbEntity
  8
DIMS
440
 16777216
 48
0.2
100
AcDbLine
 10
-2293.689573987695
 20
882.7119340281724
 30
0.0
 11
-2352.170982962733
 21
882.7119340281726
 31
0.0
  0
LINE
  5
634A7
330
62885
100
AcDbEntity
  8
DIMS
440
 16777216
 48
0.2
100
AcDbLine
 10
-2350.472436508351
 20
904.2119340281724
 30
0.0
 11
-2352.170982962733
 21
904.2119340281724
 31
0.0
  0
LINE
  5
634A8
330
62885
100
AcDbEntity
  8
DIMS
440
 16777216
 48
0.2
100
AcDbLine
 10
-2352.170982962733
 20
883.7119340281725
 30
0.0
 11
-2352.170982962733
 21
903.2119340281724
 31
0.0
  0
INSERT
  5
634A9
330
62885
100
AcDbEntity
  8
DIMS
440
 16777216
 48
0.2
100
AcDbBlockReference
  2
_Dot
 10
-2352.170982962733
 20
882.7119340281726
 30
0.0
 50
270.0
  0
INSERT
  5
634AA
330
62885
100
AcDbEntity
  8
DIMS
440
 16777216
 48
0.2
100
AcDbBlockReference
  2
_Dot
 10
-2352.170982962733
 20
904.2119340281724
 30
0.0
 50
90.0
  0
MTEXT
  5
634AB
330
62885
100
AcDbEntity
  8
DIMS
 62
     7
440
 16777216
 48
0.2
100
AcDbMText
 10
-2355.270982962732
 20
893.4619340281717
 30
0.0
 40
3.200000000000001
 41
0.0
 46
0.0
 71
     5
 72
     1
  1
21.5
 11
0.0000000000000001
 21
1.0
 31
0.0
 73
     1
 44
1.0
  0
POINT
  5
634AC
330
62885
100
AcDbEntity
  8
DEFPOINTS
 62
     0
440
 16777216
 48
0.2
100
AcDbPoint
 10
-2292.689573987695
 20
882.7119340281724
 30
0.0
  0
POINT
  5
634AD
330
62885
100
AcDbEntity
  8
DEFPOINTS
 62
     0
440
 16777216
 48
0.2
100
AcDbPoint
 10
-2349.472436508351
 20
904.2119340281724
 30
0.0
  0
POINT
  5
634AE
330
62885
100
AcDbEntity
  8
DEFPOINTS
 62
     0
440
 16777216
 48
0.2
100
AcDbPoint
 10
-2352.170982962733
 20
904.2119340281724
 30
0.0
  0
ENDBLK
  5
62890
330
62885
100
AcDbEntity
  8
0
 48
0.2
100
AcDbBlockEnd
  0
BLOCK
  5
62893
330
62892
100
AcDbEntity
  8
0
 48
0.2
100
AcDbBlockBegin
  2
*D752
 70
     1
 10
0.0
 20
0.0
 30
0.0
  3
*D752
  1

  0
LINE
  5
634AF
330
62892
100
AcDbEntity
  8
DIMS
440
 16777216
 48
0.2
100
AcDbLine
 10
-2293.689573987695
 20
921.7119340281724
 30
0.0
 11
-2352.170982962732
 21
921.7119340281724
 31
0.0
  0
LINE
  5
634B0
330
62892
100
AcDbEntity
  8
DIMS
440
 16777216
 48
0.2
100
AcDbLine
 10
-2351.732436508351
 20
904.2119340281724
 30
0.0
 11
-2352.170982962732
 21
904.2119340281724
 31
0.0
  0
LINE
  5
634B1
330
62892
100
AcDbEntity
  8
DIMS
440
 16777216
 48
0.2
100
AcDbLine
 10
-2352.170982962732
 20
905.2119340281723
 30
0.0
 11
-2352.170982962732
 21
920.7119340281725
 31
0.0
  0
LINE
  5
634B2
330
62892
100
AcDbEntity
  8
DIMS
440
 16777216
 48
0.2
100
AcDbLine
 10
-2352.170982962732
 20
921.7119340281724
 30
0.0
 11
-2352.170982962732
 21
942.978600694839
 31
0.0
  0
INSERT
  5
634B3
330
62892
100
AcDbEntity
  8
DIMS
440
 16777216
 48
0.2
100
AcDbBlockReference
  2
_Dot
 10
-2352.170982962732
 20
904.2119340281724
 30
0.0
 50
270.0
  0
INSERT
  5
634B4
330
62892
100
AcDbEntity
  8
DIMS
440
 16777216
 48
0.2
100
AcDbBlockReference
  2
_Dot
 10
-2352.170982962732
 20
921.7119340281724
 30
0.0
 50
90.0
  0
MTEXT
  5
634B5
330
62892
100
AcDbEntity
  8
DIMS
 62
     7
440
 16777216
 48
0.2
100
AcDbMText
 10
-2355.270982962732
 20
937.211934028172
 30
0.0
 40
3.200000000000001
 41
0.0
 46
0.0
 71
     5
 72
     1
  1
17.5
 11
0.0000000000000001
 21
1.0
 31
0.0
 73
     1
 44
1.0
  0
POINT
  5
634B6
330
62892
100
AcDbEntity
  8
DEFPOINTS
 62
     0
440
 16777216
 48
0.2
100
AcDbPoint
 10
-2292.689573987695
 20
921.7119340281724
 30
0.0
  0
POINT
  5
634B7
330
62892
100
AcDbEntity
  8
DEFPOINTS
 62
     0
440
 16777216
 48
0.2
100
AcDbPoint
 10
-2350.732436508351
 20
904.2119340281724
 30
0.0
  0
POINT
  5
634B8
330
62892
100
AcDbEntity
  8
DEFPOINTS
 62
     0
440
 16777216
 48
0.2
100
AcDbPoint
 10
-2352.170982962732
 20
904.2119340281724
 30
0.0
  0
ENDBLK
  5
6289D
330
62892
100
AcDbEntity
  8
0
 48
0.2
100
AcDbBlockEnd
  0
BLOCK
  5
6296C
330
6296B
100
AcDbEntity
  8
0
100
AcDbBlockBegin
  2
_Dot
 70
     0
 10
0.0
 20
0.0
 30
0.0
  3
_Dot
  1

  0
LWPOLYLINE
  5
6296D
330
6296B
100
AcDbEntity
  8
0
  6
ByBlock
 62
     0
100
AcDbPolyline
 90
        2
 70
     1
 43
0.5
 10
-0.25
 20
0.0
 42
1.0
 10
0.25
 20
0.0
 42
1.0
  0
LINE
  5
6296E
330
6296B
100
AcDbEntity
  8
0
  6
ByBlock
 62
     0
370
    -2
100
AcDbLine
 10
-0.5
 20
0.0
 30
0.0
 11
-1.0
 21
0.0
 31
0.0
  0
ENDBLK
  5
6296F
330
6296B
100
AcDbEntity
  8
0
100
AcDbBlockEnd
  0
BLOCK
  5
62971
330
62970
100
AcDbEntity
  8
0
100
AcDbBlockBegin
  2
_OPEN30
 70
     0
 10
0.0
 20
0.0
 30
0.0
  3
_OPEN30
  1

  0
LINE
  5
62972
330
62970
100
AcDbEntity
  8
0
  6
ByBlock
 62
     0
100
AcDbLine
 10
-1.0
 20
0.26794919
 30
0.0
 11
0.0
 21
0.0
 31
0.0
  0
LINE
  5
62973
330
62970
100
AcDbEntity
  8
0
  6
ByBlock
 62
     0
100
AcDbLine
 10
0.0
 20
0.0
 30
0.0
 11
-1.0
 21
-0.26794919
 31
0.0
  0
LINE
  5
62974
330
62970
100
AcDbEntity
  8
0
  6
ByBlock
 62
     0
100
AcDbLine
 10
0.0
 20
0.0
 30
0.0
 11
-1.0
 21
0.0
 31
0.0
  0
ENDBLK
  5
62975
330
62970
100
AcDbEntity
  8
0
100
AcDbBlockEnd
  0
ENDSEC
  0
SECTION
  2
ENTITIES
  0
TEXT
  5
623C5
330
238
100
AcDbEntity
  8
TEXT
 48
10.0
100
AcDbText
 10
-2087.13494609342
 20
913.6838894836344
 30
-1.0
 40
8.0
  1
1)正面のｷｰｼﾘﾝﾀﾞｰを合鍵にて右90度回転させる。
 41
0.85
  7
EXTFONT
100
AcDbText
  0
TEXT
  5
623CA
330
238
100
AcDbEntity
  8
TEXT
 48
10.0
100
AcDbText
 10
-2087.13494609342
 20
882.5662802102103
 30
-1.0
 40
8.0
  1
3)鍵を左90度回転させ(元の位置)抜く。
 41
0.85
  7
EXTFONT
100
AcDbText
  0
TEXT
  5
623CB
330
238
100
AcDbEntity
  8
TEXT
 48
10.0
100
AcDbText
 10
-2087.13494609342
 20
841.8643363951069
 30
-1.0
 40
8.0
  1
1)ﾊﾞｰﾍｯﾄﾞを下に垂らした状態にて、止まる所まで軽く押す。
 41
0.85
  7
EXTFONT
100
AcDbText
  0
TEXT
  5
623CC
330
238
100
AcDbEntity
  8
TEXT
 48
10.0
100
AcDbText
 10
-2087.13494609342
 20
826.3381302890648
 30
-1.0
 40
8.0
  1
2)ﾊﾞｰﾍｯﾄﾞが止まった位置にてヘッドを水平(左へ90度)にし押し込む。
 41
0.85
  7
EXTFONT
100
AcDbText
  0
TEXT
  5
623CD
330
238
100
AcDbEntity
  8
TEXT
 48
10.0
100
AcDbText
 10
-2087.13494609342
 20
810.7467271216828
 30
-1.0
 40
8.0
  1
3)ﾛｯｸ位置決めﾎﾞﾙﾄがﾎﾞﾃﾞｨｰに収まっている事を目視確認し、ﾊﾞｰﾍｯﾄﾞを引っ張りﾛｯｸ状態を確認する。
 41
0.85
  7
EXTFONT
100
AcDbText
  0
TEXT
  5
623CE
330
238
100
AcDbEntity
  8
TEXT
 48
10.0
100
AcDbText
 10
-2088.156376406178
 20
797.1807314109917
 30
-1.0
 40
7.0
  1
注；ﾛｯｸ位置決めﾎﾞﾙﾄがﾎﾞﾃﾞｨｰより外にあってｱｰﾑが仮施錠した場合は、合鍵にて解錠したうえ本施錠状態にして下さい。
 41
0.85
  7
EXTFONT
100
AcDbText
  0
TEXT
  5
623CF
330
238
100
AcDbEntity
  8
TEXT
 48
10.0
100
AcDbText
 10
-2087.13494609342
 20
898.1576833775923
 30
-1.0
 40
8.0
  1
2)ﾊﾞｰﾍｯﾄﾞを手前に引き出し下に垂らす。
 41
0.85
  7
EXTFONT
100
AcDbText
  0
TEXT
  5
623D2
330
238
100
AcDbEntity
  8
TEXT
 48
10.0
100
AcDbText
 10
-2094.801173348917
 20
930.9816402712103
 30
-1.0
 40
8.0
  1
（解錠操作）
 41
0.85
  7
EXTFONT
100
AcDbText
  0
TEXT
  5
623D3
330
238
100
AcDbEntity
  8
TEXT
 48
10.0
100
AcDbText
 10
-2094.32196944062
 20
947.7395578447703
 30
-1.0
 40
8.0
  1
[ご使用方法]
 41
0.85
  7
EXTFONT
100
AcDbText
  0
TEXT
  5
623D5
330
238
100
AcDbEntity
  8
TEXT
 48
10.0
100
AcDbText
 10
-2094.801173348917
 20
859.1620871826835
 30
-1.0
 40
8.0
  1
（施錠操作）
 41
0.85
  7
EXTFONT
100
AcDbText
  0
DIMENSION
  5
6248C
330
238
100
AcDbEntity
  8
DIMS
 48
0.2
100
AcDbDimension
280
     0
  2
*D719
 10
-2051.223398428961
 20
1112.393040072855
 30
1.0
 11
-2054.323398428961
 21
1055.743040072856
 31
1.0
 70
    32
 71
     5
 42
113.2999999999979
 73
     0
 74
     0
 75
     0
  3
SYS$0
100
AcDbAlignedDimension
 13
-1967.512573831308
 23
999.093040072857
 33
1.0
 14
-1997.512573831308
 24
1112.393040072855
 34
1.0
 50
90.0
100
AcDbRotatedDimension
  0
DIMENSION
  5
62499
330
238
100
AcDbEntity
  8
DIMS
 48
0.2
100
AcDbDimension
280
     0
  2
*D720
 10
-2051.223398428961
 20
1159.593040072857
 30
1.0
 11
-2054.323398428961
 21
1135.993040072856
 31
1.0
 70
    32
 71
     5
 42
47.20000000000209
 73
     0
 74
     0
 75
     0
  3
SYS$0
100
AcDbAlignedDimension
 13
-1997.512573831308
 23
1112.393040072855
 33
1.0
 14
-1963.419897445371
 24
1159.593040072857
 34
1.0
 50
90.0
100
AcDbRotatedDimension
  0
LINE
  5
624BD
330
238
100
AcDbEntity
  8
OBJECT
 48
0.2
100
AcDbLine
 10
-2270.689573987691
 20
916.2119340281742
 30
1.0
 11
-2155.68957398769
 21
916.2119340281742
 31
1.0
  0
DIMENSION
  5
624BE
330
238
100
AcDbEntity
  8
DIMS
 48
0.2
100
AcDbDimension
280
     0
  2
*D722
 10
-2249.522628208358
 20
934.2119340281742
 30
1.0
 11
-2252.622628208358
 21
927.961934028173
 31
1.0
 70
    32
 71
     5
 42
12.50000000000182
 73
     0
 74
     0
 75
     0
  3
SYS$0
100
AcDbAlignedDimension
 13
-2286.689573987695
 23
921.7119340281724
 33
1.0
 14
-2286.689573987691
 24
934.2119340281742
 34
1.0
 50
90.0
100
AcDbRotatedDimension
  0
LINE
  5
624CD
330
238
100
AcDbEntity
  8
OBJECT
 48
0.2
100
AcDbLine
 10
-2270.689573987691
 20
892.2119340281724
 30
1.0
 11
-2223.68957398769
 21
892.2119340281724
 31
1.0
  0
LINE
  5
624CE
330
238
100
AcDbEntity
  8
CENTER
 48
0.2
100
AcDbLine
 10
-2428.669926950835
 20
904.2119340281724
 30
1.0
 11
-2102.162462417065
 21
904.2119340281724
 31
1.0
  0
DIMENSION
  5
624CF
330
238
100
AcDbEntity
  8
DIMS
 48
0.2
100
AcDbDimension
280
     0
  2
*D723
 10
-2249.522628208358
 20
843.711934028173
 30
1.0
 11
-2252.622628208358
 21
863.2119340281724
 31
1.0
 70
    32
 71
     5
 42
38.99999999999932
 73
     0
 74
     0
 75
     0
  3
SYS$0
100
AcDbAlignedDimension
 13
-2286.689573987695
 23
882.7119340281724
 33
1.0
 14
-2286.689573987695
 24
843.711934028173
 34
1.0
 50
90.0
100
AcDbRotatedDimension
  0
DIMENSION
  5
624DC
330
238
100
AcDbEntity
  8
DIMS
 48
0.2
100
AcDbDimension
280
     0
  2
*D724
 10
-2249.522628208358
 20
834.2119340281731
 30
1.0
 11
-2252.622628208358
 21
838.9619340281727
 31
1.0
 70
    32
 71
     5
 42
9.5
 73
     0
 74
     0
 75
     0
  3
SYS$0
100
AcDbAlignedDimension
 13
-2286.689573987695
 23
843.711934028173
 33
1.0
 14
-2286.689573987691
 24
834.2119340281731
 34
1.0
 50
90.0
100
AcDbRotatedDimension
  0
DIMENSION
  5
624EB
330
238
100
AcDbEntity
  8
DIMS
 48
0.2
100
AcDbDimension
280
     0
  2
*D725
 10
-2200.689573987689
 20
820.9371588452594
 30
1.0
 11
-2245.189573987692
 21
824.0371588452592
 31
1.0
 70
    32
 71
     5
 42
89.00000000000591
 73
     0
 74
     0
 75
     0
  3
SYS$0
100
AcDbAlignedDimension
 13
-2289.689573987695
 23
840.7119340281731
 33
1.0
 14
-2200.689573987689
 24
884.2119340281724
 34
1.0
100
AcDbRotatedDimension
  0
DIMENSION
  5
624F8
330
238
100
AcDbEntity
  8
DIMS
 48
0.2
100
AcDbDimension
280
     0
  2
*D726
 10
-2140.689573987689
 20
802.9625076164702
 30
1.0
 11
-2215.189573987692
 21
806.0625076164702
 31
1.0
 70
    32
 71
     5
 42
149.0000000000059
 73
     0
 74
     0
 75
     0
  3
SYS$0
100
AcDbAlignedDimension
 13
-2289.689573987695
 23
840.7119340281731
 33
1.0
 14
-2140.689573987689
 24
882.4519340281725
 34
1.0
100
AcDbRotatedDimension
  0
DIMENSION
  5
62505
330
238
100
AcDbEntity
  8
DIMS
 48
0.2
100
AcDbDimension
280
     0
  2
*D727
 10
-2249.522628208358
 20
882.7119340281724
 30
1.0
 11
-2252.622628208358
 21
902.2119340281721
 31
1.0
 70
    32
 71
     5
 42
39.0
 73
     0
 74
     0
 75
     0
  3
SYS$0
100
AcDbAlignedDimension
 13
-2286.689573987695
 23
921.7119340281724
 33
1.0
 14
-2286.689573987695
 24
882.7119340281724
 34
1.0
 50
90.0
100
AcDbRotatedDimension
  0
CIRCLE
  5
62512
330
238
100
AcDbEntity
  8
OBJECT
 48
0.2
100
AcDbCircle
 10
-2289.689573987695
 20
921.7119340281724
 30
1.0
 40
4.75
  0
ARC
  5
62513
330
238
100
AcDbEntity
  8
OBJECT
 48
0.2
100
AcDbCircle
 10
-2275.689573987691
 20
929.2119340281741
 30
1.0
 40
5.0
100
AcDbArc
 50
0.0
 51
90.0
  0
LINE
  5
62514
330
238
100
AcDbEntity
  8
HIDDEN
 48
0.2
100
AcDbLine
 10
-2326.689573987692
 20
931.7119340281724
 30
1.0
 11
-2286.689573987695
 21
931.7119340281724
 31
1.0
  0
ARC
  5
62515
330
238
100
AcDbEntity
  8
HIDDEN
 48
0.2
100
AcDbCircle
 10
-2286.689573987695
 20
926.7119340281723
 30
1.0
 40
5.0
100
AcDbArc
 50
0.0
 51
90.0
  0
ARC
  5
62516
330
238
100
AcDbEntity
  8
HIDDEN
 48
0.2
100
AcDbCircle
 10
-2326.689573987692
 20
926.7119340281723
 30
1.0
 40
5.0
100
AcDbArc
 50
90.0
 51
180.0
  0
ARC
  5
62517
330
238
100
AcDbEntity
  8
OBJECT
 48
0.2
100
AcDbCircle
 10
-2365.689573987691
 20
929.2119340281741
 30
1.0
 40
5.0
100
AcDbArc
 50
90.0
 51
180.0
  0
LINE
  5
62518
330
238
100
AcDbEntity
  8
OBJECT
 48
0.2
100
AcDbLine
 10
-2365.689573987691
 20
934.2119340281742
 30
1.0
 11
-2275.689573987691
 21
934.2119340281742
 31
1.0
  0
LINE
  5
62519
330
238
100
AcDbEntity
  8
HIDDEN
 48
0.2
100
AcDbLine
 10
-2414.189573987689
 20
916.2119340281742
 30
1.0
 11
-2414.689573987689
 21
915.7119340281742
 31
1.0
  0
LINE
  5
6251A
330
238
100
AcDbEntity
  8
HIDDEN
 48
0.2
100
AcDbLine
 10
-2370.689573987689
 20
916.2119340281725
 30
1.0
 11
-2414.189573987689
 21
916.2119340281725
 31
1.0
  0
LINE
  5
6251B
330
238
100
AcDbEntity
  8
CENTER
100
AcDbLine
 10
-2292.689573987695
 20
921.7119340281724
 30
1.0
 11
-2286.689573987695
 21
921.7119340281724
 31
1.0
  0
LINE
  5
6251C
330
238
100
AcDbEntity
  8
CENTER
100
AcDbLine
 10
-2289.689573987695
 20
918.7119340281723
 30
1.0
 11
-2289.689573987695
 21
924.7119340281724
 31
1.0
  0
LINE
  5
6251D
330
238
100
AcDbEntity
  8
OBJECT
  6
Continuous
100
AcDbLine
 10
-2323.749890465831
 20
905.6248383753201
 30
1.0
 11
-2322.679184819993
 21
906.7910368097004
 31
1.0
  0
ARC
  5
6251E
330
238
100
AcDbEntity
  8
OBJECT
  6
Continuous
100
AcDbCircle
 10
-2323.689573987693
 20
904.2119340281704
 30
1.0
 40
2.769956214074384
100
AcDbArc
 50
26.28216849768677
 51
68.60674360330526
  0
LINE
  5
6251F
330
238
100
AcDbEntity
  8
OBJECT
  6
Continuous
100
AcDbLine
 10
-2323.749890465831
 20
905.6248383753201
 30
1.0
 11
-2324.916088900211
 21
906.6955440211584
 31
1.0
  0
ARC
  5
62520
330
238
100
AcDbEntity
  8
OBJECT
  6
Continuous
100
AcDbCircle
 10
-2323.689573987693
 20
904.2119340281704
 30
1.0
 40
2.769956214074384
100
AcDbArc
 50
116.2821684977074
 51
158.6067436032909
  0
DIMENSION
  5
62521
330
238
100
AcDbEntity
  8
DIMS
 48
0.2
100
AcDbDimension
280
     0
  2
*D728
 10
-2289.689573987695
 20
945.3251117460085
 30
1.0
 11
-2285.689573987693
 21
948.4251117460086
 31
1.0
 70
    32
 71
     5
 42
8.000000000004092
 73
     0
 74
     0
 75
     0
  3
SYS$0
100
AcDbAlignedDimension
 13
-2281.689573987691
 23
929.2119340281741
 33
1.0
 14
-2289.689573987695
 24
924.7119340281724
 34
1.0
100
AcDbRotatedDimension
  0
CIRCLE
  5
62530
330
238
100
AcDbEntity
  8
OBJECT
 48
0.2
100
AcDbCircle
 10
-2289.689573987695
 20
843.711934028173
 30
1.0
 40
4.75
  0
ARC
  5
62531
330
238
100
AcDbEntity
  8
OBJECT
 48
0.2
100
AcDbCircle
 10
-2275.689573987691
 20
839.211934028173
 30
1.0
 40
5.0
100
AcDbArc
 50
270.0
 51
0.0
  0
CIRCLE
  5
62532
330
238
100
AcDbEntity
  8
OBJECT
 48
0.2
100
AcDbCircle
 10
-2289.689573987695
 20
882.7119340281724
 30
1.0
 40
4.75
  0
LINE
  5
62533
330
238
100
AcDbEntity
  8
CENTER
100
AcDbLine
 10
-2326.689573987692
 20
904.2119340281741
 30
1.0
 11
-2331.189573987694
 21
904.2119340281741
 31
1.0
  0
CIRCLE
  5
62534
330
238
100
AcDbEntity
  8
OBJECT
 48
0.2
100
AcDbCircle
 10
-2323.689573987693
 20
843.7119340281739
 30
1.0
 40
6.0
  0
ARC
  5
62535
330
238
100
AcDbEntity
  8
HIDDEN
 48
0.2
100
AcDbCircle
 10
-2286.689573987695
 20
841.7119340281731
 30
1.0
 40
5.0
100
AcDbArc
 50
270.0
 51
0.0
  0
LINE
  5
62536
330
238
100
AcDbEntity
  8
HIDDEN
 48
0.2
100
AcDbLine
 10
-2326.689573987692
 20
836.711934028173
 30
1.0
 11
-2286.689573987695
 21
836.711934028173
 31
1.0
  0
ARC
  5
62537
330
238
100
AcDbEntity
  8
HIDDEN
 48
0.2
100
AcDbCircle
 10
-2326.689573987692
 20
841.7119340281731
 30
1.0
 40
5.0
100
AcDbArc
 50
180.0
 51
270.0
  0
ARC
  5
62538
330
238
100
AcDbEntity
  8
OBJECT
 48
0.2
100
AcDbCircle
 10
-2365.689573987691
 20
839.2119340281743
 30
1.0
 40
5.0
100
AcDbArc
 50
180.0
 51
270.0
  0
LINE
  5
62539
330
238
100
AcDbEntity
  8
OBJECT
 48
0.2
100
AcDbLine
 10
-2275.689573987691
 20
834.2119340281731
 30
1.0
 11
-2365.689573987691
 21
834.2119340281731
 31
1.0
  0
LINE
  5
6253A
330
238
100
AcDbEntity
  8
HIDDEN
 48
0.2
100
AcDbLine
 10
-2414.189573987689
 20
892.2119340281724
 30
1.0
 11
-2414.689573987689
 21
892.7119340281723
 31
1.0
  0
ELLIPSE
  5
6253B
330
238
100
AcDbEntity
  8
HIDDEN
 48
0.2
100
AcDbEllipse
 10
-2407.189573987689
 20
892.2119340281724
 30
1.0
 11
-2.5
 21
0.0
 31
0.0
210
0.0
220
0.0
230
1.0
 40
0.1177256396732448
 41
3.141592653589792
 42
6.283185307179585
  0
LINE
  5
6253C
330
238
100
AcDbEntity
  8
HIDDEN
 48
0.2
100
AcDbLine
 10
-2404.689573987689
 20
884.2119340281724
 30
1.0
 11
-2409.68957398769
 21
884.2119340281724
 31
1.0
  0
LINE
  5
6253D
330
238
100
AcDbEntity
  8
HIDDEN
 48
0.2
100
AcDbLine
 10
-2409.68957398769
 20
884.2119340281724
 30
1.0
 11
-2409.68957398769
 21
892.2119340281724
 31
1.0
  0
LINE
  5
6253E
330
238
100
AcDbEntity
  8
HIDDEN
 48
0.2
100
AcDbLine
 10
-2404.689573987689
 20
884.2119340281724
 30
1.0
 11
-2404.689573987689
 21
892.2119340281724
 31
1.0
  0
LINE
  5
6253F
330
238
100
AcDbEntity
  8
HIDDEN
 48
0.2
100
AcDbLine
 10
-2414.189573987689
 20
892.2119340281724
 30
1.0
 11
-2409.68957398769
 21
892.2119340281724
 31
1.0
  0
LINE
  5
62540
330
238
100
AcDbEntity
  8
HIDDEN
 48
0.2
100
AcDbLine
 10
-2370.689573987691
 20
892.2119340281724
 30
1.0
 11
-2404.689573987689
 21
892.2119340281724
 31
1.0
  0
LINE
  5
62541
330
238
100
AcDbEntity
  8
CENTER
100
AcDbLine
 10
-2292.689573987695
 20
882.7119340281724
 30
1.0
 11
-2286.689573987695
 21
882.7119340281724
 31
1.0
  0
LINE
  5
62542
330
238
100
AcDbEntity
  8
CENTER
100
AcDbLine
 10
-2289.689573987695
 20
879.7119340281724
 30
1.0
 11
-2289.689573987695
 21
885.7119340281725
 31
1.0
  0
LINE
  5
62543
330
238
100
AcDbEntity
  8
CENTER
100
AcDbLine
 10
-2292.689573987695
 20
843.711934028173
 30
1.0
 11
-2286.689573987695
 21
843.711934028173
 31
1.0
  0
LINE
  5
62544
330
238
100
AcDbEntity
  8
CENTER
100
AcDbLine
 10
-2289.689573987695
 20
840.7119340281731
 30
1.0
 11
-2289.689573987695
 21
846.7119340281731
 31
1.0
  0
CIRCLE
  5
62545
330
238
100
AcDbEntity
  8
OBJECT
 48
0.2
100
AcDbCircle
 10
-2323.689573987691
 20
843.7119340281739
 30
1.0
 40
5.0
  0
ARC
  5
62546
330
238
100
AcDbEntity
  8
OBJECT
  6
Continuous
100
AcDbCircle
 10
-2323.689573987691
 20
843.7119340281739
 30
1.0
 40
2.769956214074384
100
AcDbArc
 50
85.94582167420844
 51
128.2703967798418
  0
LINE
  5
62547
330
238
100
AcDbEntity
  8
OBJECT
  6
Continuous
100
AcDbLine
 10
-2323.028008654709
 20
844.9618412575008
 30
1.0
 11
-2323.493738833528
 21
846.4749588236273
 31
1.0
  0
LINE
  5
62548
330
238
100
AcDbEntity
  8
OBJECT
  6
Continuous
100
AcDbLine
 10
-2322.439666758365
 20
843.050368695194
 30
1.0
 11
-2321.973936579547
 21
841.5372511290691
 31
1.0
  0
LINE
  5
62549
330
238
100
AcDbEntity
  8
OBJECT
  6
Continuous
100
AcDbLine
 10
-2324.939481217016
 20
844.3734993611551
 30
1.0
 11
-2325.405211395837
 21
845.8866169272809
 31
1.0
  0
ARC
  5
6254A
330
238
100
AcDbEntity
  8
OBJECT
  6
Continuous
100
AcDbCircle
 10
-2323.689573987691
 20
843.7119340281739
 30
1.0
 40
2.769956214074384
100
AcDbArc
 50
355.9458216742407
 51
38.27039677981845
  0
LINE
  5
6254B
330
238
100
AcDbEntity
  8
OBJECT
  6
Continuous
100
AcDbLine
 10
-2323.028008654709
 20
844.9618412575008
 30
1.0
 11
-2321.514891088585
 21
845.4275714363179
 31
1.0
  0
LINE
  5
6254C
330
238
100
AcDbEntity
  8
OBJECT
  6
Continuous
100
AcDbLine
 10
-2322.439666758365
 20
843.050368695194
 30
1.0
 11
-2320.926549192239
 21
843.5160988740129
 31
1.0
  0
ARC
  5
6254D
330
238
100
AcDbEntity
  8
OBJECT
  6
Continuous
100
AcDbCircle
 10
-2323.689573987691
 20
843.7119340281739
 30
1.0
 40
2.769956214074384
100
AcDbArc
 50
265.9458216742085
 51
308.2703967798418
  0
LINE
  5
6254E
330
238
100
AcDbEntity
  8
OBJECT
  6
Continuous
100
AcDbLine
 10
-2324.351139320673
 20
842.4620267988474
 30
1.0
 11
-2323.885409141853
 21
840.9489092327229
 31
1.0
  0
LINE
  5
6254F
330
238
100
AcDbEntity
  8
OBJECT
  6
Continuous
100
AcDbLine
 10
-2324.351139320673
 20
842.4620267988474
 30
1.0
 11
-2325.864256886797
 21
841.9962966200298
 31
1.0
  0
ARC
  5
62550
330
238
100
AcDbEntity
  8
OBJECT
  6
Continuous
100
AcDbCircle
 10
-2323.689573987691
 20
843.7119340281739
 30
1.0
 40
2.769956214074384
100
AcDbArc
 50
175.9458216742407
 51
218.2703967798184
  0
LINE
  5
62551
330
238
100
AcDbEntity
  8
OBJECT
  6
Continuous
100
AcDbLine
 10
-2324.939481217016
 20
844.3734993611551
 30
1.0
 11
-2326.452598783143
 21
843.9077691823364
 31
1.0
  0
LINE
  5
62552
330
238
100
AcDbEntity
  8
OBJECT
  6
Continuous
100
AcDbLine
 10
-2325.102478334841
 20
904.1516175500344
 30
1.0
 11
-2326.173183980674
 21
902.9854191156523
 31
1.0
  0
ARC
  5
62553
330
238
100
AcDbEntity
  8
OBJECT
  6
Continuous
100
AcDbCircle
 10
-2323.689573987693
 20
904.2119340281704
 30
1.0
 40
2.769956214074384
100
AcDbArc
 50
206.2821684976867
 51
248.6067436033053
  0
LINE
  5
62554
330
238
100
AcDbEntity
  8
OBJECT
  6
Continuous
100
AcDbLine
 10
-2323.629257509552
 20
902.7990296810244
 30
1.0
 11
-2322.463059075173
 21
901.7283240351881
 31
1.0
  0
LINE
  5
62555
330
238
100
AcDbEntity
  8
OBJECT
  6
Continuous
100
AcDbLine
 10
-2322.276669640543
 20
904.2722505063101
 30
1.0
 11
-2321.110471206162
 21
903.2015448604743
 31
1.0
  0
ARC
  5
62556
330
238
100
AcDbEntity
  8
OBJECT
  6
Continuous
100
AcDbCircle
 10
-2323.689573987693
 20
904.2119340281704
 30
1.0
 40
2.769956214074384
100
AcDbArc
 50
296.2821684977074
 51
338.6067436032909
  0
LINE
  5
62557
330
238
100
AcDbEntity
  8
OBJECT
  6
Continuous
100
AcDbLine
 10
-2323.629257509552
 20
902.7990296810244
 30
1.0
 11
-2324.699963155391
 21
901.6328312466443
 31
1.0
  0
LINE
  5
62558
330
238
100
AcDbEntity
  8
CENTER
100
AcDbLine
 10
-2326.689573987692
 20
904.2119340281741
 30
1.0
 11
-2320.689573987693
 21
904.2119340281741
 31
1.0
  0
LINE
  5
62559
330
238
100
AcDbEntity
  8
CENTER
100
AcDbLine
 10
-2326.689573987692
 20
843.7119340281739
 30
1.0
 11
-2320.689573987693
 21
843.7119340281739
 31
1.0
  0
LINE
  5
6255A
330
238
100
AcDbEntity
  8
CENTER
100
AcDbLine
 10
-2323.689573987693
 20
840.7119340281742
 30
1.0
 11
-2323.689573987693
 21
846.711934028174
 31
1.0
  0
TEXT
  5
6255B
330
238
100
AcDbEntity
  8
TEXT
 48
10.0
100
AcDbText
 10
-2352.684104537224
 20
811.5503934599431
 30
1.0
 40
6.4
  1
本体取付用
 41
0.85
  7
EXTFONT
100
AcDbText
  0
TEXT
  5
6255C
330
238
100
AcDbEntity
  8
TEXT
 48
10.0
100
AcDbText
 10
-2352.684104537224
 20
821.9062768795897
 30
1.0
 40
6.4
  1
3-M8 ﾀｯﾌﾟ
 41
0.85
  7
EXTFONT
100
AcDbText
  0
LEADER
  5
6255D
330
238
100
AcDbEntity
  8
TEXT
 48
0.2
100
AcDbLeader
  3
STANDARD
 76
     3
 10
-2290.94232443081
 20
841.2588997579046
 30
1.0
 10
-2313.776318354503
 20
820.3732425595628
 30
1.0
 10
-2356.289953425571
 20
820.3732425595628
 30
1.0
213
0.0
223
4.0
233
0.0
1001
ACAD
1000
DSTYLE
1002
{
1070
    40
1040
1.0
1070
    47
1040
0.2
1070
    48
1040
0.15
1070
    77
1070
     0
1070
   144
1040
2.0
1070
   271
1070
     3
1070
   272
1070
     3
1070
   284
1070
     8
1002
}
  0
LINE
  5
6255E
330
238
100
AcDbEntity
  8
OBJECT
 48
0.2
100
AcDbLine
 10
-2270.689573987691
 20
929.2119340281741
 30
1.0
 11
-2270.689573987691
 21
839.211934028173
 31
1.0
  0
CIRCLE
  5
6255F
330
238
100
AcDbEntity
  8
OBJECT
 48
0.2
100
AcDbCircle
 10
-2323.689573987693
 20
904.2119340281741
 30
1.0
 40
6.0
  0
LINE
  5
62560
330
238
100
AcDbEntity
  8
HIDDEN
 48
0.2
100
AcDbLine
 10
-2281.689573987691
 20
926.7119340281723
 30
1.0
 11
-2281.689573987691
 21
841.7119340281731
 31
1.0
  0
LINE
  5
62561
330
238
100
AcDbEntity
  8
HIDDEN
 48
0.2
100
AcDbLine
 10
-2331.689573987693
 20
926.7119340281723
 30
1.0
 11
-2331.689573987693
 21
841.7119340281731
 31
1.0
  0
LINE
  5
62562
330
238
100
AcDbEntity
  8
OBJECT
 48
0.2
100
AcDbLine
 10
-2370.689573987691
 20
839.2119340281743
 30
1.0
 11
-2370.689573987691
 21
929.2119340281741
 31
1.0
  0
LINE
  5
62563
330
238
100
AcDbEntity
  8
HIDDEN
 48
0.2
100
AcDbLine
 10
-2414.189573987689
 20
916.2119340281725
 30
1.0
 11
-2414.189573987689
 21
892.2119340281724
 31
1.0
  0
LINE
  5
62564
330
238
100
AcDbEntity
  8
HIDDEN
 48
0.2
100
AcDbLine
 10
-2414.689573987689
 20
915.7119340281742
 30
1.0
 11
-2414.689573987689
 21
892.7119340281723
 31
1.0
  0
CIRCLE
  5
62565
330
238
100
AcDbEntity
  8
OBJECT
 48
0.2
100
AcDbCircle
 10
-2323.689573987691
 20
904.2119340281741
 30
1.0
 40
5.0
  0
LINE
  5
62566
330
238
100
AcDbEntity
  8
OBJECT
  6
Continuous
100
AcDbLine
 10
-2325.102478334841
 20
904.1516175500344
 30
1.0
 11
-2326.26867676922
 21
905.2223231958723
 31
1.0
  0
LINE
  5
62567
330
238
100
AcDbEntity
  8
OBJECT
  6
Continuous
100
AcDbLine
 10
-2322.276669640543
 20
904.2722505063101
 30
1.0
 11
-2321.205963994707
 21
905.4384489406922
 31
1.0
  0
LINE
  5
62568
330
238
100
AcDbEntity
  8
CENTER
100
AcDbLine
 10
-2323.689573987693
 20
901.2119340281742
 30
1.0
 11
-2323.689573987693
 21
907.2119340281743
 31
1.0
  0
DIMENSION
  5
62569
330
238
100
AcDbEntity
  8
DIMS
 48
0.2
100
AcDbDimension
280
     0
  2
*D729
 10
-2415.869781324497
 20
834.211934028174
 30
1.0
 11
-2415.869781324497
 21
876.1707863734976
 31
1.0
 70
   160
 71
     5
 42
100.0000000000002
 73
     0
 74
     0
 75
     0
  3
SYS$0
100
AcDbAlignedDimension
 13
-2365.689573987691
 23
934.2119340281742
 33
1.0
 14
-2365.689573987691
 24
834.211934028174
 34
1.0
 50
90.0
100
AcDbRotatedDimension
  0
ARC
  5
62576
330
238
100
AcDbEntity
  8
OBJECT
 48
0.2
100
AcDbCircle
 10
-2125.689573987688
 20
924.7119340281724
 30
1.0
 40
5.0
100
AcDbArc
 50
0.0
 51
90.0
  0
ARC
  5
62577
330
238
100
AcDbEntity
  8
OBJECT
 48
0.2
100
AcDbCircle
 10
-2135.689573987689
 20
924.7119340281724
 30
1.0
 40
5.0
100
AcDbArc
 50
90.0
 51
180.0
  0
LINE
  5
62578
330
238
100
AcDbEntity
  8
OBJECT
 48
0.2
100
AcDbLine
 10
-2151.689573987689
 20
921.2119340281724
 30
1.0
 11
-2144.68957398769
 21
921.2119340281724
 31
1.0
  0
ARC
  5
62579
330
238
100
AcDbEntity
  8
OBJECT
 48
0.2
100
AcDbCircle
 10
-2144.68957398769
 20
925.2119340281725
 30
1.0
 40
4.0
100
AcDbArc
 50
270.0
 51
0.0
  0
LINE
  5
6257A
330
238
100
AcDbEntity
  8
OBJECT
 48
0.2
100
AcDbLine
 10
-2151.689573987689
 20
921.2119340281724
 30
1.0
 11
-2155.689573987689
 21
917.2119340281724
 31
1.0
  0
LINE
  5
6257B
330
238
100
AcDbEntity
  8
OBJECT
 48
0.2
100
AcDbLine
 10
-2125.689573987688
 20
929.7119340281742
 30
1.0
 11
-2135.689573987689
 21
929.7119340281742
 31
1.0
  0
ARC
  5
6257C
330
238
100
AcDbEntity
  8
HIDDEN
 48
0.2
100
AcDbCircle
 10
-2185.689573987689
 20
925.7119340281724
 30
1.0
 40
5.0
100
AcDbArc
 50
0.0
 51
90.0
  0
LINE
  5
6257D
330
238
100
AcDbEntity
  8
HIDDEN
 48
0.2
100
AcDbLine
 10
-2180.689573987689
 20
905.2119340281723
 30
1.0
 11
-2180.689573987689
 21
925.7119340281724
 31
1.0
  0
LINE
  5
6257E
330
238
100
AcDbEntity
  8
HIDDEN
 48
0.2
100
AcDbLine
 10
-2200.689573987689
 20
905.2119340281723
 30
1.0
 11
-2200.689573987689
 21
925.7119340281724
 31
1.0
  0
ARC
  5
6257F
330
238
100
AcDbEntity
  8
HIDDEN
 48
0.2
100
AcDbCircle
 10
-2195.689573987689
 20
925.7119340281724
 30
1.0
 40
5.0
100
AcDbArc
 50
90.0
 51
180.0
  0
LINE
  5
62580
330
238
100
AcDbEntity
  8
HIDDEN
 48
0.2
100
AcDbLine
 10
-2211.689573987689
 20
922.2119340281723
 30
1.0
 11
-2204.689573987689
 21
922.2119340281723
 31
1.0
  0
ARC
  5
62581
330
238
100
AcDbEntity
  8
HIDDEN
 48
0.2
100
AcDbCircle
 10
-2204.689573987689
 20
926.2119340281724
 30
1.0
 40
4.0
100
AcDbArc
 50
270.0
 51
0.0
  0
LINE
  5
62582
330
238
100
AcDbEntity
  8
HIDDEN
 48
0.2
100
AcDbLine
 10
-2211.689573987689
 20
922.2119340281723
 30
1.0
 11
-2215.689573987689
 21
918.2119340281724
 31
1.0
  0
LINE
  5
62583
330
238
100
AcDbEntity
  8
HIDDEN
 48
0.2
100
AcDbLine
 10
-2185.689573987689
 20
930.7119340281742
 30
1.0
 11
-2195.689573987689
 21
930.7119340281742
 31
1.0
  0
ARC
  5
62584
330
238
100
AcDbEntity
  8
HIDDEN
 48
0.2
100
AcDbCircle
 10
-2112.689573987693
 20
924.7119340281724
 30
1.0
 40
5.0
100
AcDbArc
 50
0.0
 51
90.0
  0
ARC
  5
62588
330
238
100
AcDbEntity
  8
OBJECT
 48
0.2
100
AcDbCircle
 10
-2125.689573987688
 20
883.7119340281724
 30
1.0
 40
5.0
100
AcDbArc
 50
270.0
 51
0.0
  0
LINE
  5
62589
330
238
100
AcDbEntity
  8
OBJECT
 48
0.2
100
AcDbLine
 10
-2120.689573987689
 20
904.2119340281724
 30
1.0
 11
-2120.689573987689
 21
883.7119340281724
 31
1.0
  0
LINE
  5
6258A
330
238
100
AcDbEntity
  8
OBJECT
 48
0.2
100
AcDbLine
 10
-2144.68957398769
 20
887.2119340281724
 30
1.0
 11
-2151.689573987689
 21
887.2119340281724
 31
1.0
  0
ARC
  5
6258B
330
238
100
AcDbEntity
  8
OBJECT
 48
0.2
100
AcDbCircle
 10
-2144.68957398769
 20
883.2119340281725
 30
1.0
 40
4.0
100
AcDbArc
 50
0.0
 51
90.0
  0
ARC
  5
6258C
330
238
100
AcDbEntity
  8
OBJECT
 48
0.2
100
AcDbCircle
 10
-2135.689573987689
 20
883.7119340281724
 30
1.0
 40
5.0
100
AcDbArc
 50
180.0
 51
270.0
  0
LINE
  5
6258D
330
238
100
AcDbEntity
  8
OBJECT
 48
0.2
100
AcDbLine
 10
-2155.689573987689
 20
891.2119340281725
 30
1.0
 11
-2151.689573987689
 21
887.2119340281724
 31
1.0
  0
LINE
  5
6258E
330
238
100
AcDbEntity
  8
OBJECT
 48
0.2
100
AcDbLine
 10
-2155.689573987689
 20
891.2119340281725
 30
1.0
 11
-2151.689573987689
 21
887.2119340281724
 31
1.0
  0
LINE
  5
6258F
330
238
100
AcDbEntity
  8
OBJECT
 48
0.2
100
AcDbLine
 10
-2140.689573987689
 20
904.2119340281724
 30
1.0
 11
-2140.689573987689
 21
883.7119340281724
 31
1.0
  0
LINE
  5
62590
330
238
100
AcDbEntity
  8
OBJECT
 48
0.2
100
AcDbLine
 10
-2223.789573987691
 20
892.2119340281724
 30
1.0
 11
-2155.68957398769
 21
892.2119340281724
 31
1.0
  0
LINE
  5
62591
330
238
100
AcDbEntity
  8
OBJECT
 48
0.2
100
AcDbLine
 10
-2125.689573987688
 20
878.7119340281742
 30
1.0
 11
-2135.689573987689
 21
878.7119340281742
 31
1.0
  0
ARC
  5
62592
330
238
100
AcDbEntity
  8
HIDDEN
 48
0.2
100
AcDbCircle
 10
-2185.689573987689
 20
884.7119340281723
 30
1.0
 40
5.0
100
AcDbArc
 50
270.0
 51
0.0
  0
LINE
  5
62593
330
238
100
AcDbEntity
  8
HIDDEN
 48
0.2
100
AcDbLine
 10
-2204.689573987689
 20
888.2119340281724
 30
1.0
 11
-2211.689573987689
 21
888.2119340281724
 31
1.0
  0
ARC
  5
62594
330
238
100
AcDbEntity
  8
HIDDEN
 48
0.2
100
AcDbCircle
 10
-2204.689573987689
 20
884.2119340281724
 30
1.0
 40
4.0
100
AcDbArc
 50
0.0
 51
90.0
  0
ARC
  5
62595
330
238
100
AcDbEntity
  8
HIDDEN
 48
0.2
100
AcDbCircle
 10
-2195.689573987689
 20
884.7119340281723
 30
1.0
 40
5.0
100
AcDbArc
 50
180.0
 51
270.0
  0
LINE
  5
62596
330
238
100
AcDbEntity
  8
HIDDEN
 48
0.2
100
AcDbLine
 10
-2215.689573987689
 20
892.2119340281724
 30
1.0
 11
-2211.689573987689
 21
888.2119340281724
 31
1.0
  0
LINE
  5
62597
330
238
100
AcDbEntity
  8
HIDDEN
 48
0.2
100
AcDbLine
 10
-2215.689573987689
 20
892.2119340281724
 30
1.0
 11
-2211.689573987689
 21
888.2119340281724
 31
1.0
  0
LINE
  5
62598
330
238
100
AcDbEntity
  8
HIDDEN
 48
0.2
100
AcDbLine
 10
-2185.689573987689
 20
879.7119340281724
 30
1.0
 11
-2195.689573987689
 21
879.7119340281724
 31
1.0
  0
LINE
  5
62599
330
238
100
AcDbEntity
  8
HIDDEN
 48
0.2
100
AcDbLine
 10
-2107.689573987693
 20
904.2119340281724
 30
1.0
 11
-2107.689573987693
 21
883.7119340281724
 31
1.0
  0
ARC
  5
6259A
330
238
100
AcDbEntity
  8
HIDDEN
 48
0.2
100
AcDbCircle
 10
-2112.689573987693
 20
883.7119340281724
 30
1.0
 40
5.0
100
AcDbArc
 50
270.0
 51
0.0
  0
DIMENSION
  5
6259B
330
238
100
AcDbEntity
  8
DIMS
 48
0.2
100
AcDbDimension
280
     0
  2
*D730
 10
-2140.689573987689
 20
820.9371588452594
 30
1.0
 11
-2170.689573987689
 21
824.0371588452592
 31
1.0
 70
    32
 71
     5
 42
60.0
 73
     0
 74
     0
 75
     0
  3
SYS$0
100
AcDbAlignedDimension
 13
-2200.689573987689
 23
882.9519340281724
 33
1.0
 14
-2140.689573987689
 24
883.7119340281724
 34
1.0
100
AcDbRotatedDimension
  0
TEXT
  5
625A8
330
238
100
AcDbEntity
  8
TEXT
 48
10.0
100
AcDbText
 10
-2197.839179206443
 20
833.2422445224047
 30
1.0
 40
7.0
  1
調整範囲　P=15
 41
0.85
  7
EXTFONT
100
AcDbText
  0
LINE
  5
625A9
330
238
100
AcDbEntity
  8
OBJECT
 48
0.2
100
AcDbLine
 10
-2120.689573987689
 20
904.2119340281724
 30
1.0
 11
-2120.689573987689
 21
924.7119340281724
 31
1.0
  0
LINE
  5
625AA
330
238
100
AcDbEntity
  8
OBJECT
 48
0.2
100
AcDbLine
 10
-2140.689573987689
 20
904.2119340281724
 30
1.0
 11
-2140.689573987689
 21
924.7119340281724
 31
1.0
  0
LINE
  5
625AB
330
238
100
AcDbEntity
  8
OBJECT
 48
0.2
100
AcDbLine
 10
-2151.689573987689
 20
921.2119340281724
 30
1.0
 11
-2151.689573987689
 21
887.2119340281724
 31
1.0
  0
LINE
  5
625AC
330
238
100
AcDbEntity
  8
OBJECT
 48
0.2
100
AcDbLine
 10
-2151.689573987689
 20
921.2119340281724
 30
1.0
 11
-2151.689573987689
 21
887.2119340281724
 31
1.0
  0
LINE
  5
625AD
330
238
100
AcDbEntity
  8
OBJECT
 48
0.2
100
AcDbLine
 10
-2155.689573987689
 20
891.2119340281725
 30
1.0
 11
-2155.689573987689
 21
917.2119340281724
 31
1.0
  0
LINE
  5
625AE
330
238
100
AcDbEntity
  8
OBJECT
 48
0.2
100
AcDbLine
 10
-2155.689573987689
 20
891.2119340281725
 30
1.0
 11
-2155.689573987689
 21
917.2119340281724
 31
1.0
  0
LINE
  5
625AF
330
238
100
AcDbEntity
  8
HIDDEN
 48
0.2
100
AcDbLine
 10
-2180.689573987689
 20
905.2119340281723
 30
1.0
 11
-2180.689573987689
 21
884.7119340281723
 31
1.0
  0
LINE
  5
625B0
330
238
100
AcDbEntity
  8
HIDDEN
 48
0.2
100
AcDbLine
 10
-2211.689573987689
 20
922.2119340281723
 30
1.0
 11
-2211.689573987689
 21
888.2119340281724
 31
1.0
  0
LINE
  5
625B1
330
238
100
AcDbEntity
  8
HIDDEN
 48
0.2
100
AcDbLine
 10
-2200.689573987689
 20
905.2119340281723
 30
1.0
 11
-2200.689573987689
 21
884.7119340281723
 31
1.0
  0
LINE
  5
625B2
330
238
100
AcDbEntity
  8
HIDDEN
 48
0.2
100
AcDbLine
 10
-2211.689573987689
 20
922.2119340281723
 30
1.0
 11
-2211.689573987689
 21
888.2119340281724
 31
1.0
  0
LINE
  5
625B3
330
238
100
AcDbEntity
  8
HIDDEN
 48
0.2
100
AcDbLine
 10
-2215.689573987689
 20
892.2119340281724
 30
1.0
 11
-2215.689573987689
 21
918.2119340281724
 31
1.0
  0
LINE
  5
625B4
330
238
100
AcDbEntity
  8
HIDDEN
 48
0.2
100
AcDbLine
 10
-2215.689573987689
 20
892.2119340281724
 30
1.0
 11
-2215.689573987689
 21
918.2119340281724
 31
1.0
  0
LINE
  5
625B5
330
238
100
AcDbEntity
  8
HIDDEN
 48
0.2
100
AcDbLine
 10
-2107.689573987693
 20
904.2119340281724
 30
1.0
 11
-2107.689573987693
 21
924.7119340281724
 31
1.0
  0
DIMENSION
  5
625F8
330
238
100
AcDbEntity
  8
DIMS
 48
0.2
100
AcDbDimension
280
     0
  2
*D731
 10
-2331.689573987691
 20
1171.808246337095
 30
1.0
 11
-2306.689573987691
 21
1174.908246337095
 31
1.0
 70
    32
 71
     5
 42
50.00000000000046
 73
     0
 74
     0
 75
     0
  3
SYS$0
100
AcDbAlignedDimension
 13
-2281.689573987691
 23
1154.593040072857
 33
1.0
 14
-2331.689573987691
 24
1154.593040072855
 34
1.0
100
AcDbRotatedDimension
  0
DIMENSION
  5
62605
330
238
100
AcDbEntity
  8
DIMS
 48
0.2
100
AcDbDimension
280
     0
  2
*D732
 10
-2120.689573987687
 20
1188.352862119615
 30
1.0
 11
-2237.689573987688
 21
1191.452862119615
 31
1.0
 70
    32
 71
     5
 42
234.0000000000023
 73
     0
 74
     0
 75
     0
  3
SYS$0
100
AcDbAlignedDimension
 13
-2354.689573987689
 23
1154.593040072853
 33
1.0
 14
-2120.689573987687
 24
1155.093040072853
 34
1.0
100
AcDbRotatedDimension
  0
LINE
  5
62612
330
238
100
AcDbEntity
  8
OBJECT
 48
0.2
100
AcDbLine
 10
-2281.714636802156
 20
1155.093040072853
 30
1.0
 11
-2155.689573987689
 21
1155.093040072853
 31
1.0
  0
LINE
  5
62613
330
238
100
AcDbEntity
  8
OBJECT
 48
0.2
100
AcDbLine
 10
-2281.689573987691
 20
1131.093040072853
 30
1.0
 11
-2155.689573987689
 21
1131.093040072853
 31
1.0
  0
DIMENSION
  5
62614
330
238
100
AcDbEntity
  8
DIMS
 48
0.2
100
AcDbDimension
280
     0
  2
*D733
 10
-2270.689573987691
 20
988.4986304751119
 30
1.0
 11
-2235.689573987688
 21
991.5986304751118
 31
1.0
 70
    32
 71
     5
 42
70.00000000000546
 73
     0
 74
     0
 75
     0
  3
SYS$0
100
AcDbAlignedDimension
 13
-2200.689573987685
 23
1002.093040072855
 33
1.0
 14
-2270.689573987691
 24
1112.393040072855
 34
1.0
100
AcDbRotatedDimension
  0
DIMENSION
  5
62621
330
238
100
AcDbEntity
  8
DIMS
 48
0.2
100
AcDbDimension
280
     0
  2
*D734
 10
-2140.689573987687
 20
971.8942066233481
 30
1.0
 11
-2205.689573987688
 21
974.9942066233481
 31
1.0
 70
    32
 71
     5
 42
130.0000000000036
 73
     0
 74
     0
 75
     0
  3
SYS$0
100
AcDbAlignedDimension
 13
-2270.689573987691
 23
1112.393040072855
 33
1.0
 14
-2140.689573987687
 24
1000.833040072853
 34
1.0
100
AcDbRotatedDimension
  0
DIMENSION
  5
6262E
330
238
100
AcDbEntity
  8
DIMS
 48
0.2
100
AcDbDimension
280
     0
  2
*D735
 10
-2225.600649202792
 20
1112.393040072855
 30
1.0
 11
-2225.600649202792
 21
1089.199706739521
 31
1.0
 70
   160
 71
     5
 42
13.69999999999845
 73
     0
 74
     0
 75
     0
  3
SYS$0
100
AcDbAlignedDimension
 13
-2211.689573987689
 23
1126.093040072853
 33
1.0
 14
-2281.689573987691
 24
1112.393040072855
 34
1.0
 50
90.0
100
AcDbRotatedDimension
  0
LINE
  5
6263D
330
238
100
AcDbEntity
  8
DIMS
 48
0.2
100
AcDbLine
 10
-2326.689573987691
 20
1137.593040072855
 30
1.0
 11
-2286.689573987691
 21
1137.593040072855
 31
0.9999999999999996
  0
ARC
  5
6263E
330
238
100
AcDbEntity
  8
OBJECT
 48
0.2
100
AcDbCircle
 10
-2326.689573987691
 20
1154.593040072855
 30
1.0
 40
5.0
100
AcDbArc
 50
90.0
 51
180.0
  0
ARC
  5
6263F
330
238
100
AcDbEntity
  8
OBJECT
 48
0.2
100
AcDbCircle
 10
-2286.689573987691
 20
1154.593040072855
 30
1.0
 40
5.0
100
AcDbArc
 50
0.0
 51
90.0
  0
LINE
  5
62640
330
238
100
AcDbEntity
  8
OBJECT
 48
0.2
100
AcDbLine
 10
-2326.689573987691
 20
1159.593040072855
 30
1.0
 11
-2286.689573987691
 21
1159.593040072855
 31
1.0
  0
LINE
  5
62641
330
238
100
AcDbEntity
  8
OBJECT
 48
0.2
100
AcDbLine
 10
-2354.189573987689
 20
1155.093040072853
 30
1.0
 11
-2331.664511173222
 21
1155.093040072853
 31
1.0
  0
LINE
  5
62642
330
238
100
AcDbEntity
  8
OBJECT
 48
0.2
100
AcDbLine
 10
-2354.189573987689
 20
1155.093040072853
 30
1.0
 11
-2354.689573987689
 21
1154.593040072853
 31
1.0
  0
LINE
  5
62643
330
238
100
AcDbEntity
  8
HIDDEN
 48
0.2
100
AcDbLine
 10
-2414.189573987689
 20
1155.093040072853
 30
1.0
 11
-2414.689573987689
 21
1154.593040072853
 31
1.0
  0
LINE
  5
62644
330
238
100
AcDbEntity
  8
HIDDEN
 48
0.2
100
AcDbLine
 10
-2354.189573987689
 20
1155.093040072853
 30
1.0
 11
-2414.189573987689
 21
1155.093040072853
 31
1.0
  0
LINE
  5
62645
330
238
100
AcDbEntity
  8
OBJECT
 48
0.2
100
AcDbLine
 10
-2270.689573987691
 20
1112.393040072855
 30
1.0
 11
-2370.689573987691
 21
1112.393040072855
 31
1.0
  0
LINE
  5
62646
330
238
100
AcDbEntity
  8
OBJECT
 48
0.2
100
AcDbLine
 10
-2270.689573987691
 20
1116.393040072855
 30
1.0
 11
-2370.689573987691
 21
1116.393040072855
 31
1.0
  0
LINE
  5
62647
330
238
100
AcDbEntity
  8
OBJECT
 48
0.2
100
AcDbLine
 10
-2370.689573987691
 20
1116.393040072855
 30
1.0
 11
-2370.689573987691
 21
1112.393040072855
 31
1.0
  0
LINE
  5
62648
330
238
100
AcDbEntity
  8
OBJECT
 48
0.2
100
AcDbLine
 10
-2331.689573987691
 20
1119.593040072855
 30
1.0
 11
-2331.689573987691
 21
1116.393040072855
 31
1.0
  0
LINE
  5
62649
330
238
100
AcDbEntity
  8
OBJECT
 48
0.2
100
AcDbLine
 10
-2281.689573987691
 20
1119.593040072855
 30
1.0
 11
-2331.689573987691
 21
1119.593040072855
 31
1.0
  0
LINE
  5
6264A
330
238
100
AcDbEntity
  8
OBJECT
 48
0.2
100
AcDbLine
 10
-2281.689573987691
 20
1119.593040072855
 30
1.0
 11
-2281.689573987691
 21
1116.393040072855
 31
1.0
  0
LINE
  5
6264B
330
238
100
AcDbEntity
  8
OBJECT
 48
0.2
100
AcDbLine
 10
-2270.689573987691
 20
1116.393040072855
 30
1.0
 11
-2270.689573987691
 21
1112.393040072855
 31
1.0
  0
LINE
  5
6264C
330
238
100
AcDbEntity
  8
OBJECT
 48
0.2
100
AcDbLine
 10
-2354.189573987689
 20
1131.093040072853
 30
1.0
 11
-2331.689573987691
 21
1131.093040072853
 31
1.0
  0
LINE
  5
6264D
330
238
100
AcDbEntity
  8
OBJECT
 48
0.2
100
AcDbLine
 10
-2354.189573987689
 20
1131.093040072853
 30
1.0
 11
-2354.689573987689
 21
1131.593040072853
 31
1.0
  0
LINE
  5
6264E
330
238
100
AcDbEntity
  8
HIDDEN
 48
0.2
100
AcDbLine
 10
-2414.189573987689
 20
1131.093040072853
 30
1.0
 11
-2414.689573987689
 21
1131.593040072853
 31
1.0
  0
LINE
  5
6264F
330
238
100
AcDbEntity
  8
HIDDEN
 48
0.2
100
AcDbLine
 10
-2354.189573987689
 20
1131.093040072853
 30
1.0
 11
-2414.189573987689
 21
1131.093040072853
 31
1.0
  0
DIMENSION
  5
62650
330
238
100
AcDbEntity
  8
DIMS
 48
0.2
100
AcDbDimension
280
     0
  2
*D736
 10
-2254.600868275693
 20
1112.393040072855
 30
1.0
 11
-2254.600868275693
 21
1089.455984409621
 31
1.0
 70
   160
 71
     5
 42
18.69999999999845
 73
     0
 74
     0
 75
     0
  3
SYS$0
100
AcDbAlignedDimension
 13
-2264.733191615405
 23
1131.093040072853
 33
1.0
 14
-2270.689573987691
 24
1112.393040072855
 34
1.0
 50
90.0
100
AcDbRotatedDimension
  0
DIMENSION
  5
6265E
330
238
100
AcDbEntity
  8
DIMS
 48
0.2
100
AcDbDimension
280
     0
  2
*D737
 10
-2270.689573987691
 20
971.8942066233481
 30
1.0
 11
-2320.689573987691
 21
974.9942066233481
 31
1.0
 70
    32
 71
     5
 42
100.0000000000004
 73
     0
 74
     0
 75
     0
  3
SYS$0
100
AcDbAlignedDimension
 13
-2370.689573987691
 23
1112.393040072855
 33
1.0
 14
-2270.689573987691
 24
1112.393040072855
 34
1.0
100
AcDbRotatedDimension
  0
LINE
  5
6266B
330
238
100
AcDbEntity
  8
OBJECT
 48
0.2
100
AcDbLine
 10
-2331.689573987691
 20
1154.593040072855
 30
1.0
 11
-2331.689573987691
 21
1119.593040072855
 31
1.0
  0
LINE
  5
6266C
330
238
100
AcDbEntity
  8
OBJECT
 48
0.2
100
AcDbLine
 10
-2281.689573987691
 20
1154.593040072857
 30
1.0
 11
-2281.689573987691
 21
1119.593040072855
 31
1.0
  0
ARC
  5
6266D
330
238
100
AcDbEntity
  8
DIMS
 48
0.2
100
AcDbCircle
 10
-2325.839699270475
 20
1131.801263133735
 30
1.0
 40
5.853799377112451
100
AcDbArc
 50
98.34790180158773
 51
182.0981860451493
  0
ARC
  5
6266E
330
238
100
AcDbEntity
  8
DIMS
 48
0.2
100
AcDbCircle
 10
-2288.103330989665
 20
1131.331838216685
 30
0.9999999999999996
 40
6.41882836227475
100
AcDbArc
 50
2.277721283724468
 51
77.27619086953457
  0
LINE
  5
6266F
330
238
100
AcDbEntity
  8
OBJECT
 48
0.2
100
AcDbLine
 10
-2354.689573987689
 20
1131.593040072853
 30
1.0
 11
-2354.689573987689
 21
1154.593040072853
 31
1.0
  0
LINE
  5
62670
330
238
100
AcDbEntity
  8
OBJECT
 48
0.2
100
AcDbLine
 10
-2354.189573987689
 20
1131.093040072853
 30
1.0
 11
-2354.189573987689
 21
1155.093040072853
 31
1.0
  0
LINE
  5
62671
330
238
100
AcDbEntity
  8
HIDDEN
 48
0.2
100
AcDbLine
 10
-2414.189573987689
 20
1131.093040072853
 30
1.0
 11
-2414.189573987689
 21
1155.093040072853
 31
1.0
  0
LINE
  5
62672
330
238
100
AcDbEntity
  8
HIDDEN
 48
0.2
100
AcDbLine
 10
-2414.689573987689
 20
1131.593040072853
 30
1.0
 11
-2414.689573987689
 21
1154.593040072853
 31
1.0
  0
LINE
  5
62673
330
238
100
AcDbEntity
  8
OBJECT
 48
0.2
100
AcDbLine
 10
-2155.689573987687
 20
1156.093040072853
 30
1.0
 11
-2151.689573987689
 21
1160.093040072853
 31
1.0
  0
ARC
  5
62674
330
238
100
AcDbEntity
  8
OBJECT
 48
0.2
100
AcDbCircle
 10
-2125.689573987688
 20
1155.093040072853
 30
1.0
 40
5.0
100
AcDbArc
 50
0.0
 51
90.0
  0
LINE
  5
62675
330
238
100
AcDbEntity
  8
OBJECT
 48
0.2
100
AcDbLine
 10
-2120.689573987687
 20
1143.093040072853
 30
1.0
 11
-2120.689573987687
 21
1155.093040072853
 31
1.0
  0
LINE
  5
62676
330
238
100
AcDbEntity
  8
OBJECT
 48
0.2
100
AcDbLine
 10
-2125.689573987688
 20
1160.093040072853
 30
1.0
 11
-2151.689573987689
 21
1160.093040072853
 31
1.0
  0
LINE
  5
62677
330
238
100
AcDbEntity
  8
HIDDEN
 48
0.2
100
AcDbLine
 10
-2185.689573987689
 20
1160.093040072853
 30
1.0
 11
-2211.689573987689
 21
1160.093040072853
 31
1.0
  0
LINE
  5
62678
330
238
100
AcDbEntity
  8
HIDDEN
 48
0.2
100
AcDbLine
 10
-2180.689573987689
 20
1143.093040072853
 30
1.0
 11
-2180.689573987689
 21
1155.093040072853
 31
1.0
  0
ARC
  5
62679
330
238
100
AcDbEntity
  8
HIDDEN
 48
0.2
100
AcDbCircle
 10
-2185.689573987689
 20
1155.093040072853
 30
1.0
 40
5.0
100
AcDbArc
 50
0.0
 51
90.0
  0
LINE
  5
6267A
330
238
100
AcDbEntity
  8
HIDDEN
 48
0.2
100
AcDbLine
 10
-2215.689573987689
 20
1156.093040072853
 30
1.0
 11
-2211.689573987689
 21
1160.093040072853
 31
1.0
  0
LINE
  5
6267B
330
238
100
AcDbEntity
  8
HIDDEN
 48
0.2
100
AcDbLine
 10
-2107.689573987689
 20
1143.093040072853
 30
1.0
 11
-2107.689573987689
 21
1155.093040072853
 31
1.0
  0
ARC
  5
6267C
330
238
100
AcDbEntity
  8
HIDDEN
 48
0.2
100
AcDbCircle
 10
-2112.68957398769
 20
1155.093040072853
 30
1.0
 40
5.0
100
AcDbArc
 50
0.0
 51
90.0
  0
LINE
  5
6267D
330
238
100
AcDbEntity
  8
OBJECT
 48
0.2
100
AcDbLine
 10
-2140.689573987687
 20
1002.093040072855
 30
1.0
 11
-2140.689573987689
 21
1122.093040072853
 31
1.0
  0
LINE
  5
6267E
330
238
100
AcDbEntity
  8
OBJECT
 48
0.2
100
AcDbLine
 10
-2125.689573987688
 20
999.0930400728535
 30
0.9999999999999996
 11
-2137.689573987687
 21
999.0930400728535
 31
0.9999999999999996
  0
ARC
  5
6267F
330
238
100
AcDbEntity
  8
OBJECT
 48
0.2
100
AcDbCircle
 10
-2137.689573987687
 20
1002.093040072855
 30
0.9999999999999996
 40
3.0
100
AcDbArc
 50
180.0
 51
270.0
  0
ARC
  5
62680
330
238
100
AcDbEntity
  8
OBJECT
 48
0.2
100
AcDbCircle
 10
-2125.689573987688
 20
1004.093040072853
 30
0.9999999999999996
 40
5.0
100
AcDbArc
 50
270.0
 51
0.0
  0
LINE
  5
62681
330
238
100
AcDbEntity
  8
OBJECT
 48
0.2
100
AcDbLine
 10
-2151.689573987689
 20
1126.093040072853
 30
1.0
 11
-2155.689573987687
 21
1130.093040072853
 31
1.0
  0
LINE
  5
62682
330
238
100
AcDbEntity
  8
OBJECT
 48
0.2
100
AcDbLine
 10
-2151.689573987689
 20
1126.093040072853
 30
1.0
 11
-2144.689573987689
 21
1126.093040072853
 31
1.0
  0
ARC
  5
62683
330
238
100
AcDbEntity
  8
OBJECT
 48
0.2
100
AcDbCircle
 10
-2144.689573987689
 20
1122.093040072853
 30
1.0
 40
4.0
100
AcDbArc
 50
0.0
 51
90.0
  0
ARC
  5
62684
330
238
100
AcDbEntity
  8
HIDDEN
 48
0.2
100
AcDbCircle
 10
-2204.689573987689
 20
1122.093040072853
 30
1.0
 40
4.0
100
AcDbArc
 50
0.0
 51
90.0
  0
LINE
  5
62685
330
238
100
AcDbEntity
  8
HIDDEN
 48
0.2
100
AcDbLine
 10
-2211.689573987689
 20
1126.093040072853
 30
1.0
 11
-2204.689573987689
 21
1126.093040072853
 31
1.0
  0
LINE
  5
62686
330
238
100
AcDbEntity
  8
HIDDEN
 48
0.2
100
AcDbLine
 10
-2211.689573987689
 20
1126.093040072853
 30
1.0
 11
-2215.689573987689
 21
1130.093040072853
 31
1.0
  0
ARC
  5
62687
330
238
100
AcDbEntity
  8
HIDDEN
 48
0.2
100
AcDbCircle
 10
-2185.689573987689
 20
1004.093040072853
 30
0.9999999999999996
 40
5.0
100
AcDbArc
 50
270.0
 51
0.0
  0
ARC
  5
62688
330
238
100
AcDbEntity
  8
HIDDEN
 48
0.2
100
AcDbCircle
 10
-2197.689573987685
 20
1002.093040072855
 30
0.9999999999999996
 40
3.0
100
AcDbArc
 50
180.0
 51
270.0
  0
LINE
  5
62689
330
238
100
AcDbEntity
  8
HIDDEN
 48
0.2
100
AcDbLine
 10
-2185.689573987689
 20
999.0930400728535
 30
0.9999999999999996
 11
-2197.689573987685
 21
999.0930400728535
 31
0.9999999999999996
  0
LINE
  5
6268A
330
238
100
AcDbEntity
  8
HIDDEN
 48
0.2
100
AcDbLine
 10
-2200.689573987685
 20
1002.093040072855
 30
1.0
 11
-2200.689573987689
 21
1122.093040072853
 31
1.0
  0
ARC
  5
6268B
330
238
100
AcDbEntity
  8
HIDDEN
 48
0.2
100
AcDbCircle
 10
-2112.68957398769
 20
1004.093040072853
 30
0.9999999999999996
 40
5.0
100
AcDbArc
 50
270.0
 51
0.0
  0
DIMENSION
  5
6268C
330
238
100
AcDbEntity
  8
DIMS
 48
0.2
100
AcDbDimension
280
     0
  2
*D738
 10
-2200.689573987685
 20
988.4986304751119
 30
1.0
 11
-2170.689573987686
 21
991.5986304751118
 31
1.0
 70
    32
 71
     5
 42
59.99999999999818
 73
     0
 74
     0
 75
     0
  3
SYS$0
100
AcDbAlignedDimension
 13
-2140.689573987687
 23
1002.093040072855
 33
1.0
 14
-2200.689573987685
 24
1002.093040072855
 34
1.0
100
AcDbRotatedDimension
  0
TEXT
  5
62699
330
238
100
AcDbEntity
  8
TEXT
 48
10.0
100
AcDbText
 10
-2197.839179206443
 20
1005.974205416407
 30
1.0
 40
7.0
  1
調整範囲　P=15
 41
0.85
  7
EXTFONT
100
AcDbText
  0
TEXT
  5
6269A
330
238
100
AcDbEntity
  8
TEXT
 48
10.0
100
AcDbText
 10
-2203.360962267541
 20
1044.209276704101
 30
1.0
 40
7.0
  1
最少ﾛｯｸ位置
 50
90.0
 41
0.85
  7
EXTFONT
100
AcDbText
  0
TEXT
  5
6269B
330
238
100
AcDbEntity
  8
TEXT
 48
10.0
100
AcDbText
 10
-2143.360962267541
 20
1044.209276704101
 30
0.9999999999999996
 40
7.0
  1
最大ﾛｯｸ位置
 50
90.0
 41
0.85
  7
EXTFONT
100
AcDbText
  0
TEXT
  5
6269C
330
238
100
AcDbEntity
  8
TEXT
 48
10.0
100
AcDbText
 10
-2099.336005810107
 20
1044.209276704101
 30
0.9999999999999996
 40
5.4
  1
解錠時可動範囲
 50
90.0
 41
0.85
  7
EXTFONT
100
AcDbText
  0
DIMENSION
  5
6269D
330
238
100
AcDbEntity
  8
DIMS
 48
0.2
100
AcDbDimension
280
     0
  2
*D739
 10
-2140.689573987687
 20
988.4986304751119
 30
1.0
 11
-2130.689573987687
 21
991.5986304751118
 31
1.0
 70
    32
 71
     5
 42
20.0
 73
     0
 74
     0
 75
     0
  3
SYS$0
100
AcDbAlignedDimension
 13
-2120.689573987687
 23
1004.093040072853
 33
0.9999999999999996
 14
-2140.689573987687
 24
1002.093040072855
 34
1.0
100
AcDbRotatedDimension
  0
DIMENSION
  5
626AA
330
238
100
AcDbEntity
  8
DIMS
 48
0.2
100
AcDbDimension
280
     0
  2
*D740
 10
-2140.689573987687
 20
971.8942066233481
 30
1.0
 11
-2124.189573987688
 21
974.9942066233481
 31
1.0
 70
    32
 71
     5
 42
32.99999999999818
 73
     0
 74
     0
 75
     0
  3
SYS$0
100
AcDbAlignedDimension
 13
-2107.689573987689
 23
1004.093040072853
 33
0.9999999999999996
 14
-2140.689573987687
 24
1002.093040072855
 34
1.0
100
AcDbRotatedDimension
  0
LINE
  5
626B7
330
238
100
AcDbEntity
  8
OBJECT
 48
0.2
100
AcDbLine
 10
-2120.689573987687
 20
1143.093040072853
 30
1.0
 11
-2120.689573987687
 21
1004.093040072853
 31
1.0
  0
LINE
  5
626B8
330
238
100
AcDbEntity
  8
OBJECT
 48
0.2
100
AcDbLine
 10
-2151.689573987689
 20
1126.093040072853
 30
1.0
 11
-2151.689573987689
 21
1160.093040072853
 31
1.0
  0
LINE
  5
626B9
330
238
100
AcDbEntity
  8
OBJECT
 48
0.2
100
AcDbLine
 10
-2155.689573987687
 20
1156.093040072853
 30
1.0
 11
-2155.689573987687
 21
1130.093040072853
 31
1.0
  0
LINE
  5
626BA
330
238
100
AcDbEntity
  8
DIMS
 48
0.2
100
AcDbLine
 10
-2140.689573987689
 20
1122.093040072855
 30
0.9999999999999996
 11
-2140.689573987689
 21
1136.784796258533
 31
0.9999999999999996
  0
LINE
  5
626BB
330
238
100
AcDbEntity
  8
HIDDEN
 48
0.2
100
AcDbLine
 10
-2200.689573987689
 20
1122.093040072855
 30
0.9999999999999996
 11
-2200.689573987689
 21
1136.784796258533
 31
0.9999999999999996
  0
LINE
  5
626BC
330
238
100
AcDbEntity
  8
HIDDEN
 48
0.2
100
AcDbLine
 10
-2215.689573987689
 20
1156.093040072853
 30
1.0
 11
-2215.689573987689
 21
1130.093040072853
 31
1.0
  0
LINE
  5
626BD
330
238
100
AcDbEntity
  8
HIDDEN
 48
0.2
100
AcDbLine
 10
-2211.689573987689
 20
1126.093040072853
 30
1.0
 11
-2211.689573987689
 21
1160.093040072853
 31
1.0
  0
LINE
  5
626BE
330
238
100
AcDbEntity
  8
HIDDEN
 48
0.2
100
AcDbLine
 10
-2180.689573987689
 20
1143.093040072853
 30
1.0
 11
-2180.689573987689
 21
1004.093040072853
 31
1.0
  0
LINE
  5
626BF
330
238
100
AcDbEntity
  8
HIDDEN
 48
0.2
100
AcDbLine
 10
-2107.689573987689
 20
1143.093040072853
 30
1.0
 11
-2107.689573987689
 21
1004.093040072853
 31
1.0
  0
DIMENSION
  5
626C0
330
238
100
AcDbEntity
  8
DIMS
 48
0.2
100
AcDbDimension
280
     0
  2
*D741
 10
-2168.83465506238
 20
1131.093040072853
 30
1.0
 11
-2168.834655062381
 21
1152.99970554227
 31
1.0
 70
   160
  1
%%C<>
 71
     5
 42
24.0
 73
     0
 74
     0
 75
     0
  3
SYS$0
100
AcDbAlignedDimension
 13
-2169.735057831708
 23
1155.093040072853
 33
1.0
 14
-2169.735057831708
 24
1131.093040072853
 34
1.0
 50
90.0
100
AcDbRotatedDimension
  0
TEXT
  5
62723
330
238
100
AcDbEntity
  8
TEXT
 48
10.0
100
AcDbText
 10
-1828.265056729167
 20
923.1795114958423
 30
1.0
 40
8.0
  1
施錠状態
 41
0.85
  7
EXTFONT
100
AcDbText
  0
LINE
  5
62724
330
238
100
AcDbEntity
  8
OBJECT
 48
0.2
100
AcDbLine
 10
-1810.14309960613
 20
912.0820250001864
 30
1.0
 11
-1827.363645527931
 21
912.0820250001864
 31
1.0
  0
ARC
  5
62725
330
238
100
AcDbEntity
  8
OBJECT
 48
0.2
100
AcDbCircle
 10
-1815.896147933334
 20
910.0820250001863
 30
1.0
 40
7.25
100
AcDbArc
 50
44.99999999999994
 51
90.0
  0
LINE
  5
62726
330
238
100
AcDbEntity
  8
OBJECT
 48
0.2
100
AcDbLine
 10
-1821.89309960613
 20
869.8320250001863
 30
1.0
 11
-1805.89309960613
 21
869.8320250001863
 31
1.0
  0
CIRCLE
  5
62727
330
238
100
AcDbEntity
  8
DIMS
 48
10.0
100
AcDbCircle
 10
-1810.14309960613
 20
884.3320250001864
 30
1.0
 40
5.25
  0
CIRCLE
  5
62728
330
238
100
AcDbEntity
  8
DIMS
 48
30.0
100
AcDbCircle
 10
-1810.14309960613
 20
884.3320250001864
 30
1.0
 40
5.5
  0
LINE
  5
62729
330
238
100
AcDbEntity
  8
OBJECT
 48
0.2
100
AcDbLine
 10
-1810.14309960613
 20
895.0820250001864
 30
1.0
 11
-1827.363645527931
 21
895.0820250001864
 31
1.0
  0
LEADER
  5
6272A
330
238
100
AcDbEntity
  8
TEXT
 48
0.2
100
AcDbLeader
  3
STANDARD
 76
     3
 10
-1808.956938053973
 20
894.5946154332924
 30
1.0
 10
-1773.570190275448
 20
855.309152287619
 30
1.0
 10
-1825.886954608675
 20
855.309152287619
 30
1.0
213
0.0
223
4.0
233
0.0
1001
ACAD
1000
DSTYLE
1002
{
1070
    40
1040
1.0
1070
    47
1040
0.2
1070
    48
1040
0.15
1070
    77
1070
     0
1070
   144
1040
2.0
1070
   271
1070
     3
1070
   272
1070
     3
1070
   284
1070
     8
1002
}
  0
TEXT
  5
6272B
330
238
100
AcDbEntity
  8
TEXT
 48
10.0
100
AcDbText
 10
-1824.385355629911
 20
857.2700749850682
 30
1.0
 40
6.0
  1
ﾛｯｸ位置決めﾎﾞﾙﾄ
 41
0.85
  7
EXTFONT
100
AcDbText
  0
LINE
  5
6272C
330
238
100
AcDbEntity
  8
DIMS
 48
0.2
100
AcDbLine
 10
-1865.712642853974
 20
795.3704123005809
 30
1.0
 11
-1716.705074027237
 21
795.3704123005809
 31
1.0
  0
LINE
  5
6272D
330
238
100
AcDbEntity
  8
DIMS
 48
0.2
100
AcDbLine
 10
-1865.712642853974
 20
793.9656860896866
 30
1.0
 11
-1716.705074027237
 21
793.9656860896866
 31
1.0
  0
LINE
  5
6272F
330
238
100
AcDbEntity
  8
OBJECT
 48
0.2
100
AcDbLine
 10
-1825.49309960613
 20
918.5820250001862
 30
1.0
 11
-1825.49309960613
 21
912.0820250001864
 31
1.0
  0
LINE
  5
62730
330
238
100
AcDbEntity
  8
OBJECT
 48
0.2
100
AcDbLine
 10
-1823.49309960613
 20
918.5820250001862
 30
1.0
 11
-1823.49309960613
 21
912.0820250001864
 31
1.0
  0
LINE
  5
62731
330
238
100
AcDbEntity
  8
OBJECT
 48
0.2
100
AcDbLine
 10
-1821.89309960613
 20
917.3320250001861
 30
1.0
 11
-1821.89309960613
 21
912.0820250001864
 31
1.0
  0
LINE
  5
62732
330
238
100
AcDbEntity
  8
PHANTOM
 48
0.2
100
AcDbLine
 10
-1819.746578891874
 20
912.3320250001864
 30
1.0
 11
-1828.808553515167
 21
912.3320250001864
 31
1.0
  0
LINE
  5
62733
330
238
100
AcDbEntity
  8
OBJECT
 48
0.2
100
AcDbLine
 10
-1821.89309960613
 20
917.3320250001861
 30
1.0
 11
-1815.896147933334
 21
917.3320250001861
 31
1.0
  0
LINE
  5
62734
330
238
100
AcDbEntity
  8
OBJECT
 48
0.2
100
AcDbLine
 10
-1821.89309960613
 20
917.3320250001861
 30
1.0
 11
-1823.49309960613
 21
917.3320250001861
 31
1.0
  0
LINE
  5
62735
330
238
100
AcDbEntity
  8
OBJECT
 48
0.2
100
AcDbLine
 10
-1825.49309960613
 20
918.5820250001862
 30
1.0
 11
-1823.49309960613
 21
918.5820250001862
 31
1.0
  0
ARC
  5
62736
330
238
100
AcDbEntity
  8
OBJECT
 48
0.2
100
AcDbCircle
 10
-1827.363645527931
 20
1109.282025000186
 30
1.0
 40
197.2
100
AcDbArc
 50
258.4386108097577
 51
270.0
  0
LINE
  5
6274A
330
238
100
AcDbEntity
  8
OBJECT
 48
0.2
100
AcDbLine
 10
-1825.49309960613
 20
895.0820250001864
 30
1.0
 11
-1825.49309960613
 21
868.5820250001864
 31
1.0
  0
LINE
  5
6274B
330
238
100
AcDbEntity
  8
OBJECT
 48
0.2
100
AcDbLine
 10
-1823.49309960613
 20
895.0820250001864
 30
1.0
 11
-1823.49309960613
 21
868.5820250001864
 31
1.0
  0
LINE
  5
6274C
330
238
100
AcDbEntity
  8
OBJECT
 48
0.2
100
AcDbLine
 10
-1821.89309960613
 20
895.0820250001864
 30
1.0
 11
-1821.89309960613
 21
869.8320250001863
 31
1.0
  0
LINE
  5
6274D
330
238
100
AcDbEntity
  8
OBJECT
 48
0.2
100
AcDbLine
 10
-1821.89309960613
 20
869.8320250001863
 30
1.0
 11
-1823.49309960613
 21
869.8320250001863
 31
1.0
  0
LINE
  5
6274E
330
238
100
AcDbEntity
  8
OBJECT
 48
0.2
100
AcDbLine
 10
-1825.49309960613
 20
868.5820250001864
 30
1.0
 11
-1823.49309960613
 21
868.5820250001864
 31
1.0
  0
ARC
  5
6274F
330
238
100
AcDbEntity
  8
OBJECT
 48
0.2
100
AcDbCircle
 10
-1827.363645527931
 20
697.8820250001872
 30
1.0
 40
197.2
100
AcDbArc
 50
90.0
 51
101.5613891902423
  0
ARC
  5
62750
330
238
100
AcDbEntity
  8
OBJECT
 48
0.2
100
AcDbCircle
 10
-1869.39309960613
 20
903.5820250001863
 30
1.0
 40
12.75
100
AcDbArc
 50
78.24423852766798
 51
281.755761472332
  0
TEXT
  5
62751
330
238
100
AcDbEntity
  8
TEXT
 48
10.0
100
AcDbText
 10
-1771.604974623321
 20
923.1795114958423
 30
1.0
 40
8.0
  1
解錠状態
 41
0.85
  7
EXTFONT
100
AcDbText
  0
LINE
  5
62752
330
238
100
AcDbEntity
  8
OBJECT
 48
0.2
100
AcDbLine
 10
-1753.195777155289
 20
915.2085491637883
 30
1.0
 11
-1749.493092920392
 21
911.5058649288943
 31
1.0
  0
LINE
  5
62753
330
238
100
AcDbEntity
  8
OBJECT
 48
0.2
100
AcDbLine
 10
-1810.769623769733
 20
915.2085491637883
 30
1.0
 11
-1804.236245356636
 21
908.6751707506945
 31
1.0
  0
ARC
  5
62754
330
238
100
AcDbEntity
  8
OBJECT
 48
0.2
100
AcDbCircle
 10
-1758.32230131889
 20
910.0820250001863
 30
1.0
 40
7.25
100
AcDbArc
 50
44.99999999999994
 51
90.0
  0
LINE
  5
62755
330
238
100
AcDbEntity
  8
OBJECT
 48
0.2
100
AcDbLine
 10
-1764.319252991686
 20
917.3320250001861
 30
1.0
 11
-1758.32230131889
 21
917.3320250001861
 31
1.0
  0
LINE
  5
62756
330
238
100
AcDbEntity
  8
OBJECT
 48
0.2
100
AcDbLine
 10
-1764.319252991686
 20
917.3320250001861
 30
1.0
 11
-1765.919252991686
 21
917.3320250001861
 31
1.0
  0
LINE
  5
62757
330
238
100
AcDbEntity
  8
OBJECT
 48
0.2
100
AcDbLine
 10
-1767.919252991689
 20
918.5820250001862
 30
1.0
 11
-1765.919252991686
 21
918.5820250001862
 31
1.0
  0
ARC
  5
6275A
330
238
100
AcDbEntity
  8
OBJECT
 48
0.2
100
AcDbCircle
 10
-1805.89309960613
 20
873.8320250001864
 30
1.0
 40
4.0
100
AcDbArc
 50
270.0
 51
0.0
  0
ARC
  5
6275B
330
238
100
AcDbEntity
  8
OBJECT
 48
0.2
100
AcDbCircle
 10
-1958.269252991686
 20
886.3614790783842
 30
1.0
 40
197.2
100
AcDbArc
 50
348.4386108097577
 51
0.0
  0
ARC
  5
6275C
330
238
100
AcDbEntity
  8
OBJECT
 48
0.2
100
AcDbCircle
 10
-1546.869252991687
 20
886.3614790783842
 30
1.0
 40
197.2
100
AcDbArc
 50
180.0
 51
191.5613891902422
  0
LINE
  5
6275D
330
238
100
AcDbEntity
  8
OBJECT
 48
0.2
100
AcDbLine
 10
-1764.319252991686
 20
869.8320250001863
 30
1.0
 11
-1761.763229806959
 21
869.8320250001863
 31
1.0
  0
LINE
  5
6275E
330
238
100
AcDbEntity
  8
OBJECT
 48
0.2
100
AcDbLine
 10
-1764.319252991686
 20
869.8320250001863
 30
1.0
 11
-1765.919252991686
 21
869.8320250001863
 31
1.0
  0
LINE
  5
6275F
330
238
100
AcDbEntity
  8
OBJECT
 48
0.2
100
AcDbLine
 10
-1767.919252991689
 20
868.5820250001864
 30
1.0
 11
-1765.919252991686
 21
868.5820250001864
 31
1.0
  0
ARC
  5
62760
330
238
100
AcDbEntity
  8
OBJECT
 48
0.2
100
AcDbCircle
 10
-1752.569252991686
 20
844.3320250001868
 30
1.0
 40
12.75
100
AcDbArc
 50
168.244238527668
 51
11.755761472332
  0
LINE
  5
62761
330
238
100
AcDbEntity
  8
DIMS
 48
30.0
100
AcDbLine
 10
-1808.087882725262
 20
887.1650593403584
 30
1.0
 11
-1812.976133946303
 21
882.2768081193185
 31
1.0
  0
ARC
  5
62762
330
238
100
AcDbEntity
  8
DIMS
 48
30.0
100
AcDbCircle
 10
-1810.14309960613
 20
884.3320250001864
 30
1.0
 40
3.0
100
AcDbArc
 50
55.56397758904949
 51
214.4360224109322
  0
CIRCLE
  5
62763
330
238
100
AcDbEntity
  8
DIMS
 48
30.0
100
AcDbCircle
 10
-1810.14309960613
 20
884.3320250001864
 30
1.0
 40
3.5
  0
LINE
  5
62764
330
238
100
AcDbEntity
  8
DIMS
 48
30.0
100
AcDbLine
 10
-1807.310065265959
 20
886.3872418810524
 30
1.0
 11
-1812.198316486997
 21
881.4989906600123
 31
1.0
  0
LINE
  5
62765
330
238
100
AcDbEntity
  8
DIMS
 48
10.0
100
AcDbLine
 10
-1809.754190876476
 20
885.4987511891446
 30
1.0
 11
-1808.976373417173
 21
884.7209337298384
 31
1.0
  0
ARC
  5
62766
330
238
100
AcDbEntity
  8
DIMS
 48
10.0
100
AcDbCircle
 10
-1810.14309960613
 20
884.3320250001864
 30
1.0
 40
2.5
100
AcDbArc
 50
212.2909670055931
 51
237.709032994427
  0
ARC
  5
62767
330
238
100
AcDbEntity
  8
DIMS
 48
30.0
100
AcDbCircle
 10
-1810.14309960613
 20
884.3320250001864
 30
1.0
 40
3.0
100
AcDbArc
 50
235.5639775890495
 51
34.43602241093226
  0
LINE
  5
62768
330
238
100
AcDbEntity
  8
OBJECT
 48
0.2
100
AcDbLine
 10
-1807.64309960613
 20
894.5820250001863
 30
1.0
 11
-1807.64309960613
 21
895.4579865955505
 31
1.0
  0
LINE
  5
62769
330
238
100
AcDbEntity
  8
OBJECT
 48
0.2
100
AcDbLine
 10
-1812.64309960613
 20
894.5820250001863
 30
1.0
 11
-1812.64309960613
 21
895.0820250001864
 31
1.0
  0
LINE
  5
6276A
330
238
100
AcDbEntity
  8
OBJECT
 48
0.2
100
AcDbLine
 10
-1801.89309960613
 20
903.0183165012022
 30
1.0
 11
-1801.89309960613
 21
873.8320250001864
 31
1.0
  0
LINE
  5
6276B
330
238
100
AcDbEntity
  8
OBJECT
 48
0.2
100
AcDbLine
 10
-1812.64309960613
 20
894.5820250001863
 30
1.0
 11
-1807.64309960613
 21
894.5820250001863
 31
1.0
  0
LINE
  5
6276C
330
238
100
AcDbEntity
  8
OBJECT
 48
0.2
100
AcDbLine
 10
-1744.069252991686
 20
903.5820250001863
 30
1.0
 11
-1744.069252991686
 21
886.3614790783842
 31
1.0
  0
LINE
  5
6276D
330
238
100
AcDbEntity
  8
OBJECT
 48
0.2
100
AcDbLine
 10
-1761.069252991686
 20
903.5820250001863
 30
1.0
 11
-1761.069252991686
 21
886.3614790783842
 31
1.0
  0
LINE
  5
6276E
330
238
100
AcDbEntity
  8
OBJECT
 48
0.2
100
AcDbLine
 10
-1764.319252991686
 20
917.3320250001861
 30
1.0
 11
-1764.319252991686
 21
869.8320250001863
 31
1.0
  0
LINE
  5
6276F
330
238
100
AcDbEntity
  8
OBJECT
 48
0.2
100
AcDbLine
 10
-1767.919252991689
 20
918.5820250001862
 30
1.0
 11
-1767.919252991689
 21
868.5820250001864
 31
1.0
  0
LINE
  5
62770
330
238
100
AcDbEntity
  8
OBJECT
 48
0.2
100
AcDbLine
 10
-1765.919252991686
 20
918.5820250001862
 30
1.0
 11
-1765.919252991686
 21
868.5820250001864
 31
1.0
  0
ARC
  5
62771
330
238
100
AcDbEntity
  8
OBJECT
 48
0.2
100
AcDbCircle
 10
-1810.14309960613
 20
903.5820250001863
 30
1.0
 40
8.500000000000111
100
AcDbArc
 50
270.0
 51
90.0
  0
ARC
  5
62772
330
238
100
AcDbEntity
  8
OBJECT
 48
0.2
100
AcDbCircle
 10
-1809.89309960613
 20
903.0183165012022
 30
1.0
 40
8.0
100
AcDbArc
 50
0.0
 51
44.99999999999994
  0
ARC
  5
62773
330
238
100
AcDbEntity
  8
OBJECT
 48
0.2
100
AcDbCircle
 10
-1752.569252991686
 20
903.5820250001863
 30
1.0
 40
8.500000000000111
100
AcDbArc
 50
0.0
 51
180.0
  0
DIMENSION
  5
62774
330
238
100
AcDbEntity
  8
DIMS
 48
0.2
100
AcDbDimension
280
     0
  2
*D742
 10
-1967.512573831308
 20
1171.808246337095
 30
1.0
 11
-1948.262573831308
 21
1174.908246337095
 31
1.0
 70
    32
 71
     5
 42
38.5
 73
     0
 74
     0
 75
     0
  3
SYS$0
100
AcDbAlignedDimension
 13
-1929.012573831309
 23
1156.843040072857
 33
1.0
 14
-1967.512573831308
 24
1159.553269736389
 34
1.0
100
AcDbRotatedDimension
  0
DIMENSION
  5
62781
330
238
100
AcDbEntity
  8
DIMS
 48
0.2
100
AcDbDimension
280
     0
  2
*D743
 10
-1900.012573831309
 20
1171.808246337095
 30
1.0
 11
-1914.512573831309
 21
1174.908246337095
 31
1.0
 70
    32
 71
     5
 42
29.0
 73
     0
 74
     0
 75
     0
  3
SYS$0
100
AcDbAlignedDimension
 13
-1929.012573831309
 23
1156.843040072857
 33
1.0
 14
-1900.012573831309
 24
1151.593040072857
 34
1.0
100
AcDbRotatedDimension
  0
DIMENSION
  5
6278E
330
238
100
AcDbEntity
  8
DIMS
 48
0.2
100
AcDbDimension
280
     0
  2
*D744
 10
-1967.512573831308
 20
1171.808246337095
 30
1.0
 11
-1981.262573831308
 21
1174.908246337095
 31
1.0
 70
    32
 71
     5
 42
27.49999999999818
 73
     0
 74
     0
 75
     0
  3
SYS$0
100
AcDbAlignedDimension
 13
-1995.012573831307
 23
1131.586943418449
 33
1.0
 14
-1967.512573831308
 24
1161.593040072857
 34
1.0
100
AcDbRotatedDimension
  0
DIMENSION
  5
6279B
330
238
100
AcDbEntity
  8
DIMS
 48
0.2
100
AcDbDimension
280
     0
  2
*D745
 10
-1995.012573831307
 20
1188.352862119615
 30
1.0
 11
-1947.512573831308
 21
1191.452862119615
 31
1.0
 70
    32
 71
     5
 42
94.99999999999818
 73
     0
 74
     0
 75
     0
  3
SYS$0
100
AcDbAlignedDimension
 13
-1900.012573831309
 23
1151.593040072857
 33
1.0
 14
-1995.012573831307
 24
1131.586943418449
 34
1.0
100
AcDbRotatedDimension
  0
LINE
  5
627CE
330
238
100
AcDbEntity
  8
OBJECT
 48
0.2
100
AcDbLine
 10
-1990.765622158512
 20
1141.839991745653
 30
1.0
 11
-1983.360253688724
 21
1149.245360215439
 31
1.0
  0
ARC
  5
627CF
330
238
100
AcDbEntity
  8
OBJECT
 48
0.2
100
AcDbCircle
 10
-1967.512573831308
 20
1143.093040072857
 30
1.0
 40
17.00000000000022
100
AcDbArc
 50
0.0
 51
180.0
  0
LINE
  5
627D0
330
238
100
AcDbEntity
  8
CENTER
100
AcDbLine
 10
-1966.012573831308
 20
1143.093040072857
 30
1.0
 11
-1969.012573831308
 21
1143.093040072857
 31
1.0
  0
LINE
  5
627D1
330
238
100
AcDbEntity
  8
CENTER
100
AcDbLine
 10
-1967.512573831308
 20
1144.593040072857
 30
1.0
 11
-1967.512573831308
 21
1141.593040072857
 31
1.0
  0
LINE
  5
627D2
330
238
100
AcDbEntity
  8
CENTER
100
AcDbLine
 10
-1964.512573831307
 20
1143.093040072857
 30
1.0
 11
-1949.012573831308
 21
1143.093040072857
 31
1.0
  0
LINE
  5
627D3
330
238
100
AcDbEntity
  8
CENTER
100
AcDbLine
 10
-1970.512573831308
 20
1143.093040072857
 30
1.0
 11
-1986.012573831307
 21
1143.093040072857
 31
1.0
  0
LINE
  5
627D4
330
238
100
AcDbEntity
  8
CENTER
 48
0.2
100
AcDbLine
 10
-1967.512573831308
 20
1146.093040072857
 30
1.0
 11
-1967.512573831308
 21
1161.593040072857
 31
1.0
  0
LINE
  5
627D5
330
238
100
AcDbEntity
  8
CENTER
100
AcDbLine
 10
-1929.012573831309
 20
1144.593040072857
 30
1.0
 11
-1929.012573831309
 21
1156.843040072857
 31
1.0
  0
LINE
  5
627D6
330
238
100
AcDbEntity
  8
CENTER
100
AcDbLine
 10
-1967.512573831308
 20
1144.593040072857
 30
1.0
 11
-1967.512573831308
 21
1155.843040072857
 31
1.0
  0
LINE
  5
627D7
330
238
100
AcDbEntity
  8
OBJECT
 48
0.2
100
AcDbLine
 10
-1949.512573831307
 20
1148.093040072857
 30
1.0
 11
-1951.264497022037
 21
1148.093040072857
 31
1.0
  0
LINE
  5
627D8
330
238
100
AcDbEntity
  8
CENTER
100
AcDbLine
 10
-1930.512573831309
 20
1143.093040072857
 30
1.0
 11
-1942.762573831308
 21
1143.093040072857
 31
1.0
  0
LINE
  5
627D9
330
238
100
AcDbEntity
  8
CENTER
100
AcDbLine
 10
-1928.262573831309
 20
1143.093040072857
 30
1.0
 11
-1929.762573831309
 21
1143.093040072857
 31
1.0
  0
LINE
  5
627DA
330
238
100
AcDbEntity
  8
OBJECT
 48
0.2
100
AcDbLine
 10
-1949.512573831307
 20
1138.093040072857
 30
1.0
 11
-1950.512573831309
 21
1138.093040072857
 31
1.0
  0
LINE
  5
627DB
330
238
100
AcDbEntity
  8
CENTER
100
AcDbLine
 10
-1966.762573831308
 20
1143.093040072857
 30
1.0
 11
-1968.262573831308
 21
1143.093040072857
 31
1.0
  0
LINE
  5
627DC
330
238
100
AcDbEntity
  8
CENTER
 48
0.2
100
AcDbLine
 10
-1969.012573831308
 20
1143.093040072857
 30
1.0
 11
-1980.262573831308
 21
1143.093040072857
 31
1.0
  0
LINE
  5
627DD
330
238
100
AcDbEntity
  8
CENTER
 48
0.2
100
AcDbLine
 10
-1966.012573831308
 20
1143.093040072857
 30
1.0
 11
-1954.762573831307
 21
1143.093040072857
 31
1.0
  0
LINE
  5
627DE
330
238
100
AcDbEntity
  8
CENTER
100
AcDbLine
 10
-1929.012573831309
 20
1142.343040072857
 30
1.0
 11
-1929.012573831309
 21
1143.843040072857
 31
1.0
  0
LINE
  5
627DF
330
238
100
AcDbEntity
  8
OBJECT
 48
0.2
100
AcDbLine
 10
-1949.512573831307
 20
1138.093040072857
 30
1.0
 11
-1949.512573831307
 21
1148.093040072857
 31
1.0
  0
LINE
  5
627E0
330
238
100
AcDbEntity
  8
CENTER
100
AcDbLine
 10
-1967.512573831308
 20
1142.343040072857
 30
1.0
 11
-1967.512573831308
 21
1143.843040072857
 31
1.0
  0
ARC
  5
627E1
330
238
100
AcDbEntity
  8
OBJECT
 48
0.2
100
AcDbCircle
 10
-1908.012573831308
 20
1151.593040072857
 30
1.0
 40
8.0
100
AcDbArc
 50
0.0
 51
90.0
  0
ARC
  5
627E2
330
238
100
AcDbEntity
  8
PHANTOM
 48
0.2
100
AcDbCircle
 10
-1966.385156833338
 20
1143.593040072857
 30
1.0
 40
16.0
100
AcDbArc
 50
90.0
 51
135.0
  0
LINE
  5
627E3
330
238
100
AcDbEntity
  8
OBJECT
 48
0.2
100
AcDbLine
 10
-1966.385156833338
 20
1159.593040072857
 30
1.0
 11
-1908.012573831308
 21
1159.593040072857
 31
1.0
  0
ARC
  5
627E4
330
238
100
AcDbEntity
  8
OBJECT
 48
30.0
100
AcDbCircle
 10
-1929.012573831309
 20
1143.093040072857
 30
1.0
 40
6.0
100
AcDbArc
 50
325.5639775890496
 51
124.4360224109269
  0
LINE
  5
627E5
330
238
100
AcDbEntity
  8
CENTER
100
AcDbLine
 10
-1928.262573831309
 20
1143.093040072857
 30
1.0
 11
-1929.762573831309
 21
1143.093040072857
 31
1.0
  0
LINE
  5
627E6
330
238
100
AcDbEntity
  8
CENTER
100
AcDbLine
 10
-1929.012573831309
 20
1142.343040072857
 30
1.0
 11
-1929.012573831309
 21
1143.843040072857
 31
1.0
  0
ARC
  5
627E7
330
238
100
AcDbEntity
  8
OBJECT
 48
10.0
100
AcDbCircle
 10
-1929.012573831309
 20
1143.093040072857
 30
1.0
 40
5.0
100
AcDbArc
 50
302.2909670055964
 51
327.7090329944215
  0
LINE
  5
627E8
330
238
100
AcDbEntity
  8
CENTER
 48
10.0
100
AcDbLine
 10
-1929.762573831309
 20
1143.093040072857
 30
1.0
 11
-1928.262573831309
 21
1143.093040072857
 31
1.0
  0
LINE
  5
627E9
330
238
100
AcDbEntity
  8
OBJECT
 48
10.0
100
AcDbLine
 10
-1931.346026209222
 20
1143.870857532163
 30
1.0
 11
-1929.790391290612
 21
1145.426492450773
 31
1.0
  0
LINE
  5
627EA
330
238
100
AcDbEntity
  8
OBJECT
 48
30.0
100
AcDbLine
 10
-1933.123007593041
 20
1148.759108753201
 30
1.0
 11
-1923.346505150961
 21
1138.982606311123
 31
1.0
  0
LINE
  5
627EB
330
238
100
AcDbEntity
  8
OBJECT
 48
30.0
100
AcDbLine
 10
-1934.678642511653
 20
1147.203473834591
 30
1.0
 11
-1924.902140069573
 21
1137.426971392511
 31
1.0
  0
LINE
  5
627EC
330
238
100
AcDbEntity
  8
CENTER
100
AcDbLine
 10
-1927.512573831308
 20
1143.093040072857
 30
1.0
 11
-1916.262573831308
 21
1143.093040072857
 31
1.0
  0
ARC
  5
627ED
330
238
100
AcDbEntity
  8
OBJECT
 48
0.2
100
AcDbCircle
 10
-2378.912573831309
 20
1108.651948229253
 30
1.0
 40
394.4
100
AcDbArc
 50
348.4386108097577
 51
0.0
  0
ARC
  5
627EE
330
238
100
AcDbEntity
  8
OBJECT
 48
0.2
100
AcDbCircle
 10
-1967.512573831308
 20
1024.593040072857
 30
1.0
 40
25.5
100
AcDbArc
 50
168.2442385276679
 51
11.75576147233206
  0
LINE
  5
627EF
330
238
100
AcDbEntity
  8
OBJECT
 48
0.2
100
AcDbLine
 10
-1995.012573831307
 20
1119.593040072857
 30
1.0
 11
-1984.512573831307
 21
1119.593040072857
 31
1.0
  0
LINE
  5
627F0
330
238
100
AcDbEntity
  8
OBJECT
 48
0.2
100
AcDbLine
 10
-1997.512573831308
 20
1112.393040072855
 30
1.0
 11
-1984.512573831307
 21
1112.393040072855
 31
1.0
  0
LINE
  5
627F1
330
238
100
AcDbEntity
  8
OBJECT
 48
0.2
100
AcDbLine
 10
-1997.512573831308
 20
1116.393040072855
 30
1.0
 11
-1984.512573831307
 21
1116.393040072855
 31
1.0
  0
ARC
  5
627F2
330
238
100
AcDbEntity
  8
OBJECT
 48
0.2
100
AcDbCircle
 10
-1556.112573831307
 20
1108.651948229253
 30
1.0
 40
394.4
100
AcDbArc
 50
180.0
 51
191.5613891902423
  0
LINE
  5
627F3
330
238
100
AcDbEntity
  8
OBJECT
 48
0.2
100
AcDbLine
 10
-1900.012573831309
 20
1119.593040072857
 30
1.0
 11
-1900.012573831309
 21
1116.393040072857
 31
1.0
  0
LINE
  5
627F4
330
238
100
AcDbEntity
  8
PHANTOM
 48
0.2
100
AcDbLine
 10
-1907.012573831309
 20
1123.886081501367
 30
1.0
 11
-1907.012573831309
 21
1105.762132254785
 31
1.0
  0
LINE
  5
627F5
330
238
100
AcDbEntity
  8
PHANTOM
 48
0.2
100
AcDbLine
 10
-1985.012573831308
 20
1123.886081501367
 30
1.0
 11
-1985.012573831308
 21
1105.762132254785
 31
1.0
  0
LINE
  5
627F6
330
238
100
AcDbEntity
  8
PHANTOM
 48
0.2
100
AcDbLine
 10
-1946.012573831307
 20
1123.886081501367
 30
1.0
 11
-1946.012573831307
 21
1105.762132254785
 31
1.0
  0
LINE
  5
627F7
330
238
100
AcDbEntity
  8
OBJECT
 48
0.2
100
AcDbLine
 10
-1897.512573831308
 20
1112.393040072855
 30
1.0
 11
-1897.512573831308
 21
1116.393040072855
 31
1.0
  0
LINE
  5
627F8
330
238
100
AcDbEntity
  8
OBJECT
 48
0.2
100
AcDbLine
 10
-1995.012573831307
 20
1119.593040072857
 30
1.0
 11
-1995.012573831307
 21
1131.586943418449
 31
1.0
  0
LINE
  5
627F9
330
238
100
AcDbEntity
  8
OBJECT
 48
0.2
100
AcDbLine
 10
-1995.012573831307
 20
1119.593040072855
 30
1.0
 11
-1995.012573831307
 21
1116.393040072855
 31
1.0
  0
LINE
  5
627FA
330
238
100
AcDbEntity
  8
OBJECT
 48
0.2
100
AcDbLine
 10
-1997.512573831308
 20
1112.393040072855
 30
1.0
 11
-1997.512573831308
 21
1116.393040072855
 31
1.0
  0
LINE
  5
627FB
330
238
100
AcDbEntity
  8
OBJECT
 48
0.2
100
AcDbLine
 10
-1950.512573831309
 20
1119.593040072857
 30
1.0
 11
-1900.012573831309
 21
1119.593040072857
 31
1.0
  0
LINE
  5
627FC
330
238
100
AcDbEntity
  8
OBJECT
 48
0.2
100
AcDbLine
 10
-1950.512573831309
 20
1116.393040072855
 30
1.0
 11
-1897.512573831308
 21
1116.393040072855
 31
1.0
  0
LINE
  5
627FD
330
238
100
AcDbEntity
  8
OBJECT
 48
0.2
100
AcDbLine
 10
-1950.512573831309
 20
1112.393040072855
 30
1.0
 11
-1897.512573831308
 21
1112.393040072855
 31
1.0
  0
DIMENSION
  5
627FE
330
238
100
AcDbEntity
  8
DIMS
 48
0.2
100
AcDbDimension
280
     0
  2
*D746
 10
-1942.012573831308
 20
971.8942066233481
 30
1.0
 11
-1967.512573831308
 21
974.9942066233481
 31
1.0
 70
    32
 71
     5
 42
51.0
 73
     0
 74
     0
 75
     0
  3
SYS$0
100
AcDbAlignedDimension
 13
-1993.012573831309
 23
1024.593040072857
 33
1.0
 14
-1942.012573831308
 24
1024.593040072857
 34
1.0
100
AcDbRotatedDimension
  0
DIMENSION
  5
6280B
330
238
100
AcDbEntity
  8
DIMS
 48
0.2
100
AcDbDimension
280
     0
  2
*D747
 10
-1880.766607813068
 20
1116.393040072855
 30
1.0
 11
-1883.866607813069
 21
1109.693040072855
 31
1.0
 70
    32
 71
     5
 42
3.200000000002091
 73
     0
 74
     0
 75
     0
  3
SYS$0
100
AcDbAlignedDimension
 13
-1900.012573831309
 23
1119.593040072857
 33
1.0
 14
-1897.512573831308
 24
1116.393040072855
 34
1.0
 50
90.0
100
AcDbRotatedDimension
  0
DIMENSION
  5
6281A
330
238
100
AcDbEntity
  8
DIMS
 48
0.2
100
AcDbDimension
280
     0
  2
*D748
 10
-1860.124475646907
 20
1112.393040072855
 30
1.0
 11
-1863.224475646907
 21
1107.826373406188
 31
1.0
 70
    32
 71
     5
 42
4.0
 73
     0
 74
     0
 75
     0
  3
SYS$0
100
AcDbAlignedDimension
 13
-1897.512573831308
 23
1116.393040072855
 33
1.0
 14
-1897.512573831308
 24
1112.393040072855
 34
1.0
 50
90.0
100
AcDbRotatedDimension
  0
LINE
  5
62829
330
238
100
AcDbEntity
  8
OBJECT
 48
0.2
100
AcDbLine
 10
-1984.512573831307
 20
1143.093040072857
 30
1.0
 11
-1984.512573831307
 21
1108.651948229253
 31
1.0
  0
LINE
  5
6282A
330
238
100
AcDbEntity
  8
OBJECT
 48
0.2
100
AcDbLine
 10
-1950.512573831309
 20
1143.093040072857
 30
1.0
 11
-1950.512573831309
 21
1108.651948229253
 31
1.0
  0
LINE
  5
6282B
330
238
100
AcDbEntity
  8
CENTER
100
AcDbLine
 10
-1967.512573831308
 20
1140.093040072857
 30
1.0
 11
-1967.512573831308
 21
1124.593040072857
 31
1.0
  0
LINE
  5
6282C
330
238
100
AcDbEntity
  8
OBJECT
 48
0.2
100
AcDbLine
 10
-1900.012573831309
 20
1119.593040072857
 30
1.0
 11
-1900.012573831309
 21
1151.593040072857
 31
1.0
  0
LINE
  5
6282D
330
238
100
AcDbEntity
  8
CENTER
100
AcDbLine
 10
-1929.012573831309
 20
1141.593040072857
 30
1.0
 11
-1929.012573831309
 21
1129.343040072857
 31
1.0
  0
LINE
  5
6282E
330
238
100
AcDbEntity
  8
CENTER
 48
0.2
100
AcDbLine
 10
-1967.512573831308
 20
1141.593040072857
 30
1.0
 11
-1967.512573831308
 21
1130.343040072857
 31
1.0
  0
CIRCLE
  5
6282F
330
238
100
AcDbEntity
  8
OBJECT
 48
30.0
100
AcDbCircle
 10
-1929.012573831309
 20
1143.093040072857
 30
1.0
 40
11.0
  0
CIRCLE
  5
62830
330
238
100
AcDbEntity
  8
OBJECT
 48
10.0
100
AcDbCircle
 10
-1929.012573831309
 20
1143.093040072857
 30
1.0
 40
10.5
  0
CIRCLE
  5
62831
330
238
100
AcDbEntity
  8
OBJECT
 48
30.0
100
AcDbCircle
 10
-1929.012573831309
 20
1143.093040072857
 30
1.0
 40
7.0
  0
ARC
  5
62832
330
238
100
AcDbEntity
  8
OBJECT
 48
30.0
100
AcDbCircle
 10
-1929.012573831309
 20
1143.093040072857
 30
1.0
 40
6.0
100
AcDbArc
 50
145.5639775890495
 51
304.4360224109269
  0
ARC
  5
62833
330
238
100
AcDbEntity
  8
OBJECT
 48
0.2
100
AcDbCircle
 10
-1980.512573831308
 20
1131.586943418449
 30
1.0
 40
14.5
100
AcDbArc
 50
135.0
 51
180.0
  0
DIMENSION
  5
62834
330
238
100
AcDbEntity
  8
DIMS
 48
0.2
100
AcDbDimension
280
     0
  2
*D749
 10
-1836.009894528218
 20
1112.393040072855
 30
1.0
 11
-1839.109894528218
 21
1127.743040072855
 31
1.0
 70
    32
 71
     5
 42
30.70000000000209
 73
     0
 74
     0
 75
     0
  3
SYS$0
100
AcDbAlignedDimension
 13
-1916.262573831308
 23
1143.093040072857
 33
1.0
 14
-1897.512573831308
 24
1112.393040072855
 34
1.0
 50
90.0
100
AcDbRotatedDimension
  0
DIMENSION
  5
62877
330
238
100
AcDbEntity
  8
DIMS
 48
0.2
100
AcDbDimension
280
     0
  2
*D750
 10
-2270.689573987691
 20
953.314072573683
 30
1.0
 11
-2280.189573987692
 21
956.414072573683
 31
1.0
 70
    32
 71
     5
 42
19.00000000000409
 73
     0
 74
     0
 75
     0
  3
SYS$0
100
AcDbAlignedDimension
 13
-2289.689573987695
 23
925.9719340281726
 33
1.0
 14
-2270.689573987691
 24
929.2119340281741
 34
1.0
100
AcDbRotatedDimension
  0
DIMENSION
  5
62884
330
238
100
AcDbEntity
  8
DIMS
 48
0.2
100
AcDbDimension
280
     0
  2
*D751
 10
-2352.170982962733
 20
904.2119340281724
 30
1.0
 11
-2352.170982962733
 21
893.4619340281717
 31
1.0
 70
   160
 71
     5
 42
21.49999999999989
 73
     0
 74
     0
 75
     0
  3
SYS$0
100
AcDbAlignedDimension
 13
-2292.689573987695
 23
882.7119340281724
 33
1.0
 14
-2349.472436508351
 24
904.2119340281724
 34
1.0
 50
90.0
100
AcDbRotatedDimension
  0
DIMENSION
  5
62891
330
238
100
AcDbEntity
  8
DIMS
 48
0.2
100
AcDbDimension
280
     0
  2
*D752
 10
-2352.170982962732
 20
904.2119340281724
 30
1.0
 11
-2352.170982962732
 21
937.211934028172
 31
1.0
 70
   160
 71
     5
 42
17.50000000000011
 73
     0
 74
     0
 75
     0
  3
SYS$0
100
AcDbAlignedDimension
 13
-2292.689573987695
 23
921.7119340281724
 33
1.0
 14
-2350.732436508351
 24
904.2119340281724
 34
1.0
 50
90.0
100
AcDbRotatedDimension
  0
LINE
  5
6289E
330
238
100
AcDbEntity
  8
CENTER
 48
0.2
100
AcDbLine
 10
-2289.689573987695
 20
1103.150256269141
 30
1.0
 11
-2289.689573987695
 21
1123.332202711823
 31
1.0
  0
LINE
  5
631DE
330
238
100
AcDbEntity
  8
DEFPOINTS
100
AcDbLine
 10
-2450.971726270537
 20
1252.234128189737
 30
1.0
 11
-1678.771726270536
 21
1252.234128189737
 31
1.0
1001
GENIUS_GENREC_14
1002
{
1000
PYDIR
1011
-2450.971726270537
1021
1092.334128189735
1031
1.0
1002
}
1002
{
1000
PXDIR
1011
-1904.971726270536
1021
706.2341281897364
1031
1.0
1002
}
1002
{
1000
PORI
1011
-2450.971726270537
1021
706.2341281897364
1031
1.0
1002
}
1002
{
1000
PINS
1011
-2177.971726270537
1021
899.2841281897364
1031
1.0
1002
}
1002
{
1000
HVAL
1000
297
1002
}
1002
{
1000
H
1070
     2
1002
}
1002
{
1000
WVAL
1000
420
1002
}
1002
{
1000
W
1070
     2
1002
}
1002
{
1000
C
1070
     4
1002
}
1001
GENIUS_GENOBJ-N-REC_13
1002
{
1000
OWNER
1000
GEN
1002
}
1001
GENIUS_GENODEF_13
1002
{
1000
HIER
1070
     0
1002
}
1002
{
1000
MANEDIT
1070
     0
1002
}
1002
{
1000
NOSEL
1070
     0
1002
}
1002
{
1000
BEHIND
1070
     0
1002
}
1002
{
1000
OTHER
1070
     0
1002
}
1002
{
1000
REACTOR
1002
}
  0
LINE
  5
631DF
330
238
100
AcDbEntity
  8
DEFPOINTS
100
AcDbLine
 10
-1678.771726270536
 20
1252.234128189737
 30
1.0
 11
-1678.771726270536
 21
706.2341281897364
 31
1.0
1001
GENIUS_GENREC_14
1002
{
1000
PYDIR
1011
-2450.971726270537
1021
1092.334128189735
1031
1.0
1002
}
1002
{
1000
PXDIR
1011
-1904.971726270536
1021
706.2341281897364
1031
1.0
1002
}
1002
{
1000
PORI
1011
-2450.971726270537
1021
706.2341281897364
1031
1.0
1002
}
1002
{
1000
PINS
1011
-2177.971726270537
1021
899.2841281897364
1031
1.0
1002
}
1002
{
1000
HVAL
1000
297
1002
}
1002
{
1000
H
1070
     2
1002
}
1002
{
1000
WVAL
1000
420
1002
}
1002
{
1000
W
1070
     2
1002
}
1002
{
1000
C
1070
     4
1002
}
1001
GENIUS_GENOBJ-N-REC_13
1002
{
1000
OWNER
1000
GEN
1002
}
1001
GENIUS_GENODEF_13
1002
{
1000
HIER
1070
     0
1002
}
1002
{
1000
MANEDIT
1070
     0
1002
}
1002
{
1000
NOSEL
1070
     0
1002
}
1002
{
1000
BEHIND
1070
     0
1002
}
1002
{
1000
OTHER
1070
     0
1002
}
1002
{
1000
REACTOR
1002
}
  0
LINE
  5
631E0
330
238
100
AcDbEntity
  8
waku
100
AcDbLine
 10
-2436.021726270537
 20
717.2841281897365
 30
1.0
 11
-1693.721726270537
 21
717.2841281897365
 31
1.0
1001
GENIUS_GENREC_14
1002
{
1000
PYDIR
1011
-2450.971726270537
1021
1092.334128189735
1031
1.0
1002
}
1002
{
1000
PXDIR
1011
-1904.971726270536
1021
706.2341281897364
1031
1.0
1002
}
1002
{
1000
PORI
1011
-2450.971726270537
1021
706.2341281897364
1031
1.0
1002
}
1002
{
1000
PINS
1011
-2177.971726270537
1021
899.2841281897364
1031
1.0
1002
}
1002
{
1000
HVAL
1000
297
1002
}
1002
{
1000
H
1070
     2
1002
}
1002
{
1000
WVAL
1000
420
1002
}
1002
{
1000
W
1070
     2
1002
}
1002
{
1000
C
1070
     4
1002
}
  0
LINE
  5
631E1
330
238
100
AcDbEntity
  8
waku
100
AcDbLine
 10
-1693.721726270537
 20
1241.184128189737
 30
1.0
 11
-2436.021726270537
 21
1241.184128189737
 31
1.0
1001
GENIUS_GENREC_14
1002
{
1000
PYDIR
1011
-2224.771726270537
1021
1252.234128189737
1031
1.0
1002
}
1002
{
1000
PXDIR
1011
-1678.771726270536
1021
866.1341281897366
1031
1.0
1002
}
1002
{
1000
PORI
1011
-2224.771726270537
1021
866.1341281897366
1031
1.0
1002
}
1002
{
1000
PINS
1011
-1951.771726270536
1021
1059.184128189737
1031
1.0
1002
}
1002
{
1000
HVAL
1000
297
1002
}
1002
{
1000
H
1070
     2
1002
}
1002
{
1000
WVAL
1000
420
1002
}
1002
{
1000
W
1070
     2
1002
}
1002
{
1000
C
1070
     4
1002
}
1001
GENIUS_GENOBJ-N-REC_13
1002
{
1000
OWNER
1000
GEN
1002
}
1001
GENIUS_GENODEF_13
1002
{
1000
HIER
1070
     0
1002
}
1002
{
1000
MANEDIT
1070
     0
1002
}
1002
{
1000
NOSEL
1070
     0
1002
}
1002
{
1000
BEHIND
1070
     0
1002
}
1002
{
1000
OTHER
1070
     0
1002
}
1002
{
1000
REACTOR
1002
}
  0
LINE
  5
631E2
330
238
100
AcDbEntity
  8
waku
100
AcDbLine
 10
-2436.021726270537
 20
1241.184128189737
 30
1.0
 11
-2436.021726270537
 21
717.2841281897365
 31
1.0
1001
GENIUS_GENREC_14
1002
{
1000
PYDIR
1011
-2450.971726270537
1021
1092.334128189735
1031
1.0
1002
}
1002
{
1000
PXDIR
1011
-1904.971726270536
1021
706.2341281897364
1031
1.0
1002
}
1002
{
1000
PORI
1011
-2450.971726270537
1021
706.2341281897364
1031
1.0
1002
}
1002
{
1000
PINS
1011
-2177.971726270537
1021
899.2841281897364
1031
1.0
1002
}
1002
{
1000
HVAL
1000
297
1002
}
1002
{
1000
H
1070
     2
1002
}
1002
{
1000
WVAL
1000
420
1002
}
1002
{
1000
W
1070
     2
1002
}
1002
{
1000
C
1070
     4
1002
}
1001
GENIUS_GENOBJ-N-REC_13
1002
{
1000
OWNER
1000
GEN
1002
}
1001
GENIUS_GENODEF_13
1002
{
1000
HIER
1070
     0
1002
}
1002
{
1000
MANEDIT
1070
     0
1002
}
1002
{
1000
NOSEL
1070
     0
1002
}
1002
{
1000
BEHIND
1070
     0
1002
}
1002
{
1000
OTHER
1070
     0
1002
}
1002
{
1000
REACTOR
1002
}
  0
LINE
  5
631E3
330
238
100
AcDbEntity
  8
waku
100
AcDbLine
 10
-1693.721726270537
 20
717.2841281897365
 30
1.0
 11
-1693.721726270537
 21
1241.184128189737
 31
1.0
1001
GENIUS_GENREC_14
1002
{
1000
PYDIR
1011
-2224.771726270537
1021
1252.234128189737
1031
1.0
1002
}
1002
{
1000
PXDIR
1011
-1678.771726270536
1021
866.1341281897366
1031
1.0
1002
}
1002
{
1000
PORI
1011
-2224.771726270537
1021
866.1341281897366
1031
1.0
1002
}
1002
{
1000
PINS
1011
-1951.771726270536
1021
1059.184128189737
1031
1.0
1002
}
1002
{
1000
HVAL
1000
297
1002
}
1002
{
1000
H
1070
     2
1002
}
1002
{
1000
WVAL
1000
420
1002
}
1002
{
1000
W
1070
     2
1002
}
1002
{
1000
C
1070
     4
1002
}
1001
GENIUS_GENOBJ-N-REC_13
1002
{
1000
OWNER
1000
GEN
1002
}
1001
GENIUS_GENODEF_13
1002
{
1000
HIER
1070
     0
1002
}
1002
{
1000
MANEDIT
1070
     0
1002
}
1002
{
1000
NOSEL
1070
     0
1002
}
1002
{
1000
BEHIND
1070
     0
1002
}
1002
{
1000
OTHER
1070
     0
1002
}
1002
{
1000
REACTOR
1002
}
  0
LINE
  5
631E4
330
238
100
AcDbEntity
  8
DEFPOINTS
100
AcDbLine
 10
-2450.971726270537
 20
1252.234128189737
 30
1.0
 11
-2450.971726270537
 21
706.2341281897364
 31
1.0
1001
GENIUS_GENREC_14
1002
{
1000
PYDIR
1011
-2450.971726270537
1021
1092.334128189735
1031
1.0
1002
}
1002
{
1000
PXDIR
1011
-1904.971726270536
1021
706.2341281897364
1031
1.0
1002
}
1002
{
1000
PORI
1011
-2450.971726270537
1021
706.2341281897364
1031
1.0
1002
}
1002
{
1000
PINS
1011
-2177.971726270537
1021
899.2841281897364
1031
1.0
1002
}
1002
{
1000
HVAL
1000
297
1002
}
1002
{
1000
H
1070
     2
1002
}
1002
{
1000
WVAL
1000
420
1002
}
1002
{
1000
W
1070
     2
1002
}
1002
{
1000
C
1070
     4
1002
}
1001
GENIUS_GENOBJ-N-REC_13
1002
{
1000
OWNER
1000
GEN
1002
}
1001
GENIUS_GENODEF_13
1002
{
1000
HIER
1070
     0
1002
}
1002
{
1000
MANEDIT
1070
     0
1002
}
1002
{
1000
NOSEL
1070
     0
1002
}
1002
{
1000
BEHIND
1070
     0
1002
}
1002
{
1000
OTHER
1070
     0
1002
}
1002
{
1000
REACTOR
1002
}
  0
LINE
  5
631E5
330
238
100
AcDbEntity
  8
DEFPOINTS
100
AcDbLine
 10
-2450.971726270537
 20
706.2341281897364
 30
1.0
 11
-1678.771726270536
 21
706.2341281897364
 31
1.0
1001
GENIUS_GENREC_14
1002
{
1000
PYDIR
1011
-2450.971726270537
1021
1092.334128189735
1031
1.0
1002
}
1002
{
1000
PXDIR
1011
-1904.971726270536
1021
706.2341281897364
1031
1.0
1002
}
1002
{
1000
PORI
1011
-2450.971726270537
1021
706.2341281897364
1031
1.0
1002
}
1002
{
1000
PINS
1011
-2177.971726270537
1021
899.2841281897364
1031
1.0
1002
}
1002
{
1000
HVAL
1000
297
1002
}
1002
{
1000
H
1070
     2
1002
}
1002
{
1000
WVAL
1000
420
1002
}
1002
{
1000
W
1070
     2
1002
}
1002
{
1000
C
1070
     4
1002
}
1001
GENIUS_GENOBJ-N-REC_13
1002
{
1000
OWNER
1000
GEN
1002
}
1001
GENIUS_GENODEF_13
1002
{
1000
HIER
1070
     0
1002
}
1002
{
1000
MANEDIT
1070
     0
1002
}
1002
{
1000
NOSEL
1070
     0
1002
}
1002
{
1000
BEHIND
1070
     0
1002
}
1002
{
1000
OTHER
1070
     0
1002
}
1002
{
1000
REACTOR
1002
}
  0
LINE
  5
634B9
330
238
100
AcDbEntity
  8
AM_0
100
AcDbLine
 10
-1796.610490325932
 20
1241.184128189737
 30
1.0
 11
-1693.721726270537
 21
1241.184128189737
 31
1.0
  0
LINE
  5
634BA
330
238
100
AcDbEntity
  8
AM_2
100
AcDbLine
 10
-1796.610490325932
 20
1235.216643161252
 30
1.0
 11
-1693.721726270537
 21
1235.216643161252
 31
1.0
  0
LINE
  5
634BB
330
238
100
AcDbEntity
  8
AM_0
100
AcDbLine
 10
-1796.610490325932
 20
1241.184128189737
 30
1.0
 11
-1796.610490325932
 21
1205.379218018829
 31
1.0
  0
LINE
  5
634BC
330
238
100
AcDbEntity
  8
AM_2
100
AcDbLine
 10
-1773.610490325933
 20
1241.184128189737
 30
1.0
 11
-1773.610490325933
 21
1205.379218018829
 31
1.0
  0
MTEXT
  5
634BD
330
238
100
AcDbEntity
  8
AM_6
100
AcDbMText
 10
-1785.110490325931
 20
1238.276494576332
 30
1.0
 40
3.2
 41
23.0
 46
0.0
 71
     5
 72
     5
  1
品　名
  7
EXTFONT
 73
     1
 44
1.0
  0
MTEXT
  5
634BE
330
238
100
AcDbEntity
  8
AM_6
100
AcDbMText
 10
-1773.610490325933
 20
1238.276494576332
 30
1.0
 40
3.2
 41
90.0
 46
0.0
 71
     4
 72
     5
  1
　ハイパーアーム
  7
EXTFONT
 73
     1
 44
1.0
  0
LINE
  5
634BF
330
238
100
AcDbEntity
  8
AM_2
100
AcDbLine
 10
-1796.610490325932
 20
1223.281673104283
 30
1.0
 11
-1693.721726270537
 21
1223.281673104283
 31
1.0
  0
MTEXT
  5
634C0
330
238
100
AcDbEntity
  8
AM_6
100
AcDbMText
 10
-1785.110490325931
 20
1232.309009547847
 30
1.0
 40
3.2
 41
23.0
 46
0.0
 71
     5
 72
     5
  1
品　番
  7
EXTFONT
 73
     1
 44
1.0
  0
LINE
  5
634C1
330
238
100
AcDbEntity
  8
AM_2
100
AcDbLine
 10
-1796.610490325932
 20
1217.314188075798
 30
1.0
 11
-1693.721726270537
 21
1217.314188075798
 31
1.0
  0
MTEXT
  5
634C2
330
238
100
AcDbEntity
  8
AM_6
100
AcDbMText
 10
-1773.610490325933
 20
1226.341524519362
 30
1.0
 40
3.2
 41
90.0
 46
0.0
 71
     4
 72
     5
  1
　ステンレス（SUS304）
  7
EXTFONT
 73
     1
 44
1.0
  0
LINE
  5
634C3
330
238
100
AcDbEntity
  8
AM_2
100
AcDbLine
 10
-1796.610490325932
 20
1211.346703047314
 30
1.0
 11
-1693.721726270537
 21
1211.346703047314
 31
1.0
  0
MTEXT
  5
634C4
330
238
100
AcDbEntity
  8
AM_6
100
AcDbMText
 10
-1786.135408585435
 20
1220.374039490878
 30
1.0
 40
3.2
 41
23.0
 46
0.0
 71
     5
 72
     5
  1
仕上げ
  7
EXTFONT
 73
     1
 44
1.0
  0
LINE
  5
634C5
330
238
100
AcDbEntity
  8
AM_2
100
AcDbLine
 10
-1796.610490325932
 20
1205.379218018829
 30
1.0
 11
-1693.721726270537
 21
1205.379218018829
 31
1.0
  0
MTEXT
  5
634C7
330
238
100
AcDbEntity
  8
AM_6
100
AcDbMText
 10
-1785.110490325931
 20
1214.406554462393
 30
1.0
 40
3.2
 41
23.0
 46
0.0
 71
     5
 72
     5
  1
セット部品
  7
EXTFONT
 73
     1
 44
1.0
  0
LINE
  5
634CA
330
238
100
AcDbEntity
  8
AM_0
100
AcDbLine
 10
-1796.610490325932
 20
1205.379218018829
 30
1.0
 11
-1693.721726270537
 21
1205.379218018829
 31
1.0
  0
MTEXT
  5
634CE
330
238
100
AcDbEntity
  8
AM_6
100
AcDbMText
 10
-1773.610490325933
 20
1232.309009547847
 30
1.0
 40
3.2
 41
90.0
 46
0.0
 71
     4
 72
     5
  1
　SA-73
  7
EXTFONT
 73
     1
 44
1.0
  0
LINE
  5
634CF
330
238
100
AcDbEntity
  8
AM_2
100
AcDbLine
 10
-1796.610490325932
 20
1229.249158132768
 30
1.0
 11
-1693.721726270537
 21
1229.249158132768
 31
1.0
  0
LINE
  5
634D0
330
238
100
AcDbEntity
  8
AM_0
100
AcDbLine
 10
-1693.721726270537
 20
1241.184128189737
 30
1.0
 11
-1693.721726270537
 21
1193.44424796186
 31
1.0
  0
MTEXT
  5
634D1
330
238
100
AcDbEntity
  8
AM_6
100
AcDbMText
 10
-1785.110490325931
 20
1226.341524519362
 30
1.0
 40
3.2
 41
23.0
 46
0.0
 71
     5
 72
     5
  1
材　質
  7
EXTFONT
 73
     1
 44
1.0
  0
MTEXT
  5
634D3
330
238
100
AcDbEntity
  8
AM_6
100
AcDbMText
 10
-1773.610490325933
 20
1220.374039490878
 30
1.0
 40
3.2
 41
90.0
 46
0.0
 71
     4
 72
     5
  1
　電解研磨
  7
EXTFONT
 73
     1
 44
1.0
  0
MTEXT
  5
634E3
330
238
100
AcDbEntity
  8
AM_6
100
AcDbMText
 10
-1785.110490325931
 20
1208.439069433909
 30
1.0
 40
3.2
 41
23.0
 46
0.0
 71
     5
 72
     5
  1
備　考
  7
EXTFONT
 73
     1
 44
1.0
  0
VIEWPORT
  5
26B
330
235
100
AcDbEntity
 67
     1
  8
0
100
AcDbViewport
 10
7.209706405371615
 20
3.187210952268475
 30
0.0
 40
4.121664762668855
 41
2.088028116571977
 68
     3
 69
     2
 12
7.209706405371615
 22
3.187210952268475
 13
0.0
 23
0.0
 14
10.0
 24
10.0
 15
10.0
 25
10.0
 16
0.0
 26
0.0
 36
1.0
 17
0.0
 27
0.0
 37
0.0
 42
50.0
 43
0.0
 44
0.0
 45
2.088028116571977
 50
0.0
 51
0.0
 72
   100
 90
    32768
  1

281
     0
 71
     1
 74
     0
110
0.0
120
0.0
130
0.0
111
1.0
121
0.0
131
0.0
112
0.0
122
1.0
132
0.0
 79
     0
146
0.0
170
     0
 61
     5
292
     1
282
     1
141
0.0
142
0.0
  0
VIEWPORT
  5
472C
330
235
100
AcDbEntity
 67
     1
  8
HIDDEN
 48
0.2
100
AcDbViewport
 10
5.638749946759441
 20
3.927083334584873
 30
0.0
 40
9.021999914815104
 41
6.283333335335798
 68
     1
 69
     3
 12
-1541.58569273207
 22
1623.527455615523
 13
0.0
 23
0.0
 14
5.0
 24
5.0
 15
10.0
 25
10.0
 16
0.0
 26
0.0
 36
1.0
 17
0.0
 27
0.0
 37
0.0
 42
50.0
 43
0.0
 44
0.0
 45
1430.09517816441
 50
0.0
 51
0.0
 72
   100
 90
    33024
  1

281
     0
 71
     1
 74
     0
110
0.0
120
0.0
130
0.0
111
1.0
121
0.0
131
0.0
112
0.0
122
1.0
132
0.0
 79
     0
146
1.0
170
     0
 61
     5
348
628D7
292
     1
282
     1
141
0.0
142
0.0
  0
VIEWPORT
  5
628FE
330
235
100
AcDbEntity
 67
     1
  8
0
100
AcDbViewport
 10
5.639583557609497
 20
3.925416563439556
 30
0.0
 40
11.69166625015379
 41
8.266666442390501
 68
     2
 69
     1
 12
5.639583557609497
 22
3.925416563439556
 13
0.0
 23
0.0
 14
0.0
 24
0.0
 15
0.0
 25
0.0
 16
0.0
 26
0.0
 36
1.0
 17
0.0
 27
0.0
 37
0.0
 42
50.0
 43
0.0
 44
0.0
 45
8.266666442390501
 50
0.0
 51
0.0
 72
   100
 90
    32800
  1

281
     0
 71
     1
 74
     1
110
0.0
120
0.0
130
0.0
111
1.0
121
0.0
131
0.0
112
0.0
122
1.0
132
0.0
 79
     0
146
0.0
170
     0
 61
     5
348
628D7
292
     1
282
     1
141
0.0
142
0.0
 63
   250
421
  3355443
  0
ENDSEC
  0
SECTION
  2
OBJECTS
  0
DICTIONARY
  5
22C
330
0
100
AcDbDictionary
281
     1
  3
ACAD_CIP_PREVIOUS_PRODUCT_INFO
350
62905
  3
ACAD_COLOR
350
628EB
  3
ACAD_DETAILVIEWSTYLE
350
62901
  3
ACAD_GROUP
350
22D
  3
ACAD_LAYOUT
350
2C4A
  3
ACAD_MATERIAL
350
628CE
  3
ACAD_MLEADERSTYLE
350
61A36
  3
ACAD_MLINESTYLE
350
22E
  3
ACAD_PLOTSETTINGS
350
2C4B
  3
ACAD_PLOTSTYLENAME
350
2C48
  3
ACAD_SCALELIST
350
6182A
  3
ACAD_SECTIONVIEWSTYLE
350
628FF
  3
ACAD_TABLESTYLE
350
61A35
  3
ACAD_VISUALSTYLE
350
628D2
  3
AcadDim
350
EF5D
  3
ACDB_RECOMPOSE_DATA
350
63523
  3
AcDbVariableDictionary
350
59D2
  0
DICTIONARY
  5
62919
330
222
100
AcDbDictionary
280
     1
281
     1
  3
ACAD_LAYERSTATES
360
6291A
  0
DICTIONARY
  5
6290B
330
6290A
100
AcDbDictionary
280
     1
281
     1
  0
DICTIONARY
  5
6290F
330
6290E
100
AcDbDictionary
280
     1
281
     1
  0
DICTIONARY
  5
62911
330
62910
100
AcDbDictionary
280
     1
281
     1
  0
DICTIONARY
  5
62913
330
62912
100
AcDbDictionary
280
     1
281
     1
  0
XRECORD
  5
62905
102
{ACAD_REACTORS
330
22C
102
}
330
22C
100
AcDbXrecord
280
     1
300
ACDLT
300
2015
300
ACDLT_F_S
  0
DICTIONARY
  5
628EB
102
{ACAD_REACTORS
330
22C
102
}
330
22C
100
AcDbDictionary
281
     1
  0
DICTIONARY
  5
62901
102
{ACAD_REACTORS
330
22C
102
}
330
22C
100
AcDbDictionary
281
     1
  3
Imperial24
350
62902
  3
Metric50
350
629A6
  0
DICTIONARY
  5
22D
102
{ACAD_REACTORS
330
22C
102
}
330
22C
100
AcDbDictionary
281
     1
  0
DICTIONARY
  5
2C4A
102
{ACAD_REACTORS
330
22C
102
}
330
22C
100
AcDbDictionary
281
     1
  3
Model
350
2C4C
  3
ﾚｲｱｳﾄ1
350
2C4D
  0
DICTIONARY
  5
628CE
102
{ACAD_REACTORS
330
22C
102
}
330
22C
100
AcDbDictionary
281
     1
  3
ByBlock
350
628D0
  3
ByLayer
350
628CF
  3
Global
350
628D1
  0
DICTIONARY
  5
61A36
102
{ACAD_REACTORS
330
22C
102
}
330
22C
100
AcDbDictionary
281
     1
  3
Standard
350
628ED
  0
DICTIONARY
  5
22E
102
{ACAD_REACTORS
330
22C
102
}
330
22C
100
AcDbDictionary
281
     1
  3
STANDARD
350
23B
  0
DICTIONARY
  5
2C4B
102
{ACAD_REACTORS
330
22C
102
}
330
22C
100
AcDbDictionary
281
     1
  0
ACDBDICTIONARYWDFLT
  5
2C48
102
{ACAD_REACTORS
330
22C
102
}
330
22C
100
AcDbDictionary
281
     1
  3
Normal
350
2C49
100
AcDbDictionaryWithDefault
340
2C49
  0
DICTIONARY
  5
6182A
102
{ACAD_REACTORS
330
22C
102
}
330
22C
100
AcDbDictionary
281
     1
  3
A0
350
6182B
  3
A1
350
6182C
  3
A2
350
6182D
  3
A3
350
6182E
  3
A4
350
6182F
  3
A5
350
61830
  3
A6
350
61831
  3
A7
350
61832
  3
A8
350
61833
  3
A9
350
61834
  3
B0
350
61835
  3
B1
350
61836
  3
B2
350
61837
  3
B3
350
61838
  3
B4
350
61839
  3
B5
350
6183A
  3
B6
350
6183B
  3
B7
350
6183C
  3
B8
350
6183D
  3
B9
350
6183E
  3
C0
350
6183F
  3
C1
350
61840
  3
C2
350
61841
  3
C3
350
61842
  3
C4
350
61843
  3
C5
350
61844
  3
C6
350
61845
  3
C7
350
61846
  3
C8
350
61847
  3
C9
350
61848
  3
D0
350
61849
  3
D1
350
6184A
  3
D2
350
6184B
  0
DICTIONARY
  5
628FF
102
{ACAD_REACTORS
330
22C
102
}
330
22C
100
AcDbDictionary
281
     1
  3
Imperial24
350
62900
  3
Metric50
350
629A5
  0
DICTIONARY
  5
61A35
102
{ACAD_REACTORS
330
22C
102
}
330
22C
100
AcDbDictionary
281
     1
  3
Standard
350
628EC
  0
DICTIONARY
  5
628D2
102
{ACAD_REACTORS
330
22C
102
}
330
22C
100
AcDbDictionary
281
     1
  3
2dWireframe
350
628D7
  3
Basic
350
628DA
  3
Brighten
350
628DE
  3
ColorChange
350
628E2
  3
Conceptual
350
628DC
  3
Dim
350
628DD
  3
EdgeColorOff
350
628E5
  3
Facepattern
350
628E1
  3
Flat
350
628D3
  3
FlatWithEdges
350
628D4
  3
Gouraud
350
628D5
  3
GouraudWithEdges
350
628D6
  3
Hidden
350
628D9
  3
JitterOff
350
628E3
  3
Linepattern
350
628E0
  3
OverhangOff
350
628E4
  3
Realistic
350
628DB
  3
Shaded
350
628EA
  3
Shaded with edges
350
628E9
  3
Shades of Gray
350
628E6
  3
Sketchy
350
628E7
  3
Thicken
350
628DF
  3
Wireframe
350
628D8
  3
X-Ray
350
628E8
  0
XRECORD
  5
EF5D
102
{ACAD_REACTORS
330
22C
102
}
330
22C
100
AcDbXrecord
280
     1
 90
   990106
  3

 60
     0
 61
     0
 62
     1
 63
     3
 64
     0
 65
     0
 66
     0
 67
     3
 68
     1
 69
     0
 70
     0
 71
     0
 72
     0
 40
37.38453015962762
170
     0
  0
XRECORD
  5
63523
102
{ACAD_REACTORS
330
22C
102
}
330
22C
100
AcDbXrecord
280
     1
 90
        1
330
628EC
  0
DICTIONARY
  5
59D2
102
{ACAD_REACTORS
330
22C
102
}
330
22C
100
AcDbDictionary
281
     1
  3
CANNOSCALE
350
61A34
  3
CMLEADERSTYLE
350
628F3
  3
CTABLESTYLE
350
628F2
  3
CVIEWDETAILSTYLE
350
634E4
  3
CVIEWSECTIONSTYLE
350
634E5
  3
SORTENTS
350
59D3
  3
XCLIPFRAME
350
6184C
  0
DICTIONARY
  5
6291A
102
{ACAD_REACTORS
330
62919
102
}
330
62919
100
AcDbDictionary
281
     1
  0
ACDBDETAILVIEWSTYLE
  5
62902
102
{ACAD_XDICTIONARY
360
63556
102
}
102
{ACAD_REACTORS
330
62901
102
}
330
62901
100
AcDbModelDocViewStyle
 70
     0
  3
Imperial24
290
     0
100
AcDbDetailViewStyle
 70
     0
 71
     0
 90
        3
 71
     1
340
230
 62
   256
 40
0.24
340
0
 62
   256
 40
0.24
300

 40
0.36
280
     3
 71
     2
340
234
 90
       25
 62
   256
 71
     3
340
230
 62
   256
 40
0.24
 90
        1
 40
0.75
 90
        1
300
%<\AcVar ViewType \f "%tc1">% %<\AcVar ViewDetailId>%\PSCALE %<\AcVar ViewScale \f "%sn">%
 71
     4
340
234
 90
       25
 62
   256
340
234
 90
       25
 62
   256
280
     0
  0
ACDBDETAILVIEWSTYLE
  5
629A6
102
{ACAD_XDICTIONARY
360
6355A
102
}
102
{ACAD_REACTORS
330
62901
102
}
330
62901
100
AcDbModelDocViewStyle
 70
     0
  3
Metric50
290
     0
100
AcDbDetailViewStyle
 70
     0
 71
     0
 90
        3
 71
     1
340
230
 62
   256
 40
5.0
340
0
 62
   256
 40
5.0
300

 40
0.0
280
     1
 71
     2
340
234
 90
       25
 62
   256
 71
     3
340
230
 62
   256
 40
5.0
 90
        0
 40
15.0
 90
        1
300
%<\AcVar ViewDetailId>% (%<\AcVar ViewScale \f "%sn">%)
 71
     4
340
234
 90
       25
 62
   256
340
234
 90
       25
 62
   256
280
     0
  0
LAYOUT
  5
2C4C
102
{ACAD_REACTORS
330
2C4A
102
}
330
2C4A
100
AcDbPlotSettings
  1

  2
RICOH imagio MP C4500 RPCS B4.pc3
  4
A4
  6
OLE1
 40
5.873749732971191
 41
5.873747825622557
 42
5.873748779296875
 43
5.873748779296875
 44
296.9259948730469
 45
209.9733276367186
 46
0.0
 47
0.0
 48
-1443.583263904031
 49
1635.201599922691
140
-1159.477989204235
141
1835.559710920561
142
1.0
143
1.0
 70
 11952
 72
     1
 73
     0
 74
     4
  7
MARUKO.ctb
 75
    16
147
1.0
 76
     0
 77
     2
 78
   300
148
1443.583263904031
149
-1635.201599922691
100
AcDbLayout
  1
Model
 70
     1
 71
     0
 10
0.0
 20
0.0
 11
12.0
 21
9.0
 12
0.0
 22
0.0
 32
0.0
 14
0.0
 24
0.0
 34
0.0
 15
0.0
 25
0.0
 35
0.0
146
0.0
 13
0.0
 23
0.0
 33
0.0
 16
1.0
 26
0.0
 36
0.0
 17
0.0
 27
1.0
 37
0.0
 76
     0
330
238
331
61829
  0
LAYOUT
  5
2C4D
102
{ACAD_REACTORS
330
2C4A
102
}
330
2C4A
100
AcDbPlotSettings
  1

  2
Fuji Xerox 4150 ART4
  4
A4
  6

 40
5.281083106994628
 41
5.281086444854736
 42
5.1964111328125
 43
5.238739013671875
 44
209.9733276367186
 45
296.9683227539062
 46
0.0
 47
0.0
 48
0.0
 49
0.0
140
0.0
141
0.0
142
1.0
143
1.0
 70
   688
 72
     0
 73
     1
 74
     5
  7
MARUKO.ctb
 75
    16
147
1.0
 76
     0
 77
     2
 78
   300
148
0.0
149
0.0
100
AcDbLayout
  1
ﾚｲｱｳﾄ1
 70
     0
 71
     1
 10
-0.2062495674673967
 20
-0.207916657755694
 11
11.48541668268639
 21
8.058749784634807
 12
0.0
 22
0.0
 32
0.0
 14
1.127749989351888
 24
0.7854166669169747
 34
0.0
 15
10.14974990416699
 25
7.068750002252772
 35
0.0
146
0.0
 13
0.0
 23
0.0
 33
0.0
 16
1.0
 26
0.0
 36
0.0
 17
0.0
 27
1.0
 37
0.0
 76
     0
330
235
331
472C
  0
MATERIAL
  5
628D0
102
{ACAD_REACTORS
330
628CE
102
}
330
628CE
100
AcDbMaterial
  1
ByBlock
 72
     0
 77
     0
171
     0
175
     0
179
     0
  0
MATERIAL
  5
628CF
102
{ACAD_REACTORS
330
628CE
102
}
330
628CE
100
AcDbMaterial
  1
ByLayer
 72
     0
 77
     0
171
     0
175
     0
179
     0
  0
MATERIAL
  5
628D1
102
{ACAD_REACTORS
330
628CE
102
}
330
628CE
100
AcDbMaterial
  1
Global
 72
     0
 77
     0
171
     0
175
     0
179
     0
  0
MLEADERSTYLE
  5
628ED
102
{ACAD_REACTORS
330
61A36
102
}
330
61A36
100
AcDbMLeaderStyle
179
     2
170
     2
171
     1
172
     0
 90
        2
 40
0.0
 41
0.0
173
     1
 91
-1056964608
340
232
 92
       -2
290
     1
 42
0.4
291
     1
 43
2.0
  3
Standard
 44
0.18
300

342
230
174
     1
178
     1
175
     1
176
     0
 93
-1056964608
 45
0.2
292
     0
297
     0
 46
5.0
 94
-1056964608
 47
1.0
 49
1.0
140
1.0
293
     1
141
0.0
294
     1
177
     0
142
1.0
295
     0
296
     0
143
0.125
271
     0
272
     9
273
     9
  0
MLINESTYLE
  5
23B
102
{ACAD_REACTORS
330
22E
102
}
330
22E
100
AcDbMlineStyle
  2
STANDARD
 70
     0
  3

 62
     0
 51
90.0
 52
90.0
 71
     2
 49
0.5
 62
   256
  6
BYLAYER
 49
-0.5
 62
   256
  6
BYLAYER
  0
ACDBPLACEHOLDER
  5
2C49
102
{ACAD_REACTORS
330
2C48
102
}
330
2C48
  0
SCALE
  5
6182B
102
{ACAD_REACTORS
330
6182A
102
}
330
6182A
100
AcDbScale
 70
     0
300
1:1
140
1.0
141
1.0
290
     1
  0
SCALE
  5
6182C
102
{ACAD_REACTORS
330
6182A
102
}
330
6182A
100
AcDbScale
 70
     0
300
1:2
140
1.0
141
2.0
290
     0
  0
SCALE
  5
6182D
102
{ACAD_REACTORS
330
6182A
102
}
330
6182A
100
AcDbScale
 70
     0
300
1:4
140
1.0
141
4.0
290
     0
  0
SCALE
  5
6182E
102
{ACAD_REACTORS
330
6182A
102
}
330
6182A
100
AcDbScale
 70
     0
300
1:5
140
1.0
141
5.0
290
     0
  0
SCALE
  5
6182F
102
{ACAD_REACTORS
330
6182A
102
}
330
6182A
100
AcDbScale
 70
     0
300
1:8
140
1.0
141
8.0
290
     0
  0
SCALE
  5
61830
102
{ACAD_REACTORS
330
6182A
102
}
330
6182A
100
AcDbScale
 70
     0
300
1:10
140
1.0
141
10.0
290
     0
  0
SCALE
  5
61831
102
{ACAD_REACTORS
330
6182A
102
}
330
6182A
100
AcDbScale
 70
     0
300
1:16
140
1.0
141
16.0
290
     0
  0
SCALE
  5
61832
102
{ACAD_REACTORS
330
6182A
102
}
330
6182A
100
AcDbScale
 70
     0
300
1:20
140
1.0
141
20.0
290
     0
  0
SCALE
  5
61833
102
{ACAD_REACTORS
330
6182A
102
}
330
6182A
100
AcDbScale
 70
     0
300
1:30
140
1.0
141
30.0
290
     0
  0
SCALE
  5
61834
102
{ACAD_REACTORS
330
6182A
102
}
330
6182A
100
AcDbScale
 70
     0
300
1:40
140
1.0
141
40.0
290
     0
  0
SCALE
  5
61835
102
{ACAD_REACTORS
330
6182A
102
}
330
6182A
100
AcDbScale
 70
     0
300
1:50
140
1.0
141
50.0
290
     0
  0
SCALE
  5
61836
102
{ACAD_REACTORS
330
6182A
102
}
330
6182A
100
AcDbScale
 70
     0
300
1:100
140
1.0
141
100.0
290
     0
  0
SCALE
  5
61837
102
{ACAD_REACTORS
330
6182A
102
}
330
6182A
100
AcDbScale
 70
     0
300
2:1
140
2.0
141
1.0
290
     0
  0
SCALE
  5
61838
102
{ACAD_REACTORS
330
6182A
102
}
330
6182A
100
AcDbScale
 70
     0
300
4:1
140
4.0
141
1.0
290
     0
  0
SCALE
  5
61839
102
{ACAD_REACTORS
330
6182A
102
}
330
6182A
100
AcDbScale
 70
     0
300
8:1
140
8.0
141
1.0
290
     0
  0
SCALE
  5
6183A
102
{ACAD_REACTORS
330
6182A
102
}
330
6182A
100
AcDbScale
 70
     0
300
10:1
140
10.0
141
1.0
290
     0
  0
SCALE
  5
6183B
102
{ACAD_REACTORS
330
6182A
102
}
330
6182A
100
AcDbScale
 70
     0
300
100:1
140
100.0
141
1.0
290
     0
  0
SCALE
  5
6183C
102
{ACAD_REACTORS
330
6182A
102
}
330
6182A
100
AcDbScale
 70
     0
300
1/128" = 1'-0"
140
0.0078125
141
12.0
290
     0
  0
SCALE
  5
6183D
102
{ACAD_REACTORS
330
6182A
102
}
330
6182A
100
AcDbScale
 70
     0
300
1/64" = 1'-0"
140
0.015625
141
12.0
290
     0
  0
SCALE
  5
6183E
102
{ACAD_REACTORS
330
6182A
102
}
330
6182A
100
AcDbScale
 70
     0
300
1/32" = 1'-0"
140
0.03125
141
12.0
290
     0
  0
SCALE
  5
6183F
102
{ACAD_REACTORS
330
6182A
102
}
330
6182A
100
AcDbScale
 70
     0
300
1/16" = 1'-0"
140
0.0625
141
12.0
290
     0
  0
SCALE
  5
61840
102
{ACAD_REACTORS
330
6182A
102
}
330
6182A
100
AcDbScale
 70
     0
300
3/32" = 1'-0"
140
0.09375
141
12.0
290
     0
  0
SCALE
  5
61841
102
{ACAD_REACTORS
330
6182A
102
}
330
6182A
100
AcDbScale
 70
     0
300
1/8" = 1'-0"
140
0.125
141
12.0
290
     0
  0
SCALE
  5
61842
102
{ACAD_REACTORS
330
6182A
102
}
330
6182A
100
AcDbScale
 70
     0
300
3/16" = 1'-0"
140
0.1875
141
12.0
290
     0
  0
SCALE
  5
61843
102
{ACAD_REACTORS
330
6182A
102
}
330
6182A
100
AcDbScale
 70
     0
300
1/4" = 1'-0"
140
0.25
141
12.0
290
     0
  0
SCALE
  5
61844
102
{ACAD_REACTORS
330
6182A
102
}
330
6182A
100
AcDbScale
 70
     0
300
3/8" = 1'-0"
140
0.375
141
12.0
290
     0
  0
SCALE
  5
61845
102
{ACAD_REACTORS
330
6182A
102
}
330
6182A
100
AcDbScale
 70
     0
300
1/2" = 1'-0"
140
0.5
141
12.0
290
     0
  0
SCALE
  5
61846
102
{ACAD_REACTORS
330
6182A
102
}
330
6182A
100
AcDbScale
 70
     0
300
3/4" = 1'-0"
140
0.75
141
12.0
290
     0
  0
SCALE
  5
61847
102
{ACAD_REACTORS
330
6182A
102
}
330
6182A
100
AcDbScale
 70
     0
300
1" = 1'-0"
140
1.0
141
12.0
290
     0
  0
SCALE
  5
61848
102
{ACAD_REACTORS
330
6182A
102
}
330
6182A
100
AcDbScale
 70
     0
300
1-1/2" = 1'-0"
140
1.5
141
12.0
290
     0
  0
SCALE
  5
61849
102
{ACAD_REACTORS
330
6182A
102
}
330
6182A
100
AcDbScale
 70
     0
300
3" = 1'-0"
140
3.0
141
12.0
290
     0
  0
SCALE
  5
6184A
102
{ACAD_REACTORS
330
6182A
102
}
330
6182A
100
AcDbScale
 70
     0
300
6" = 1'-0"
140
6.0
141
12.0
290
     0
  0
SCALE
  5
6184B
102
{ACAD_REACTORS
330
6182A
102
}
330
6182A
100
AcDbScale
 70
     0
300
1'-0" = 1'-0"
140
12.0
141
12.0
290
     0
  0
ACDBSECTIONVIEWSTYLE
  5
62900
102
{ACAD_XDICTIONARY
360
63554
102
}
102
{ACAD_REACTORS
330
628FF
102
}
330
628FF
100
AcDbModelDocViewStyle
 70
     0
  3
Imperial24
290
     0
100
AcDbSectionViewStyle
 70
     0
 71
     0
 90
       78
 71
     1
340
230
 62
   256
 40
0.24
340
0
340
0
 62
   256
 40
0.24
300
I, O, Q, S, X, Z
 40
0.48
 90
        3
 40
0.18
 90
        1
 71
     2
340
234
 90
       25
 62
   256
340
234
 90
       50
 62
   256
 40
0.24
 40
0.0
 40
0.24
 71
     3
340
230
 62
   256
 40
0.24
 90
        1
 40
0.75
 90
        1
300
%<\AcVar ViewType \f "%tc1">% %<\AcVar ViewSectionStartId>%-%<\AcVar ViewSectionEndId>%\PSCALE %<\AcVar ViewScale \f "%sn">%
 71
     4
 62
   256
 62
   257
300
ANSI31
 40
1.0
 90
        0
290
     0
290
     0
 90
        6
 40
0.0
 40
1.570796326794896
 40
0.2617993877991494
 40
1.308996938995747
 40
-0.2617993877991494
 40
1.832595714594046
  0
ACDBSECTIONVIEWSTYLE
  5
629A5
102
{ACAD_XDICTIONARY
360
63558
102
}
102
{ACAD_REACTORS
330
628FF
102
}
330
628FF
100
AcDbModelDocViewStyle
 70
     0
  3
Metric50
290
     0
100
AcDbSectionViewStyle
 70
     0
 71
     0
 90
      102
 71
     1
340
230
 62
   256
 40
5.0
340
0
340
0
 62
   256
 40
5.0
300
I, O, Q, S, X, Z
 40
10.0
 90
        0
 40
2.5
 90
        0
 71
     2
340
234
 90
       25
 62
   256
340
234
 90
       50
 62
   256
 40
5.0
 40
2.5
 40
5.0
 71
     3
340
230
 62
   256
 40
5.0
 90
        0
 40
15.0
 90
        1
300
%<\AcVar ViewSectionStartId>%-%<\AcVar ViewSectionEndId>% (%<\AcVar ViewScale \f "%sn">%)
 71
     4
 62
   256
 62
   257
300
ANSI31
 40
1.0
 90
        0
290
     0
290
     0
 90
        6
 40
0.0
 40
1.570796326794896
 40
0.2617993877991494
 40
1.308996938995747
 40
-0.2617993877991494
 40
1.832595714594046
  0
TABLESTYLE
  5
628EC
102
{ACAD_XDICTIONARY
360
63521
102
}
102
{ACAD_REACTORS
330
61A35
102
}
330
61A35
100
AcDbTableStyle
280
     0
  3
Standard
 70
     0
 71
     0
 40
0.06
 41
0.06
280
     0
281
     0
  7
STANDARD
140
0.18
170
     2
 62
     7
 63
     7
283
     0
 90
        4
 91
        0
  1

274
    -2
284
     1
 64
     0
275
    -2
285
     1
 65
     0
276
    -2
286
     1
 66
     0
277
    -2
287
     1
 67
     0
278
    -2
288
     1
 68
     0
279
    -2
289
     1
 69
     0
  7
STANDARD
140
0.25
170
     5
 62
     7
 63
     7
283
     0
 90
        4
 91
        0
  1

274
    -2
284
     1
 64
     0
275
    -2
285
     1
 65
     0
276
    -2
286
     1
 66
     0
277
    -2
287
     1
 67
     0
278
    -2
288
     1
 68
     0
279
    -2
289
     1
 69
     0
  7
STANDARD
140
0.18
170
     5
 62
     7
 63
     7
283
     0
 90
        4
 91
        0
  1

274
    -2
284
     1
 64
     0
275
    -2
285
     1
 65
     0
276
    -2
286
     1
 66
     0
277
    -2
287
     1
 67
     0
278
    -2
288
     1
 68
     0
279
    -2
289
     1
 69
     0
  0
VISUALSTYLE
  5
628D7
102
{ACAD_XDICTIONARY
360
6352C
102
}
102
{ACAD_REACTORS
330
628D2
102
}
330
628D2
100
AcDbVisualStyle
  2
2dWireframe
 70
     4
177
     2
291
     0
 71
     0
176
     1
 72
     2
176
     1
 73
     0
176
     1
 90
        0
176
     1
 40
0.6
176
     1
 41
30.0
176
     1
 63
     7
421
 16777215
176
     1
 74
     1
176
     1
 91
        4
176
     1
 64
     7
176
     1
 65
   257
176
     1
 75
     1
176
     1
175
     1
176
     1
 42
1.0
176
     1
 92
        0
176
     1
 66
   257
176
     1
 43
1.0
176
     1
 76
     1
176
     1
 77
     6
176
     1
 78
     2
176
     1
 67
     7
176
     1
 79
     5
176
     1
170
     0
176
     1
171
     0
176
     1
290
     0
176
     1
 93
        1
176
     1
 44
0.0
176
     1
173
     0
176
     1
1001
ACAD
1000
AcDbSavedByObjectVersion
1070
     0
  0
VISUALSTYLE
  5
628DA
102
{ACAD_XDICTIONARY
360
63532
102
}
102
{ACAD_REACTORS
330
628D2
102
}
330
628D2
100
AcDbVisualStyle
  2
Basic
 70
     7
177
     2
291
     1
 71
     1
176
     1
 72
     0
176
     1
 73
     1
176
     1
 90
        0
176
     1
 40
0.6
176
     1
 41
30.0
176
     1
 63
     7
421
 16777215
176
     1
 74
     0
176
     1
 91
        4
176
     1
 64
     7
176
     1
 65
   257
176
     1
 75
     1
176
     1
175
     1
176
     1
 42
1.0
176
     1
 92
        8
176
     1
 66
     7
176
     1
 43
1.0
176
     1
 76
     1
176
     1
 77
     6
176
     1
 78
     2
176
     1
 67
     7
176
     1
 79
     5
176
     1
170
     0
176
     1
171
     0
176
     1
290
     0
176
     1
 93
        1
176
     1
 44
0.0
176
     1
173
     0
176
     1
1001
ACAD
1000
AcDbSavedByObjectVersion
1070
     0
  0
VISUALSTYLE
  5
628DE
102
{ACAD_XDICTIONARY
360
6353A
102
}
102
{ACAD_REACTORS
330
628D2
102
}
330
628D2
100
AcDbVisualStyle
  2
Brighten
 70
    12
177
     2
291
     1
 71
     2
176
     1
 72
     2
176
     1
 73
     0
176
     1
 90
        0
176
     1
 40
0.6
176
     1
 41
30.0
176
     1
 63
     7
421
 16777215
176
     1
 74
     1
176
     1
 91
        4
176
     1
 64
     7
176
     1
 65
   257
176
     1
 75
     1
176
     1
175
     1
176
     1
 42
1.0
176
     1
 92
        8
176
     1
 66
     7
176
     1
 43
1.0
176
     1
 76
     1
176
     1
 77
     6
176
     1
 78
     2
176
     1
 67
     7
176
     1
 79
     5
176
     1
170
     0
176
     1
171
     0
176
     1
290
     0
176
     1
 93
        1
176
     1
 44
50.0
176
     1
173
     0
176
     1
1001
ACAD
1000
AcDbSavedByObjectVersion
1070
     0
  0
VISUALSTYLE
  5
628E2
102
{ACAD_XDICTIONARY
360
63542
102
}
102
{ACAD_REACTORS
330
628D2
102
}
330
628D2
100
AcDbVisualStyle
  2
ColorChange
 70
    16
177
     2
291
     1
 71
     2
176
     1
 72
     2
176
     1
 73
     3
176
     1
 90
        0
176
     1
 40
0.6
176
     1
 41
30.0
176
     1
 63
     8
421
  8421504
176
     1
 74
     1
176
     1
 91
        4
176
     1
 64
     7
176
     1
 65
   257
176
     1
 75
     1
176
     1
175
     1
176
     1
 42
1.0
176
     1
 92
        8
176
     1
 66
     8
424
  8421504
176
     1
 43
1.0
176
     1
 76
     1
176
     1
 77
     6
176
     1
 78
     2
176
     1
 67
     7
176
     1
 79
     5
176
     1
170
     0
176
     1
171
     0
176
     1
290
     0
176
     1
 93
        1
176
     1
 44
0.0
176
     1
173
     0
176
     1
1001
ACAD
1000
AcDbSavedByObjectVersion
1070
     0
  0
VISUALSTYLE
  5
628DC
102
{ACAD_XDICTIONARY
360
63536
102
}
102
{ACAD_REACTORS
330
628D2
102
}
330
628D2
100
AcDbVisualStyle
  2
Conceptual
 70
     9
177
     2
291
     0
 71
     3
176
     1
 72
     2
176
     1
 73
     0
176
     1
 90
        0
176
     1
 40
0.6
176
     1
 41
30.0
176
     1
 63
     7
421
 16777215
176
     1
 74
     2
176
     1
 91
        2
176
     1
 64
     7
176
     1
 65
   257
176
     1
 75
     1
176
     1
175
     1
176
     1
 42
179.0
176
     1
 92
        8
176
     1
 66
     7
176
     1
 43
1.0
176
     1
 76
     1
176
     1
 77
     6
176
     1
 78
     2
176
     1
 67
     7
176
     1
 79
     3
176
     1
170
     0
176
     1
171
     0
176
     1
290
     0
176
     1
 93
        1
176
     1
 44
0.0
176
     1
173
     0
176
     1
1001
ACAD
1000
AcDbSavedByObjectVersion
1070
     0
  0
VISUALSTYLE
  5
628DD
102
{ACAD_XDICTIONARY
360
63538
102
}
102
{ACAD_REACTORS
330
628D2
102
}
330
628D2
100
AcDbVisualStyle
  2
Dim
 70
    11
177
     2
291
     1
 71
     2
176
     1
 72
     2
176
     1
 73
     0
176
     1
 90
        0
176
     1
 40
0.6
176
     1
 41
30.0
176
     1
 63
     7
421
 16777215
176
     1
 74
     1
176
     1
 91
        4
176
     1
 64
     7
176
     1
 65
   257
176
     1
 75
     1
176
     1
175
     1
176
     1
 42
1.0
176
     1
 92
        8
176
     1
 66
     7
176
     1
 43
1.0
176
     1
 76
     1
176
     1
 77
     6
176
     1
 78
     2
176
     1
 67
     7
176
     1
 79
     5
176
     1
170
     0
176
     1
171
     0
176
     1
290
     0
176
     1
 93
        1
176
     1
 44
-50.0
176
     1
173
     0
176
     1
1001
ACAD
1000
AcDbSavedByObjectVersion
1070
     0
  0
VISUALSTYLE
  5
628E5
102
{ACAD_XDICTIONARY
360
63548
102
}
102
{ACAD_REACTORS
330
628D2
102
}
330
628D2
100
AcDbVisualStyle
  2
EdgeColorOff
 70
    22
177
     2
291
     1
 71
     2
176
     0
 72
     2
176
     0
 73
     0
176
     0
 90
        0
176
     0
 40
0.6
176
     0
 41
30.0
176
     0
 63
     7
421
 16777215
176
     0
 74
     1
176
     0
 91
        4
176
     0
 64
     7
176
     0
 65
   257
176
     0
 75
     1
176
     0
175
     1
176
     0
 42
1.0
176
     0
 92
        8
176
     2
 66
     7
176
     0
 43
1.0
176
     0
 76
     1
176
     0
 77
     6
176
     0
 78
     2
176
     0
 67
     7
176
     0
 79
     5
176
     0
170
     0
176
     0
171
     0
176
     0
290
     0
176
     0
 93
        1
176
     0
 44
0.0
176
     0
173
     0
176
     0
1001
ACAD
1000
AcDbSavedByObjectVersion
1070
     0
  0
VISUALSTYLE
  5
628E1
102
{ACAD_XDICTIONARY
360
63540
102
}
102
{ACAD_REACTORS
330
628D2
102
}
330
628D2
100
AcDbVisualStyle
  2
Facepattern
 70
    15
177
     2
291
     1
 71
     2
176
     1
 72
     2
176
     1
 73
     0
176
     1
 90
        0
176
     1
 40
0.6
176
     1
 41
30.0
176
     1
 63
     7
421
 16777215
176
     1
 74
     1
176
     1
 91
        4
176
     1
 64
     7
176
     1
 65
   257
176
     1
 75
     1
176
     1
175
     1
176
     1
 42
1.0
176
     1
 92
        8
176
     1
 66
     7
176
     1
 43
1.0
176
     1
 76
     1
176
     1
 77
     6
176
     1
 78
     2
176
     1
 67
     7
176
     1
 79
     5
176
     1
170
     0
176
     1
171
     0
176
     1
290
     0
176
     1
 93
        1
176
     1
 44
0.0
176
     1
173
     0
176
     1
1001
ACAD
1000
AcDbSavedByObjectVersion
1070
     0
  0
VISUALSTYLE
  5
628D3
102
{ACAD_XDICTIONARY
360
63524
102
}
102
{ACAD_REACTORS
330
628D2
102
}
330
628D2
100
AcDbVisualStyle
  2
Flat
 70
     0
177
     2
291
     1
 71
     2
176
     1
 72
     1
176
     1
 73
     1
176
     1
 90
        2
176
     1
 40
0.6
176
     1
 41
30.0
176
     1
 63
     7
421
 16777215
176
     1
 74
     0
176
     1
 91
        0
176
     1
 64
     7
176
     1
 65
   257
176
     1
 75
     1
176
     1
175
     1
176
     1
 42
1.0
176
     1
 92
        8
176
     1
 66
     7
176
     1
 43
1.0
176
     1
 76
     1
176
     1
 77
     6
176
     1
 78
     2
176
     1
 67
     7
176
     1
 79
     5
176
     1
170
     0
176
     1
171
     0
176
     1
290
     0
176
     1
 93
       13
176
     1
 44
0.0
176
     1
173
     0
176
     1
1001
ACAD
1000
AcDbSavedByObjectVersion
1070
     0
  0
VISUALSTYLE
  5
628D4
102
{ACAD_XDICTIONARY
360
63526
102
}
102
{ACAD_REACTORS
330
628D2
102
}
330
628D2
100
AcDbVisualStyle
  2
FlatWithEdges
 70
     1
177
     2
291
     1
 71
     2
176
     1
 72
     1
176
     1
 73
     1
176
     1
 90
        2
176
     1
 40
0.6
176
     1
 41
30.0
176
     1
 63
     7
421
 16777215
176
     1
 74
     1
176
     1
 91
        0
176
     1
 64
     7
176
     1
 65
   257
176
     1
 75
     1
176
     1
175
     1
176
     1
 42
1.0
176
     1
 92
        0
176
     1
 66
   257
176
     1
 43
1.0
176
     1
 76
     1
176
     1
 77
     6
176
     1
 78
     2
176
     1
 67
     7
176
     1
 79
     5
176
     1
170
     0
176
     1
171
     0
176
     1
290
     0
176
     1
 93
       13
176
     1
 44
0.0
176
     1
173
     0
176
     1
1001
ACAD
1000
AcDbSavedByObjectVersion
1070
     0
  0
VISUALSTYLE
  5
628D5
102
{ACAD_XDICTIONARY
360
63528
102
}
102
{ACAD_REACTORS
330
628D2
102
}
330
628D2
100
AcDbVisualStyle
  2
Gouraud
 70
     2
177
     2
291
     1
 71
     2
176
     1
 72
     2
176
     1
 73
     1
176
     1
 90
        2
176
     1
 40
0.6
176
     1
 41
30.0
176
     1
 63
     7
421
 16777215
176
     1
 74
     0
176
     1
 91
        0
176
     1
 64
     7
176
     1
 65
   257
176
     1
 75
     1
176
     1
175
     1
176
     1
 42
1.0
176
     1
 92
        0
176
     1
 66
     7
176
     1
 43
1.0
176
     1
 76
     1
176
     1
 77
     6
176
     1
 78
     2
176
     1
 67
     7
176
     1
 79
     5
176
     1
170
     0
176
     1
171
     0
176
     1
290
     0
176
     1
 93
       13
176
     1
 44
0.0
176
     1
173
     0
176
     1
1001
ACAD
1000
AcDbSavedByObjectVersion
1070
     0
  0
VISUALSTYLE
  5
628D6
102
{ACAD_XDICTIONARY
360
6352A
102
}
102
{ACAD_REACTORS
330
628D2
102
}
330
628D2
100
AcDbVisualStyle
  2
GouraudWithEdges
 70
     3
177
     2
291
     1
 71
     2
176
     1
 72
     2
176
     1
 73
     1
176
     1
 90
        2
176
     1
 40
0.6
176
     1
 41
30.0
176
     1
 63
     7
421
 16777215
176
     1
 74
     1
176
     1
 91
        0
176
     1
 64
     7
176
     1
 65
   257
176
     1
 75
     1
176
     1
175
     1
176
     1
 42
1.0
176
     1
 92
        0
176
     1
 66
   257
176
     1
 43
1.0
176
     1
 76
     1
176
     1
 77
     6
176
     1
 78
     2
176
     1
 67
     7
176
     1
 79
     5
176
     1
170
     0
176
     1
171
     0
176
     1
290
     0
176
     1
 93
       13
176
     1
 44
0.0
176
     1
173
     0
176
     1
1001
ACAD
1000
AcDbSavedByObjectVersion
1070
     0
  0
VISUALSTYLE
  5
628D9
102
{ACAD_XDICTIONARY
360
63530
102
}
102
{ACAD_REACTORS
330
628D2
102
}
330
628D2
100
AcDbVisualStyle
  2
Hidden
 70
     6
177
     2
291
     0
 71
     1
176
     1
 72
     2
176
     1
 73
     2
176
     1
 90
        0
176
     1
 40
0.6
176
     1
 41
30.0
176
     1
 63
     7
421
 16777215
176
     1
 74
     2
176
     1
 91
        2
176
     1
 64
     7
176
     1
 65
   257
176
     1
 75
     2
176
     1
175
     1
176
     1
 42
40.0
176
     1
 92
        0
176
     1
 66
   257
176
     1
 43
1.0
176
     1
 76
     1
176
     1
 77
     6
176
     1
 78
     2
176
     1
 67
     7
176
     1
 79
     3
176
     1
170
     0
176
     1
171
     0
176
     1
290
     0
176
     1
 93
        1
176
     1
 44
0.0
176
     1
173
     0
176
     1
1001
ACAD
1000
AcDbSavedByObjectVersion
1070
     0
  0
VISUALSTYLE
  5
628E3
102
{ACAD_XDICTIONARY
360
63544
102
}
102
{ACAD_REACTORS
330
628D2
102
}
330
628D2
100
AcDbVisualStyle
  2
JitterOff
 70
    20
177
     2
291
     1
 71
     2
176
     0
 72
     2
176
     0
 73
     0
176
     0
 90
        0
176
     0
 40
0.6
176
     0
 41
30.0
176
     0
 63
     7
421
 16777215
176
     0
 74
     1
176
     0
 91
        4
176
     0
 64
     7
176
     0
 65
   257
176
     0
 75
     1
176
     0
175
     1
176
     0
 42
1.0
176
     0
 92
       10
176
     2
 66
     7
176
     0
 43
1.0
176
     0
 76
     1
176
     0
 77
     6
176
     0
 78
     2
176
     0
 67
     7
176
     0
 79
     5
176
     0
170
     0
176
     0
171
     0
176
     0
290
     0
176
     0
 93
        1
176
     0
 44
0.0
176
     0
173
     0
176
     0
1001
ACAD
1000
AcDbSavedByObjectVersion
1070
     0
  0
VISUALSTYLE
  5
628E0
102
{ACAD_XDICTIONARY
360
6353E
102
}
102
{ACAD_REACTORS
330
628D2
102
}
330
628D2
100
AcDbVisualStyle
  2
Linepattern
 70
    14
177
     2
291
     1
 71
     2
176
     1
 72
     2
176
     1
 73
     0
176
     1
 90
        0
176
     1
 40
0.6
176
     1
 41
30.0
176
     1
 63
     7
421
 16777215
176
     1
 74
     1
176
     1
 91
        4
176
     1
 64
     7
176
     1
 65
   257
176
     1
 75
     7
176
     1
175
     7
176
     1
 42
1.0
176
     1
 92
        8
176
     1
 66
     7
176
     1
 43
1.0
176
     1
 76
     1
176
     1
 77
     6
176
     1
 78
     2
176
     1
 67
     7
176
     1
 79
     5
176
     1
170
     0
176
     1
171
     0
176
     1
290
     0
176
     1
 93
        1
176
     1
 44
0.0
176
     1
173
     0
176
     1
1001
ACAD
1000
AcDbSavedByObjectVersion
1070
     0
  0
VISUALSTYLE
  5
628E4
102
{ACAD_XDICTIONARY
360
63546
102
}
102
{ACAD_REACTORS
330
628D2
102
}
330
628D2
100
AcDbVisualStyle
  2
OverhangOff
 70
    21
177
     2
291
     1
 71
     2
176
     0
 72
     2
176
     0
 73
     0
176
     0
 90
        0
176
     0
 40
0.6
176
     0
 41
30.0
176
     0
 63
     7
421
 16777215
176
     0
 74
     1
176
     0
 91
        4
176
     0
 64
     7
176
     0
 65
   257
176
     0
 75
     1
176
     0
175
     1
176
     0
 42
1.0
176
     0
 92
        9
176
     2
 66
     7
176
     0
 43
1.0
176
     0
 76
     1
176
     0
 77
     6
176
     0
 78
     2
176
     0
 67
     7
176
     0
 79
     5
176
     0
170
     0
176
     0
171
     0
176
     0
290
     0
176
     0
 93
        1
176
     0
 44
0.0
176
     0
173
     0
176
     0
1001
ACAD
1000
AcDbSavedByObjectVersion
1070
     0
  0
VISUALSTYLE
  5
628DB
102
{ACAD_XDICTIONARY
360
63534
102
}
102
{ACAD_REACTORS
330
628D2
102
}
330
628D2
100
AcDbVisualStyle
  2
Realistic
 70
     8
177
     2
291
     0
 71
     2
176
     1
 72
     3
176
     1
 73
     0
176
     1
 90
        2
176
     1
 40
0.6
176
     1
 41
30.0
176
     1
 63
     7
421
 16777215
176
     1
 74
     0
176
     1
 91
        0
176
     1
 64
     7
176
     1
 65
   257
176
     1
 75
     1
176
     1
175
     1
176
     1
 42
1.0
176
     1
 92
        8
176
     1
 66
   257
176
     1
 43
1.0
176
     1
 76
     1
176
     1
 77
     6
176
     1
 78
     2
176
     1
 67
     7
176
     1
 79
     3
176
     1
170
     0
176
     1
171
     0
176
     1
290
     0
176
     1
 93
       13
176
     1
 44
0.0
176
     1
173
     0
176
     1
1001
ACAD
1000
AcDbSavedByObjectVersion
1070
     0
  0
VISUALSTYLE
  5
628EA
102
{ACAD_XDICTIONARY
360
63552
102
}
102
{ACAD_REACTORS
330
628D2
102
}
330
628D2
100
AcDbVisualStyle
  2
Shaded
 70
    27
177
     2
291
     0
 71
     2
176
     1
 72
     2
176
     1
 73
     1
176
     1
 90
        2
176
     1
 40
0.6
176
     1
 41
30.0
176
     1
 63
     7
421
 16777215
176
     1
 74
     0
176
     1
 91
        4
176
     1
 64
     7
176
     1
 65
   257
176
     1
 75
     1
176
     1
175
     1
176
     1
 42
1.0
176
     1
 92
        8
176
     1
 66
   257
176
     1
 43
1.0
176
     1
 76
     1
176
     1
 77
     6
176
     1
 78
     2
176
     1
 67
     8
425
  7895160
176
     1
 79
     3
176
     1
170
     0
176
     1
171
     0
176
     1
290
     0
176
     1
 93
        5
176
     1
 44
0.0
176
     1
173
     0
176
     1
1001
ACAD
1000
AcDbSavedByObjectVersion
1070
     0
  0
VISUALSTYLE
  5
628E9
102
{ACAD_XDICTIONARY
360
63550
102
}
102
{ACAD_REACTORS
330
628D2
102
}
330
628D2
100
AcDbVisualStyle
  2
Shaded with edges
 70
    26
177
     2
291
     0
 71
     2
176
     1
 72
     2
176
     1
 73
     1
176
     1
 90
        2
176
     1
 40
0.6
176
     1
 41
30.0
176
     1
 63
     7
421
 16777215
176
     1
 74
     1
176
     1
 91
       10
176
     1
 64
     7
176
     1
 65
   257
176
     1
 75
     2
176
     1
175
     1
176
     1
 42
1.0
176
     1
 92
        8
176
     1
 66
   257
176
     1
 43
1.0
176
     1
 76
     1
176
     1
 77
     6
176
     1
 78
     2
176
     1
 67
     7
176
     1
 79
     3
176
     1
170
     0
176
     1
171
     0
176
     1
290
     0
176
     1
 93
        5
176
     1
 44
0.0
176
     1
173
     0
176
     1
1001
ACAD
1000
AcDbSavedByObjectVersion
1070
     0
  0
VISUALSTYLE
  5
628E6
102
{ACAD_XDICTIONARY
360
6354A
102
}
102
{ACAD_REACTORS
330
628D2
102
}
330
628D2
100
AcDbVisualStyle
  2
Shades of Gray
 70
    23
177
     2
291
     0
 71
     2
176
     1
 72
     2
176
     1
 73
     3
176
     1
 90
        0
176
     1
 40
0.6
176
     1
 41
30.0
176
     1
 63
     7
421
 16777215
176
     1
 74
     2
176
     1
 91
        2
176
     1
 64
     7
176
     1
 65
     7
176
     1
 75
     1
176
     1
175
     1
176
     1
 42
40.0
176
     1
 92
        8
176
     1
 66
     7
176
     1
 43
1.0
176
     1
 76
     1
176
     1
 77
     6
176
     1
 78
     2
176
     1
 67
     7
176
     1
 79
     3
176
     1
170
     0
176
     1
171
     0
176
     1
290
     0
176
     1
 93
        1
176
     1
 44
0.0
176
     1
173
     0
176
     1
1001
ACAD
1000
AcDbSavedByObjectVersion
1070
     0
  0
VISUALSTYLE
  5
628E7
102
{ACAD_XDICTIONARY
360
6354C
102
}
102
{ACAD_REACTORS
330
628D2
102
}
330
628D2
100
AcDbVisualStyle
  2
Sketchy
 70
    24
177
     2
291
     0
 71
     1
176
     1
 72
     2
176
     1
 73
     2
176
     1
 90
        0
176
     1
 40
0.6
176
     1
 41
30.0
176
     1
 63
     7
421
 16777215
176
     1
 74
     2
176
     1
 91
        2
176
     1
 64
     7
176
     1
 65
     7
176
     1
 75
     1
176
     1
175
     1
176
     1
 42
40.0
176
     1
 92
       11
176
     1
 66
     7
176
     1
 43
1.0
176
     1
 76
     1
176
     1
 77
     6
176
     1
 78
     2
176
     1
 67
     7
176
     1
 79
     6
176
     1
170
     0
176
     1
171
     0
176
     1
290
     0
176
     1
 93
        1
176
     1
 44
0.0
176
     1
173
     0
176
     1
1001
ACAD
1000
AcDbSavedByObjectVersion
1070
     0
  0
VISUALSTYLE
  5
628DF
102
{ACAD_XDICTIONARY
360
6353C
102
}
102
{ACAD_REACTORS
330
628D2
102
}
330
628D2
100
AcDbVisualStyle
  2
Thicken
 70
    13
177
     2
291
     1
 71
     2
176
     1
 72
     2
176
     1
 73
     0
176
     1
 90
        0
176
     1
 40
0.6
176
     1
 41
30.0
176
     1
 63
     7
421
 16777215
176
     1
 74
     1
176
     1
 91
        4
176
     1
 64
     7
176
     1
 65
   257
176
     1
 75
     1
176
     1
175
     1
176
     1
 42
1.0
176
     1
 92
       12
176
     1
 66
     7
176
     1
 43
1.0
176
     1
 76
     1
176
     1
 77
     6
176
     1
 78
     2
176
     1
 67
     7
176
     1
 79
     5
176
     1
170
     0
176
     1
171
     0
176
     1
290
     0
176
     1
 93
        1
176
     1
 44
0.0
176
     1
173
     0
176
     1
1001
ACAD
1000
AcDbSavedByObjectVersion
1070
     0
  0
VISUALSTYLE
  5
628D8
102
{ACAD_XDICTIONARY
360
6352E
102
}
102
{ACAD_REACTORS
330
628D2
102
}
330
628D2
100
AcDbVisualStyle
  2
Wireframe
 70
     5
177
     2
291
     0
 71
     0
176
     1
 72
     2
176
     1
 73
     0
176
     1
 90
        0
176
     1
 40
0.6
176
     1
 41
30.0
176
     1
 63
     7
421
 16777215
176
     1
 74
     1
176
     1
 91
        4
176
     1
 64
     7
176
     1
 65
   257
176
     1
 75
     1
176
     1
175
     1
176
     1
 42
1.0
176
     1
 92
        0
176
     1
 66
   257
176
     1
 43
1.0
176
     1
 76
     1
176
     1
 77
     6
176
     1
 78
     2
176
     1
 67
     7
176
     1
 79
     3
176
     1
170
     0
176
     1
171
     0
176
     1
290
     0
176
     1
 93
        1
176
     1
 44
0.0
176
     1
173
     0
176
     1
1001
ACAD
1000
AcDbSavedByObjectVersion
1070
     0
  0
VISUALSTYLE
  5
628E8
102
{ACAD_XDICTIONARY
360
6354E
102
}
102
{ACAD_REACTORS
330
628D2
102
}
330
628D2
100
AcDbVisualStyle
  2
X-Ray
 70
    25
177
     2
291
     0
 71
     2
176
     1
 72
     2
176
     1
 73
     1
176
     1
 90
        1
176
     1
 40
0.5
176
     1
 41
30.0
176
     1
 63
     7
421
 16777215
176
     1
 74
     1
176
     1
 91
        0
176
     1
 64
     7
176
     1
 65
   257
176
     1
 75
     1
176
     1
175
     1
176
     1
 42
1.0
176
     1
 92
        8
176
     1
 66
     7
176
     1
 43
1.0
176
     1
 76
     1
176
     1
 77
     6
176
     1
 78
     2
176
     1
 67
     7
176
     1
 79
     3
176
     1
170
     0
176
     1
171
     0
176
     1
290
     0
176
     1
 93
       13
176
     1
 44
0.0
176
     1
173
     0
176
     1
1001
ACAD
1000
AcDbSavedByObjectVersion
1070
     0
  0
DICTIONARYVAR
  5
61A34
102
{ACAD_REACTORS
330
59D2
102
}
330
59D2
100
DictionaryVariables
280
     0
  1
1:1
  0
DICTIONARYVAR
  5
628F3
102
{ACAD_REACTORS
330
59D2
102
}
330
59D2
100
DictionaryVariables
280
   100
  1
STANDARD
  0
DICTIONARYVAR
  5
628F2
102
{ACAD_REACTORS
330
59D2
102
}
330
59D2
100
DictionaryVariables
280
    50
  1
STANDARD
  0
DICTIONARYVAR
  5
634E4
102
{ACAD_REACTORS
330
59D2
102
}
330
59D2
100
DictionaryVariables
280
     0
  1
Imperial24
  0
DICTIONARYVAR
  5
634E5
102
{ACAD_REACTORS
330
59D2
102
}
330
59D2
100
DictionaryVariables
280
     0
  1
Imperial24
  0
DICTIONARYVAR
  5
59D3
102
{ACAD_REACTORS
330
59D2
102
}
330
59D2
100
DictionaryVariables
280
     0
  1
96
  0
DICTIONARYVAR
  5
6184C
102
{ACAD_REACTORS
330
59D2
102
}
330
59D2
100
DictionaryVariables
280
     0
  1
0
  0
DICTIONARY
  5
63556
330
62902
100
AcDbDictionary
280
     1
281
     1
  3
ACAD_XREC_ROUNDTRIP
360
63557
  0
DICTIONARY
  5
6355A
330
629A6
100
AcDbDictionary
280
     1
281
     1
  3
ACAD_XREC_ROUNDTRIP
360
6355B
  0
DICTIONARY
  5
63554
330
62900
100
AcDbDictionary
280
     1
281
     1
  3
ACAD_XREC_ROUNDTRIP
360
63555
  0
DICTIONARY
  5
63558
330
629A5
100
AcDbDictionary
280
     1
281
     1
  3
ACAD_XREC_ROUNDTRIP
360
63559
  0
DICTIONARY
  5
63521
330
628EC
100
AcDbDictionary
280
     1
281
     1
  3
ACAD_ROUNDTRIP_2008_TABLESTYLE_CELLSTYLEMAP
360
63522
  0
DICTIONARY
  5
6352C
330
628D7
100
AcDbDictionary
280
     1
281
     1
  3
ACAD_XREC_ROUNDTRIP
360
6352D
  0
DICTIONARY
  5
63532
330
628DA
100
AcDbDictionary
280
     1
281
     1
  3
ACAD_XREC_ROUNDTRIP
360
63533
  0
DICTIONARY
  5
6353A
330
628DE
100
AcDbDictionary
280
     1
281
     1
  3
ACAD_XREC_ROUNDTRIP
360
6353B
  0
DICTIONARY
  5
63542
330
628E2
100
AcDbDictionary
280
     1
281
     1
  3
ACAD_XREC_ROUNDTRIP
360
63543
  0
DICTIONARY
  5
63536
330
628DC
100
AcDbDictionary
280
     1
281
     1
  3
ACAD_XREC_ROUNDTRIP
360
63537
  0
DICTIONARY
  5
63538
330
628DD
100
AcDbDictionary
280
     1
281
     1
  3
ACAD_XREC_ROUNDTRIP
360
63539
  0
DICTIONARY
  5
63548
330
628E5
100
AcDbDictionary
280
     1
281
     1
  3
ACAD_XREC_ROUNDTRIP
360
63549
  0
DICTIONARY
  5
63540
330
628E1
100
AcDbDictionary
280
     1
281
     1
  3
ACAD_XREC_ROUNDTRIP
360
63541
  0
DICTIONARY
  5
63524
330
628D3
100
AcDbDictionary
280
     1
281
     1
  3
ACAD_XREC_ROUNDTRIP
360
63525
  0
DICTIONARY
  5
63526
330
628D4
100
AcDbDictionary
280
     1
281
     1
  3
ACAD_XREC_ROUNDTRIP
360
63527
  0
DICTIONARY
  5
63528
330
628D5
100
AcDbDictionary
280
     1
281
     1
  3
ACAD_XREC_ROUNDTRIP
360
63529
  0
DICTIONARY
  5
6352A
330
628D6
100
AcDbDictionary
280
     1
281
     1
  3
ACAD_XREC_ROUNDTRIP
360
6352B
  0
DICTIONARY
  5
63530
330
628D9
100
AcDbDictionary
280
     1
281
     1
  3
ACAD_XREC_ROUNDTRIP
360
63531
  0
DICTIONARY
  5
63544
330
628E3
100
AcDbDictionary
280
     1
281
     1
  3
ACAD_XREC_ROUNDTRIP
360
63545
  0
DICTIONARY
  5
6353E
330
628E0
100
AcDbDictionary
280
     1
281
     1
  3
ACAD_XREC_ROUNDTRIP
360
6353F
  0
DICTIONARY
  5
63546
330
628E4
100
AcDbDictionary
280
     1
281
     1
  3
ACAD_XREC_ROUNDTRIP
360
63547
  0
DICTIONARY
  5
63534
330
628DB
100
AcDbDictionary
280
     1
281
     1
  3
ACAD_XREC_ROUNDTRIP
360
63535
  0
DICTIONARY
  5
63552
330
628EA
100
AcDbDictionary
280
     1
281
     1
  3
ACAD_XREC_ROUNDTRIP
360
63553
  0
DICTIONARY
  5
63550
330
628E9
100
AcDbDictionary
280
     1
281
     1
  3
ACAD_XREC_ROUNDTRIP
360
63551
  0
DICTIONARY
  5
6354A
330
628E6
100
AcDbDictionary
280
     1
281
     1
  3
ACAD_XREC_ROUNDTRIP
360
6354B
  0
DICTIONARY
  5
6354C
330
628E7
100
AcDbDictionary
280
     1
281
     1
  3
ACAD_XREC_ROUNDTRIP
360
6354D
  0
DICTIONARY
  5
6353C
330
628DF
100
AcDbDictionary
280
     1
281
     1
  3
ACAD_XREC_ROUNDTRIP
360
6353D
  0
DICTIONARY
  5
6352E
330
628D8
100
AcDbDictionary
280
     1
281
     1
  3
ACAD_XREC_ROUNDTRIP
360
6352F
  0
DICTIONARY
  5
6354E
330
628E8
100
AcDbDictionary
280
     1
281
     1
  3
ACAD_XREC_ROUNDTRIP
360
6354F
  0
XRECORD
  5
63557
102
{ACAD_REACTORS
330
63556
102
}
330
63556
100
AcDbXrecord
280
     1
102
DISPLAYNAME
  1
Imperial24
102
FLAGS
 90
        0
  0
XRECORD
  5
6355B
102
{ACAD_REACTORS
330
6355A
102
}
330
6355A
100
AcDbXrecord
280
     1
102
DISPLAYNAME
  1
Metric50
102
FLAGS
 90
        0
  0
XRECORD
  5
63555
102
{ACAD_REACTORS
330
63554
102
}
330
63554
100
AcDbXrecord
280
     1
102
DISPLAYNAME
  1
Imperial24
102
FLAGS
 90
        0
  0
XRECORD
  5
63559
102
{ACAD_REACTORS
330
63558
102
}
330
63558
100
AcDbXrecord
280
     1
102
DISPLAYNAME
  1
Metric50
102
FLAGS
 90
        0
  0
CELLSTYLEMAP
  5
63522
102
{ACAD_REACTORS
330
63521
102
}
330
63521
100
AcDbCellStyleMap
 90
        3
300
CELLSTYLE
  1
TABLEFORMAT_BEGIN
 90
        5
170
     1
 91
        0
 92
    32768
 62
   257
 93
        1
300
CONTENTFORMAT
  1
CONTENTFORMAT_BEGIN
 90
        0
 91
        0
 92
        4
 93
        0
300

 40
0.0
140
1.0
 94
        5
 62
     7
340
230
144
0.25
309
CONTENTFORMAT_END
171
     0
 94
        6
 95
        1
302
GRIDFORMAT
  1
GRIDFORMAT_BEGIN
 90
        0
 91
        1
 62
     0
 92
       -2
340
0
 93
        0
 40
0.045
309
GRIDFORMAT_END
 95
        2
302
GRIDFORMAT
  1
GRIDFORMAT_BEGIN
 90
        0
 91
        1
 62
     0
 92
       -2
340
0
 93
        0
 40
0.045
309
GRIDFORMAT_END
 95
        4
302
GRIDFORMAT
  1
GRIDFORMAT_BEGIN
 90
        0
 91
        1
 62
     0
 92
       -2
340
0
 93
        0
 40
0.045
309
GRIDFORMAT_END
 95
        8
302
GRIDFORMAT
  1
GRIDFORMAT_BEGIN
 90
        0
 91
        1
 62
     0
 92
       -2
340
0
 93
        0
 40
0.045
309
GRIDFORMAT_END
 95
       16
302
GRIDFORMAT
  1
GRIDFORMAT_BEGIN
 90
        0
 91
        1
 62
     0
 92
       -2
340
0
 93
        0
 40
0.045
309
GRIDFORMAT_END
 95
       32
302
GRIDFORMAT
  1
GRIDFORMAT_BEGIN
 90
        0
 91
        1
 62
     0
 92
       -2
340
0
 93
        0
 40
0.045
309
GRIDFORMAT_END
309
TABLEFORMAT_END
  1
CELLSTYLE_BEGIN
 90
        1
 91
        1
300
_TITLE
309
CELLSTYLE_END
300
CELLSTYLE
  1
TABLEFORMAT_BEGIN
 90
        5
170
     1
 91
        0
 92
        0
 62
   257
 93
        1
300
CONTENTFORMAT
  1
CONTENTFORMAT_BEGIN
 90
        0
 91
        0
 92
        4
 93
        0
300

 40
0.0
140
1.0
 94
        5
 62
     7
340
230
144
0.18
309
CONTENTFORMAT_END
171
     0
 94
        6
 95
        1
302
GRIDFORMAT
  1
GRIDFORMAT_BEGIN
 90
        0
 91
        1
 62
     0
 92
       -2
340
0
 93
        0
 40
0.045
309
GRIDFORMAT_END
 95
        2
302
GRIDFORMAT
  1
GRIDFORMAT_BEGIN
 90
        0
 91
        1
 62
     0
 92
       -2
340
0
 93
        0
 40
0.045
309
GRIDFORMAT_END
 95
        4
302
GRIDFORMAT
  1
GRIDFORMAT_BEGIN
 90
        0
 91
        1
 62
     0
 92
       -2
340
0
 93
        0
 40
0.045
309
GRIDFORMAT_END
 95
        8
302
GRIDFORMAT
  1
GRIDFORMAT_BEGIN
 90
        0
 91
        1
 62
     0
 92
       -2
340
0
 93
        0
 40
0.045
309
GRIDFORMAT_END
 95
       16
302
GRIDFORMAT
  1
GRIDFORMAT_BEGIN
 90
        0
 91
        1
 62
     0
 92
       -2
340
0
 93
        0
 40
0.045
309
GRIDFORMAT_END
 95
       32
302
GRIDFORMAT
  1
GRIDFORMAT_BEGIN
 90
        0
 91
        1
 62
     0
 92
       -2
340
0
 93
        0
 40
0.045
309
GRIDFORMAT_END
309
TABLEFORMAT_END
  1
CELLSTYLE_BEGIN
 90
        2
 91
        1
300
_HEADER
309
CELLSTYLE_END
300
CELLSTYLE
  1
TABLEFORMAT_BEGIN
 90
        5
170
     1
 91
        0
 92
        0
 62
   257
 93
        1
300
CONTENTFORMAT
  1
CONTENTFORMAT_BEGIN
 90
        0
 91
        0
 92
        4
 93
        0
300

 40
0.0
140
1.0
 94
        2
 62
     7
340
230
144
0.18
309
CONTENTFORMAT_END
171
     0
 94
        6
 95
        1
302
GRIDFORMAT
  1
GRIDFORMAT_BEGIN
 90
        0
 91
        1
 62
     0
 92
       -2
340
0
 93
        0
 40
0.045
309
GRIDFORMAT_END
 95
        2
302
GRIDFORMAT
  1
GRIDFORMAT_BEGIN
 90
        0
 91
        1
 62
     0
 92
       -2
340
0
 93
        0
 40
0.045
309
GRIDFORMAT_END
 95
        4
302
GRIDFORMAT
  1
GRIDFORMAT_BEGIN
 90
        0
 91
        1
 62
     0
 92
       -2
340
0
 93
        0
 40
0.045
309
GRIDFORMAT_END
 95
        8
302
GRIDFORMAT
  1
GRIDFORMAT_BEGIN
 90
        0
 91
        1
 62
     0
 92
       -2
340
0
 93
        0
 40
0.045
309
GRIDFORMAT_END
 95
       16
302
GRIDFORMAT
  1
GRIDFORMAT_BEGIN
 90
        0
 91
        1
 62
     0
 92
       -2
340
0
 93
        0
 40
0.045
309
GRIDFORMAT_END
 95
       32
302
GRIDFORMAT
  1
GRIDFORMAT_BEGIN
 90
        0
 91
        1
 62
     0
 92
       -2
340
0
 93
        0
 40
0.045
309
GRIDFORMAT_END
309
TABLEFORMAT_END
  1
CELLSTYLE_BEGIN
 90
        3
 91
        2
300
_DATA
309
CELLSTYLE_END
  0
XRECORD
  5
6352D
102
{ACAD_REACTORS
330
6352C
102
}
330
6352C
100
AcDbXrecord
280
     1
102
RTVSPost2010Prop28
280
     1
102
RTVSPost2010PropOp28
 70
     1
102
RTVSPost2010Prop29
280
     1
102
RTVSPost2010PropOp29
 70
     1
102
RTVSPost2010Prop30
280
     0
102
RTVSPost2010PropOp30
 70
     1
102
RTVSPost2010Prop31
280
     0
102
RTVSPost2010PropOp31
 70
     1
102
RTVSPost2010Prop32
280
     0
102
RTVSPost2010PropOp32
 70
     1
102
RTVSPost2010Prop33
280
     0
102
RTVSPost2010PropOp33
 70
     1
102
RTVSPost2010Prop34
280
     0
102
RTVSPost2010PropOp34
 70
     1
102
RTVSPost2010Prop35
280
     0
102
RTVSPost2010PropOp35
 70
     1
102
RTVSPost2010Prop36
280
     0
102
RTVSPost2010PropOp36
 70
     1
102
RTVSPost2010Prop37
 90
       50
102
RTVSPost2010PropOp37
 70
     1
102
RTVSPost2010Prop38
140
0.0
102
RTVSPost2010PropOp38
 70
     1
102
RTVSPost2010Prop39
140
1.0
102
RTVSPost2010PropOp39
 70
     1
102
RTVSPost2010Prop40
 90
        0
102
RTVSPost2010PropOp40
 70
     1
102
RTVSPost2010Prop41ColorIndex
 90
       18
102
RTVSPost2010Prop41ColorRGB
 90
-16777216
102
RTVSPost2010PropOp41
 70
     1
102
RTVSPost2010Prop42
 90
       50
102
RTVSPost2010PropOp42
 70
     1
102
RTVSPost2010Prop43
 90
        3
102
RTVSPost2010PropOp43
 70
     1
102
RTVSPost2010Prop44ColorIndex
 90
        5
102
RTVSPost2010Prop44ColorRGB
 90
      255
102
RTVSPost2010PropOp44
 70
     1
102
RTVSPost2010Prop45
280
     0
102
RTVSPost2010PropOp45
 70
     1
102
RTVSPost2010Prop46
 90
       50
102
RTVSPost2010PropOp46
 70
     1
102
RTVSPost2010Prop47
 90
       50
102
RTVSPost2010PropOp47
 70
     1
102
RTVSPost2010Prop48
 90
       50
102
RTVSPost2010PropOp48
 70
     1
102
RTVSPost2010Prop49
280
     0
102
RTVSPost2010PropOp49
 70
     1
102
RTVSPost2010Prop50
 90
       50
102
RTVSPost2010PropOp50
 70
     1
102
RTVSPost2010Prop51ColorIndex
 90
      256
102
RTVSPost2010Prop51ColorRGB
 90
-16777216
102
RTVSPost2010PropOp51
 70
     0
102
RTVSPost2010Prop52
140
1.0
102
RTVSPost2010PropOp52
 70
     0
102
RTVSPost2010Prop53
 90
        2
102
RTVSPost2010PropOp53
 70
     1
102
RTVSPost2010Prop54
  1
strokes_ogs.tif
102
RTVSPost2010PropOp54
 70
     1
102
RTVSPost2010Prop55
280
     0
102
RTVSPost2010PropOp55
 70
     1
102
RTVSPost2010Prop56
140
1.0
102
RTVSPost2010PropOp56
 70
     1
102
RTVSPost2010Prop57
140
1.0
102
RTVSPost2010PropOp57
 70
     1
  0
XRECORD
  5
63533
102
{ACAD_REACTORS
330
63532
102
}
330
63532
100
AcDbXrecord
280
     1
102
RTVSPost2010Prop28
280
     0
102
RTVSPost2010PropOp28
 70
     1
102
RTVSPost2010Prop29
280
     1
102
RTVSPost2010PropOp29
 70
     1
102
RTVSPost2010Prop30
280
     1
102
RTVSPost2010PropOp30
 70
     1
102
RTVSPost2010Prop31
280
     0
102
RTVSPost2010PropOp31
 70
     1
102
RTVSPost2010Prop32
280
     0
102
RTVSPost2010PropOp32
 70
     1
102
RTVSPost2010Prop33
280
     0
102
RTVSPost2010PropOp33
 70
     1
102
RTVSPost2010Prop34
280
     0
102
RTVSPost2010PropOp34
 70
     1
102
RTVSPost2010Prop35
280
     0
102
RTVSPost2010PropOp35
 70
     1
102
RTVSPost2010Prop36
280
     0
102
RTVSPost2010PropOp36
 70
     1
102
RTVSPost2010Prop37
 90
       50
102
RTVSPost2010PropOp37
 70
     1
102
RTVSPost2010Prop38
140
0.0
102
RTVSPost2010PropOp38
 70
     1
102
RTVSPost2010Prop39
140
1.0
102
RTVSPost2010PropOp39
 70
     1
102
RTVSPost2010Prop40
 90
        0
102
RTVSPost2010PropOp40
 70
     1
102
RTVSPost2010Prop41ColorIndex
 90
       18
102
RTVSPost2010Prop41ColorRGB
 90
-16777216
102
RTVSPost2010PropOp41
 70
     1
102
RTVSPost2010Prop42
 90
       50
102
RTVSPost2010PropOp42
 70
     1
102
RTVSPost2010Prop43
 90
        3
102
RTVSPost2010PropOp43
 70
     1
102
RTVSPost2010Prop44ColorIndex
 90
        5
102
RTVSPost2010Prop44ColorRGB
 90
      255
102
RTVSPost2010PropOp44
 70
     1
102
RTVSPost2010Prop45
280
     0
102
RTVSPost2010PropOp45
 70
     1
102
RTVSPost2010Prop46
 90
       50
102
RTVSPost2010PropOp46
 70
     1
102
RTVSPost2010Prop47
 90
       50
102
RTVSPost2010PropOp47
 70
     1
102
RTVSPost2010Prop48
 90
       50
102
RTVSPost2010PropOp48
 70
     1
102
RTVSPost2010Prop49
280
     0
102
RTVSPost2010PropOp49
 70
     1
102
RTVSPost2010Prop50
 90
       50
102
RTVSPost2010PropOp50
 70
     1
102
RTVSPost2010Prop51ColorIndex
 90
      256
102
RTVSPost2010Prop51ColorRGB
 90
-16777216
102
RTVSPost2010PropOp51
 70
     0
102
RTVSPost2010Prop52
140
1.0
102
RTVSPost2010PropOp52
 70
     0
102
RTVSPost2010Prop53
 90
        2
102
RTVSPost2010PropOp53
 70
     1
102
RTVSPost2010Prop54
  1
strokes_ogs.tif
102
RTVSPost2010PropOp54
 70
     1
102
RTVSPost2010Prop55
280
     0
102
RTVSPost2010PropOp55
 70
     1
102
RTVSPost2010Prop56
140
1.0
102
RTVSPost2010PropOp56
 70
     1
102
RTVSPost2010Prop57
140
1.0
102
RTVSPost2010PropOp57
 70
     1
  0
XRECORD
  5
6353B
102
{ACAD_REACTORS
330
6353A
102
}
330
6353A
100
AcDbXrecord
280
     1
102
RTVSPost2010Prop28
280
     0
102
RTVSPost2010PropOp28
 70
     1
102
RTVSPost2010Prop29
280
     1
102
RTVSPost2010PropOp29
 70
     1
102
RTVSPost2010Prop30
280
     1
102
RTVSPost2010PropOp30
 70
     1
102
RTVSPost2010Prop31
280
     0
102
RTVSPost2010PropOp31
 70
     1
102
RTVSPost2010Prop32
280
     0
102
RTVSPost2010PropOp32
 70
     1
102
RTVSPost2010Prop33
280
     0
102
RTVSPost2010PropOp33
 70
     1
102
RTVSPost2010Prop34
280
     0
102
RTVSPost2010PropOp34
 70
     1
102
RTVSPost2010Prop35
280
     0
102
RTVSPost2010PropOp35
 70
     1
102
RTVSPost2010Prop36
280
     0
102
RTVSPost2010PropOp36
 70
     1
102
RTVSPost2010Prop37
 90
       50
102
RTVSPost2010PropOp37
 70
     1
102
RTVSPost2010Prop38
140
0.0
102
RTVSPost2010PropOp38
 70
     1
102
RTVSPost2010Prop39
140
1.0
102
RTVSPost2010PropOp39
 70
     1
102
RTVSPost2010Prop40
 90
        0
102
RTVSPost2010PropOp40
 70
     1
102
RTVSPost2010Prop41ColorIndex
 90
       18
102
RTVSPost2010Prop41ColorRGB
 90
-16777216
102
RTVSPost2010PropOp41
 70
     1
102
RTVSPost2010Prop42
 90
       50
102
RTVSPost2010PropOp42
 70
     1
102
RTVSPost2010Prop43
 90
        3
102
RTVSPost2010PropOp43
 70
     1
102
RTVSPost2010Prop44ColorIndex
 90
        5
102
RTVSPost2010Prop44ColorRGB
 90
      255
102
RTVSPost2010PropOp44
 70
     1
102
RTVSPost2010Prop45
280
     0
102
RTVSPost2010PropOp45
 70
     1
102
RTVSPost2010Prop46
 90
       50
102
RTVSPost2010PropOp46
 70
     1
102
RTVSPost2010Prop47
 90
       50
102
RTVSPost2010PropOp47
 70
     1
102
RTVSPost2010Prop48
 90
       50
102
RTVSPost2010PropOp48
 70
     1
102
RTVSPost2010Prop49
280
     0
102
RTVSPost2010PropOp49
 70
     1
102
RTVSPost2010Prop50
 90
       50
102
RTVSPost2010PropOp50
 70
     1
102
RTVSPost2010Prop51ColorIndex
 90
      256
102
RTVSPost2010Prop51ColorRGB
 90
-16777216
102
RTVSPost2010PropOp51
 70
     0
102
RTVSPost2010Prop52
140
1.0
102
RTVSPost2010PropOp52
 70
     0
102
RTVSPost2010Prop53
 90
        2
102
RTVSPost2010PropOp53
 70
     1
102
RTVSPost2010Prop54
  1
strokes_ogs.tif
102
RTVSPost2010PropOp54
 70
     1
102
RTVSPost2010Prop55
280
     0
102
RTVSPost2010PropOp55
 70
     1
102
RTVSPost2010Prop56
140
1.0
102
RTVSPost2010PropOp56
 70
     1
102
RTVSPost2010Prop57
140
1.0
102
RTVSPost2010PropOp57
 70
     1
  0
XRECORD
  5
63543
102
{ACAD_REACTORS
330
63542
102
}
330
63542
100
AcDbXrecord
280
     1
102
RTVSPost2010Prop28
280
     0
102
RTVSPost2010PropOp28
 70
     1
102
RTVSPost2010Prop29
280
     1
102
RTVSPost2010PropOp29
 70
     1
102
RTVSPost2010Prop30
280
     1
102
RTVSPost2010PropOp30
 70
     1
102
RTVSPost2010Prop31
280
     0
102
RTVSPost2010PropOp31
 70
     1
102
RTVSPost2010Prop32
280
     0
102
RTVSPost2010PropOp32
 70
     1
102
RTVSPost2010Prop33
280
     0
102
RTVSPost2010PropOp33
 70
     1
102
RTVSPost2010Prop34
280
     0
102
RTVSPost2010PropOp34
 70
     1
102
RTVSPost2010Prop35
280
     0
102
RTVSPost2010PropOp35
 70
     1
102
RTVSPost2010Prop36
280
     0
102
RTVSPost2010PropOp36
 70
     1
102
RTVSPost2010Prop37
 90
       50
102
RTVSPost2010PropOp37
 70
     1
102
RTVSPost2010Prop38
140
0.0
102
RTVSPost2010PropOp38
 70
     1
102
RTVSPost2010Prop39
140
1.0
102
RTVSPost2010PropOp39
 70
     1
102
RTVSPost2010Prop40
 90
        0
102
RTVSPost2010PropOp40
 70
     1
102
RTVSPost2010Prop41ColorIndex
 90
       18
102
RTVSPost2010Prop41ColorRGB
 90
-16777216
102
RTVSPost2010PropOp41
 70
     1
102
RTVSPost2010Prop42
 90
       50
102
RTVSPost2010PropOp42
 70
     1
102
RTVSPost2010Prop43
 90
        3
102
RTVSPost2010PropOp43
 70
     1
102
RTVSPost2010Prop44ColorIndex
 90
        5
102
RTVSPost2010Prop44ColorRGB
 90
      255
102
RTVSPost2010PropOp44
 70
     1
102
RTVSPost2010Prop45
280
     0
102
RTVSPost2010PropOp45
 70
     1
102
RTVSPost2010Prop46
 90
       50
102
RTVSPost2010PropOp46
 70
     1
102
RTVSPost2010Prop47
 90
       50
102
RTVSPost2010PropOp47
 70
     1
102
RTVSPost2010Prop48
 90
       50
102
RTVSPost2010PropOp48
 70
     1
102
RTVSPost2010Prop49
280
     0
102
RTVSPost2010PropOp49
 70
     1
102
RTVSPost2010Prop50
 90
       50
102
RTVSPost2010PropOp50
 70
     1
102
RTVSPost2010Prop51ColorIndex
 90
      256
102
RTVSPost2010Prop51ColorRGB
 90
-16777216
102
RTVSPost2010PropOp51
 70
     0
102
RTVSPost2010Prop52
140
1.0
102
RTVSPost2010PropOp52
 70
     0
102
RTVSPost2010Prop53
 90
        2
102
RTVSPost2010PropOp53
 70
     1
102
RTVSPost2010Prop54
  1
strokes_ogs.tif
102
RTVSPost2010PropOp54
 70
     1
102
RTVSPost2010Prop55
280
     0
102
RTVSPost2010PropOp55
 70
     1
102
RTVSPost2010Prop56
140
1.0
102
RTVSPost2010PropOp56
 70
     1
102
RTVSPost2010Prop57
140
1.0
102
RTVSPost2010PropOp57
 70
     1
  0
XRECORD
  5
63537
102
{ACAD_REACTORS
330
63536
102
}
330
63536
100
AcDbXrecord
280
     1
102
RTVSPost2010Prop28
280
     0
102
RTVSPost2010PropOp28
 70
     1
102
RTVSPost2010Prop29
280
     1
102
RTVSPost2010PropOp29
 70
     1
102
RTVSPost2010Prop30
280
     1
102
RTVSPost2010PropOp30
 70
     1
102
RTVSPost2010Prop31
280
     0
102
RTVSPost2010PropOp31
 70
     1
102
RTVSPost2010Prop32
280
     0
102
RTVSPost2010PropOp32
 70
     1
102
RTVSPost2010Prop33
280
     0
102
RTVSPost2010PropOp33
 70
     1
102
RTVSPost2010Prop34
280
     0
102
RTVSPost2010PropOp34
 70
     1
102
RTVSPost2010Prop35
280
     0
102
RTVSPost2010PropOp35
 70
     1
102
RTVSPost2010Prop36
280
     0
102
RTVSPost2010PropOp36
 70
     1
102
RTVSPost2010Prop37
 90
       50
102
RTVSPost2010PropOp37
 70
     1
102
RTVSPost2010Prop38
140
0.0
102
RTVSPost2010PropOp38
 70
     1
102
RTVSPost2010Prop39
140
1.0
102
RTVSPost2010PropOp39
 70
     1
102
RTVSPost2010Prop40
 90
        0
102
RTVSPost2010PropOp40
 70
     1
102
RTVSPost2010Prop41ColorIndex
 90
       18
102
RTVSPost2010Prop41ColorRGB
 90
-16777216
102
RTVSPost2010PropOp41
 70
     1
102
RTVSPost2010Prop42
 90
       50
102
RTVSPost2010PropOp42
 70
     1
102
RTVSPost2010Prop43
 90
        3
102
RTVSPost2010PropOp43
 70
     1
102
RTVSPost2010Prop44ColorIndex
 90
        5
102
RTVSPost2010Prop44ColorRGB
 90
      255
102
RTVSPost2010PropOp44
 70
     1
102
RTVSPost2010Prop45
280
     0
102
RTVSPost2010PropOp45
 70
     1
102
RTVSPost2010Prop46
 90
       50
102
RTVSPost2010PropOp46
 70
     1
102
RTVSPost2010Prop47
 90
       50
102
RTVSPost2010PropOp47
 70
     1
102
RTVSPost2010Prop48
 90
       50
102
RTVSPost2010PropOp48
 70
     1
102
RTVSPost2010Prop49
280
     0
102
RTVSPost2010PropOp49
 70
     1
102
RTVSPost2010Prop50
 90
       50
102
RTVSPost2010PropOp50
 70
     1
102
RTVSPost2010Prop51ColorIndex
 90
      256
102
RTVSPost2010Prop51ColorRGB
 90
-16777216
102
RTVSPost2010PropOp51
 70
     0
102
RTVSPost2010Prop52
140
1.0
102
RTVSPost2010PropOp52
 70
     0
102
RTVSPost2010Prop53
 90
        2
102
RTVSPost2010PropOp53
 70
     1
102
RTVSPost2010Prop54
  1
strokes_ogs.tif
102
RTVSPost2010PropOp54
 70
     1
102
RTVSPost2010Prop55
280
     0
102
RTVSPost2010PropOp55
 70
     1
102
RTVSPost2010Prop56
140
1.0
102
RTVSPost2010PropOp56
 70
     1
102
RTVSPost2010Prop57
140
1.0
102
RTVSPost2010PropOp57
 70
     1
  0
XRECORD
  5
63539
102
{ACAD_REACTORS
330
63538
102
}
330
63538
100
AcDbXrecord
280
     1
102
RTVSPost2010Prop28
280
     0
102
RTVSPost2010PropOp28
 70
     1
102
RTVSPost2010Prop29
280
     1
102
RTVSPost2010PropOp29
 70
     1
102
RTVSPost2010Prop30
280
     1
102
RTVSPost2010PropOp30
 70
     1
102
RTVSPost2010Prop31
280
     0
102
RTVSPost2010PropOp31
 70
     1
102
RTVSPost2010Prop32
280
     0
102
RTVSPost2010PropOp32
 70
     1
102
RTVSPost2010Prop33
280
     0
102
RTVSPost2010PropOp33
 70
     1
102
RTVSPost2010Prop34
280
     0
102
RTVSPost2010PropOp34
 70
     1
102
RTVSPost2010Prop35
280
     0
102
RTVSPost2010PropOp35
 70
     1
102
RTVSPost2010Prop36
280
     0
102
RTVSPost2010PropOp36
 70
     1
102
RTVSPost2010Prop37
 90
       50
102
RTVSPost2010PropOp37
 70
     1
102
RTVSPost2010Prop38
140
0.0
102
RTVSPost2010PropOp38
 70
     1
102
RTVSPost2010Prop39
140
1.0
102
RTVSPost2010PropOp39
 70
     1
102
RTVSPost2010Prop40
 90
        0
102
RTVSPost2010PropOp40
 70
     1
102
RTVSPost2010Prop41ColorIndex
 90
       18
102
RTVSPost2010Prop41ColorRGB
 90
-16777216
102
RTVSPost2010PropOp41
 70
     1
102
RTVSPost2010Prop42
 90
       50
102
RTVSPost2010PropOp42
 70
     1
102
RTVSPost2010Prop43
 90
        3
102
RTVSPost2010PropOp43
 70
     1
102
RTVSPost2010Prop44ColorIndex
 90
        5
102
RTVSPost2010Prop44ColorRGB
 90
      255
102
RTVSPost2010PropOp44
 70
     1
102
RTVSPost2010Prop45
280
     0
102
RTVSPost2010PropOp45
 70
     1
102
RTVSPost2010Prop46
 90
       50
102
RTVSPost2010PropOp46
 70
     1
102
RTVSPost2010Prop47
 90
       50
102
RTVSPost2010PropOp47
 70
     1
102
RTVSPost2010Prop48
 90
       50
102
RTVSPost2010PropOp48
 70
     1
102
RTVSPost2010Prop49
280
     0
102
RTVSPost2010PropOp49
 70
     1
102
RTVSPost2010Prop50
 90
       50
102
RTVSPost2010PropOp50
 70
     1
102
RTVSPost2010Prop51ColorIndex
 90
      256
102
RTVSPost2010Prop51ColorRGB
 90
-16777216
102
RTVSPost2010PropOp51
 70
     0
102
RTVSPost2010Prop52
140
1.0
102
RTVSPost2010PropOp52
 70
     0
102
RTVSPost2010Prop53
 90
        2
102
RTVSPost2010PropOp53
 70
     1
102
RTVSPost2010Prop54
  1
strokes_ogs.tif
102
RTVSPost2010PropOp54
 70
     1
102
RTVSPost2010Prop55
280
     0
102
RTVSPost2010PropOp55
 70
     1
102
RTVSPost2010Prop56
140
1.0
102
RTVSPost2010PropOp56
 70
     1
102
RTVSPost2010Prop57
140
1.0
102
RTVSPost2010PropOp57
 70
     1
  0
XRECORD
  5
63549
102
{ACAD_REACTORS
330
63548
102
}
330
63548
100
AcDbXrecord
280
     1
102
RTVSPost2010Prop28
280
     0
102
RTVSPost2010PropOp28
 70
     0
102
RTVSPost2010Prop29
280
     1
102
RTVSPost2010PropOp29
 70
     0
102
RTVSPost2010Prop30
280
     1
102
RTVSPost2010PropOp30
 70
     0
102
RTVSPost2010Prop31
280
     0
102
RTVSPost2010PropOp31
 70
     0
102
RTVSPost2010Prop32
280
     0
102
RTVSPost2010PropOp32
 70
     0
102
RTVSPost2010Prop33
280
     0
102
RTVSPost2010PropOp33
 70
     0
102
RTVSPost2010Prop34
280
     0
102
RTVSPost2010PropOp34
 70
     0
102
RTVSPost2010Prop35
280
     0
102
RTVSPost2010PropOp35
 70
     0
102
RTVSPost2010Prop36
280
     0
102
RTVSPost2010PropOp36
 70
     0
102
RTVSPost2010Prop37
 90
       50
102
RTVSPost2010PropOp37
 70
     0
102
RTVSPost2010Prop38
140
0.0
102
RTVSPost2010PropOp38
 70
     0
102
RTVSPost2010Prop39
140
1.0
102
RTVSPost2010PropOp39
 70
     0
102
RTVSPost2010Prop40
 90
        0
102
RTVSPost2010PropOp40
 70
     0
102
RTVSPost2010Prop41ColorIndex
 90
       18
102
RTVSPost2010Prop41ColorRGB
 90
-16777216
102
RTVSPost2010PropOp41
 70
     0
102
RTVSPost2010Prop42
 90
       50
102
RTVSPost2010PropOp42
 70
     0
102
RTVSPost2010Prop43
 90
        3
102
RTVSPost2010PropOp43
 70
     0
102
RTVSPost2010Prop44ColorIndex
 90
        5
102
RTVSPost2010Prop44ColorRGB
 90
      255
102
RTVSPost2010PropOp44
 70
     0
102
RTVSPost2010Prop45
280
     0
102
RTVSPost2010PropOp45
 70
     0
102
RTVSPost2010Prop46
 90
       50
102
RTVSPost2010PropOp46
 70
     0
102
RTVSPost2010Prop47
 90
       50
102
RTVSPost2010PropOp47
 70
     0
102
RTVSPost2010Prop48
 90
       50
102
RTVSPost2010PropOp48
 70
     0
102
RTVSPost2010Prop49
280
     0
102
RTVSPost2010PropOp49
 70
     0
102
RTVSPost2010Prop50
 90
       50
102
RTVSPost2010PropOp50
 70
     0
102
RTVSPost2010Prop51ColorIndex
 90
      256
102
RTVSPost2010Prop51ColorRGB
 90
-16777216
102
RTVSPost2010PropOp51
 70
     0
102
RTVSPost2010Prop52
140
1.0
102
RTVSPost2010PropOp52
 70
     0
102
RTVSPost2010Prop53
 90
        2
102
RTVSPost2010PropOp53
 70
     0
102
RTVSPost2010Prop54
  1
strokes_ogs.tif
102
RTVSPost2010PropOp54
 70
     0
102
RTVSPost2010Prop55
280
     0
102
RTVSPost2010PropOp55
 70
     0
102
RTVSPost2010Prop56
140
1.0
102
RTVSPost2010PropOp56
 70
     0
102
RTVSPost2010Prop57
140
1.0
102
RTVSPost2010PropOp57
 70
     0
  0
XRECORD
  5
63541
102
{ACAD_REACTORS
330
63540
102
}
330
63540
100
AcDbXrecord
280
     1
102
RTVSPost2010Prop28
280
     0
102
RTVSPost2010PropOp28
 70
     1
102
RTVSPost2010Prop29
280
     1
102
RTVSPost2010PropOp29
 70
     1
102
RTVSPost2010Prop30
280
     1
102
RTVSPost2010PropOp30
 70
     1
102
RTVSPost2010Prop31
280
     0
102
RTVSPost2010PropOp31
 70
     1
102
RTVSPost2010Prop32
280
     0
102
RTVSPost2010PropOp32
 70
     1
102
RTVSPost2010Prop33
280
     0
102
RTVSPost2010PropOp33
 70
     1
102
RTVSPost2010Prop34
280
     0
102
RTVSPost2010PropOp34
 70
     1
102
RTVSPost2010Prop35
280
     0
102
RTVSPost2010PropOp35
 70
     1
102
RTVSPost2010Prop36
280
     0
102
RTVSPost2010PropOp36
 70
     1
102
RTVSPost2010Prop37
 90
       50
102
RTVSPost2010PropOp37
 70
     1
102
RTVSPost2010Prop38
140
0.0
102
RTVSPost2010PropOp38
 70
     1
102
RTVSPost2010Prop39
140
1.0
102
RTVSPost2010PropOp39
 70
     1
102
RTVSPost2010Prop40
 90
        0
102
RTVSPost2010PropOp40
 70
     1
102
RTVSPost2010Prop41ColorIndex
 90
       18
102
RTVSPost2010Prop41ColorRGB
 90
-16777216
102
RTVSPost2010PropOp41
 70
     1
102
RTVSPost2010Prop42
 90
       50
102
RTVSPost2010PropOp42
 70
     1
102
RTVSPost2010Prop43
 90
        3
102
RTVSPost2010PropOp43
 70
     1
102
RTVSPost2010Prop44ColorIndex
 90
        5
102
RTVSPost2010Prop44ColorRGB
 90
      255
102
RTVSPost2010PropOp44
 70
     1
102
RTVSPost2010Prop45
280
     0
102
RTVSPost2010PropOp45
 70
     1
102
RTVSPost2010Prop46
 90
       50
102
RTVSPost2010PropOp46
 70
     1
102
RTVSPost2010Prop47
 90
       50
102
RTVSPost2010PropOp47
 70
     1
102
RTVSPost2010Prop48
 90
       50
102
RTVSPost2010PropOp48
 70
     1
102
RTVSPost2010Prop49
280
     0
102
RTVSPost2010PropOp49
 70
     1
102
RTVSPost2010Prop50
 90
       50
102
RTVSPost2010PropOp50
 70
     1
102
RTVSPost2010Prop51ColorIndex
 90
      256
102
RTVSPost2010Prop51ColorRGB
 90
-16777216
102
RTVSPost2010PropOp51
 70
     0
102
RTVSPost2010Prop52
140
1.0
102
RTVSPost2010PropOp52
 70
     0
102
RTVSPost2010Prop53
 90
        2
102
RTVSPost2010PropOp53
 70
     1
102
RTVSPost2010Prop54
  1
strokes_ogs.tif
102
RTVSPost2010PropOp54
 70
     1
102
RTVSPost2010Prop55
280
     0
102
RTVSPost2010PropOp55
 70
     1
102
RTVSPost2010Prop56
140
1.0
102
RTVSPost2010PropOp56
 70
     1
102
RTVSPost2010Prop57
140
1.0
102
RTVSPost2010PropOp57
 70
     1
  0
XRECORD
  5
63525
102
{ACAD_REACTORS
330
63524
102
}
330
63524
100
AcDbXrecord
280
     1
102
RTVSPost2010Prop28
280
     0
102
RTVSPost2010PropOp28
 70
     1
102
RTVSPost2010Prop29
280
     1
102
RTVSPost2010PropOp29
 70
     1
102
RTVSPost2010Prop30
280
     1
102
RTVSPost2010PropOp30
 70
     1
102
RTVSPost2010Prop31
280
     0
102
RTVSPost2010PropOp31
 70
     1
102
RTVSPost2010Prop32
280
     0
102
RTVSPost2010PropOp32
 70
     1
102
RTVSPost2010Prop33
280
     0
102
RTVSPost2010PropOp33
 70
     1
102
RTVSPost2010Prop34
280
     0
102
RTVSPost2010PropOp34
 70
     1
102
RTVSPost2010Prop35
280
     0
102
RTVSPost2010PropOp35
 70
     1
102
RTVSPost2010Prop36
280
     0
102
RTVSPost2010PropOp36
 70
     1
102
RTVSPost2010Prop37
 90
       50
102
RTVSPost2010PropOp37
 70
     1
102
RTVSPost2010Prop38
140
0.0
102
RTVSPost2010PropOp38
 70
     1
102
RTVSPost2010Prop39
140
1.0
102
RTVSPost2010PropOp39
 70
     1
102
RTVSPost2010Prop40
 90
        0
102
RTVSPost2010PropOp40
 70
     1
102
RTVSPost2010Prop41ColorIndex
 90
       18
102
RTVSPost2010Prop41ColorRGB
 90
-16777216
102
RTVSPost2010PropOp41
 70
     1
102
RTVSPost2010Prop42
 90
       50
102
RTVSPost2010PropOp42
 70
     1
102
RTVSPost2010Prop43
 90
        3
102
RTVSPost2010PropOp43
 70
     1
102
RTVSPost2010Prop44ColorIndex
 90
        5
102
RTVSPost2010Prop44ColorRGB
 90
      255
102
RTVSPost2010PropOp44
 70
     1
102
RTVSPost2010Prop45
280
     0
102
RTVSPost2010PropOp45
 70
     1
102
RTVSPost2010Prop46
 90
       50
102
RTVSPost2010PropOp46
 70
     1
102
RTVSPost2010Prop47
 90
       50
102
RTVSPost2010PropOp47
 70
     1
102
RTVSPost2010Prop48
 90
       50
102
RTVSPost2010PropOp48
 70
     1
102
RTVSPost2010Prop49
280
     0
102
RTVSPost2010PropOp49
 70
     1
102
RTVSPost2010Prop50
 90
       50
102
RTVSPost2010PropOp50
 70
     1
102
RTVSPost2010Prop51ColorIndex
 90
      256
102
RTVSPost2010Prop51ColorRGB
 90
-16777216
102
RTVSPost2010PropOp51
 70
     0
102
RTVSPost2010Prop52
140
1.0
102
RTVSPost2010PropOp52
 70
     0
102
RTVSPost2010Prop53
 90
        2
102
RTVSPost2010PropOp53
 70
     1
102
RTVSPost2010Prop54
  1
strokes_ogs.tif
102
RTVSPost2010PropOp54
 70
     1
102
RTVSPost2010Prop55
280
     0
102
RTVSPost2010PropOp55
 70
     1
102
RTVSPost2010Prop56
140
1.0
102
RTVSPost2010PropOp56
 70
     1
102
RTVSPost2010Prop57
140
1.0
102
RTVSPost2010PropOp57
 70
     1
  0
XRECORD
  5
63527
102
{ACAD_REACTORS
330
63526
102
}
330
63526
100
AcDbXrecord
280
     1
102
RTVSPost2010Prop28
280
     0
102
RTVSPost2010PropOp28
 70
     1
102
RTVSPost2010Prop29
280
     1
102
RTVSPost2010PropOp29
 70
     1
102
RTVSPost2010Prop30
280
     1
102
RTVSPost2010PropOp30
 70
     1
102
RTVSPost2010Prop31
280
     0
102
RTVSPost2010PropOp31
 70
     1
102
RTVSPost2010Prop32
280
     0
102
RTVSPost2010PropOp32
 70
     1
102
RTVSPost2010Prop33
280
     0
102
RTVSPost2010PropOp33
 70
     1
102
RTVSPost2010Prop34
280
     0
102
RTVSPost2010PropOp34
 70
     1
102
RTVSPost2010Prop35
280
     0
102
RTVSPost2010PropOp35
 70
     1
102
RTVSPost2010Prop36
280
     0
102
RTVSPost2010PropOp36
 70
     1
102
RTVSPost2010Prop37
 90
       50
102
RTVSPost2010PropOp37
 70
     1
102
RTVSPost2010Prop38
140
0.0
102
RTVSPost2010PropOp38
 70
     1
102
RTVSPost2010Prop39
140
1.0
102
RTVSPost2010PropOp39
 70
     1
102
RTVSPost2010Prop40
 90
        0
102
RTVSPost2010PropOp40
 70
     1
102
RTVSPost2010Prop41ColorIndex
 90
       18
102
RTVSPost2010Prop41ColorRGB
 90
-16777216
102
RTVSPost2010PropOp41
 70
     1
102
RTVSPost2010Prop42
 90
       50
102
RTVSPost2010PropOp42
 70
     1
102
RTVSPost2010Prop43
 90
        3
102
RTVSPost2010PropOp43
 70
     1
102
RTVSPost2010Prop44ColorIndex
 90
        5
102
RTVSPost2010Prop44ColorRGB
 90
      255
102
RTVSPost2010PropOp44
 70
     1
102
RTVSPost2010Prop45
280
     0
102
RTVSPost2010PropOp45
 70
     1
102
RTVSPost2010Prop46
 90
       50
102
RTVSPost2010PropOp46
 70
     1
102
RTVSPost2010Prop47
 90
       50
102
RTVSPost2010PropOp47
 70
     1
102
RTVSPost2010Prop48
 90
       50
102
RTVSPost2010PropOp48
 70
     1
102
RTVSPost2010Prop49
280
     0
102
RTVSPost2010PropOp49
 70
     1
102
RTVSPost2010Prop50
 90
       50
102
RTVSPost2010PropOp50
 70
     1
102
RTVSPost2010Prop51ColorIndex
 90
      256
102
RTVSPost2010Prop51ColorRGB
 90
-16777216
102
RTVSPost2010PropOp51
 70
     0
102
RTVSPost2010Prop52
140
1.0
102
RTVSPost2010PropOp52
 70
     0
102
RTVSPost2010Prop53
 90
        2
102
RTVSPost2010PropOp53
 70
     1
102
RTVSPost2010Prop54
  1
strokes_ogs.tif
102
RTVSPost2010PropOp54
 70
     1
102
RTVSPost2010Prop55
280
     0
102
RTVSPost2010PropOp55
 70
     1
102
RTVSPost2010Prop56
140
1.0
102
RTVSPost2010PropOp56
 70
     1
102
RTVSPost2010Prop57
140
1.0
102
RTVSPost2010PropOp57
 70
     1
  0
XRECORD
  5
63529
102
{ACAD_REACTORS
330
63528
102
}
330
63528
100
AcDbXrecord
280
     1
102
RTVSPost2010Prop28
280
     0
102
RTVSPost2010PropOp28
 70
     1
102
RTVSPost2010Prop29
280
     1
102
RTVSPost2010PropOp29
 70
     1
102
RTVSPost2010Prop30
280
     1
102
RTVSPost2010PropOp30
 70
     1
102
RTVSPost2010Prop31
280
     0
102
RTVSPost2010PropOp31
 70
     1
102
RTVSPost2010Prop32
280
     0
102
RTVSPost2010PropOp32
 70
     1
102
RTVSPost2010Prop33
280
     0
102
RTVSPost2010PropOp33
 70
     1
102
RTVSPost2010Prop34
280
     0
102
RTVSPost2010PropOp34
 70
     1
102
RTVSPost2010Prop35
280
     0
102
RTVSPost2010PropOp35
 70
     1
102
RTVSPost2010Prop36
280
     0
102
RTVSPost2010PropOp36
 70
     1
102
RTVSPost2010Prop37
 90
       50
102
RTVSPost2010PropOp37
 70
     1
102
RTVSPost2010Prop38
140
0.0
102
RTVSPost2010PropOp38
 70
     1
102
RTVSPost2010Prop39
140
1.0
102
RTVSPost2010PropOp39
 70
     1
102
RTVSPost2010Prop40
 90
        0
102
RTVSPost2010PropOp40
 70
     1
102
RTVSPost2010Prop41ColorIndex
 90
       18
102
RTVSPost2010Prop41ColorRGB
 90
-16777216
102
RTVSPost2010PropOp41
 70
     1
102
RTVSPost2010Prop42
 90
       50
102
RTVSPost2010PropOp42
 70
     1
102
RTVSPost2010Prop43
 90
        3
102
RTVSPost2010PropOp43
 70
     1
102
RTVSPost2010Prop44ColorIndex
 90
        5
102
RTVSPost2010Prop44ColorRGB
 90
      255
102
RTVSPost2010PropOp44
 70
     1
102
RTVSPost2010Prop45
280
     0
102
RTVSPost2010PropOp45
 70
     1
102
RTVSPost2010Prop46
 90
       50
102
RTVSPost2010PropOp46
 70
     1
102
RTVSPost2010Prop47
 90
       50
102
RTVSPost2010PropOp47
 70
     1
102
RTVSPost2010Prop48
 90
       50
102
RTVSPost2010PropOp48
 70
     1
102
RTVSPost2010Prop49
280
     0
102
RTVSPost2010PropOp49
 70
     1
102
RTVSPost2010Prop50
 90
       50
102
RTVSPost2010PropOp50
 70
     1
102
RTVSPost2010Prop51ColorIndex
 90
      256
102
RTVSPost2010Prop51ColorRGB
 90
-16777216
102
RTVSPost2010PropOp51
 70
     0
102
RTVSPost2010Prop52
140
1.0
102
RTVSPost2010PropOp52
 70
     0
102
RTVSPost2010Prop53
 90
        2
102
RTVSPost2010PropOp53
 70
     1
102
RTVSPost2010Prop54
  1
strokes_ogs.tif
102
RTVSPost2010PropOp54
 70
     1
102
RTVSPost2010Prop55
280
     0
102
RTVSPost2010PropOp55
 70
     1
102
RTVSPost2010Prop56
140
1.0
102
RTVSPost2010PropOp56
 70
     1
102
RTVSPost2010Prop57
140
1.0
102
RTVSPost2010PropOp57
 70
     1
  0
XRECORD
  5
6352B
102
{ACAD_REACTORS
330
6352A
102
}
330
6352A
100
AcDbXrecord
280
     1
102
RTVSPost2010Prop28
280
     0
102
RTVSPost2010PropOp28
 70
     1
102
RTVSPost2010Prop29
280
     1
102
RTVSPost2010PropOp29
 70
     1
102
RTVSPost2010Prop30
280
     1
102
RTVSPost2010PropOp30
 70
     1
102
RTVSPost2010Prop31
280
     0
102
RTVSPost2010PropOp31
 70
     1
102
RTVSPost2010Prop32
280
     0
102
RTVSPost2010PropOp32
 70
     1
102
RTVSPost2010Prop33
280
     0
102
RTVSPost2010PropOp33
 70
     1
102
RTVSPost2010Prop34
280
     0
102
RTVSPost2010PropOp34
 70
     1
102
RTVSPost2010Prop35
280
     0
102
RTVSPost2010PropOp35
 70
     1
102
RTVSPost2010Prop36
280
     0
102
RTVSPost2010PropOp36
 70
     1
102
RTVSPost2010Prop37
 90
       50
102
RTVSPost2010PropOp37
 70
     1
102
RTVSPost2010Prop38
140
0.0
102
RTVSPost2010PropOp38
 70
     1
102
RTVSPost2010Prop39
140
1.0
102
RTVSPost2010PropOp39
 70
     1
102
RTVSPost2010Prop40
 90
        0
102
RTVSPost2010PropOp40
 70
     1
102
RTVSPost2010Prop41ColorIndex
 90
       18
102
RTVSPost2010Prop41ColorRGB
 90
-16777216
102
RTVSPost2010PropOp41
 70
     1
102
RTVSPost2010Prop42
 90
       50
102
RTVSPost2010PropOp42
 70
     1
102
RTVSPost2010Prop43
 90
        3
102
RTVSPost2010PropOp43
 70
     1
102
RTVSPost2010Prop44ColorIndex
 90
        5
102
RTVSPost2010Prop44ColorRGB
 90
      255
102
RTVSPost2010PropOp44
 70
     1
102
RTVSPost2010Prop45
280
     0
102
RTVSPost2010PropOp45
 70
     1
102
RTVSPost2010Prop46
 90
       50
102
RTVSPost2010PropOp46
 70
     1
102
RTVSPost2010Prop47
 90
       50
102
RTVSPost2010PropOp47
 70
     1
102
RTVSPost2010Prop48
 90
       50
102
RTVSPost2010PropOp48
 70
     1
102
RTVSPost2010Prop49
280
     0
102
RTVSPost2010PropOp49
 70
     1
102
RTVSPost2010Prop50
 90
       50
102
RTVSPost2010PropOp50
 70
     1
102
RTVSPost2010Prop51ColorIndex
 90
      256
102
RTVSPost2010Prop51ColorRGB
 90
-16777216
102
RTVSPost2010PropOp51
 70
     0
102
RTVSPost2010Prop52
140
1.0
102
RTVSPost2010PropOp52
 70
     0
102
RTVSPost2010Prop53
 90
        2
102
RTVSPost2010PropOp53
 70
     1
102
RTVSPost2010Prop54
  1
strokes_ogs.tif
102
RTVSPost2010PropOp54
 70
     1
102
RTVSPost2010Prop55
280
     0
102
RTVSPost2010PropOp55
 70
     1
102
RTVSPost2010Prop56
140
1.0
102
RTVSPost2010PropOp56
 70
     1
102
RTVSPost2010Prop57
140
1.0
102
RTVSPost2010PropOp57
 70
     1
  0
XRECORD
  5
63531
102
{ACAD_REACTORS
330
63530
102
}
330
63530
100
AcDbXrecord
280
     1
102
RTVSPost2010Prop28
280
     0
102
RTVSPost2010PropOp28
 70
     1
102
RTVSPost2010Prop29
280
     1
102
RTVSPost2010PropOp29
 70
     1
102
RTVSPost2010Prop30
280
     1
102
RTVSPost2010PropOp30
 70
     1
102
RTVSPost2010Prop31
280
     0
102
RTVSPost2010PropOp31
 70
     1
102
RTVSPost2010Prop32
280
     0
102
RTVSPost2010PropOp32
 70
     1
102
RTVSPost2010Prop33
280
     0
102
RTVSPost2010PropOp33
 70
     1
102
RTVSPost2010Prop34
280
     0
102
RTVSPost2010PropOp34
 70
     1
102
RTVSPost2010Prop35
280
     0
102
RTVSPost2010PropOp35
 70
     1
102
RTVSPost2010Prop36
280
     0
102
RTVSPost2010PropOp36
 70
     1
102
RTVSPost2010Prop37
 90
       50
102
RTVSPost2010PropOp37
 70
     1
102
RTVSPost2010Prop38
140
0.0
102
RTVSPost2010PropOp38
 70
     1
102
RTVSPost2010Prop39
140
1.0
102
RTVSPost2010PropOp39
 70
     1
102
RTVSPost2010Prop40
 90
        0
102
RTVSPost2010PropOp40
 70
     1
102
RTVSPost2010Prop41ColorIndex
 90
       18
102
RTVSPost2010Prop41ColorRGB
 90
-16777216
102
RTVSPost2010PropOp41
 70
     1
102
RTVSPost2010Prop42
 90
       50
102
RTVSPost2010PropOp42
 70
     1
102
RTVSPost2010Prop43
 90
        3
102
RTVSPost2010PropOp43
 70
     1
102
RTVSPost2010Prop44ColorIndex
 90
        5
102
RTVSPost2010Prop44ColorRGB
 90
      255
102
RTVSPost2010PropOp44
 70
     1
102
RTVSPost2010Prop45
280
     0
102
RTVSPost2010PropOp45
 70
     1
102
RTVSPost2010Prop46
 90
       50
102
RTVSPost2010PropOp46
 70
     1
102
RTVSPost2010Prop47
 90
       50
102
RTVSPost2010PropOp47
 70
     1
102
RTVSPost2010Prop48
 90
       50
102
RTVSPost2010PropOp48
 70
     1
102
RTVSPost2010Prop49
280
     0
102
RTVSPost2010PropOp49
 70
     1
102
RTVSPost2010Prop50
 90
       50
102
RTVSPost2010PropOp50
 70
     1
102
RTVSPost2010Prop51ColorIndex
 90
      256
102
RTVSPost2010Prop51ColorRGB
 90
-16777216
102
RTVSPost2010PropOp51
 70
     0
102
RTVSPost2010Prop52
140
1.0
102
RTVSPost2010PropOp52
 70
     0
102
RTVSPost2010Prop53
 90
        2
102
RTVSPost2010PropOp53
 70
     1
102
RTVSPost2010Prop54
  1
strokes_ogs.tif
102
RTVSPost2010PropOp54
 70
     1
102
RTVSPost2010Prop55
280
     0
102
RTVSPost2010PropOp55
 70
     1
102
RTVSPost2010Prop56
140
1.0
102
RTVSPost2010PropOp56
 70
     1
102
RTVSPost2010Prop57
140
1.0
102
RTVSPost2010PropOp57
 70
     1
  0
XRECORD
  5
63545
102
{ACAD_REACTORS
330
63544
102
}
330
63544
100
AcDbXrecord
280
     1
102
RTVSPost2010Prop28
280
     0
102
RTVSPost2010PropOp28
 70
     0
102
RTVSPost2010Prop29
280
     1
102
RTVSPost2010PropOp29
 70
     0
102
RTVSPost2010Prop30
280
     1
102
RTVSPost2010PropOp30
 70
     0
102
RTVSPost2010Prop31
280
     0
102
RTVSPost2010PropOp31
 70
     0
102
RTVSPost2010Prop32
280
     0
102
RTVSPost2010PropOp32
 70
     0
102
RTVSPost2010Prop33
280
     0
102
RTVSPost2010PropOp33
 70
     0
102
RTVSPost2010Prop34
280
     0
102
RTVSPost2010PropOp34
 70
     0
102
RTVSPost2010Prop35
280
     0
102
RTVSPost2010PropOp35
 70
     0
102
RTVSPost2010Prop36
280
     0
102
RTVSPost2010PropOp36
 70
     0
102
RTVSPost2010Prop37
 90
       50
102
RTVSPost2010PropOp37
 70
     0
102
RTVSPost2010Prop38
140
0.0
102
RTVSPost2010PropOp38
 70
     0
102
RTVSPost2010Prop39
140
1.0
102
RTVSPost2010PropOp39
 70
     0
102
RTVSPost2010Prop40
 90
        0
102
RTVSPost2010PropOp40
 70
     0
102
RTVSPost2010Prop41ColorIndex
 90
       18
102
RTVSPost2010Prop41ColorRGB
 90
-16777216
102
RTVSPost2010PropOp41
 70
     0
102
RTVSPost2010Prop42
 90
       50
102
RTVSPost2010PropOp42
 70
     0
102
RTVSPost2010Prop43
 90
        3
102
RTVSPost2010PropOp43
 70
     0
102
RTVSPost2010Prop44ColorIndex
 90
        5
102
RTVSPost2010Prop44ColorRGB
 90
      255
102
RTVSPost2010PropOp44
 70
     0
102
RTVSPost2010Prop45
280
     0
102
RTVSPost2010PropOp45
 70
     0
102
RTVSPost2010Prop46
 90
       50
102
RTVSPost2010PropOp46
 70
     0
102
RTVSPost2010Prop47
 90
       50
102
RTVSPost2010PropOp47
 70
     0
102
RTVSPost2010Prop48
 90
       50
102
RTVSPost2010PropOp48
 70
     0
102
RTVSPost2010Prop49
280
     0
102
RTVSPost2010PropOp49
 70
     0
102
RTVSPost2010Prop50
 90
       50
102
RTVSPost2010PropOp50
 70
     0
102
RTVSPost2010Prop51ColorIndex
 90
      256
102
RTVSPost2010Prop51ColorRGB
 90
-16777216
102
RTVSPost2010PropOp51
 70
     0
102
RTVSPost2010Prop52
140
1.0
102
RTVSPost2010PropOp52
 70
     0
102
RTVSPost2010Prop53
 90
        2
102
RTVSPost2010PropOp53
 70
     0
102
RTVSPost2010Prop54
  1
strokes_ogs.tif
102
RTVSPost2010PropOp54
 70
     0
102
RTVSPost2010Prop55
280
     0
102
RTVSPost2010PropOp55
 70
     0
102
RTVSPost2010Prop56
140
1.0
102
RTVSPost2010PropOp56
 70
     0
102
RTVSPost2010Prop57
140
1.0
102
RTVSPost2010PropOp57
 70
     0
  0
XRECORD
  5
6353F
102
{ACAD_REACTORS
330
6353E
102
}
330
6353E
100
AcDbXrecord
280
     1
102
RTVSPost2010Prop28
280
     0
102
RTVSPost2010PropOp28
 70
     1
102
RTVSPost2010Prop29
280
     1
102
RTVSPost2010PropOp29
 70
     1
102
RTVSPost2010Prop30
280
     1
102
RTVSPost2010PropOp30
 70
     1
102
RTVSPost2010Prop31
280
     0
102
RTVSPost2010PropOp31
 70
     1
102
RTVSPost2010Prop32
280
     0
102
RTVSPost2010PropOp32
 70
     1
102
RTVSPost2010Prop33
280
     0
102
RTVSPost2010PropOp33
 70
     1
102
RTVSPost2010Prop34
280
     0
102
RTVSPost2010PropOp34
 70
     1
102
RTVSPost2010Prop35
280
     0
102
RTVSPost2010PropOp35
 70
     1
102
RTVSPost2010Prop36
280
     0
102
RTVSPost2010PropOp36
 70
     1
102
RTVSPost2010Prop37
 90
       50
102
RTVSPost2010PropOp37
 70
     1
102
RTVSPost2010Prop38
140
0.0
102
RTVSPost2010PropOp38
 70
     1
102
RTVSPost2010Prop39
140
1.0
102
RTVSPost2010PropOp39
 70
     1
102
RTVSPost2010Prop40
 90
        0
102
RTVSPost2010PropOp40
 70
     1
102
RTVSPost2010Prop41ColorIndex
 90
       18
102
RTVSPost2010Prop41ColorRGB
 90
-16777216
102
RTVSPost2010PropOp41
 70
     1
102
RTVSPost2010Prop42
 90
       50
102
RTVSPost2010PropOp42
 70
     1
102
RTVSPost2010Prop43
 90
        3
102
RTVSPost2010PropOp43
 70
     1
102
RTVSPost2010Prop44ColorIndex
 90
        5
102
RTVSPost2010Prop44ColorRGB
 90
      255
102
RTVSPost2010PropOp44
 70
     1
102
RTVSPost2010Prop45
280
     0
102
RTVSPost2010PropOp45
 70
     1
102
RTVSPost2010Prop46
 90
       50
102
RTVSPost2010PropOp46
 70
     1
102
RTVSPost2010Prop47
 90
       50
102
RTVSPost2010PropOp47
 70
     1
102
RTVSPost2010Prop48
 90
       50
102
RTVSPost2010PropOp48
 70
     1
102
RTVSPost2010Prop49
280
     0
102
RTVSPost2010PropOp49
 70
     1
102
RTVSPost2010Prop50
 90
       50
102
RTVSPost2010PropOp50
 70
     1
102
RTVSPost2010Prop51ColorIndex
 90
      256
102
RTVSPost2010Prop51ColorRGB
 90
-16777216
102
RTVSPost2010PropOp51
 70
     0
102
RTVSPost2010Prop52
140
1.0
102
RTVSPost2010PropOp52
 70
     0
102
RTVSPost2010Prop53
 90
        2
102
RTVSPost2010PropOp53
 70
     1
102
RTVSPost2010Prop54
  1
strokes_ogs.tif
102
RTVSPost2010PropOp54
 70
     1
102
RTVSPost2010Prop55
280
     0
102
RTVSPost2010PropOp55
 70
     1
102
RTVSPost2010Prop56
140
1.0
102
RTVSPost2010PropOp56
 70
     1
102
RTVSPost2010Prop57
140
1.0
102
RTVSPost2010PropOp57
 70
     1
  0
XRECORD
  5
63547
102
{ACAD_REACTORS
330
63546
102
}
330
63546
100
AcDbXrecord
280
     1
102
RTVSPost2010Prop28
280
     0
102
RTVSPost2010PropOp28
 70
     0
102
RTVSPost2010Prop29
280
     1
102
RTVSPost2010PropOp29
 70
     0
102
RTVSPost2010Prop30
280
     1
102
RTVSPost2010PropOp30
 70
     0
102
RTVSPost2010Prop31
280
     0
102
RTVSPost2010PropOp31
 70
     0
102
RTVSPost2010Prop32
280
     0
102
RTVSPost2010PropOp32
 70
     0
102
RTVSPost2010Prop33
280
     0
102
RTVSPost2010PropOp33
 70
     0
102
RTVSPost2010Prop34
280
     0
102
RTVSPost2010PropOp34
 70
     0
102
RTVSPost2010Prop35
280
     0
102
RTVSPost2010PropOp35
 70
     0
102
RTVSPost2010Prop36
280
     0
102
RTVSPost2010PropOp36
 70
     0
102
RTVSPost2010Prop37
 90
       50
102
RTVSPost2010PropOp37
 70
     0
102
RTVSPost2010Prop38
140
0.0
102
RTVSPost2010PropOp38
 70
     0
102
RTVSPost2010Prop39
140
1.0
102
RTVSPost2010PropOp39
 70
     0
102
RTVSPost2010Prop40
 90
        0
102
RTVSPost2010PropOp40
 70
     0
102
RTVSPost2010Prop41ColorIndex
 90
       18
102
RTVSPost2010Prop41ColorRGB
 90
-16777216
102
RTVSPost2010PropOp41
 70
     0
102
RTVSPost2010Prop42
 90
       50
102
RTVSPost2010PropOp42
 70
     0
102
RTVSPost2010Prop43
 90
        3
102
RTVSPost2010PropOp43
 70
     0
102
RTVSPost2010Prop44ColorIndex
 90
        5
102
RTVSPost2010Prop44ColorRGB
 90
      255
102
RTVSPost2010PropOp44
 70
     0
102
RTVSPost2010Prop45
280
     0
102
RTVSPost2010PropOp45
 70
     0
102
RTVSPost2010Prop46
 90
       50
102
RTVSPost2010PropOp46
 70
     0
102
RTVSPost2010Prop47
 90
       50
102
RTVSPost2010PropOp47
 70
     0
102
RTVSPost2010Prop48
 90
       50
102
RTVSPost2010PropOp48
 70
     0
102
RTVSPost2010Prop49
280
     0
102
RTVSPost2010PropOp49
 70
     0
102
RTVSPost2010Prop50
 90
       50
102
RTVSPost2010PropOp50
 70
     0
102
RTVSPost2010Prop51ColorIndex
 90
      256
102
RTVSPost2010Prop51ColorRGB
 90
-16777216
102
RTVSPost2010PropOp51
 70
     0
102
RTVSPost2010Prop52
140
1.0
102
RTVSPost2010PropOp52
 70
     0
102
RTVSPost2010Prop53
 90
        2
102
RTVSPost2010PropOp53
 70
     0
102
RTVSPost2010Prop54
  1
strokes_ogs.tif
102
RTVSPost2010PropOp54
 70
     0
102
RTVSPost2010Prop55
280
     0
102
RTVSPost2010PropOp55
 70
     0
102
RTVSPost2010Prop56
140
1.0
102
RTVSPost2010PropOp56
 70
     0
102
RTVSPost2010Prop57
140
1.0
102
RTVSPost2010PropOp57
 70
     0
  0
XRECORD
  5
63535
102
{ACAD_REACTORS
330
63534
102
}
330
63534
100
AcDbXrecord
280
     1
102
RTVSPost2010Prop28
280
     0
102
RTVSPost2010PropOp28
 70
     1
102
RTVSPost2010Prop29
280
     1
102
RTVSPost2010PropOp29
 70
     1
102
RTVSPost2010Prop30
280
     1
102
RTVSPost2010PropOp30
 70
     1
102
RTVSPost2010Prop31
280
     0
102
RTVSPost2010PropOp31
 70
     1
102
RTVSPost2010Prop32
280
     0
102
RTVSPost2010PropOp32
 70
     1
102
RTVSPost2010Prop33
280
     0
102
RTVSPost2010PropOp33
 70
     1
102
RTVSPost2010Prop34
280
     0
102
RTVSPost2010PropOp34
 70
     1
102
RTVSPost2010Prop35
280
     0
102
RTVSPost2010PropOp35
 70
     1
102
RTVSPost2010Prop36
280
     0
102
RTVSPost2010PropOp36
 70
     1
102
RTVSPost2010Prop37
 90
       50
102
RTVSPost2010PropOp37
 70
     1
102
RTVSPost2010Prop38
140
0.0
102
RTVSPost2010PropOp38
 70
     1
102
RTVSPost2010Prop39
140
1.0
102
RTVSPost2010PropOp39
 70
     1
102
RTVSPost2010Prop40
 90
        0
102
RTVSPost2010PropOp40
 70
     1
102
RTVSPost2010Prop41ColorIndex
 90
       18
102
RTVSPost2010Prop41ColorRGB
 90
-16777216
102
RTVSPost2010PropOp41
 70
     1
102
RTVSPost2010Prop42
 90
       50
102
RTVSPost2010PropOp42
 70
     1
102
RTVSPost2010Prop43
 90
        3
102
RTVSPost2010PropOp43
 70
     1
102
RTVSPost2010Prop44ColorIndex
 90
        5
102
RTVSPost2010Prop44ColorRGB
 90
      255
102
RTVSPost2010PropOp44
 70
     1
102
RTVSPost2010Prop45
280
     0
102
RTVSPost2010PropOp45
 70
     1
102
RTVSPost2010Prop46
 90
       50
102
RTVSPost2010PropOp46
 70
     1
102
RTVSPost2010Prop47
 90
       50
102
RTVSPost2010PropOp47
 70
     1
102
RTVSPost2010Prop48
 90
       50
102
RTVSPost2010PropOp48
 70
     1
102
RTVSPost2010Prop49
280
     0
102
RTVSPost2010PropOp49
 70
     1
102
RTVSPost2010Prop50
 90
       50
102
RTVSPost2010PropOp50
 70
     1
102
RTVSPost2010Prop51ColorIndex
 90
      256
102
RTVSPost2010Prop51ColorRGB
 90
-16777216
102
RTVSPost2010PropOp51
 70
     0
102
RTVSPost2010Prop52
140
1.0
102
RTVSPost2010PropOp52
 70
     0
102
RTVSPost2010Prop53
 90
        2
102
RTVSPost2010PropOp53
 70
     1
102
RTVSPost2010Prop54
  1
strokes_ogs.tif
102
RTVSPost2010PropOp54
 70
     1
102
RTVSPost2010Prop55
280
     0
102
RTVSPost2010PropOp55
 70
     1
102
RTVSPost2010Prop56
140
1.0
102
RTVSPost2010PropOp56
 70
     1
102
RTVSPost2010Prop57
140
1.0
102
RTVSPost2010PropOp57
 70
     1
  0
XRECORD
  5
63553
102
{ACAD_REACTORS
330
63552
102
}
330
63552
100
AcDbXrecord
280
     1
102
RTVSPost2010Prop28
280
     0
102
RTVSPost2010PropOp28
 70
     1
102
RTVSPost2010Prop29
280
     1
102
RTVSPost2010PropOp29
 70
     1
102
RTVSPost2010Prop30
280
     1
102
RTVSPost2010PropOp30
 70
     1
102
RTVSPost2010Prop31
280
     0
102
RTVSPost2010PropOp31
 70
     1
102
RTVSPost2010Prop32
280
     0
102
RTVSPost2010PropOp32
 70
     1
102
RTVSPost2010Prop33
280
     0
102
RTVSPost2010PropOp33
 70
     1
102
RTVSPost2010Prop34
280
     0
102
RTVSPost2010PropOp34
 70
     1
102
RTVSPost2010Prop35
280
     0
102
RTVSPost2010PropOp35
 70
     1
102
RTVSPost2010Prop36
280
     0
102
RTVSPost2010PropOp36
 70
     1
102
RTVSPost2010Prop37
 90
       50
102
RTVSPost2010PropOp37
 70
     1
102
RTVSPost2010Prop38
140
0.0
102
RTVSPost2010PropOp38
 70
     1
102
RTVSPost2010Prop39
140
1.0
102
RTVSPost2010PropOp39
 70
     1
102
RTVSPost2010Prop40
 90
        0
102
RTVSPost2010PropOp40
 70
     1
102
RTVSPost2010Prop41ColorIndex
 90
       18
102
RTVSPost2010Prop41ColorRGB
 90
-16777216
102
RTVSPost2010PropOp41
 70
     1
102
RTVSPost2010Prop42
 90
       50
102
RTVSPost2010PropOp42
 70
     1
102
RTVSPost2010Prop43
 90
        3
102
RTVSPost2010PropOp43
 70
     1
102
RTVSPost2010Prop44ColorIndex
 90
        5
102
RTVSPost2010Prop44ColorRGB
 90
      255
102
RTVSPost2010PropOp44
 70
     1
102
RTVSPost2010Prop45
280
     0
102
RTVSPost2010PropOp45
 70
     1
102
RTVSPost2010Prop46
 90
       50
102
RTVSPost2010PropOp46
 70
     1
102
RTVSPost2010Prop47
 90
       50
102
RTVSPost2010PropOp47
 70
     1
102
RTVSPost2010Prop48
 90
       50
102
RTVSPost2010PropOp48
 70
     1
102
RTVSPost2010Prop49
280
     0
102
RTVSPost2010PropOp49
 70
     1
102
RTVSPost2010Prop50
 90
       50
102
RTVSPost2010PropOp50
 70
     1
102
RTVSPost2010Prop51ColorIndex
 90
      256
102
RTVSPost2010Prop51ColorRGB
 90
-16777216
102
RTVSPost2010PropOp51
 70
     0
102
RTVSPost2010Prop52
140
1.0
102
RTVSPost2010PropOp52
 70
     0
102
RTVSPost2010Prop53
 90
        2
102
RTVSPost2010PropOp53
 70
     1
102
RTVSPost2010Prop54
  1
strokes_ogs.tif
102
RTVSPost2010PropOp54
 70
     1
102
RTVSPost2010Prop55
280
     0
102
RTVSPost2010PropOp55
 70
     1
102
RTVSPost2010Prop56
140
1.0
102
RTVSPost2010PropOp56
 70
     1
102
RTVSPost2010Prop57
140
1.0
102
RTVSPost2010PropOp57
 70
     1
  0
XRECORD
  5
63551
102
{ACAD_REACTORS
330
63550
102
}
330
63550
100
AcDbXrecord
280
     1
102
RTVSPost2010Prop28
280
     0
102
RTVSPost2010PropOp28
 70
     1
102
RTVSPost2010Prop29
280
     1
102
RTVSPost2010PropOp29
 70
     1
102
RTVSPost2010Prop30
280
     1
102
RTVSPost2010PropOp30
 70
     1
102
RTVSPost2010Prop31
280
     0
102
RTVSPost2010PropOp31
 70
     1
102
RTVSPost2010Prop32
280
     0
102
RTVSPost2010PropOp32
 70
     1
102
RTVSPost2010Prop33
280
     0
102
RTVSPost2010PropOp33
 70
     1
102
RTVSPost2010Prop34
280
     0
102
RTVSPost2010PropOp34
 70
     1
102
RTVSPost2010Prop35
280
     0
102
RTVSPost2010PropOp35
 70
     1
102
RTVSPost2010Prop36
280
     0
102
RTVSPost2010PropOp36
 70
     1
102
RTVSPost2010Prop37
 90
       50
102
RTVSPost2010PropOp37
 70
     1
102
RTVSPost2010Prop38
140
0.0
102
RTVSPost2010PropOp38
 70
     1
102
RTVSPost2010Prop39
140
1.0
102
RTVSPost2010PropOp39
 70
     1
102
RTVSPost2010Prop40
 90
        0
102
RTVSPost2010PropOp40
 70
     1
102
RTVSPost2010Prop41ColorIndex
 90
       18
102
RTVSPost2010Prop41ColorRGB
 90
-16777216
102
RTVSPost2010PropOp41
 70
     1
102
RTVSPost2010Prop42
 90
       50
102
RTVSPost2010PropOp42
 70
     1
102
RTVSPost2010Prop43
 90
        3
102
RTVSPost2010PropOp43
 70
     1
102
RTVSPost2010Prop44ColorIndex
 90
        5
102
RTVSPost2010Prop44ColorRGB
 90
      255
102
RTVSPost2010PropOp44
 70
     1
102
RTVSPost2010Prop45
280
     0
102
RTVSPost2010PropOp45
 70
     1
102
RTVSPost2010Prop46
 90
       50
102
RTVSPost2010PropOp46
 70
     1
102
RTVSPost2010Prop47
 90
       50
102
RTVSPost2010PropOp47
 70
     1
102
RTVSPost2010Prop48
 90
       50
102
RTVSPost2010PropOp48
 70
     1
102
RTVSPost2010Prop49
280
     0
102
RTVSPost2010PropOp49
 70
     1
102
RTVSPost2010Prop50
 90
       50
102
RTVSPost2010PropOp50
 70
     1
102
RTVSPost2010Prop51ColorIndex
 90
      256
102
RTVSPost2010Prop51ColorRGB
 90
-16777216
102
RTVSPost2010PropOp51
 70
     0
102
RTVSPost2010Prop52
140
1.0
102
RTVSPost2010PropOp52
 70
     0
102
RTVSPost2010Prop53
 90
        2
102
RTVSPost2010PropOp53
 70
     1
102
RTVSPost2010Prop54
  1
strokes_ogs.tif
102
RTVSPost2010PropOp54
 70
     1
102
RTVSPost2010Prop55
280
     0
102
RTVSPost2010PropOp55
 70
     1
102
RTVSPost2010Prop56
140
1.0
102
RTVSPost2010PropOp56
 70
     1
102
RTVSPost2010Prop57
140
1.0
102
RTVSPost2010PropOp57
 70
     1
  0
XRECORD
  5
6354B
102
{ACAD_REACTORS
330
6354A
102
}
330
6354A
100
AcDbXrecord
280
     1
102
RTVSPost2010Prop28
280
     0
102
RTVSPost2010PropOp28
 70
     1
102
RTVSPost2010Prop29
280
     1
102
RTVSPost2010PropOp29
 70
     1
102
RTVSPost2010Prop30
280
     1
102
RTVSPost2010PropOp30
 70
     1
102
RTVSPost2010Prop31
280
     0
102
RTVSPost2010PropOp31
 70
     1
102
RTVSPost2010Prop32
280
     0
102
RTVSPost2010PropOp32
 70
     1
102
RTVSPost2010Prop33
280
     0
102
RTVSPost2010PropOp33
 70
     1
102
RTVSPost2010Prop34
280
     0
102
RTVSPost2010PropOp34
 70
     1
102
RTVSPost2010Prop35
280
     0
102
RTVSPost2010PropOp35
 70
     1
102
RTVSPost2010Prop36
280
     0
102
RTVSPost2010PropOp36
 70
     1
102
RTVSPost2010Prop37
 90
       50
102
RTVSPost2010PropOp37
 70
     1
102
RTVSPost2010Prop38
140
0.0
102
RTVSPost2010PropOp38
 70
     1
102
RTVSPost2010Prop39
140
1.0
102
RTVSPost2010PropOp39
 70
     1
102
RTVSPost2010Prop40
 90
        0
102
RTVSPost2010PropOp40
 70
     1
102
RTVSPost2010Prop41ColorIndex
 90
       18
102
RTVSPost2010Prop41ColorRGB
 90
-16777216
102
RTVSPost2010PropOp41
 70
     1
102
RTVSPost2010Prop42
 90
       50
102
RTVSPost2010PropOp42
 70
     1
102
RTVSPost2010Prop43
 90
        3
102
RTVSPost2010PropOp43
 70
     1
102
RTVSPost2010Prop44ColorIndex
 90
        5
102
RTVSPost2010Prop44ColorRGB
 90
      255
102
RTVSPost2010PropOp44
 70
     1
102
RTVSPost2010Prop45
280
     0
102
RTVSPost2010PropOp45
 70
     1
102
RTVSPost2010Prop46
 90
       50
102
RTVSPost2010PropOp46
 70
     1
102
RTVSPost2010Prop47
 90
       50
102
RTVSPost2010PropOp47
 70
     1
102
RTVSPost2010Prop48
 90
       50
102
RTVSPost2010PropOp48
 70
     1
102
RTVSPost2010Prop49
280
     0
102
RTVSPost2010PropOp49
 70
     1
102
RTVSPost2010Prop50
 90
       50
102
RTVSPost2010PropOp50
 70
     1
102
RTVSPost2010Prop51ColorIndex
 90
      256
102
RTVSPost2010Prop51ColorRGB
 90
-16777216
102
RTVSPost2010PropOp51
 70
     0
102
RTVSPost2010Prop52
140
1.0
102
RTVSPost2010PropOp52
 70
     0
102
RTVSPost2010Prop53
 90
        2
102
RTVSPost2010PropOp53
 70
     1
102
RTVSPost2010Prop54
  1
strokes_ogs.tif
102
RTVSPost2010PropOp54
 70
     1
102
RTVSPost2010Prop55
280
     0
102
RTVSPost2010PropOp55
 70
     1
102
RTVSPost2010Prop56
140
1.0
102
RTVSPost2010PropOp56
 70
     1
102
RTVSPost2010Prop57
140
1.0
102
RTVSPost2010PropOp57
 70
     1
  0
XRECORD
  5
6354D
102
{ACAD_REACTORS
330
6354C
102
}
330
6354C
100
AcDbXrecord
280
     1
102
RTVSPost2010Prop28
280
     0
102
RTVSPost2010PropOp28
 70
     1
102
RTVSPost2010Prop29
280
     1
102
RTVSPost2010PropOp29
 70
     1
102
RTVSPost2010Prop30
280
     1
102
RTVSPost2010PropOp30
 70
     1
102
RTVSPost2010Prop31
280
     0
102
RTVSPost2010PropOp31
 70
     1
102
RTVSPost2010Prop32
280
     0
102
RTVSPost2010PropOp32
 70
     1
102
RTVSPost2010Prop33
280
     0
102
RTVSPost2010PropOp33
 70
     1
102
RTVSPost2010Prop34
280
     0
102
RTVSPost2010PropOp34
 70
     1
102
RTVSPost2010Prop35
280
     0
102
RTVSPost2010PropOp35
 70
     1
102
RTVSPost2010Prop36
280
     0
102
RTVSPost2010PropOp36
 70
     1
102
RTVSPost2010Prop37
 90
       50
102
RTVSPost2010PropOp37
 70
     1
102
RTVSPost2010Prop38
140
0.0
102
RTVSPost2010PropOp38
 70
     1
102
RTVSPost2010Prop39
140
1.0
102
RTVSPost2010PropOp39
 70
     1
102
RTVSPost2010Prop40
 90
        0
102
RTVSPost2010PropOp40
 70
     1
102
RTVSPost2010Prop41ColorIndex
 90
       18
102
RTVSPost2010Prop41ColorRGB
 90
-16777216
102
RTVSPost2010PropOp41
 70
     1
102
RTVSPost2010Prop42
 90
       50
102
RTVSPost2010PropOp42
 70
     1
102
RTVSPost2010Prop43
 90
        3
102
RTVSPost2010PropOp43
 70
     1
102
RTVSPost2010Prop44ColorIndex
 90
        5
102
RTVSPost2010Prop44ColorRGB
 90
      255
102
RTVSPost2010PropOp44
 70
     1
102
RTVSPost2010Prop45
280
     0
102
RTVSPost2010PropOp45
 70
     1
102
RTVSPost2010Prop46
 90
       50
102
RTVSPost2010PropOp46
 70
     1
102
RTVSPost2010Prop47
 90
       50
102
RTVSPost2010PropOp47
 70
     1
102
RTVSPost2010Prop48
 90
       50
102
RTVSPost2010PropOp48
 70
     1
102
RTVSPost2010Prop49
280
     0
102
RTVSPost2010PropOp49
 70
     1
102
RTVSPost2010Prop50
 90
       50
102
RTVSPost2010PropOp50
 70
     1
102
RTVSPost2010Prop51ColorIndex
 90
      256
102
RTVSPost2010Prop51ColorRGB
 90
-16777216
102
RTVSPost2010PropOp51
 70
     0
102
RTVSPost2010Prop52
140
1.0
102
RTVSPost2010PropOp52
 70
     0
102
RTVSPost2010Prop53
 90
        2
102
RTVSPost2010PropOp53
 70
     1
102
RTVSPost2010Prop54
  1
strokes_ogs.tif
102
RTVSPost2010PropOp54
 70
     1
102
RTVSPost2010Prop55
280
     0
102
RTVSPost2010PropOp55
 70
     1
102
RTVSPost2010Prop56
140
1.0
102
RTVSPost2010PropOp56
 70
     1
102
RTVSPost2010Prop57
140
1.0
102
RTVSPost2010PropOp57
 70
     1
  0
XRECORD
  5
6353D
102
{ACAD_REACTORS
330
6353C
102
}
330
6353C
100
AcDbXrecord
280
     1
102
RTVSPost2010Prop28
280
     0
102
RTVSPost2010PropOp28
 70
     1
102
RTVSPost2010Prop29
280
     1
102
RTVSPost2010PropOp29
 70
     1
102
RTVSPost2010Prop30
280
     1
102
RTVSPost2010PropOp30
 70
     1
102
RTVSPost2010Prop31
280
     0
102
RTVSPost2010PropOp31
 70
     1
102
RTVSPost2010Prop32
280
     0
102
RTVSPost2010PropOp32
 70
     1
102
RTVSPost2010Prop33
280
     0
102
RTVSPost2010PropOp33
 70
     1
102
RTVSPost2010Prop34
280
     0
102
RTVSPost2010PropOp34
 70
     1
102
RTVSPost2010Prop35
280
     0
102
RTVSPost2010PropOp35
 70
     1
102
RTVSPost2010Prop36
280
     0
102
RTVSPost2010PropOp36
 70
     1
102
RTVSPost2010Prop37
 90
       50
102
RTVSPost2010PropOp37
 70
     1
102
RTVSPost2010Prop38
140
0.0
102
RTVSPost2010PropOp38
 70
     1
102
RTVSPost2010Prop39
140
1.0
102
RTVSPost2010PropOp39
 70
     1
102
RTVSPost2010Prop40
 90
        0
102
RTVSPost2010PropOp40
 70
     1
102
RTVSPost2010Prop41ColorIndex
 90
       18
102
RTVSPost2010Prop41ColorRGB
 90
-16777216
102
RTVSPost2010PropOp41
 70
     1
102
RTVSPost2010Prop42
 90
       50
102
RTVSPost2010PropOp42
 70
     1
102
RTVSPost2010Prop43
 90
        3
102
RTVSPost2010PropOp43
 70
     1
102
RTVSPost2010Prop44ColorIndex
 90
        5
102
RTVSPost2010Prop44ColorRGB
 90
      255
102
RTVSPost2010PropOp44
 70
     1
102
RTVSPost2010Prop45
280
     0
102
RTVSPost2010PropOp45
 70
     1
102
RTVSPost2010Prop46
 90
       50
102
RTVSPost2010PropOp46
 70
     1
102
RTVSPost2010Prop47
 90
       50
102
RTVSPost2010PropOp47
 70
     1
102
RTVSPost2010Prop48
 90
       50
102
RTVSPost2010PropOp48
 70
     1
102
RTVSPost2010Prop49
280
     0
102
RTVSPost2010PropOp49
 70
     1
102
RTVSPost2010Prop50
 90
       50
102
RTVSPost2010PropOp50
 70
     1
102
RTVSPost2010Prop51ColorIndex
 90
      256
102
RTVSPost2010Prop51ColorRGB
 90
-16777216
102
RTVSPost2010PropOp51
 70
     0
102
RTVSPost2010Prop52
140
1.0
102
RTVSPost2010PropOp52
 70
     0
102
RTVSPost2010Prop53
 90
        2
102
RTVSPost2010PropOp53
 70
     1
102
RTVSPost2010Prop54
  1
strokes_ogs.tif
102
RTVSPost2010PropOp54
 70
     1
102
RTVSPost2010Prop55
280
     0
102
RTVSPost2010PropOp55
 70
     1
102
RTVSPost2010Prop56
140
1.0
102
RTVSPost2010PropOp56
 70
     1
102
RTVSPost2010Prop57
140
1.0
102
RTVSPost2010PropOp57
 70
     1
  0
XRECORD
  5
6352F
102
{ACAD_REACTORS
330
6352E
102
}
330
6352E
100
AcDbXrecord
280
     1
102
RTVSPost2010Prop28
280
     0
102
RTVSPost2010PropOp28
 70
     1
102
RTVSPost2010Prop29
280
     1
102
RTVSPost2010PropOp29
 70
     1
102
RTVSPost2010Prop30
280
     1
102
RTVSPost2010PropOp30
 70
     1
102
RTVSPost2010Prop31
280
     0
102
RTVSPost2010PropOp31
 70
     1
102
RTVSPost2010Prop32
280
     0
102
RTVSPost2010PropOp32
 70
     1
102
RTVSPost2010Prop33
280
     0
102
RTVSPost2010PropOp33
 70
     1
102
RTVSPost2010Prop34
280
     0
102
RTVSPost2010PropOp34
 70
     1
102
RTVSPost2010Prop35
280
     0
102
RTVSPost2010PropOp35
 70
     1
102
RTVSPost2010Prop36
280
     0
102
RTVSPost2010PropOp36
 70
     1
102
RTVSPost2010Prop37
 90
       50
102
RTVSPost2010PropOp37
 70
     1
102
RTVSPost2010Prop38
140
0.0
102
RTVSPost2010PropOp38
 70
     1
102
RTVSPost2010Prop39
140
1.0
102
RTVSPost2010PropOp39
 70
     1
102
RTVSPost2010Prop40
 90
        0
102
RTVSPost2010PropOp40
 70
     1
102
RTVSPost2010Prop41ColorIndex
 90
       18
102
RTVSPost2010Prop41ColorRGB
 90
-16777216
102
RTVSPost2010PropOp41
 70
     1
102
RTVSPost2010Prop42
 90
       50
102
RTVSPost2010PropOp42
 70
     1
102
RTVSPost2010Prop43
 90
        3
102
RTVSPost2010PropOp43
 70
     1
102
RTVSPost2010Prop44ColorIndex
 90
        5
102
RTVSPost2010Prop44ColorRGB
 90
      255
102
RTVSPost2010PropOp44
 70
     1
102
RTVSPost2010Prop45
280
     0
102
RTVSPost2010PropOp45
 70
     1
102
RTVSPost2010Prop46
 90
       50
102
RTVSPost2010PropOp46
 70
     1
102
RTVSPost2010Prop47
 90
       50
102
RTVSPost2010PropOp47
 70
     1
102
RTVSPost2010Prop48
 90
       50
102
RTVSPost2010PropOp48
 70
     1
102
RTVSPost2010Prop49
280
     0
102
RTVSPost2010PropOp49
 70
     1
102
RTVSPost2010Prop50
 90
       50
102
RTVSPost2010PropOp50
 70
     1
102
RTVSPost2010Prop51ColorIndex
 90
      256
102
RTVSPost2010Prop51ColorRGB
 90
-16777216
102
RTVSPost2010PropOp51
 70
     0
102
RTVSPost2010Prop52
140
1.0
102
RTVSPost2010PropOp52
 70
     0
102
RTVSPost2010Prop53
 90
        2
102
RTVSPost2010PropOp53
 70
     1
102
RTVSPost2010Prop54
  1
strokes_ogs.tif
102
RTVSPost2010PropOp54
 70
     1
102
RTVSPost2010Prop55
280
     0
102
RTVSPost2010PropOp55
 70
     1
102
RTVSPost2010Prop56
140
1.0
102
RTVSPost2010PropOp56
 70
     1
102
RTVSPost2010Prop57
140
1.0
102
RTVSPost2010PropOp57
 70
     1
  0
XRECORD
  5
6354F
102
{ACAD_REACTORS
330
6354E
102
}
330
6354E
100
AcDbXrecord
280
     1
102
RTVSPost2010Prop28
280
     0
102
RTVSPost2010PropOp28
 70
     1
102
RTVSPost2010Prop29
280
     1
102
RTVSPost2010PropOp29
 70
     1
102
RTVSPost2010Prop30
280
     1
102
RTVSPost2010PropOp30
 70
     1
102
RTVSPost2010Prop31
280
     0
102
RTVSPost2010PropOp31
 70
     1
102
RTVSPost2010Prop32
280
     0
102
RTVSPost2010PropOp32
 70
     1
102
RTVSPost2010Prop33
280
     0
102
RTVSPost2010PropOp33
 70
     1
102
RTVSPost2010Prop34
280
     0
102
RTVSPost2010PropOp34
 70
     1
102
RTVSPost2010Prop35
280
     0
102
RTVSPost2010PropOp35
 70
     1
102
RTVSPost2010Prop36
280
     0
102
RTVSPost2010PropOp36
 70
     1
102
RTVSPost2010Prop37
 90
       50
102
RTVSPost2010PropOp37
 70
     1
102
RTVSPost2010Prop38
140
0.0
102
RTVSPost2010PropOp38
 70
     1
102
RTVSPost2010Prop39
140
1.0
102
RTVSPost2010PropOp39
 70
     1
102
RTVSPost2010Prop40
 90
        0
102
RTVSPost2010PropOp40
 70
     1
102
RTVSPost2010Prop41ColorIndex
 90
       18
102
RTVSPost2010Prop41ColorRGB
 90
-16777216
102
RTVSPost2010PropOp41
 70
     1
102
RTVSPost2010Prop42
 90
       50
102
RTVSPost2010PropOp42
 70
     1
102
RTVSPost2010Prop43
 90
        3
102
RTVSPost2010PropOp43
 70
     1
102
RTVSPost2010Prop44ColorIndex
 90
        5
102
RTVSPost2010Prop44ColorRGB
 90
      255
102
RTVSPost2010PropOp44
 70
     1
102
RTVSPost2010Prop45
280
     0
102
RTVSPost2010PropOp45
 70
     1
102
RTVSPost2010Prop46
 90
       50
102
RTVSPost2010PropOp46
 70
     1
102
RTVSPost2010Prop47
 90
       50
102
RTVSPost2010PropOp47
 70
     1
102
RTVSPost2010Prop48
 90
       50
102
RTVSPost2010PropOp48
 70
     1
102
RTVSPost2010Prop49
280
     0
102
RTVSPost2010PropOp49
 70
     1
102
RTVSPost2010Prop50
 90
       50
102
RTVSPost2010PropOp50
 70
     1
102
RTVSPost2010Prop51ColorIndex
 90
      256
102
RTVSPost2010Prop51ColorRGB
 90
-16777216
102
RTVSPost2010PropOp51
 70
     0
102
RTVSPost2010Prop52
140
1.0
102
RTVSPost2010PropOp52
 70
     0
102
RTVSPost2010Prop53
 90
        2
102
RTVSPost2010PropOp53
 70
     1
102
RTVSPost2010Prop54
  1
strokes_ogs.tif
102
RTVSPost2010PropOp54
 70
     1
102
RTVSPost2010Prop55
280
     0
102
RTVSPost2010PropOp55
 70
     1
102
RTVSPost2010Prop56
140
1.0
102
RTVSPost2010PropOp56
 70
     1
102
RTVSPost2010Prop57
140
1.0
102
RTVSPost2010PropOp57
 70
     1
  0
ENDSEC
  0
EOF
