  0
SECTION
  2
HEADER
  9
$ACADVER
  1
AC1015
  9
$ACADMAINTVER
 70
    20
  9
$DWGCODEPAGE
  3
ANSI_932
  9
$INSBASE
 10
0.0
 20
0.0
 30
0.0
  9
$EXTMIN
 10
-0.1348348580759193
 20
-0.4218651418341324
 30
-0.0015258207003583
  9
$EXTMAX
 10
1188.073092331727
 20
840.3980516361771
 30
0.0000000349246037
  9
$LIMMIN
 10
-1206.906806347062
 20
-12202.36094600418
  9
$LIMMAX
 10
-366.9068063470622
 20
-11608.36094600418
  9
$ORTHOMODE
 70
     0
  9
$REGENMODE
 70
     1
  9
$FILLMODE
 70
     1
  9
$QTEXTMODE
 70
     0
  9
$MIRRTEXT
 70
     0
  9
$LTSCALE
 40
1.0
  9
$ATTMODE
 70
     1
  9
$TEXTSIZE
 40
3.2
  9
$TRACEWID
 40
1.0
  9
$TEXTSTYLE
  7
STANDARD
  9
$CLAYER
  8
AM_6
  9
$CELTYPE
  6
ByLayer
  9
$CECOLOR
 62
   256
  9
$CELTSCALE
 40
1.0
  9
$DISPSILH
 70
     0
  9
$DIMSCALE
 40
1.0
  9
$DIMASZ
 40
1.0
  9
$DIMEXO
 40
1.0
  9
$DIMDLI
 40
10.0
  9
$DIMRND
 40
0.0
  9
$DIMDLE
 40
0.0
  9
$DIMEXE
 40
1.0
  9
$DIMTP
 40
0.1
  9
$DIMTM
 40
0.1
  9
$DIMTXT
 40
3.5
  9
$DIMCEN
 40
0.0
  9
$DIMTSZ
 40
0.0
  9
$DIMTOL
 70
     0
  9
$DIMLIM
 70
     0
  9
$DIMTIH
 70
     0
  9
$DIMTOH
 70
     0
  9
$DIMSE1
 70
     0
  9
$DIMSE2
 70
     0
  9
$DIMTAD
 70
     1
  9
$DIMZIN
 70
     8
  9
$DIMBLK
  1

  9
$DIMASO
 70
     1
  9
$DIMSHO
 70
     1
  9
$DIMPOST
  1

  9
$DIMAPOST
  1
"
  9
$DIMALT
 70
     0
  9
$DIMALTD
 70
     2
  9
$DIMALTF
 40
0.0393701
  9
$DIMLFAC
 40
1.0
  9
$DIMTOFL
 70
     1
  9
$DIMTVP
 40
0.0
  9
$DIMTIX
 70
     0
  9
$DIMSOXD
 70
     0
  9
$DIMSAH
 70
     0
  9
$DIMBLK1
  1

  9
$DIMBLK2
  1

  9
$DIMSTYLE
  2
SYS
  9
$DIMCLRD
 70
   256
  9
$DIMCLRE
 70
   256
  9
$DIMCLRT
 70
     7
  9
$DIMTFAC
 40
0.71
  9
$DIMGAP
 40
1.5
  9
$DIMJUST
 70
     0
  9
$DIMSD1
 70
     0
  9
$DIMSD2
 70
     0
  9
$DIMTOLJ
 70
     0
  9
$DIMTZIN
 70
     8
  9
$DIMALTZ
 70
     0
  9
$DIMALTTZ
 70
     0
  9
$DIMUPT
 70
     0
  9
$DIMDEC
 70
     1
  9
$DIMTDEC
 70
     2
  9
$DIMALTU
 70
     2
  9
$DIMALTTD
 70
     2
  9
$DIMTXSTY
  7
STANDARD
  9
$DIMAUNIT
 70
     0
  9
$DIMADEC
 70
     0
  9
$DIMALTRND
 40
0.0
  9
$DIMAZIN
 70
     2
  9
$DIMDSEP
 70
    46
  9
$DIMATFIT
 70
     3
  9
$DIMFRAC
 70
     0
  9
$DIMLDRBLK
  1

  9
$DIMLUNIT
 70
     2
  9
$DIMLWD
 70
    -1
  9
$DIMLWE
 70
    -1
  9
$DIMTMOVE
 70
     0
  9
$LUNITS
 70
     2
  9
$LUPREC
 70
     2
  9
$SKETCHINC
 40
1.0
  9
$FILLETRAD
 40
0.0
  9
$AUNITS
 70
     0
  9
$AUPREC
 70
     0
  9
$MENU
  1
.
  9
$ELEVATION
 40
0.0
  9
$PELEVATION
 40
0.0
  9
$THICKNESS
 40
0.0
  9
$LIMCHECK
 70
     0
  9
$CHAMFERA
 40
0.0
  9
$CHAMFERB
 40
0.0
  9
$CHAMFERC
 40
20.0
  9
$CHAMFERD
 40
0.0
  9
$SKPOLY
 70
     0
  9
$TDCREATE
 40
2455567.561054317
  9
$TDUCREATE
 40
2455567.186054318
  9
$TDUPDATE
 40
2456267.577425128
  9
$TDUUPDATE
 40
2456267.202425128
  9
$TDINDWG
 40
3.1651182986
  9
$TDUSRTIMER
 40
3.1651163079
  9
$USRTIMER
 70
     1
  9
$ANGBASE
 50
0.0
  9
$ANGDIR
 70
     0
  9
$PDMODE
 70
     0
  9
$PDSIZE
 40
-3.0
  9
$PLINEWID
 40
0.0
  9
$SPLFRAME
 70
     0
  9
$SPLINETYPE
 70
     6
  9
$SPLINESEGS
 70
     8
  9
$HANDSEED
  5
AB251
  9
$SURFTAB1
 70
     6
  9
$SURFTAB2
 70
     6
  9
$SURFTYPE
 70
     6
  9
$SURFU
 70
     6
  9
$SURFV
 70
     6
  9
$UCSBASE
  2

  9
$UCSNAME
  2

  9
$UCSORG
 10
0.0
 20
0.0
 30
0.0
  9
$UCSXDIR
 10
1.0
 20
0.0
 30
0.0
  9
$UCSYDIR
 10
0.0
 20
1.0
 30
0.0
  9
$UCSORTHOREF
  2

  9
$UCSORTHOVIEW
 70
     0
  9
$UCSORGTOP
 10
0.0
 20
0.0
 30
0.0
  9
$UCSORGBOTTOM
 10
0.0
 20
0.0
 30
0.0
  9
$UCSORGLEFT
 10
0.0
 20
0.0
 30
0.0
  9
$UCSORGRIGHT
 10
0.0
 20
0.0
 30
0.0
  9
$UCSORGFRONT
 10
0.0
 20
0.0
 30
0.0
  9
$UCSORGBACK
 10
0.0
 20
0.0
 30
0.0
  9
$PUCSBASE
  2

  9
$PUCSNAME
  2

  9
$PUCSORG
 10
0.0
 20
0.0
 30
0.0
  9
$PUCSXDIR
 10
1.0
 20
0.0
 30
0.0
  9
$PUCSYDIR
 10
0.0
 20
1.0
 30
0.0
  9
$PUCSORTHOREF
  2

  9
$PUCSORTHOVIEW
 70
     0
  9
$PUCSORGTOP
 10
0.0
 20
0.0
 30
0.0
  9
$PUCSORGBOTTOM
 10
0.0
 20
0.0
 30
0.0
  9
$PUCSORGLEFT
 10
0.0
 20
0.0
 30
0.0
  9
$PUCSORGRIGHT
 10
0.0
 20
0.0
 30
0.0
  9
$PUCSORGFRONT
 10
0.0
 20
0.0
 30
0.0
  9
$PUCSORGBACK
 10
0.0
 20
0.0
 30
0.0
  9
$USERI1
 70
     0
  9
$USERI2
 70
     0
  9
$USERI3
 70
     0
  9
$USERI4
 70
     0
  9
$USERI5
 70
     0
  9
$USERR1
 40
0.0
  9
$USERR2
 40
0.0
  9
$USERR3
 40
0.0
  9
$USERR4
 40
0.0
  9
$USERR5
 40
0.0
  9
$WORLDVIEW
 70
     1
  9
$SHADEDGE
 70
     3
  9
$SHADEDIF
 70
    70
  9
$TILEMODE
 70
     1
  9
$MAXACTVP
 70
    64
  9
$PINSBASE
 10
0.0
 20
0.0
 30
0.0
  9
$PLIMCHECK
 70
     0
  9
$PEXTMIN
 10
1.000000000000000E+20
 20
1.000000000000000E+20
 30
1.000000000000000E+20
  9
$PEXTMAX
 10
-1.000000000000000E+20
 20
-1.000000000000000E+20
 30
-1.000000000000000E+20
  9
$PLIMMIN
 10
-3.17498779296875
 20
-3.174999952316284
  9
$PLIMMAX
 10
293.4970092773438
 20
206.692492723465
  9
$UNITMODE
 70
     0
  9
$VISRETAIN
 70
     1
  9
$PLINEGEN
 70
     0
  9
$PSLTSCALE
 70
     1
  9
$TREEDEPTH
 70
  3020
  9
$CMLSTYLE
  2
Standard
  9
$CMLJUST
 70
     0
  9
$CMLSCALE
 40
20.0
  9
$PROXYGRAPHICS
 70
     1
  9
$MEASUREMENT
 70
     1
  9
$CELWEIGHT
370
    -1
  9
$ENDCAPS
280
     0
  9
$JOINSTYLE
280
     0
  9
$LWDISPLAY
290
     1
  9
$INSUNITS
 70
     4
  9
$HYPERLINKBASE
  1

  9
$STYLESHEET
  1
monochrome.ctb
  9
$XEDIT
290
     1
  9
$CEPSNTYPE
380
     0
  9
$PSTYLEMODE
290
     1
  9
$FINGERPRINTGUID
  2
{E0FB5660-30B4-4D8A-8C1D-9D7E99D72F0A}
  9
$VERSIONGUID
  2
{FEF63EE8-29D7-4EAA-910A-113D62FAD97C}
  9
$EXTNAMES
290
     1
  9
$PSVPSCALE
 40
0.0
  9
$OLESTARTUP
290
     0
  0
ENDSEC
  0
SECTION
  2
CLASSES
  0
CLASS
  1
ACDBDICTIONARYWDFLT
  2
AcDbDictionaryWithDefault
  3
ObjectDBX Classes
 90
        0
280
     0
281
     0
  0
CLASS
  1
ACDBPLACEHOLDER
  2
AcDbPlaceHolder
  3
ObjectDBX Classes
 90
        0
280
     0
281
     0
  0
CLASS
  1
LAYOUT
  2
AcDbLayout
  3
ObjectDBX Classes
 90
        0
280
     0
281
     0
  0
CLASS
  1
AMGSETTINGSOBJ
  2
AmgSettingsObj
  3
"AcadM|Product Description: AutoCAD Mechanical|Company: Autodesk"
 90
        0
280
     0
281
     0
  0
CLASS
  1
ACME_DOCUMENT
  2
AcMeDbDoc
  3
AcMeServices
 90
        0
280
     0
281
     0
  0
CLASS
  1
ACMESCOPE
  2
AcMeScope
  3
AcMeServices
 90
        0
280
     0
281
     0
  0
CLASS
  1
ACMECOMMANDHISTORY
  2
AcMeCommandHistory
  3
AcMeServices
 90
        0
280
     0
281
     0
  0
CLASS
  1
DICTIONARYVAR
  2
AcDbDictionaryVar
  3
ObjectDBX Classes
 90
        0
280
     0
281
     0
  0
CLASS
  1
ACIMSYSVARMAN
  2
AcImSysVarManager
  3
AcMeServices
 90
        0
280
     0
281
     0
  0
CLASS
  1
ACIMREALSYSVAR
  2
AcImRealSysVar
  3
AcMeServices
 90
        0
280
     0
281
     0
  0
CLASS
  1
ACIMINTSYSVAR
  2
AcImIntSysVar
  3
AcMeServices
 90
        0
280
     0
281
     0
  0
CLASS
  1
ACMEDRAWINGMAN
  2
AcMeDrawingMan
  3
AcMeServices
 90
        0
280
     0
281
     0
  0
CLASS
  1
ACMEVIEW
  2
AcMeView
  3
AcMeServices
 90
        0
280
     0
281
     0
  0
CLASS
  1
ACDBENTITYCACHE
  2
AcMeEntityCache
  3
AcMeServices
 90
        0
280
     0
281
     0
  0
CLASS
  1
GSMANAGER
  2
AcMeGSManager
  3
AcMeServices
 90
        0
280
     0
281
     0
  0
CLASS
  1
AMDTINTERNALREACTOR
  2
AmdtInternalReactor
  3
AcMeServices
 90
        0
280
     0
281
     0
  0
CLASS
  1
ACMESTATEMGR
  2
AcMeStateMgr
  3
AcMeServices
 90
        0
280
     0
281
     0
  0
CLASS
  1
ACGREFMASTER
  2
AcGrefMaster
  3
AcAttribServices
 90
        0
280
     0
281
     0
  0
CLASS
  1
ACME_DATABASE
  2
AcMeDbDatabase
  3
AcMeServices
 90
        0
280
     0
281
     0
  0
CLASS
  1
ACRFINSADJUSTERMGR
  2
AcRfInsAdjusterMgr
  3
AcMeServices
 90
        0
280
     0
281
     0
  0
CLASS
  1
ACGREFACADMASTER
  2
AcGrefacadMaster
  3
AcGrefServices
 90
        0
280
     0
281
     0
  0
CLASS
  1
AMIMASTER
  2
AmiMaster
  3
AmiServices
 90
        0
280
     0
281
     0
  0
CLASS
  1
ACMDATADICTIONARY
  2
AcmDataDictionary
  3
"AcmSymBB|Product Description: AutoCAD Mechanical|Company: Autodesk"
 90
        0
280
     0
281
     0
  0
CLASS
  1
ACMDATAENTRYBLOCK
  2
AcmDataEntryBlock
  3
"AcmSymBB|Product Description: AutoCAD Mechanical|Company: Autodesk"
 90
    32768
280
     0
281
     0
  0
CLASS
  1
ACIMSTRSYSVAR
  2
AcImStrSysVar
  3
AcMeServices
 90
        0
280
     0
281
     0
  0
CLASS
  1
ACMSTANDARDISO
  2
AcmStandardISO
  3
"Amdt_StdImp|Product Description: AutoCAD Mechanical|Company: Autodesk"
 90
        0
280
     0
281
     0
  0
CLASS
  1
AMGOBJPROPCFG
  2
AmgObjPropCfg
  3
"AmgLay|Product Description: AutoCAD Mechanical|Company: Autodesk"
 90
        1
280
     0
281
     0
  0
CLASS
  1
AMDTEDGESTANDARDISO
  2
AmdtEdgeStdISO
  3
"Amdt_StdImp|Product Description: AutoCAD Mechanical|Company: Autodesk"
 90
    32768
280
     0
281
     0
  0
CLASS
  1
ACMSURFSTANDARDISO
  2
AcmSurfTextStdISO
  3
"Amdt_StdImp|Product Description: AutoCAD Mechanical|Company: Autodesk"
 90
        0
280
     0
281
     0
  0
CLASS
  1
ACMFCFSTANDARDISO
  2
AcmFCFStdISO
  3
"Amdt_StdImp|Product Description: AutoCAD Mechanical|Company: Autodesk"
 90
        0
280
     0
281
     0
  0
CLASS
  1
ACMWELDSTANDARDISO
  2
AcmWeldingStdISO
  3
"Amdt_StdImp|Product Description: AutoCAD Mechanical|Company: Autodesk"
 90
        0
280
     0
281
     0
  0
CLASS
  1
ACMIDSTANDARDISO
  2
AcmIdStdISO
  3
"Amdt_StdImp|Product Description: AutoCAD Mechanical|Company: Autodesk"
 90
        0
280
     0
281
     0
  0
CLASS
  1
ACMDATUMSTANDARDISO
  2
AcmDatumStdISO
  3
"Amdt_StdImp|Product Description: AutoCAD Mechanical|Company: Autodesk"
 90
        0
280
     0
281
     0
  0
CLASS
  1
ACMBOMSTANDARDISO
  2
AcmBOMStdISO
  3
"Amdt_StdImp|Product Description: AutoCAD Mechanical|Company: Autodesk"
 90
        0
280
     0
281
     0
  0
CLASS
  1
ACMDETAILSTANDARDISO
  2
AmdtDetailSymStdISO
  3
"Amdt_StdImp|Product Description: AutoCAD Mechanical|Company: Autodesk"
 90
        0
280
     0
281
     0
  0
CLASS
  1
ACMSECTIONSTANDARDISO
  2
AmdtSectionSymStdISO
  3
"Amdt_StdImp|Product Description: AutoCAD Mechanical|Company: Autodesk"
 90
        0
280
     0
281
     0
  0
CLASS
  1
ACMCENTERLINESTANDARDISO
  2
AmdtCenterLineStdISO
  3
"Amdt_StdImp|Product Description: AutoCAD Mechanical|Company: Autodesk"
 90
        0
280
     0
281
     0
  0
CLASS
  1
ACAMGLAYSTD
  2
AcAmgLayStd
  3
"AmgLay|Product Description: AutoCAD Mechanical|Company: Autodesk"
 90
        0
280
     0
281
     0
  0
CLASS
  1
ACAMGDIMSTD
  2
AcAmgDimStd
  3
"AmgDim|Product Description: AutoCAD Mechanical|Company: Autodesk"
 90
        0
280
     0
281
     0
  0
CLASS
  1
ACAMGTITLESTD
  2
AcAmgTitleStd
  3
"AmgTitle|Product Description: AutoCAD Mechanical|Company: Autodesk"
 90
        0
280
     0
281
     0
  0
CLASS
  1
ACAMGFILTERDAT
  2
AcAmgFilterDat
  3
"AcadM|Product Description: AutoCAD Mechanical|Company: Autodesk"
 90
    32768
280
     0
281
     0
  0
CLASS
  1
LAYER_INDEX
  2
AcDbLayerIndex
  3
ObjectDBX Classes
 90
    32768
280
     0
281
     0
  0
CLASS
  1
IDBUFFER
  2
AcDbIdBuffer
  3
ObjectDBX Classes
 90
    32768
280
     0
281
     0
  0
CLASS
  1
PLOTSETTINGS
  2
AcDbPlotSettings
  3
ObjectDBX Classes
 90
    32768
280
     0
281
     0
  0
CLASS
  1
AMDTFORMULAUPDATEDISPATCHER
  2
AmdtFormulaUpdateDispatcher
  3
AcMeServices
 90
    32768
280
     0
281
     0
  0
CLASS
  1
ACMSTANDARDANSI
  2
AcmStandardANSI
  3
"Amdt_StdImp|Product Description: AutoCAD Mechanical|Company: Autodesk"
 90
    32768
280
     0
281
     0
  0
CLASS
  1
ACMSURFSTANDARDANSI
  2
AcmSurfTextStdANSI
  3
"Amdt_StdImp|Product Description: AutoCAD Mechanical|Company: Autodesk"
 90
    32768
280
     0
281
     0
  0
CLASS
  1
ACMFCFSTANDARDANSI
  2
AcmFCFStdANSI
  3
"Amdt_StdImp|Product Description: AutoCAD Mechanical|Company: Autodesk"
 90
    32768
280
     0
281
     0
  0
CLASS
  1
ACMWELDSTANDARDANSI
  2
AcmWeldingStdANSI
  3
"Amdt_StdImp|Product Description: AutoCAD Mechanical|Company: Autodesk"
 90
    32768
280
     0
281
     0
  0
CLASS
  1
ACMIDSTANDARDANSI
  2
AcmIdStdANSI
  3
"Amdt_StdImp|Product Description: AutoCAD Mechanical|Company: Autodesk"
 90
    32768
280
     0
281
     0
  0
CLASS
  1
ACMDATUMSTANDARDANSI
  2
AcmDatumStdANSI
  3
"Amdt_StdImp|Product Description: AutoCAD Mechanical|Company: Autodesk"
 90
    32768
280
     0
281
     0
  0
CLASS
  1
ACMBOMSTANDARDANSI
  2
AcmBOMStdANSI
  3
"Amdt_StdImp|Product Description: AutoCAD Mechanical|Company: Autodesk"
 90
    32768
280
     0
281
     0
  0
CLASS
  1
ACMDETAILSTANDARDANSI
  2
AmdtDetailSymStdANSI
  3
"Amdt_StdImp|Product Description: AutoCAD Mechanical|Company: Autodesk"
 90
    32768
280
     0
281
     0
  0
CLASS
  1
ACMSECTIONSTANDARDANSI
  2
AmdtSectionSymStdANSI
  3
"Amdt_StdImp|Product Description: AutoCAD Mechanical|Company: Autodesk"
 90
    32768
280
     0
281
     0
  0
CLASS
  1
ACMCENTERLINESTANDARDANSI
  2
AmdtCenterLineStdANSI
  3
"Amdt_StdImp|Product Description: AutoCAD Mechanical|Company: Autodesk"
 90
    32768
280
     0
281
     0
  0
CLASS
  1
ACMBOM
  2
AcmBom
  3
"AcmSymBB|Product Description: AutoCAD Mechanical|Company: Autodesk"
 90
    32768
280
     0
281
     0
  0
CLASS
  1
ACMDATAENTRYPART
  2
AcmDataEntryPart
  3
"AcmSymBB|Product Description: AutoCAD Mechanical|Company: Autodesk"
 90
    32768
280
     0
281
     0
  0
CLASS
  1
ACMPARTREF
  2
AcmPartRef
  3
"AcmSymBB|Product Description: AutoCAD Mechanical|Company: Autodesk"
 90
    35839
280
     0
281
     1
  0
CLASS
  1
ACDBCIRCARCRES
  2
AcDbCircArcRes
  3
AcGrefServices
 90
    32768
280
     0
281
     0
  0
CLASS
  1
ACMBOMROW
  2
AcmBomRow
  3
"AcmSymBB|Product Description: AutoCAD Mechanical|Company: Autodesk"
 90
    32768
280
     0
281
     0
  0
CLASS
  1
ACMBALLOON
  2
AcmBalloon
  3
"AcmSymBB|Product Description: AutoCAD Mechanical|Company: Autodesk"
 90
    35839
280
     0
281
     1
  0
CLASS
  1
AMDTNOTE
  2
AmdtNote
  3
"AcmSymBB|Product Description: AutoCAD Mechanical|Company: Autodesk"
 90
    35839
280
     0
281
     1
  0
CLASS
  1
STDPART2D
  2
AmgStdPart
  3
"g3vace|Class: AmgStdPart|Product Description: AutoCAD Mechanical|Company: Autodesk"
 90
    35839
280
     0
281
     1
  0
CLASS
  1
ACDBSTDPARTRES_LINE
  2
AcDbStdPartRes_Line
  3
"g3vace|Class: AcDbStdPartRes_Line|Product Description: AutoCAD Mechanical|Company: Autodesk"
 90
    32768
280
     0
281
     0
  0
CLASS
  1
ACMDATAENTRY
  2
AcmDataEntry
  3
"AcmSymBB|Product Description: AutoCAD Mechanical|Company: Autodesk"
 90
    32768
280
     0
281
     0
  0
CLASS
  1
ACDBOPPOLYLINERES
  2
AcDbOpPolylineRes
  3
AcGrefServices
 90
    32768
280
     0
281
     0
  0
CLASS
  1
ACMPARTLIST
  2
AcmPartList
  3
"AcmSymBB|Product Description: AutoCAD Mechanical|Company: Autodesk"
 90
    35839
280
     0
281
     1
  0
CLASS
  1
ACDBLINERES
  2
AcDbLineRes
  3
AcGrefServices
 90
    32768
280
     0
281
     0
  0
CLASS
  1
ACRFINSADJ
  2
AcRfInsAdjuster
  3
AcMeServices
 90
    32768
280
     0
281
     0
  0
CLASS
  1
AM_DRAWING_MGR
  2
AcDmDwgMgr
  3
AcMechDwgViewMgmt
 90
        0
280
     0
281
     0
  0
CLASS
  1
AM_DWG_DOCUMENT
  2
AcDmDwgDocument
  3
AcMechDwgViewMgmt
 90
        0
280
     0
281
     0
  0
CLASS
  1
AM_DWG_SHEET
  2
AcDmSheet
  3
AcMechDwgViewMgmt
 90
        0
280
     0
281
     0
  0
CLASS
  1
AM_VIEWDIMPARMAP
  2
AcDmViewDimParMap
  3
AcMechDwgViewMgmt
 90
        0
280
     0
281
     0
  0
CLASS
  1
AM_DWGMGR_NAME
  2
AcDmDwgMgrName
  3
AcMechDwgViewMgmt
 90
        0
280
     0
281
     0
  0
CLASS
  1
AMDTMENUSTATEMGR
  2
AmdtMenuStateMgr
  3
McadcomServices
 90
        0
280
     0
281
     0
  0
CLASS
  1
AMDTMCOMMENUSTATE
  2
AmdtMcomMenuState
  3
McadcomServices
 90
        0
280
     0
281
     0
  0
CLASS
  1
ASAPP
  2
AcAsAppObject
  3
AutoSurfServices
 90
        0
280
     0
281
     0
  0
CLASS
  1
IM_STATIC_MAN
  2
AcImStaticVarManager
  3
AcMeServices
 90
        0
280
     0
281
     0
  0
CLASS
  1
ACIMDBLSTATICVAR
  2
AcImDblStaticVar
  3
AcMeServices
 90
    32768
280
     0
281
     0
  0
CLASS
  1
ACIMSTRSTATICVAR
  2
AcImStrStaticVar
  3
AcMeServices
 90
    32768
280
     0
281
     0
  0
CLASS
  1
ACIMINTSTATICVAR
  2
AcImIntStaticVar
  3
AcMeServices
 90
    32768
280
     0
281
     0
  0
CLASS
  1
ACASGREFMASTER
  2
AcAsGrefMaster
  3
AutoSurfResolverServices
 90
        0
280
     0
281
     0
  0
CLASS
  1
ACADGREFMODULE
  2
AcAdGrefModule
  3
AdGrefServices
 90
        0
280
     0
281
     0
  0
CLASS
  1
AMDTMAPISURFMOUDULE
  2
AmdtMApiSurfModule
  3
MApiSurfServices
 90
        0
280
     0
281
     0
  0
CLASS
  1
MAPIAMMOUDLE
  2
MApiAmModule
  3
MApiAmServices
 90
        0
280
     0
281
     0
  0
CLASS
  1
AMDTADMENUSTATE
  2
AmdtAdMenuState
  3
DesignerServices
 90
        0
280
     0
281
     0
  0
CLASS
  1
ADAPPL
  2
AcAdAppl
  3
DesignerServices
 90
        0
280
     0
281
     0
  0
CLASS
  1
DEPMGR
  2
AcAdDepMgr
  3
DesignerServices
 90
        0
280
     0
281
     0
  0
CLASS
  1
PARAMMGR
  2
AcAdParamMgr
  3
DesignerServices
 90
        0
280
     0
281
     0
  0
CLASS
  1
PARAMSCOPE
  2
AcAdParamScope
  3
DesignerServices
 90
        0
280
     0
281
     0
  0
CLASS
  1
NAMEDAPPL
  2
AcAdNamedAppl
  3
DesignerServices
 90
        0
280
     0
281
     0
  0
CLASS
  1
ADHNTMPLT
  2
AdHoleNoteTemplateMgr
  3
DesignerServices
 90
    32768
280
     0
281
     0
  0
CLASS
  1
AM_HNTEMPLATE_MGR_NAME
  2
AdHoleNoteTemplateMgrName
  3
DesignerServices
 90
    32768
280
     0
281
     0
  0
CLASS
  1
AMDTDMMENUSTATE
  2
AmdtDmMenuState
  3
AcMechDwgViewMgmt
 90
        0
280
     0
281
     0
  0
CLASS
  1
MAPIADMODULE
  2
MApiAdModule
  3
MApiAdServices
 90
        0
280
     0
281
     0
  0
CLASS
  1
AMDTAMMENUSTATE
  2
AmdtAmMenuState
  3
DesignerAssemblies
 90
        0
280
     0
281
     0
  0
CLASS
  1
ACAMPROJECT
  2
AcAmProject
  3
DesignerAssemblies
 90
        0
280
     0
281
     0
  0
CLASS
  1
ACAMGRCOMPDEF
  2
AcAmGrCompDef
  3
DesignerAssemblies
 90
        0
280
     0
281
     0
  0
CLASS
  1
ACCMCONTEXT
  2
AcCmContext
  3
DesignerAssemblies
 90
        0
280
     0
281
     0
  0
CLASS
  1
ACAMCOMPDEF
  2
AcAmCompDef
  3
DesignerAssemblies
 90
        0
280
     0
281
     0
  0
CLASS
  1
ACAMCOMPDEFMGR
  2
AcAmCompDefMgr
  3
DesignerAssemblies
 90
        0
280
     0
281
     0
  0
CLASS
  1
AMCONTEXTMGR
  2
AcAmContextMgr
  3
DesignerAssemblies
 90
        0
280
     0
281
     0
  0
CLASS
  1
ACAMCONTEXTMODELER
  2
AcAmContextModeler
  3
DesignerAssemblies
 90
        0
280
     0
281
     0
  0
CLASS
  1
CATALOGSTATE
  2
AcAmCatalogState
  3
DesignerAssemblies
 90
        0
280
     0
281
     0
  0
CLASS
  1
ACAMGRCOMPDEFSET
  2
AcAmGrCompDefSet
  3
DesignerAssemblies
 90
        0
280
     0
281
     0
  0
CLASS
  1
AMDTBROWSERDBTAB
  2
AmdtBrowserDbTab
  3
McadcomServices
 90
        0
280
     0
281
     0
  0
CLASS
  1
CBROWSERAPPOBJECT
  2
CBrowserAppObject
  3
McadcomServices
 90
        0
280
     0
281
     0
  0
CLASS
  1
DM_PLACEHOLDER
  2
AcDmSelsetPlaceholder
  3
AcMechDwgViewMgmt
 90
        0
280
     0
281
     0
  0
CLASS
  1
ACMPICKOBJ
  2
AcmPickEnt
  3
"AcmSymBB|Product Description: AutoCAD Mechanical|Company: Autodesk"
 90
    32768
280
     0
281
     1
  0
CLASS
  1
ACMNOTESTANDARDISO
  2
AmdtNoteStdISO
  3
"Amdt_StdImp|Product Description: AutoCAD Mechanical|Company: Autodesk"
 90
        0
280
     0
281
     0
  0
CLASS
  1
ACMNOTESTANDARDANSI
  2
AmdtNoteStdANSI
  3
"Amdt_StdImp|Product Description: AutoCAD Mechanical|Company: Autodesk"
 90
    32768
280
     0
281
     0
  0
CLASS
  1
ACMTHREADLINESTANDARDISO
  2
AmdtThreadLineStdISO
  3
"Amdt_StdImp|Product Description: AutoCAD Mechanical|Company: Autodesk"
 90
        0
280
     0
281
     0
  0
CLASS
  1
ACMTHREADLINESTANDARDANSI
  2
AmdtThreadLineStdANSI
  3
"Amdt_StdImp|Product Description: AutoCAD Mechanical|Company: Autodesk"
 90
    32768
280
     0
281
     0
  0
CLASS
  1
TABLESTYLE
  2
AcDbTableStyle
  3
ObjectDBX Classes
 90
     4095
280
     0
281
     0
  0
CLASS
  1
SORTENTSTABLE
  2
AcDbSortentsTable
  3
ObjectDBX Classes
 90
        0
280
     0
281
     0
  0
CLASS
  1
MATERIAL
  2
AcDbMaterial
  3
ObjectDBX Classes
 90
     1024
280
     0
281
     0
  0
CLASS
  1
VISUALSTYLE
  2
AcDbVisualStyle
  3
ObjectDBX Classes
 90
     4095
280
     0
281
     0
  0
CLASS
  1
ACRFATTGENMGR
  2
AcRfAttGeneralMgr
  3
AcAttribServices
 90
    32768
280
     0
281
     0
  0
CLASS
  1
ACRFOBJATTMGR
  2
AcRfObjAttGroupMgr
  3
AcAttribServices
 90
    32768
280
     0
281
     0
  0
CLASS
  1
ACRFMCADAPIATTHOLDER
  2
AcRfMCADAPIAttHolder
  3
AcAttribServices
 90
    32768
280
     0
281
     0
  0
CLASS
  1
AMDTSYSATTR
  2
AmdtSystemAttribute
  3
AcAttribServices
 90
    32768
280
     0
281
     0
  0
CLASS
  1
ACMTAPERSTANDARDISO
  2
AcmTaperStdISO
  3
"Amdt_StdImp|Product Description: AutoCAD Mechanical|Company: Autodesk"
 90
        0
280
     0
281
     0
  0
CLASS
  1
CAMSSTRUCTBTNSTATE
  2
StructBtnState
  3
L"DesignerAssemblies"
 90
        0
280
     0
281
     0
  0
CLASS
  1
DIMASSOC
  2
AcDbDimAssoc
  3
"AcDbDimAssoc|Product Desc:     AcDim ARX App For Dimension|Company:          Autodesk, Inc.|WEB Address:      www.autodesk.com"
 90
    32768
280
     0
281
     0
  0
CLASS
  1
AMDTNOTETEMPLATEDB
  2
AmdtNoteTemplateDB
  3
AMDT_STDIMP_MODULE_NAME
 90
        0
280
     0
281
     0
  0
CLASS
  1
ACMTAPERSTANDARDANSI
  2
AcmTaperStdANSI
  3
"Amdt_StdImp|Product Description: AutoCAD Mechanical|Company: Autodesk"
 90
    32768
280
     0
281
     0
  0
CLASS
  1
ACAMGHOLECHARTSTDANSI
  2
AcAmgHoleChartStdANSI
  3
ACMSYMBB_MODULE_NAME
 90
    32768
280
     0
281
     0
  0
CLASS
  1
AMDTEDGESTANDARDISO13715
  2
AmdtEdgeStdISO13715
  3
"Amdt_StdImp|Product Description: AutoCAD Mechanical|Company: Autodesk"
 90
        0
280
     0
281
     0
  0
CLASS
  1
ACAMGHOLECHARTSTDISO
  2
AcAmgHoleChartStdISO
  3
ACMSYMBB_MODULE_NAME
 90
        0
280
     0
281
     0
  0
CLASS
  1
ACDBDIMENSIONRES
  2
AcDbDimensionRes
  3
L"AcDbDimensionRes|Product Description: AutoCAD Mechanical 2000|Company: Autodesk"
 90
    32768
280
     0
281
     0
  0
ENDSEC
  0
SECTION
  2
TABLES
  0
TABLE
  2
VPORT
  5
8
330
0
100
AcDbSymbolTable
 70
     1
  0
VPORT
  5
B0EC
330
8
100
AcDbSymbolTableRecord
100
AcDbViewportTableRecord
  2
*Active
 70
     0
 10
0.0
 20
0.0
 11
1.0
 21
1.0
 12
593.9691287368254
 22
419.9880932471715
 13
0.0
 23
0.0
 14
2.5
 24
2.5
 15
10.0
 25
10.0
 16
0.0
 26
0.0
 36
1.0
 17
0.0
 27
0.0
 37
0.0
 40
847.0100020549045
 41
1.648648648648648
 42
50.0
 43
-1370.695619172058
 44
-1370.695619172058
 50
0.0
 51
0.0
 71
     0
 72
   100
 73
     1
 74
     3
 75
     0
 76
     0
 77
     0
 78
     0
281
     0
 65
     0
110
0.0
120
0.0
130
0.0
111
1.0
121
0.0
131
0.0
112
0.0
122
1.0
132
0.0
 79
     0
146
0.0
  0
ENDTAB
  0
TABLE
  2
LTYPE
  5
5
330
0
100
AcDbSymbolTable
 70
    36
  0
LTYPE
  5
14
330
5
100
AcDbSymbolTableRecord
100
AcDbLinetypeTableRecord
  2
ByBlock
 70
     0
  3

 72
    65
 73
     0
 40
0.0
  0
LTYPE
  5
15
330
5
100
AcDbSymbolTableRecord
100
AcDbLinetypeTableRecord
  2
ByLayer
 70
     0
  3

 72
    65
 73
     0
 40
0.0
  0
LTYPE
  5
16
330
5
100
AcDbSymbolTableRecord
100
AcDbLinetypeTableRecord
  2
Continuous
 70
     0
  3
Solid line
 72
    65
 73
     0
 40
0.0
  0
LTYPE
  5
4F
330
5
100
AcDbSymbolTableRecord
100
AcDbLinetypeTableRecord
  2
AM_ISO02W050
 70
     0
  3
__ __ __ __ __ __ __ __ __ __ __ __ __ __ __
 72
    65
 73
     2
 40
7.5
 49
6.0
 74
     0
 49
-1.5
 74
     0
  0
LTYPE
  5
52
330
5
100
AcDbSymbolTableRecord
100
AcDbLinetypeTableRecord
  2
Amconstr
 70
     0
  3
_______________________
 72
    65
 73
     2
 40
9999.0
 49
9999.0
 74
     0
 49
0.0
 74
     0
  0
LTYPE
  5
64
330
5
100
AcDbSymbolTableRecord
100
AcDbLinetypeTableRecord
  2
ACISOWELD
 70
     0
  3
_ _ _ _ _
 72
    65
 73
     2
 40
2.0
 49
2.0
 74
     0
 49
-1.0
 74
     0
  0
LTYPE
  5
65
330
5
100
AcDbSymbolTableRecord
100
AcDbLinetypeTableRecord
  2
ACISOTGB
 70
     0
  3
__ . . __ . .
 72
    65
 73
     6
 40
9.0
 49
4.0
 74
     0
 49
-1.0
 74
     0
 49
1.0
 74
     0
 49
-1.0
 74
     0
 49
1.0
 74
     0
 49
-1.0
 74
     0
  0
LTYPE
  5
66
330
5
100
AcDbSymbolTableRecord
100
AcDbLinetypeTableRecord
  2
ACISOTGL
 70
     0
  3
_ _ _ _ _
 72
    65
 73
     2
 40
3.0
 49
2.0
 74
     0
 49
-1.0
 74
     0
  0
LTYPE
  5
69
330
5
100
AcDbSymbolTableRecord
100
AcDbLinetypeTableRecord
  2
CENTER
 70
     0
  3
__ . __
 72
    65
 73
     4
 40
7.0
 49
4.0
 74
     0
 49
-1.0
 74
     0
 49
1.0
 74
     0
 49
-1.0
 74
     0
  0
LTYPE
  5
A6E
330
5
100
AcDbSymbolTableRecord
100
AcDbLinetypeTableRecord
  2
PHANTOM2
 70
     0
  3
Phantom (.5x) ___ _ _ ___ _ _ ___ _ _ ___ _ _
 72
    65
 73
     6
 40
31.75
 49
15.875
 74
     0
 49
-3.174999999999999
 74
     0
 49
3.174999999999999
 74
     0
 49
-3.174999999999999
 74
     0
 49
3.174999999999999
 74
     0
 49
-3.174999999999999
 74
     0
  0
LTYPE
  5
4DED
330
5
100
AcDbSymbolTableRecord
100
AcDbLinetypeTableRecord
  2
中線
 70
     0
  3
___________________
 72
    65
 73
     2
 40
2.0
 49
1.0
 74
     0
 49
1.0
 74
     0
  0
LTYPE
  5
4DF6
330
5
100
AcDbSymbolTableRecord
100
AcDbLinetypeTableRecord
  2
細線
 70
     0
  3
___________________
 72
    65
 73
     2
 40
2.0
 49
1.0
 74
     0
 49
1.0
 74
     0
  0
LTYPE
  5
4DF7
330
5
100
AcDbSymbolTableRecord
100
AcDbLinetypeTableRecord
  2
太線
 70
     0
  3
___________________
 72
    65
 73
     2
 40
2.0
 49
1.0
 74
     0
 49
1.0
 74
     0
  0
LTYPE
  5
4EA7
330
5
100
AcDbSymbolTableRecord
100
AcDbLinetypeTableRecord
  2
文字
 70
     0
  3
_________________
 72
    65
 73
     2
 40
2.0
 49
1.0
 74
     0
 49
1.0
 74
     0
  0
LTYPE
  5
4EA9
330
5
100
AcDbSymbolTableRecord
100
AcDbLinetypeTableRecord
  2
寸法線
 70
     0
  3
________________
 72
    65
 73
     2
 40
2.0
 49
1.0
 74
     0
 49
1.0
 74
     0
  0
LTYPE
  5
4F12
330
5
100
AcDbSymbolTableRecord
100
AcDbLinetypeTableRecord
  2
ハッチング
 70
     0
  3
_________________
 72
    65
 73
     2
 40
2.0
 49
1.0
 74
     0
 49
1.0
 74
     0
  0
LTYPE
  5
5180
330
5
100
AcDbSymbolTableRecord
100
AcDbLinetypeTableRecord
  2
陰線1
 70
     0
  3
__ __ __ __
 72
    65
 73
     2
 40
4.0
 49
2.2
 74
     0
 49
-1.8
 74
     0
  0
LTYPE
  5
5182
330
5
100
AcDbSymbolTableRecord
100
AcDbLinetypeTableRecord
  2
切断線
 70
     0
  3
/\/-/\/-/\/-/\/-/\/-/\/
 72
    65
 73
     2
 40
11.0001
 49
0.0001
 74
     4
 75
   135
340
56
 46
0.04
 50
0.0
 44
0.0
 45
0.0
 49
-11.0
 74
     0
  0
LTYPE
  5
5183
330
5
100
AcDbSymbolTableRecord
100
AcDbLinetypeTableRecord
  2
想像線1
 70
     0
  3
__ __ __ _____ __ __ ____
 72
    65
 73
     6
 40
14.5
 49
6.0
 74
     0
 49
-1.5
 74
     0
 49
2.0
 74
     0
 49
-1.5
 74
     0
 49
2.0
 74
     0
 49
-1.5
 74
     0
  0
LTYPE
  5
5185
330
5
100
AcDbSymbolTableRecord
100
AcDbLinetypeTableRecord
  2
中心線1
 70
     0
  3
___ _ ___ _ ___
 72
    65
 73
     4
 40
18.0
 49
12.0
 74
     0
 49
-2.0
 74
     0
 49
2.0
 74
     0
 49
-2.0
 74
     0
  0
LTYPE
  5
5188
330
5
100
AcDbSymbolTableRecord
100
AcDbLinetypeTableRecord
  2
補助線
 70
     0
  3
______________
 72
    65
 73
     2
 40
2.0
 49
1.0
 74
     0
 49
1.0
 74
     0
  0
LTYPE
  5
6427
330
5
100
AcDbSymbolTableRecord
100
AcDbLinetypeTableRecord
  2
HIDDEN
 70
     0
  3
Hidden __ __ __ __ __ __ __ __ __ __ __ __ __ _
 72
    65
 73
     2
 40
0.375
 49
0.25
 74
     0
 49
-0.125
 74
     0
  0
LTYPE
  5
AC81
330
5
100
AcDbSymbolTableRecord
100
AcDbLinetypeTableRecord
  2
破断線
 70
     0
  3
/\/-/\/-/\/-/\/-/\/-/\/
 72
    65
 73
     2
 40
0.4401
 49
0.0001
 74
     4
 75
   136
340
AC80
 46
0.0016
 50
0.0
 44
0.0
 45
0.0
 49
-0.4400000000000001
 74
     0
  0
LTYPE
  5
AC9E
330
5
100
AcDbSymbolTableRecord
100
AcDbLinetypeTableRecord
  2
Amzigzag
 70
     0
  3
/\/-/\/-/\/-/\/-/\/-/\/
 72
    65
 73
     2
 40
11.0001
 49
0.0001
 74
     4
 75
   135
340
56
 46
0.04
 50
0.0
 44
0.0
 45
0.0
 49
-11.0
 74
     0
  0
LTYPE
  5
AF0F
330
5
100
AcDbSymbolTableRecord
100
AcDbLinetypeTableRecord
  2
genzigzag
 70
     0
  3
/\/-/\/-/\/-/\/-/\/-/\/
 72
    65
 73
     2
 40
12.0001
 49
0.0001
 74
     4
 75
   135
340
AC80
 46
2.0
 50
0.0
 44
0.0
 45
0.0
 49
-12.0
 74
     0
  0
LTYPE
  5
AF95
330
5
100
AcDbSymbolTableRecord
100
AcDbLinetypeTableRecord
  2
AM_ISO08W050
 70
     0
  3
____ . ____ . ____ . ____ . ____ . ____ . ____
 72
    65
 73
     4
 40
18.0
 49
12.0
 74
     0
 49
-1.5
 74
     0
 49
3.0
 74
     0
 49
-1.5
 74
     0
  0
LTYPE
  5
AF96
330
5
100
AcDbSymbolTableRecord
100
AcDbLinetypeTableRecord
  2
AM_ISO09W050
 70
     0
  3
_____ . . _____ . . _____ . . ____ .. ____
 72
    65
 73
     6
 40
22.5
 49
12.0
 74
     0
 49
-1.5
 74
     0
 49
3.0
 74
     0
 49
-1.5
 74
     0
 49
3.0
 74
     0
 49
-1.5
 74
     0
  0
LTYPE
  5
AF97
330
5
100
AcDbSymbolTableRecord
100
AcDbLinetypeTableRecord
  2
AM_ISO08W050x2
 70
     0
  3
__ . __ . __ . __ . __ . __
 72
    65
 73
     4
 40
9.0
 49
6.0
 74
     0
 49
-0.75
 74
     0
 49
1.5
 74
     0
 49
-0.75
 74
     0
  0
LTYPE
  5
AF98
330
5
100
AcDbSymbolTableRecord
100
AcDbLinetypeTableRecord
  2
AM_ISO02W050x2
 70
     0
  3
 _ _ _ _ _ _ _ _ _ _ _ _
 72
    65
 73
     2
 40
3.75
 49
3.0
 74
     0
 49
-0.75
 74
     0
  0
LTYPE
  5
D8F5
330
5
100
AcDbSymbolTableRecord
100
AcDbLinetypeTableRecord
  2
DOT
 70
     0
  3
・・・・・・・・・・・・・・・
 72
    65
 73
     2
 40
6.5
 49
0.1
 74
     0
 49
-6.4
 74
     0
  0
LTYPE
  5
D8F6
330
5
100
AcDbSymbolTableRecord
100
AcDbLinetypeTableRecord
  2
CENTER2
 70
     0
  3
Center (.5x) ___ _ ___ _ ___ _ ___ _ ___ _ ___
 72
    65
 73
     4
 40
1.125
 49
0.75
 74
     0
 49
-0.125
 74
     0
 49
0.125
 74
     0
 49
-0.125
 74
     0
  0
LTYPE
  5
D8F7
330
5
100
AcDbSymbolTableRecord
100
AcDbLinetypeTableRecord
  2
HIDDEN2
 70
     0
  3
Hidden (.5x) _ _ _ _ _ _ _ _ _ _ _ _ _ _ _ _ _
 72
    65
 73
     2
 40
0.1875
 49
0.125
 74
     0
 49
-0.0625
 74
     0
  0
LTYPE
  5
D8F8
330
5
100
AcDbSymbolTableRecord
100
AcDbLinetypeTableRecord
  2
Amzigzag2
 70
     0
  3
/\/-/\/-/\/-/\/-/\/-/\/
 72
    65
 73
     2
 40
0.4401
 49
0.0001
 74
     4
 75
   136
340
AC80
 46
0.0016
 50
0.0
 44
0.0
 45
0.0
 49
-0.4400000000000001
 74
     0
  0
LTYPE
  5
D8F9
330
5
100
AcDbSymbolTableRecord
100
AcDbLinetypeTableRecord
  2
ACANSTGB
 70
     0
  3
__ . . __ . .
 72
    65
 73
     6
 40
0.35433070866
 49
0.15748031496
 74
     0
 49
-0.03937007874
 74
     0
 49
0.03937007874
 74
     0
 49
-0.03937007874
 74
     0
 49
0.03937007874
 74
     0
 49
-0.03937007874
 74
     0
  0
LTYPE
  5
D8FA
330
5
100
AcDbSymbolTableRecord
100
AcDbLinetypeTableRecord
  2
ACANSTGL
 70
     0
  3
_ _ _ _ _
 72
    65
 73
     2
 40
0.11811023622
 49
0.07874015748
 74
     0
 49
-0.03937007874
 74
     0
  0
LTYPE
  5
DC14
330
5
100
AcDbSymbolTableRecord
100
AcDbLinetypeTableRecord
  2
DASHED
 70
     0
  3
- - - - - - - - - - -
 72
    65
 73
     2
 40
19.1
 49
12.7
 74
     0
 49
-6.4
 74
     0
  0
LTYPE
  5
186CB
330
5
100
AcDbSymbolTableRecord
100
AcDbLinetypeTableRecord
  2
PHANTOM
 70
     0
  3
- ･ ･ - ･ ･ - ･ ･ - ･ ･ - ･ ･ - ･ ･ - ･ ･ - 
 72
    65
 73
     6
 40
63.79999999999999
 49
31.8
 74
     0
 49
-6.4
 74
     0
 49
6.4
 74
     0
 49
-6.4
 74
     0
 49
6.4
 74
     0
 49
-6.4
 74
     0
  0
LTYPE
  5
93D29
330
5
100
AcDbSymbolTableRecord
100
AcDbLinetypeTableRecord
  2
BORDER
 70
     0
  3
__ __ . __ __ . __ __ . __ __ . __ __ . __ __ .
 72
    65
 73
     6
 40
8.75
 49
2.5
 74
     0
 49
-1.25
 74
     0
 49
2.5
 74
     0
 49
-1.25
 74
     0
 49
0.0
 74
     0
 49
-1.25
 74
     0
  0
ENDTAB
  0
TABLE
  2
LAYER
  5
2
102
{ACAD_XDICTIONARY
360
3F95
102
}
330
0
100
AcDbSymbolTable
 70
    41
  0
LAYER
  5
10
330
2
100
AcDbSymbolTableRecord
100
AcDbLayerTableRecord
  2
0
 70
     0
 62
     7
  6
Continuous
370
    -3
390
F
  0
LAYER
  5
6D1
330
2
100
AcDbSymbolTableRecord
100
AcDbLayerTableRecord
  2
Defpoints
 70
     0
 62
     7
  6
Continuous
290
     0
370
    -3
390
F
  0
LAYER
  5
5F85
330
2
100
AcDbSymbolTableRecord
100
AcDbLayerTableRecord
  2
AM_0
 70
     0
 62
     7
  6
中線
370
    30
390
F
1001
AcAecLayerStandard
1000

1000

  0
LAYER
  5
AC9F
330
2
100
AcDbSymbolTableRecord
100
AcDbLayerTableRecord
  2
size
 70
     0
 62
     5
  6
Continuous
290
     0
370
    25
390
F
  0
LAYER
  5
ACA0
330
2
100
AcDbSymbolTableRecord
100
AcDbLayerTableRecord
  2
waku
 70
     0
 62
     7
  6
Continuous
370
    35
390
F
  0
LAYER
  5
ACA1
330
2
100
AcDbSymbolTableRecord
100
AcDbLayerTableRecord
  2
AM_6
 70
     0
 62
     2
  6
文字
370
    13
390
F
1001
AcAecLayerStandard
1000

1000

  0
LAYER
  5
ACC8
330
2
100
AcDbSymbolTableRecord
100
AcDbLayerTableRecord
  2
hyomoji
 70
     0
 62
     2
  6
Continuous
370
    13
390
F
  0
LAYER
  5
ACC9
330
2
100
AcDbSymbolTableRecord
100
AcDbLayerTableRecord
  2
hyosen1
 70
     0
 62
     1
  6
Continuous
370
    25
390
F
  0
LAYER
  5
ACCA
330
2
100
AcDbSymbolTableRecord
100
AcDbLayerTableRecord
  2
hyosen2
 70
     0
 62
     1
  6
Continuous
370
    13
390
F
  0
LAYER
  5
AD60
330
2
100
AcDbSymbolTableRecord
100
AcDbLayerTableRecord
  2
AM_1
 70
     0
 62
    30
  6
太線
370
    40
390
F
1001
AcAecLayerStandard
1000

1000

  0
LAYER
  5
AD64
330
2
100
AcDbSymbolTableRecord
100
AcDbLayerTableRecord
  2
AM_2
 70
     0
 62
     1
  6
細線
370
    13
390
F
1001
AcAecLayerStandard
1000

1000

  0
LAYER
  5
AD67
330
2
100
AcDbSymbolTableRecord
100
AcDbLayerTableRecord
  2
AM_3
 70
     0
 62
     6
  6
陰線1
370
    13
390
F
1001
AcAecLayerStandard
1000

1000

  0
LAYER
  5
AD68
330
2
100
AcDbSymbolTableRecord
100
AcDbLayerTableRecord
  2
AM_5
 70
     0
 62
     3
  6
寸法線
370
    13
390
F
1001
AcAecLayerStandard
1000

1000

  0
LAYER
  5
AD69
330
2
100
AcDbSymbolTableRecord
100
AcDbLayerTableRecord
  2
AM_7
 70
     0
 62
     4
  6
中心線1
370
    13
390
F
1001
AcAecLayerStandard
1000

1000

  0
LAYER
  5
AD6A
330
2
100
AcDbSymbolTableRecord
100
AcDbLayerTableRecord
  2
AM_8
 70
     0
 62
     1
  6
ハッチング
370
    13
390
F
1001
AcAecLayerStandard
1000

1000

  0
LAYER
  5
AD6E
330
2
100
AcDbSymbolTableRecord
100
AcDbLayerTableRecord
  2
AM_10
 70
     0
 62
     7
  6
切断線
370
    13
390
F
1001
AcAecLayerStandard
1000

1000

  0
LAYER
  5
AD6F
330
2
100
AcDbSymbolTableRecord
100
AcDbLayerTableRecord
  2
AM_11
 70
     0
 62
     2
  6
想像線1
370
    13
390
F
1001
AcAecLayerStandard
1000

1000

  0
LAYER
  5
B1B6
330
2
100
AcDbSymbolTableRecord
100
AcDbLayerTableRecord
  2
AM_CL
 70
     0
 62
     1
  6
Amconstr
370
    15
390
F
1001
AcAecLayerStandard
1000

1000

  0
LAYER
  5
B2EB
330
2
100
AcDbSymbolTableRecord
100
AcDbLayerTableRecord
  2
AM_14
 70
     0
 62
     5
  6
細線
370
     9
390
F
1001
AcAecLayerStandard
1000

1000

  0
LAYER
  5
B2EC
330
2
100
AcDbSymbolTableRecord
100
AcDbLayerTableRecord
  2
AM_15
 70
     0
 62
     6
  6
陰線1
370
     9
390
F
1001
AcAecLayerStandard
1000

1000

  0
LAYER
  5
B657
330
2
100
AcDbSymbolTableRecord
100
AcDbLayerTableRecord
  2
カバー取付ブラケット
 70
     0
 62
     1
  6
中線
370
    30
390
F
1001
AcAecLayerStandard
1000

1000

  0
LAYER
  5
C364
330
2
100
AcDbSymbolTableRecord
100
AcDbLayerTableRecord
  2
調整板
 70
     0
 62
   191
  6
中線
370
    30
390
F
1001
AcAecLayerStandard
1000

1000

  0
LAYER
  5
C365
330
2
100
AcDbSymbolTableRecord
100
AcDbLayerTableRecord
  2
本体（枠）
 70
     0
 62
    11
  6
中線
370
    30
390
F
1001
AcAecLayerStandard
1000

1000

  0
LAYER
  5
C366
330
2
100
AcDbSymbolTableRecord
100
AcDbLayerTableRecord
  2
本体（扉）
 70
     0
 62
   151
  6
中線
370
    30
390
F
1001
AcAecLayerStandard
1000

1000

  0
LAYER
  5
C367
330
2
100
AcDbSymbolTableRecord
100
AcDbLayerTableRecord
  2
カバー
 70
     0
 62
    41
  6
中線
370
    30
390
F
1001
AcAecLayerStandard
1000

1000

  0
LAYER
  5
C368
330
2
100
AcDbSymbolTableRecord
100
AcDbLayerTableRecord
  2
軸
 70
     0
 62
    91
  6
中線
370
    30
390
F
1001
AcAecLayerStandard
1000

1000

  0
LAYER
  5
C369
330
2
100
AcDbSymbolTableRecord
100
AcDbLayerTableRecord
  2
樹脂ワッシャA
 70
     0
 62
    40
  6
中線
370
    30
390
F
1001
AcAecLayerStandard
1000

1000

  0
LAYER
  5
C36A
330
2
100
AcDbSymbolTableRecord
100
AcDbLayerTableRecord
  2
樹脂ワッシャB
 70
     0
 62
   200
  6
中線
370
    30
390
F
1001
AcAecLayerStandard
1000

1000

  0
LAYER
  5
DC15
330
2
100
AcDbSymbolTableRecord
100
AcDbLayerTableRecord
  2
CSLAYER2
 70
     0
 62
     3
  6
Continuous
370
    -3
390
F
  0
LAYER
  5
DC16
330
2
100
AcDbSymbolTableRecord
100
AcDbLayerTableRecord
  2
CSLAYER4
 70
     0
 62
     3
  6
Continuous
370
    -3
390
F
  0
LAYER
  5
E707
330
2
100
AcDbSymbolTableRecord
100
AcDbLayerTableRecord
  2
CSLAYER3
 70
     0
 62
     3
  6
Continuous
370
    -3
390
F
  0
LAYER
  5
161BF
330
2
100
AcDbSymbolTableRecord
100
AcDbLayerTableRecord
  2
CSLAYER8
 70
     0
 62
     3
  6
Continuous
370
    -3
390
F
  0
LAYER
  5
19481
330
2
100
AcDbSymbolTableRecord
100
AcDbLayerTableRecord
  2
CSLAYER7
 70
     0
 62
     3
  6
Continuous
370
    -3
390
F
  0
LAYER
  5
19482
330
2
100
AcDbSymbolTableRecord
100
AcDbLayerTableRecord
  2
CSLAYER11
 70
     0
 62
     3
  6
Continuous
370
    -3
390
F
  0
LAYER
  5
19483
330
2
100
AcDbSymbolTableRecord
100
AcDbLayerTableRecord
  2
CSLAYER12
 70
     0
 62
     3
  6
Continuous
370
    -3
390
F
  0
LAYER
  5
1F5A4
330
2
100
AcDbSymbolTableRecord
100
AcDbLayerTableRecord
  2
CSLAYER5
 70
     0
 62
     3
  6
Continuous
370
    -3
390
F
  0
LAYER
  5
5AFB5
330
2
100
AcDbSymbolTableRecord
100
AcDbLayerTableRecord
  2
取手
 70
     0
 62
   120
  6
中線
370
    30
390
F
1001
AcAecLayerStandard
1000

1000

  0
LAYER
  5
5AFB6
330
2
100
AcDbSymbolTableRecord
100
AcDbLayerTableRecord
  2
台座
 70
     0
 62
   211
  6
中線
370
    30
390
F
1001
AcAecLayerStandard
1000

1000

  0
LAYER
  5
5AFB7
330
2
100
AcDbSymbolTableRecord
100
AcDbLayerTableRecord
  2
スプリングピン
 70
     0
 62
   230
  6
中線
370
    30
390
F
1001
AcAecLayerStandard
1000

1000

  0
LAYER
  5
9211F
330
2
100
AcDbSymbolTableRecord
100
AcDbLayerTableRecord
  2
0文字
 70
     0
 62
     2
  6
Continuous
370
    13
390
F
1001
AcAecLayerStandard
1000

1000

  0
LAYER
  5
92120
330
2
100
AcDbSymbolTableRecord
100
AcDbLayerTableRecord
  2
1
 70
     0
 62
     7
  6
Continuous
370
    30
390
F
  0
ENDTAB
  0
TABLE
  2
STYLE
  5
3
330
0
100
AcDbSymbolTable
 70
     9
  0
STYLE
  5
11
330
3
100
AcDbSymbolTableRecord
100
AcDbTextStyleTableRecord
  2
STANDARD
 70
     0
 40
0.0
 41
0.7
 50
0.0
 71
     0
 42
3.2
  3
romans.shx
  4
extfont.shx
  0
STYLE
  5
56
330
3
100
AcDbSymbolTableRecord
100
AcDbTextStyleTableRecord
  2

 70
     1
 40
0.0
 41
1.0
 50
0.0
 71
     0
 42
2.5
  3
ltypeshp.shx
  4

  0
STYLE
  5
58
330
3
100
AcDbSymbolTableRecord
100
AcDbTextStyleTableRecord
  2
ACISOTS
 70
     0
 40
1.0
 41
1.0
 50
0.0
 71
     0
 42
2.5
  3
isocp.shx
  4
extfont.shx
  0
STYLE
  5
63
330
3
100
AcDbSymbolTableRecord
100
AcDbTextStyleTableRecord
  2
ACISOGDT
 70
     0
 40
0.0
 41
1.0
 50
0.0
 71
     0
 42
2.5
  3
amgdt.shx
  4

  0
STYLE
  5
A74
330
3
100
AcDbSymbolTableRecord
100
AcDbTextStyleTableRecord
  2
DIM
 70
     0
 40
0.0
 41
1.0
 50
0.0
 71
     0
 42
2.5
  3
monotxt.shx
  4
extfont.shx
  0
STYLE
  5
AC80
330
3
100
AcDbSymbolTableRecord
100
AcDbTextStyleTableRecord
  2

 70
     1
 40
0.0
 41
1.0
 50
0.0
 71
     0
 42
3.2
  3
genltshp.shx
  4

  0
STYLE
  5
D8FB
330
3
100
AcDbSymbolTableRecord
100
AcDbTextStyleTableRecord
  2
ED_VECTOR
 70
     0
 40
0.0
 41
1.0
 50
0.0
 71
     0
 42
0.0
  3
MONOTXT.SHX
  4
BIGFONT.SHX
  0
STYLE
  5
D8FC
330
3
100
AcDbSymbolTableRecord
100
AcDbTextStyleTableRecord
  2
ACANSTS
 70
     0
 40
1.0
 41
1.0
 50
0.0
 71
     0
 42
2.5
  3
romans.shx
  4
extfont.shx
  0
STYLE
  5
D8FD
330
3
100
AcDbSymbolTableRecord
100
AcDbTextStyleTableRecord
  2
ACANSGDT
 70
     0
 40
0.0
 41
1.0
 50
0.0
 71
     0
 42
2.5
  3
amgdt.shx
  4

  0
ENDTAB
  0
TABLE
  2
VIEW
  5
6
330
0
100
AcDbSymbolTable
 70
     6
  0
VIEW
  5
AE1
330
6
100
AcDbSymbolTableRecord
100
AcDbViewTableRecord
  2
AM_VIEW1
 70
     0
 40
297.0
 10
-970.0097649269439
 20
-11756.86094600418
 41
473.7940828402367
 11
0.0
 21
0.0
 31
1.0
 12
0.0
 22
0.0
 32
0.0
 42
50.0
 43
-1370.695619172058
 44
-1370.695619172058
 50
0.0
 71
     0
281
     0
 72
     0
  0
VIEW
  5
AE2
330
6
100
AcDbSymbolTableRecord
100
AcDbViewTableRecord
  2
AM_VIEW2
 70
     0
 40
297.0
 10
-603.8038477671805
 20
-11756.86094600418
 41
473.7940828402367
 11
0.0
 21
0.0
 31
1.0
 12
0.0
 22
0.0
 32
0.0
 42
50.0
 43
-1370.695619172058
 44
-1370.695619172058
 50
0.0
 71
     0
281
     0
 72
     0
  0
VIEW
  5
AE3
330
6
100
AcDbSymbolTableRecord
100
AcDbViewTableRecord
  2
AM_VIEW3
 70
     0
 40
297.0
 10
-970.0097649269439
 20
-12053.86094600418
 41
473.7940828402367
 11
0.0
 21
0.0
 31
1.0
 12
0.0
 22
0.0
 32
0.0
 42
50.0
 43
-1370.695619172058
 44
-1370.695619172058
 50
0.0
 71
     0
281
     0
 72
     0
  0
VIEW
  5
AE4
330
6
100
AcDbSymbolTableRecord
100
AcDbViewTableRecord
  2
AM_VIEW4
 70
     0
 40
297.0
 10
-603.8038477671805
 20
-12053.86094600418
 41
473.7940828402367
 11
0.0
 21
0.0
 31
1.0
 12
0.0
 22
0.0
 32
0.0
 42
50.0
 43
-1370.695619172058
 44
-1370.695619172058
 50
0.0
 71
     0
281
     0
 72
     0
  0
VIEW
  5
AE5
330
6
100
AcDbSymbolTableRecord
100
AcDbViewTableRecord
  2
AM_VIEW5
 70
     0
 40
297.0
 10
-786.9068063470622
 20
-11905.36094600418
 41
473.7940828402365
 11
0.0
 21
0.0
 31
1.0
 12
0.0
 22
0.0
 32
0.0
 42
50.0
 43
-1370.695619172058
 44
-1370.695619172058
 50
0.0
 71
     0
281
     0
 72
     0
  0
VIEW
  5
AE6
330
6
100
AcDbSymbolTableRecord
100
AcDbViewTableRecord
  2
AM_VIEW6
 70
     0
 40
593.9940600000008
 10
-786.9068063470622
 20
-11905.36094600418
 41
947.5786897988164
 11
0.0
 21
0.0
 31
1.0
 12
0.0
 22
0.0
 32
0.0
 42
50.0
 43
-1370.695619172058
 44
-1370.695619172058
 50
0.0
 71
     0
281
     0
 72
     0
  0
ENDTAB
  0
TABLE
  2
UCS
  5
7
330
0
100
AcDbSymbolTable
 70
     0
  0
ENDTAB
  0
TABLE
  2
APPID
  5
9
330
0
100
AcDbSymbolTable
 70
    56
  0
APPID
  5
12
330
9
100
AcDbSymbolTableRecord
100
AcDbRegAppTableRecord
  2
ACAD
 70
     0
  0
APPID
  5
30
330
9
100
AcDbSymbolTableRecord
100
AcDbRegAppTableRecord
  2
MCAD_NO_VIS
 70
     0
  0
APPID
  5
31
330
9
100
AcDbSymbolTableRecord
100
AcDbRegAppTableRecord
  2
ACAD_TEMP_GRAPHIC
 70
     0
  0
APPID
  5
44
330
9
100
AcDbSymbolTableRecord
100
AcDbRegAppTableRecord
  2
ACATTRIBSERVICES
 70
     0
  0
APPID
  5
7A1
330
9
100
AcDbSymbolTableRecord
100
AcDbRegAppTableRecord
  2
GENIUS_GENDIMSH_14
 70
     0
  0
APPID
  5
A49
330
9
100
AcDbSymbolTableRecord
100
AcDbRegAppTableRecord
  2
GENIUS_GENREC_14
 70
     0
  0
APPID
  5
A4A
330
9
100
AcDbSymbolTableRecord
100
AcDbRegAppTableRecord
  2
GENIUS_GENOBJ-N-REC_13
 70
     0
  0
APPID
  5
A4B
330
9
100
AcDbSymbolTableRecord
100
AcDbRegAppTableRecord
  2
GENIUS_GENODEF_13
 70
     0
  0
APPID
  5
A4C
330
9
100
AcDbSymbolTableRecord
100
AcDbRegAppTableRecord
  2
DCO15
 70
     0
  0
APPID
  5
ADC
330
9
100
AcDbSymbolTableRecord
100
AcDbRegAppTableRecord
  2
GENIUS_GENOLIS_13
 70
     0
  0
APPID
  5
ADD
330
9
100
AcDbSymbolTableRecord
100
AcDbRegAppTableRecord
  2
GENIUS_GENOENT_13
 70
     0
  0
APPID
  5
ADE
330
9
100
AcDbSymbolTableRecord
100
AcDbRegAppTableRecord
  2
GENIUS_GENOBJ-N-TIT_13
 70
     0
  0
APPID
  5
ADF
330
9
100
AcDbSymbolTableRecord
100
AcDbRegAppTableRecord
  2
GENIUS_GENTITLE_13
 70
     0
  0
APPID
  5
AE0
330
9
100
AcDbSymbolTableRecord
100
AcDbRegAppTableRecord
  2
GENIUS_GENOREF_13
 70
     0
  0
APPID
  5
AE7
330
9
100
AcDbSymbolTableRecord
100
AcDbRegAppTableRecord
  2
GENIUS_GENSCREG_15
 70
     0
  0
APPID
  5
AE8
330
9
100
AcDbSymbolTableRecord
100
AcDbRegAppTableRecord
  2
GENIUS_GENOBJ-N-SDF_13
 70
     0
  0
APPID
  5
FAF
330
9
100
AcDbSymbolTableRecord
100
AcDbRegAppTableRecord
  2
GENIUS_GENBLLY_14
 70
     0
  0
APPID
  5
FB0
330
9
100
AcDbSymbolTableRecord
100
AcDbRegAppTableRecord
  2
GENIUS_GENTRA_14
 70
     0
  0
APPID
  5
1285
330
9
100
AcDbSymbolTableRecord
100
AcDbRegAppTableRecord
  2
GENIUS_GENDTOL_13
 70
     0
  0
APPID
  5
142D
330
9
100
AcDbSymbolTableRecord
100
AcDbRegAppTableRecord
  2
GENIUS_GENOBJ-N-CEN_13
 70
     0
  0
APPID
  5
1AB5
330
9
100
AcDbSymbolTableRecord
100
AcDbRegAppTableRecord
  2
GENIUS_GENOBJ-N-CRS_13
 70
     0
  0
APPID
  5
1B36
330
9
100
AcDbSymbolTableRecord
100
AcDbRegAppTableRecord
  2
GENIUS_GENOBJ-N-HTC_13
 70
     0
  0
APPID
  5
1B37
330
9
100
AcDbSymbolTableRecord
100
AcDbRegAppTableRecord
  2
GENIUS_GENHATCH_13
 70
     0
  0
APPID
  5
216D
330
9
100
AcDbSymbolTableRecord
100
AcDbRegAppTableRecord
  2
GENIUS_GENOBJ-N-FIL_13
 70
     0
  0
APPID
  5
2356
330
9
100
AcDbSymbolTableRecord
100
AcDbRegAppTableRecord
  2
GEVID990412420
 70
     0
  0
APPID
  5
2357
330
9
100
AcDbSymbolTableRecord
100
AcDbRegAppTableRecord
  2
GEVDC
 70
     0
  0
APPID
  5
2358
330
9
100
AcDbSymbolTableRecord
100
AcDbRegAppTableRecord
  2
GEVCON
 70
     0
  0
APPID
  5
235B
330
9
100
AcDbSymbolTableRecord
100
AcDbRegAppTableRecord
  2
GEVRADREF
 70
     0
  0
APPID
  5
2360
330
9
100
AcDbSymbolTableRecord
100
AcDbRegAppTableRecord
  2
GENIUS_GENBH_13
 70
     0
  0
APPID
  5
2362
330
9
100
AcDbSymbolTableRecord
100
AcDbRegAppTableRecord
  2
GENIUS_GENOBJ-NBEHI-BHF_13
 70
     0
  0
APPID
  5
2364
330
9
100
AcDbSymbolTableRecord
100
AcDbRegAppTableRecord
  2
GENIUS_GENOBJ-NBEHI-BHB_13
 70
     0
  0
APPID
  5
2379
330
9
100
AcDbSymbolTableRecord
100
AcDbRegAppTableRecord
  2
GENIUS_GENOBJ-F-SCPASSM_13
 70
     0
  0
APPID
  5
3D74
330
9
100
AcDbSymbolTableRecord
100
AcDbRegAppTableRecord
  2
GENIUS_GENDIM_13
 70
     0
  0
APPID
  5
3D76
330
9
100
AcDbSymbolTableRecord
100
AcDbRegAppTableRecord
  2
GENIUS_GE3DTOL_13
 70
     0
  0
APPID
  5
3D9C
330
9
100
AcDbSymbolTableRecord
100
AcDbRegAppTableRecord
  2
AD_DRAW
 70
     0
  0
APPID
  5
3DE8
330
9
100
AcDbSymbolTableRecord
100
AcDbRegAppTableRecord
  2
ASURF_PCURVE_APPNAME
 70
     0
  0
APPID
  5
3DED
330
9
100
AcDbSymbolTableRecord
100
AcDbRegAppTableRecord
  2
AMG_3D2D_5.0
 70
     0
  0
APPID
  5
3E1B
330
9
100
AcDbSymbolTableRecord
100
AcDbRegAppTableRecord
  2
DESIGNERASSEMBLIES
 70
     0
  0
APPID
  5
3E20
330
9
100
AcDbSymbolTableRecord
100
AcDbRegAppTableRecord
  2
ACADM_DIM_EDIT
 70
     0
  0
APPID
  5
3E21
330
9
100
AcDbSymbolTableRecord
100
AcDbRegAppTableRecord
  2
AMDT_DM_ADJ
 70
     0
  0
APPID
  5
4143
330
9
100
AcDbSymbolTableRecord
100
AcDbRegAppTableRecord
  2
GENIUS_GENFIL_13
 70
     0
  0
APPID
  5
4144
330
9
100
AcDbSymbolTableRecord
100
AcDbRegAppTableRecord
  2
GENIUS_GENOBJ-N-CHA_13
 70
     0
  0
APPID
  5
4E17
330
9
100
AcDbSymbolTableRecord
100
AcDbRegAppTableRecord
  2
GEVID1008153417
 70
     0
  0
APPID
  5
4E58
330
9
100
AcDbSymbolTableRecord
100
AcDbRegAppTableRecord
  2
GEVID1008153418
 70
     0
  0
APPID
  5
4E5E
330
9
100
AcDbSymbolTableRecord
100
AcDbRegAppTableRecord
  2
GEVID1008153419
 70
     0
  0
APPID
  5
4E64
330
9
100
AcDbSymbolTableRecord
100
AcDbRegAppTableRecord
  2
GEVID1008153420
 70
     0
  0
APPID
  5
4E75
330
9
100
AcDbSymbolTableRecord
100
AcDbRegAppTableRecord
  2
GEVID1008153421
 70
     0
  0
APPID
  5
4EB7
330
9
100
AcDbSymbolTableRecord
100
AcDbRegAppTableRecord
  2
GENIUS_AMGTXT_16
 70
     0
  0
APPID
  5
7645
330
9
100
AcDbSymbolTableRecord
100
AcDbRegAppTableRecord
  2
GENIUS_GENOBJ-N-DIM_13
 70
     0
  0
APPID
  5
AAD0
330
9
100
AcDbSymbolTableRecord
100
AcDbRegAppTableRecord
  2
ACAD_DSTYLE_DIMARC_LENGTH_SYMBOL
 70
     0
  0
APPID
  5
AAD1
330
9
100
AcDbSymbolTableRecord
100
AcDbRegAppTableRecord
  2
ACAD_DSTYLE_DIMJOGGED_JOGANGLE_SYMBOL
 70
     0
  0
APPID
  5
AAFD
330
9
100
AcDbSymbolTableRecord
100
AcDbRegAppTableRecord
  2
ACAD_PSEXT
 70
     0
  0
APPID
  5
AD61
330
9
100
AcDbSymbolTableRecord
100
AcDbRegAppTableRecord
  2
AcAecLayerStandard
 70
     0
  0
APPID
  5
AEE3
330
9
100
AcDbSymbolTableRecord
100
AcDbRegAppTableRecord
  2
ACAD_EXEMPT_FROM_CAD_STANDARDS
 70
     0
  0
APPID
  5
B1BE
330
9
100
AcDbSymbolTableRecord
100
AcDbRegAppTableRecord
  2
GENIUS_GENCEN_19
 70
     0
  0
APPID
  5
B4DF
330
9
100
AcDbSymbolTableRecord
100
AcDbRegAppTableRecord
  2
ACAD_MLEADERVER
 70
     0
  0
ENDTAB
  0
TABLE
  2
DIMSTYLE
  5
A
330
0
100
AcDbSymbolTable
 70
    26
100
AcDbDimStyleTable
 71
     1
340
2515
  0
DIMSTYLE
105
A76
330
A
100
AcDbSymbolTableRecord
100
AcDbDimStyleTableRecord
  2
STANDARD
 70
     0
 41
3.0
 42
1.0
 43
7.0
 44
2.0
 73
     0
 74
     0
 77
     1
140
2.799999999999999
141
0.0
143
0.0394
147
0.7
171
     4
172
     1
173
     1
176
     3
177
     3
178
     2
271
     3
272
     3
273
     8
274
     4
289
     0
340
A74
341
A66
343
A66
344
A66
  0
DIMSTYLE
105
2515
330
A
100
AcDbSymbolTableRecord
100
AcDbDimStyleTableRecord
  2
SYS
 70
     0
  4
"
 41
1.0
 42
1.0
 43
10.0
 44
1.0
 47
0.1
 48
0.1
 73
     0
 74
     0
 77
     1
 78
     8
 79
     2
140
3.5
141
0.0
143
0.0393701
146
0.71
147
1.5
172
     1
176
   256
177
   256
178
     7
271
     2
272
     2
283
     0
284
     8
340
11
371
    -1
372
    -1
1001
ACAD_DSTYLE_DIMJOGGED_JOGANGLE_SYMBOL
1070
   384
1040
0.7853981633974483
1001
ACAD_DSTYLE_DIMARC_LENGTH_SYMBOL
1070
   379
1070
     1
  0
DIMSTYLE
105
2516
102
{ACAD_REACTORS
330
A4E86
330
A5014
330
A503A
330
A50AC
330
A57FC
102
}
330
A
100
AcDbSymbolTableRecord
100
AcDbDimStyleTableRecord
  2
SYS$3
 70
     0
  4
"
 41
2.0
 42
1.0
 43
10.0
 44
1.0
 47
0.1
 48
0.1
 73
     0
 77
     1
 78
     8
 79
     2
140
3.5
141
0.0
143
0.0393701
146
0.71
147
1.5
176
   256
177
   256
178
     2
271
     2
272
     2
283
     0
284
     8
288
     1
340
11
342
A66
371
    -1
372
    -1
1001
ACAD_DSTYLE_DIMJOGGED_JOGANGLE_SYMBOL
1070
   384
1040
0.7853981633974483
1001
ACAD_DSTYLE_DIMARC_LENGTH_SYMBOL
1070
   379
1070
     1
  0
DIMSTYLE
105
2517
330
A
100
AcDbSymbolTableRecord
100
AcDbDimStyleTableRecord
  2
SYS$4
 70
     0
  4
"
 41
2.0
 42
1.0
 43
10.0
 44
1.0
 47
0.1
 48
0.1
 73
     0
 77
     1
 78
     8
 79
     2
140
3.5
141
0.0
143
0.0393701
146
0.71
147
1.5
173
     1
176
   256
177
   256
178
     2
271
     2
272
     2
283
     0
284
     8
288
     1
340
11
344
A66
371
    -1
372
    -1
1001
ACAD_DSTYLE_DIMJOGGED_JOGANGLE_SYMBOL
1070
   384
1040
0.7853981633974483
1001
ACAD_DSTYLE_DIMARC_LENGTH_SYMBOL
1070
   379
1070
     1
  0
DIMSTYLE
105
2518
330
A
100
AcDbSymbolTableRecord
100
AcDbDimStyleTableRecord
  2
SYS$6
 70
     0
  4
"
 41
2.0
 42
1.0
 43
10.0
 44
1.0
 47
0.1
 48
0.1
 73
     0
 74
     0
 78
     8
 79
     2
140
3.5
141
0.0
143
0.0393701
146
0.71
147
1.5
172
     1
176
   256
177
   256
178
     2
271
     2
272
     2
283
     0
284
     8
340
11
341
A66
371
    -1
372
    -1
1001
ACAD_DSTYLE_DIMJOGGED_JOGANGLE_SYMBOL
1070
   384
1040
0.7853981633974483
1001
ACAD_DSTYLE_DIMARC_LENGTH_SYMBOL
1070
   379
1070
     1
  0
DIMSTYLE
105
2519
330
A
100
AcDbSymbolTableRecord
100
AcDbDimStyleTableRecord
  2
SYS$7
 70
     0
  4
"
 41
2.0
 42
1.0
 43
10.0
 44
1.0
 47
0.1
 48
0.1
 73
     0
 74
     0
 77
     1
 78
     8
 79
     2
140
5.0
141
0.0
143
0.0393701
146
0.71
147
1.5
172
     1
176
   256
177
   256
178
     2
271
     2
272
     2
283
     0
284
     8
340
11
341
A66
342
A66
371
    -1
372
    -1
1001
ACAD_DSTYLE_DIMJOGGED_JOGANGLE_SYMBOL
1070
   384
1040
0.7853981633974483
1001
ACAD_DSTYLE_DIMARC_LENGTH_SYMBOL
1070
   379
1070
     1
  0
DIMSTYLE
105
251A
330
A
100
AcDbSymbolTableRecord
100
AcDbDimStyleTableRecord
  2
SYS$SF
 70
     0
  4
"
 41
2.5
 42
1.0
 43
10.0
 44
1.0
 47
0.1
 48
0.1
 73
     0
 74
     0
 75
     1
 76
     1
 77
     1
 78
     8
 79
     2
140
3.5
141
0.0
143
0.0393701
146
0.71
147
1.5
172
     1
176
   256
177
   256
178
     2
271
     2
272
     3
283
     0
284
     8
340
11
341
6C4
342
6C4
371
    -1
372
    -1
1001
ACAD_DSTYLE_DIMJOGGED_JOGANGLE_SYMBOL
1070
   384
1040
0.7853981633974483
1001
ACAD_DSTYLE_DIMARC_LENGTH_SYMBOL
1070
   379
1070
     1
  0
DIMSTYLE
105
251B
330
A
100
AcDbSymbolTableRecord
100
AcDbDimStyleTableRecord
  2
SYS$SH
 70
     0
  4
"
 41
2.5
 42
1.0
 43
10.0
 44
1.0
 47
0.1
 48
0.1
 73
     0
 74
     0
 75
     1
 76
     1
 77
     1
 78
     8
 79
     2
140
3.5
141
0.0
143
0.0393701
144
2.0
146
0.71
147
1.5
172
     1
173
     1
176
   256
177
   256
178
     2
271
     2
272
     3
283
     0
284
     8
340
11
341
6C4
343
72
344
6C4
371
    -1
372
    -1
1001
ACAD_DSTYLE_DIMJOGGED_JOGANGLE_SYMBOL
1070
   384
1040
0.7853981633974483
1001
ACAD_DSTYLE_DIMARC_LENGTH_SYMBOL
1070
   379
1070
     1
  0
DIMSTYLE
105
2A59
330
A
100
AcDbSymbolTableRecord
100
AcDbDimStyleTableRecord
  2
SYS$2
 70
     0
  4
"
 41
1.0
 42
1.0
 43
10.0
 44
1.0
 47
0.1
 48
0.1
 73
     0
 74
     0
 77
     1
 78
     8
 79
     2
140
3.5
141
0.0
143
0.0393701
146
0.71
147
1.5
172
     1
176
   256
177
   256
178
     2
271
     2
272
     2
283
     0
284
     8
340
11
342
6C4
371
    -1
372
    -1
1001
ACAD_DSTYLE_DIMJOGGED_JOGANGLE_SYMBOL
1070
   384
1040
0.7853981633974483
1001
ACAD_DSTYLE_DIMARC_LENGTH_SYMBOL
1070
   379
1070
     1
  0
DIMSTYLE
105
2AAB
102
{ACAD_REACTORS
330
A4D0B
330
A4D0C
330
A4D5B
330
A4D5C
330
A4E03
330
A4E2B
330
A4E65
330
A5036
330
A5037
330
A5038
330
A5039
330
A50AB
330
A50A9
330
A50AA
330
A56F1
330
A56F2
330
A5741
330
A5742
330
A5791
330
A5792
330
A5793
330
A581B
330
A585E
330
A588F
102
}
330
A
100
AcDbSymbolTableRecord
100
AcDbDimStyleTableRecord
  2
SYS$0
 70
     0
  4
"
 41
1.0
 42
1.0
 43
10.0
 44
1.0
 47
0.1
 48
0.1
 73
     0
 74
     0
 77
     1
 78
     8
 79
     2
140
3.200000000000001
141
0.0
143
0.0393701
146
0.71
147
1.5
172
     1
176
   256
177
   256
178
     2
271
     2
272
     2
283
     0
284
     8
340
11
341
A66
342
6C4
371
    -1
372
    -1
1001
ACAD_DSTYLE_DIMJOGGED_JOGANGLE_SYMBOL
1070
   384
1040
0.7853981633974483
1001
ACAD_DSTYLE_DIMARC_LENGTH_SYMBOL
1070
   379
1070
     1
  0
DIMSTYLE
105
AF99
330
A
100
AcDbSymbolTableRecord
100
AcDbDimStyleTableRecord
  2
AM_ISO
 70
     0
  4
"
 41
2.5
 42
1.0
 43
10.0
 44
1.0
 47
0.1
 48
0.1
 73
     0
 74
     0
 77
     1
 78
     8
 79
     2
140
3.5
141
0.0
143
0.0393701
146
0.71
147
1.5
172
     1
176
   256
177
   256
178
     2
271
     2
272
     3
274
     4
283
     0
284
     8
340
11
371
    -1
372
    -1
  0
DIMSTYLE
105
AF9A
330
A
100
AcDbSymbolTableRecord
100
AcDbDimStyleTableRecord
  2
AM_ISO$3
 70
     0
  4
"
 41
2.5
 42
1.0
 43
10.0
 44
1.0
 47
0.1
 48
0.1
 73
     0
 77
     1
 78
     8
 79
     2
140
3.5
141
0.0
143
0.0393701
146
0.71
147
1.5
176
   256
177
   256
178
     2
271
     2
272
     3
274
     4
283
     0
284
     8
288
     1
289
     0
340
11
371
    -1
372
    -1
  0
DIMSTYLE
105
AF9B
330
A
100
AcDbSymbolTableRecord
100
AcDbDimStyleTableRecord
  2
AM_ISO$4
 70
     0
  4
"
 41
2.5
 42
1.0
 43
10.0
 44
1.0
 47
0.1
 48
0.1
 73
     0
 77
     1
 78
     8
 79
     2
140
3.5
141
0.0
143
0.0393701
146
0.71
147
1.5
176
   256
177
   256
178
     2
271
     2
272
     3
274
     4
283
     0
284
     8
288
     1
289
     0
340
11
371
    -1
372
    -1
  0
DIMSTYLE
105
AF9C
330
A
100
AcDbSymbolTableRecord
100
AcDbDimStyleTableRecord
  2
AM_ISO$6
 70
     0
  4
"
 41
2.5
 42
1.0
 43
10.0
 44
1.0
 47
0.1
 48
0.1
 73
     0
 74
     0
 78
     8
 79
     2
140
3.5
141
0.0
143
0.0393701
146
0.71
147
1.5
172
     1
176
   256
177
   256
178
     2
271
     2
272
     3
274
     4
283
     0
284
     8
340
11
371
    -1
372
    -1
  0
DIMSTYLE
105
AF9D
330
A
100
AcDbSymbolTableRecord
100
AcDbDimStyleTableRecord
  2
AM_ISO$7
 70
     0
  4
"
 41
2.5
 42
1.0
 43
10.0
 44
1.0
 47
0.1
 48
0.1
 73
     0
 74
     0
 77
     1
 78
     8
 79
     2
140
5.0
141
0.0
143
0.0393701
146
0.71
147
1.5
172
     1
176
   256
177
   256
178
     2
271
     2
272
     3
274
     4
283
     0
284
     8
340
11
371
    -1
372
    -1
  0
DIMSTYLE
105
AF9E
330
A
100
AcDbSymbolTableRecord
100
AcDbDimStyleTableRecord
  2
AM_ISO$SF
 70
     0
  4
"
 41
2.5
 42
1.0
 43
10.0
 44
1.0
 47
0.1
 48
0.1
 73
     0
 74
     0
 75
     1
 76
     1
 77
     1
 78
     8
 79
     2
140
3.5
141
0.0
143
0.0393701
146
0.71
147
1.5
172
     1
176
   256
177
   256
178
     2
271
     2
272
     3
274
     4
283
     0
284
     8
340
11
371
    -1
372
    -1
  0
DIMSTYLE
105
AF9F
330
A
100
AcDbSymbolTableRecord
100
AcDbDimStyleTableRecord
  2
AM_ISO$SH
 70
     0
  4
"
 41
2.5
 42
1.0
 43
10.0
 44
1.0
 47
0.1
 48
0.1
 73
     0
 74
     0
 75
     1
 76
     1
 77
     1
 78
     8
 79
     2
140
3.5
141
0.0
143
0.0393701
144
2.0
146
0.71
147
1.5
172
     1
173
     1
176
   256
177
   256
178
     2
271
     2
272
     3
274
     4
283
     0
284
     8
340
11
343
72
371
    -1
372
    -1
  0
DIMSTYLE
105
B658
330
A
100
AcDbSymbolTableRecord
100
AcDbDimStyleTableRecord
  2
AM_ANSI
 70
     0
  4
mm
 41
0.1
 42
0.05
 43
0.5
 44
0.1
 47
0.1
 48
0.1
 78
     7
 79
     2
140
0.12
141
0.0
146
0.71
147
0.06
176
   256
177
   256
178
     2
274
     4
284
     7
340
11
371
    -1
372
    -1
  0
DIMSTYLE
105
D8FE
330
A
100
AcDbSymbolTableRecord
100
AcDbDimStyleTableRecord
  2
EDDIMINFO
 70
     0
 41
5.0
 42
2.0
 43
0.0
 44
2.0
 46
10.0
 73
     0
 74
     0
 77
     1
 78
     8
140
4.0
141
2.5
143
0.03937
147
1.0
171
     3
172
     1
173
     1
176
     6
177
     6
178
     6
271
     2
272
     2
274
     3
283
     0
340
D8FB
341
D855
343
D855
344
D85B
  0
DIMSTYLE
105
D8FF
330
A
100
AcDbSymbolTableRecord
100
AcDbDimStyleTableRecord
  2
AM_ANSI$3
 70
     0
  4
mm
 41
0.1
 42
0.05
 43
0.5
 44
0.1
 47
0.1
 48
0.1
 78
     7
 79
     2
140
0.12
141
0.0
146
0.71
147
0.06
176
   256
177
   256
178
     2
274
     4
284
     7
288
     1
289
     0
340
11
371
    -1
372
    -1
1001
ACAD_DSTYLE_DIMARC_LENGTH_SYMBOL
1070
   379
1070
     1
  0
DIMSTYLE
105
D900
330
A
100
AcDbSymbolTableRecord
100
AcDbDimStyleTableRecord
  2
AM_ANSI$4
 70
     0
  4
mm
 41
0.1
 42
0.05
 43
0.5
 44
0.1
 47
0.1
 48
0.1
 78
     7
 79
     2
140
0.12
141
0.0
146
0.71
147
0.06
176
   256
177
   256
178
     2
274
     4
284
     7
288
     1
289
     0
340
11
371
    -1
372
    -1
1001
ACAD_DSTYLE_DIMARC_LENGTH_SYMBOL
1070
   379
1070
     1
  0
DIMSTYLE
105
D901
330
A
100
AcDbSymbolTableRecord
100
AcDbDimStyleTableRecord
  2
AM_ANSI$7
 70
     0
  4
mm
 41
0.1
 42
0.05
 43
0.5
 44
0.1
 47
0.1
 48
0.1
 78
     7
 79
     2
140
0.24
141
0.0
146
0.71
147
0.06
176
   256
177
   256
178
     2
274
     4
284
     7
340
11
371
    -1
372
    -1
1001
ACAD_DSTYLE_DIMARC_LENGTH_SYMBOL
1070
   379
1070
     1
  0
DIMSTYLE
105
D902
330
A
100
AcDbSymbolTableRecord
100
AcDbDimStyleTableRecord
  2
AM_ANSI$SF
 70
     0
  4
mm
 41
0.1
 42
0.05
 43
0.5
 44
0.1
 47
0.1
 48
0.1
 75
     1
 76
     1
 78
     7
 79
     2
140
0.12
141
0.0
146
0.71
147
0.06
176
   256
177
   256
178
     2
274
     4
284
     7
340
11
371
    -1
372
    -1
1001
ACAD_DSTYLE_DIMARC_LENGTH_SYMBOL
1070
   379
1070
     1
  0
DIMSTYLE
105
D903
330
A
100
AcDbSymbolTableRecord
100
AcDbDimStyleTableRecord
  2
AM_ANSI$SH
 70
     0
  4
mm
 41
0.1
 42
0.05
 43
0.5
 44
0.1
 47
0.1
 48
0.1
 75
     1
 76
     1
 78
     7
 79
     2
140
0.12
141
0.0
146
0.71
147
0.06
173
     1
176
   256
177
   256
178
     2
274
     4
284
     7
340
11
343
72
371
    -1
372
    -1
1001
ACAD_DSTYLE_DIMARC_LENGTH_SYMBOL
1070
   379
1070
     1
  0
DIMSTYLE
105
5AFB8
330
A
100
AcDbSymbolTableRecord
100
AcDbDimStyleTableRecord
  2
AM_ISO$0
 70
     0
  4
"
 41
0.8
 42
1.0
 43
10.0
 44
1.0
 47
0.1
 48
0.1
 73
     0
 74
     0
 77
     1
 78
     8
 79
     2
140
3.2
141
0.0
143
0.0393701
146
0.71
147
0.9999999999999996
172
     1
176
   256
177
   256
178
     2
271
     2
272
     2
283
     0
284
     8
340
11
341
6C4
342
6C4
371
    -1
372
    -1
  0
DIMSTYLE
105
5AFB9
330
A
100
AcDbSymbolTableRecord
100
AcDbDimStyleTableRecord
  2
AM_ISO$2
 70
     0
  4
"
 41
0.8
 42
1.0
 43
10.0
 44
1.0
 47
0.1
 48
0.1
 73
     0
 74
     0
 77
     3
 78
     8
 79
     2
140
3.200000000000001
141
0.0
143
0.0393701
146
0.71
147
0.9999999999999996
172
     1
176
   256
177
   256
178
     2
271
     2
272
     2
283
     0
284
     8
340
11
342
6C4
371
    -1
372
    -1
  0
ENDTAB
  0
TABLE
  2
BLOCK_RECORD
  5
1
330
0
100
AcDbSymbolTable
 70
    36
  0
BLOCK_RECORD
  5
1F
102
{ACAD_XDICTIONARY
360
8A
102
}
330
1
100
AcDbSymbolTableRecord
100
AcDbBlockTableRecord
  2
*Model_Space
340
22
  0
BLOCK_RECORD
  5
1B
330
1
100
AcDbSymbolTableRecord
100
AcDbBlockTableRecord
  2
*Paper_Space
340
1E
  0
BLOCK_RECORD
  5
23
330
1
100
AcDbSymbolTableRecord
100
AcDbBlockTableRecord
  2
*Paper_Space0
340
26
  0
BLOCK_RECORD
  5
72
330
1
100
AcDbSymbolTableRecord
100
AcDbBlockTableRecord
  2
GENAXEH
340
0
  0
BLOCK_RECORD
  5
6C4
330
1
100
AcDbSymbolTableRecord
100
AcDbBlockTableRecord
  2
_Dot
340
0
102
{BLKREFS
331
AB065
331
AB066
331
AB06E
331
AB06F
331
AB077
331
AB078
331
AB080
331
AB081
331
AB089
331
AB08A
331
AB092
331
AB093
331
AB09B
331
AB09C
331
AB0A6
331
AB0A7
331
AB0AF
331
AB0B0
331
AB0B6
331
AB0B7
331
AB0BF
331
AB0C0
331
AB0C8
331
AB0C9
331
AB0D1
331
AB0D2
331
AB0DC
331
AB0DD
331
AB0E3
331
AB0E4
331
AB0EC
331
AB0ED
331
AB0F5
331
AB0F6
331
AB100
331
AB101
331
AB107
331
AB108
331
AB110
331
AB111
331
AB119
331
AB11A
331
AB122
331
AB123
331
AB12B
331
AB12C
331
AB134
331
AB135
331
AB13D
331
AB13E
331
AB148
331
AB149
331
AB14F
331
AB150
331
AB158
331
AB159
331
AB161
331
AB162
102
}
  0
BLOCK_RECORD
  5
A66
330
1
100
AcDbSymbolTableRecord
100
AcDbBlockTableRecord
  2
_OPEN30
340
0
  0
BLOCK_RECORD
  5
D855
330
1
100
AcDbSymbolTableRecord
100
AcDbBlockTableRecord
  2
EDTIP_ARROW_S
340
0
  0
BLOCK_RECORD
  5
D85B
330
1
100
AcDbSymbolTableRecord
100
AcDbBlockTableRecord
  2
EDTIP_ARROW_E
340
0
  0
BLOCK_RECORD
  5
A4D0D
330
1
100
AcDbSymbolTableRecord
100
AcDbBlockTableRecord
  2
*D6
340
0
  0
BLOCK_RECORD
  5
A4D19
330
1
100
AcDbSymbolTableRecord
100
AcDbBlockTableRecord
  2
*D7
340
0
  0
BLOCK_RECORD
  5
A4D5D
330
1
100
AcDbSymbolTableRecord
100
AcDbBlockTableRecord
  2
*D8
340
0
  0
BLOCK_RECORD
  5
A4D69
330
1
100
AcDbSymbolTableRecord
100
AcDbBlockTableRecord
  2
*D9
340
0
  0
BLOCK_RECORD
  5
A4E04
330
1
100
AcDbSymbolTableRecord
100
AcDbBlockTableRecord
  2
*D10
340
0
  0
BLOCK_RECORD
  5
A4E2C
330
1
100
AcDbSymbolTableRecord
100
AcDbBlockTableRecord
  2
*D11
340
0
  0
BLOCK_RECORD
  5
A4E66
330
1
100
AcDbSymbolTableRecord
100
AcDbBlockTableRecord
  2
*D12
340
0
  0
BLOCK_RECORD
  5
A4E87
330
1
100
AcDbSymbolTableRecord
100
AcDbBlockTableRecord
  2
*D13
340
0
  0
BLOCK_RECORD
  5
A5015
330
1
100
AcDbSymbolTableRecord
100
AcDbBlockTableRecord
  2
*D14
340
0
  0
BLOCK_RECORD
  5
A503B
330
1
100
AcDbSymbolTableRecord
100
AcDbBlockTableRecord
  2
*D15
340
0
  0
BLOCK_RECORD
  5
A5047
330
1
100
AcDbSymbolTableRecord
100
AcDbBlockTableRecord
  2
*D16
340
0
  0
BLOCK_RECORD
  5
A5053
330
1
100
AcDbSymbolTableRecord
100
AcDbBlockTableRecord
  2
*D17
340
0
  0
BLOCK_RECORD
  5
A505F
330
1
100
AcDbSymbolTableRecord
100
AcDbBlockTableRecord
  2
*D18
340
0
  0
BLOCK_RECORD
  5
A506B
330
1
100
AcDbSymbolTableRecord
100
AcDbBlockTableRecord
  2
*D19
340
0
  0
BLOCK_RECORD
  5
A50AD
330
1
100
AcDbSymbolTableRecord
100
AcDbBlockTableRecord
  2
*D20
340
0
  0
BLOCK_RECORD
  5
A50B9
330
1
100
AcDbSymbolTableRecord
100
AcDbBlockTableRecord
  2
*D21
340
0
  0
BLOCK_RECORD
  5
A50C5
330
1
100
AcDbSymbolTableRecord
100
AcDbBlockTableRecord
  2
*D22
340
0
  0
BLOCK_RECORD
  5
A50D1
330
1
100
AcDbSymbolTableRecord
100
AcDbBlockTableRecord
  2
*D23
340
0
  0
BLOCK_RECORD
  5
A56F3
330
1
100
AcDbSymbolTableRecord
100
AcDbBlockTableRecord
  2
*D24
340
0
  0
BLOCK_RECORD
  5
A56FF
330
1
100
AcDbSymbolTableRecord
100
AcDbBlockTableRecord
  2
*D25
340
0
  0
BLOCK_RECORD
  5
A5743
330
1
100
AcDbSymbolTableRecord
100
AcDbBlockTableRecord
  2
*D26
340
0
  0
BLOCK_RECORD
  5
A574F
330
1
100
AcDbSymbolTableRecord
100
AcDbBlockTableRecord
  2
*D27
340
0
  0
BLOCK_RECORD
  5
A5795
330
1
100
AcDbSymbolTableRecord
100
AcDbBlockTableRecord
  2
*D28
340
0
  0
BLOCK_RECORD
  5
A57A1
330
1
100
AcDbSymbolTableRecord
100
AcDbBlockTableRecord
  2
*D29
340
0
  0
BLOCK_RECORD
  5
A57AD
330
1
100
AcDbSymbolTableRecord
100
AcDbBlockTableRecord
  2
*D30
340
0
  0
BLOCK_RECORD
  5
A57FD
330
1
100
AcDbSymbolTableRecord
100
AcDbBlockTableRecord
  2
*D31
340
0
  0
BLOCK_RECORD
  5
A581C
330
1
100
AcDbSymbolTableRecord
100
AcDbBlockTableRecord
  2
*D32
340
0
  0
BLOCK_RECORD
  5
A585F
330
1
100
AcDbSymbolTableRecord
100
AcDbBlockTableRecord
  2
*D33
340
0
  0
BLOCK_RECORD
  5
A5890
330
1
100
AcDbSymbolTableRecord
100
AcDbBlockTableRecord
  2
*D34
340
0
  0
ENDTAB
  0
ENDSEC
  0
SECTION
  2
BLOCKS
  0
BLOCK
  5
20
330
1F
100
AcDbEntity
  8
0
100
AcDbBlockBegin
  2
*Model_Space
 70
     0
 10
0.0
 20
0.0
 30
0.0
  3
*Model_Space
  1

  0
ENDBLK
  5
21
330
1F
100
AcDbEntity
  8
0
100
AcDbBlockEnd
  0
BLOCK
  5
1C
330
1B
100
AcDbEntity
 67
     1
  8
0
100
AcDbBlockBegin
  2
*Paper_Space
 70
     0
 10
0.0
 20
0.0
 30
0.0
  3
*Paper_Space
  1

  0
ENDBLK
  5
1D
330
1B
100
AcDbEntity
 67
     1
  8
0
100
AcDbBlockEnd
  0
BLOCK
  5
24
330
23
100
AcDbEntity
 67
     1
  8
0
100
AcDbBlockBegin
  2
*Paper_Space0
 70
     0
 10
0.0
 20
0.0
 30
0.0
  3
*Paper_Space0
  1

  0
ENDBLK
  5
25
330
23
100
AcDbEntity
 67
     1
  8
0
100
AcDbBlockEnd
  0
BLOCK
  5
74
330
72
100
AcDbEntity
  8
0
100
AcDbBlockBegin
  2
GENAXEH
 70
     0
 10
0.0
 20
0.0
 30
0.0
  3
GENAXEH
  1

  0
LINE
  5
73
330
72
100
AcDbEntity
  8
0
100
AcDbLine
 10
-1.0
 20
0.0
 30
0.0
 11
1.0
 21
0.0
 31
0.0
  0
ENDBLK
  5
75
330
72
100
AcDbEntity
  8
0
100
AcDbBlockEnd
  0
BLOCK
  5
6C7
330
6C4
100
AcDbEntity
  8
0
100
AcDbBlockBegin
  2
_Dot
 70
     0
 10
0.0
 20
0.0
 30
0.0
  3
_Dot
  1

  0
LWPOLYLINE
  5
6C5
330
6C4
100
AcDbEntity
  8
0
  6
ByBlock
 62
     0
100
AcDbPolyline
 90
        2
 70
     1
 43
0.5
 10
-0.25
 20
0.0
 42
1.0
 10
0.25
 20
0.0
 42
1.0
  0
LINE
  5
6C6
330
6C4
100
AcDbEntity
  8
0
  6
ByBlock
 62
     0
370
    -2
100
AcDbLine
 10
-0.5
 20
0.0
 30
0.0
 11
-1.0
 21
0.0
 31
0.0
  0
ENDBLK
  5
6C8
330
6C4
100
AcDbEntity
  8
0
100
AcDbBlockEnd
  0
BLOCK
  5
A6A
330
A66
100
AcDbEntity
  8
0
100
AcDbBlockBegin
  2
_OPEN30
 70
     0
 10
0.0
 20
0.0
 30
0.0
  3
_OPEN30
  1

  0
LINE
  5
A67
330
A66
100
AcDbEntity
  8
0
  6
ByBlock
 62
     0
100
AcDbLine
 10
-1.0
 20
0.26794919
 30
0.0
 11
0.0
 21
0.0
 31
0.0
  0
LINE
  5
A68
330
A66
100
AcDbEntity
  8
0
  6
ByBlock
 62
     0
100
AcDbLine
 10
0.0
 20
0.0
 30
0.0
 11
-1.0
 21
-0.26794919
 31
0.0
  0
LINE
  5
A69
330
A66
100
AcDbEntity
  8
0
  6
ByBlock
 62
     0
100
AcDbLine
 10
0.0
 20
0.0
 30
0.0
 11
-1.0
 21
0.0
 31
0.0
  0
ENDBLK
  5
A6B
330
A66
100
AcDbEntity
  8
0
100
AcDbBlockEnd
  0
BLOCK
  5
D856
330
D855
100
AcDbEntity
  8
0
  6
ByBlock
 62
     0
100
AcDbBlockBegin
  2
EDTIP_ARROW_S
 70
     0
 10
0.0
 20
0.0
 30
0.0
  3
EDTIP_ARROW_S
  1

  0
LINE
  5
D857
330
D855
100
AcDbEntity
  8
0
  6
Continuous
 62
     0
100
AcDbLine
 10
0.0
 20
0.0
 30
0.0
 11
-1.0
 21
0.0
 31
0.0
  0
LINE
  5
D858
330
D855
100
AcDbEntity
  8
0
  6
Continuous
 62
     0
100
AcDbLine
 10
0.0
 20
0.0
 30
0.0
 11
-0.9659259999999999
 21
0.258819
 31
0.0
  0
LINE
  5
D859
330
D855
100
AcDbEntity
  8
0
  6
Continuous
 62
     0
100
AcDbLine
 10
0.0
 20
0.0
 30
0.0
 11
-0.9659259999999999
 21
-0.258819
 31
0.0
  0
ENDBLK
  5
D85A
330
D855
100
AcDbEntity
  8
0
  6
ByBlock
 62
     0
100
AcDbBlockEnd
  0
BLOCK
  5
D85C
330
D85B
100
AcDbEntity
  8
0
  6
ByBlock
 62
     0
100
AcDbBlockBegin
  2
EDTIP_ARROW_E
 70
     0
 10
0.0
 20
0.0
 30
0.0
  3
EDTIP_ARROW_E
  1

  0
LINE
  5
D85D
330
D85B
100
AcDbEntity
  8
0
  6
Continuous
 62
     0
100
AcDbLine
 10
0.0
 20
0.0
 30
0.0
 11
-1.0
 21
0.0
 31
0.0
  0
LINE
  5
D85E
330
D85B
100
AcDbEntity
  8
0
  6
Continuous
 62
     0
100
AcDbLine
 10
0.0
 20
0.0
 30
0.0
 11
-0.9659259999999999
 21
-0.258819
 31
0.0
  0
LINE
  5
D85F
330
D85B
100
AcDbEntity
  8
0
  6
Continuous
 62
     0
100
AcDbLine
 10
0.0
 20
0.0
 30
0.0
 11
-0.9659259999999999
 21
0.258819
 31
0.0
  0
ENDBLK
  5
D860
330
D85B
100
AcDbEntity
  8
0
  6
ByBlock
 62
     0
100
AcDbBlockEnd
  0
BLOCK
  5
A4D17
330
A4D0D
100
AcDbEntity
  8
0
100
AcDbBlockBegin
  2
*D6
 70
     1
 10
0.0
 20
0.0
 30
0.0
  3
*D6
  1

  0
LINE
  5
AB062
330
A4D0D
100
AcDbEntity
  8
AM_5
100
AcDbLine
 10
367.7495229413616
 20
644.0000649739181
 30
0.0
 11
388.4998022803033
 21
644.0000649739181
 31
0.0
  0
LINE
  5
AB063
330
A4D0D
100
AcDbEntity
  8
AM_5
100
AcDbLine
 10
367.7495229413616
 20
715.0000649739181
 30
0.0
 11
388.4998022803033
 21
715.0000649739181
 31
0.0
  0
LINE
  5
AB064
330
A4D0D
100
AcDbEntity
  8
AM_5
100
AcDbLine
 10
386.4998022803034
 20
646.0000649739181
 30
0.0
 11
386.4998022803034
 21
713.0000649739181
 31
0.0
  0
INSERT
  5
AB065
330
A4D0D
100
AcDbEntity
  8
AM_5
100
AcDbBlockReference
  2
_Dot
 10
386.4998022803034
 20
644.0000649739181
 30
0.0
 41
2.0
 42
2.0
 43
2.0
 50
270.0
  0
INSERT
  5
AB066
330
A4D0D
100
AcDbEntity
  8
AM_5
100
AcDbBlockReference
  2
_Dot
 10
386.4998022803034
 20
715.0000649739181
 30
0.0
 41
2.0
 42
2.0
 43
2.0
 50
90.0
  0
MTEXT
  5
AB067
330
A4D0D
100
AcDbEntity
  8
AM_5
 62
     2
100
AcDbMText
 10
380.2998022803032
 20
679.5000649739182
 30
0.0
 40
6.400000000000002
 41
0.0
 71
     5
 72
     1
  1
Y
 11
0.0000000000000001
 21
1.0
 31
0.0
 73
     1
 44
1.0
1001
ACAD
1000
MTEXTBEGIN
1070
    73
1070
     1
1070
    44
1040
1.0
1070
    74
1070
     0
1000
MTEXTEND
  0
POINT
  5
AB068
330
A4D0D
100
AcDbEntity
  8
Defpoints
 62
     0
100
AcDbPoint
 10
365.7495229413616
 20
644.0000649739181
 30
0.0
  0
POINT
  5
AB069
330
A4D0D
100
AcDbEntity
  8
Defpoints
 62
     0
100
AcDbPoint
 10
365.7495229413616
 20
715.0000649739181
 30
0.0
  0
POINT
  5
AB06A
330
A4D0D
100
AcDbEntity
  8
Defpoints
 62
     0
100
AcDbPoint
 10
386.4998022803034
 20
715.0000649739181
 30
0.0
  0
ENDBLK
  5
A4D18
330
A4D0D
100
AcDbEntity
  8
0
100
AcDbBlockEnd
  0
BLOCK
  5
A4D23
330
A4D19
100
AcDbEntity
  8
0
100
AcDbBlockBegin
  2
*D7
 70
     1
 10
0.0
 20
0.0
 30
0.0
  3
*D7
  1

  0
LINE
  5
AB06B
330
A4D19
100
AcDbEntity
  8
AM_5
100
AcDbLine
 10
356.5000022803029
 20
632.0
 30
0.0
 11
404.4998022803032
 21
632.0
 31
0.0
  0
LINE
  5
AB06C
330
A4D19
100
AcDbEntity
  8
AM_5
100
AcDbLine
 10
356.5000022803029
 20
726.9996999999998
 30
0.0
 11
404.4998022803033
 21
726.9996999999998
 31
0.0
  0
LINE
  5
AB06D
330
A4D19
100
AcDbEntity
  8
AM_5
100
AcDbLine
 10
402.4998022803033
 20
634.0
 30
0.0
 11
402.4998022803033
 21
724.9996999999998
 31
0.0
  0
INSERT
  5
AB06E
330
A4D19
100
AcDbEntity
  8
AM_5
100
AcDbBlockReference
  2
_Dot
 10
402.4998022803033
 20
632.0
 30
0.0
 41
2.0
 42
2.0
 43
2.0
 50
270.0
  0
INSERT
  5
AB06F
330
A4D19
100
AcDbEntity
  8
AM_5
100
AcDbBlockReference
  2
_Dot
 10
402.4998022803033
 20
726.9996999999998
 30
0.0
 41
2.0
 42
2.0
 43
2.0
 50
90.0
  0
MTEXT
  5
AB070
330
A4D19
100
AcDbEntity
  8
AM_5
 62
     2
100
AcDbMText
 10
396.2998022803033
 20
679.49985
 30
0.0
 40
6.400000000000002
 41
0.0
 71
     5
 72
     1
  1
B
 11
0.0000000000000001
 21
1.0
 31
0.0
 73
     1
 44
1.0
1001
ACAD
1000
MTEXTBEGIN
1070
    73
1070
     1
1070
    44
1040
1.0
1070
    74
1070
     0
1000
MTEXTEND
  0
POINT
  5
AB071
330
A4D19
100
AcDbEntity
  8
Defpoints
 62
     0
100
AcDbPoint
 10
354.5000022803029
 20
632.0
 30
0.0
  0
POINT
  5
AB072
330
A4D19
100
AcDbEntity
  8
Defpoints
 62
     0
100
AcDbPoint
 10
354.5000022803029
 20
726.9996999999998
 30
0.0
  0
POINT
  5
AB073
330
A4D19
100
AcDbEntity
  8
Defpoints
 62
     0
100
AcDbPoint
 10
402.4998022803033
 20
726.9996999999998
 30
0.0
  0
ENDBLK
  5
A4D24
330
A4D19
100
AcDbEntity
  8
0
100
AcDbBlockEnd
  0
BLOCK
  5
A4D67
330
A4D5D
100
AcDbEntity
  8
0
100
AcDbBlockBegin
  2
*D8
 70
     1
 10
0.0
 20
0.0
 30
0.0
  3
*D8
  1

  0
LINE
  5
AB074
330
A4D5D
100
AcDbEntity
  8
AM_5
100
AcDbLine
 10
283.5001229413624
 20
728.2494621062424
 30
0.0
 11
283.5001229413624
 21
745.0
 31
0.0
  0
LINE
  5
AB075
330
A4D5D
100
AcDbEntity
  8
AM_5
100
AcDbLine
 10
354.5001229413624
 20
728.2494621062424
 30
0.0
 11
354.5001229413624
 21
745.0
 31
0.0
  0
LINE
  5
AB076
330
A4D5D
100
AcDbEntity
  8
AM_5
100
AcDbLine
 10
285.5001229413624
 20
743.0
 30
0.0
 11
352.5001229413624
 21
743.0
 31
0.0
  0
INSERT
  5
AB077
330
A4D5D
100
AcDbEntity
  8
AM_5
100
AcDbBlockReference
  2
_Dot
 10
283.5001229413624
 20
743.0
 30
0.0
 41
2.0
 42
2.0
 43
2.0
 50
180.0
  0
INSERT
  5
AB078
330
A4D5D
100
AcDbEntity
  8
AM_5
100
AcDbBlockReference
  2
_Dot
 10
354.5001229413624
 20
743.0
 30
0.0
 41
2.0
 42
2.0
 43
2.0
  0
MTEXT
  5
AB079
330
A4D5D
100
AcDbEntity
  8
AM_5
 62
     2
100
AcDbMText
 10
319.0001229413624
 20
749.2
 30
0.0
 40
6.400000000000002
 41
0.0
 71
     5
 72
     1
  1
X
 73
     1
 44
1.0
1001
ACAD
1000
MTEXTBEGIN
1070
    73
1070
     1
1070
    44
1040
1.0
1070
    74
1070
     0
1000
MTEXTEND
  0
POINT
  5
AB07A
330
A4D5D
100
AcDbEntity
  8
Defpoints
 62
     0
100
AcDbPoint
 10
283.5001229413624
 20
726.2494621062423
 30
0.0
  0
POINT
  5
AB07B
330
A4D5D
100
AcDbEntity
  8
Defpoints
 62
     0
100
AcDbPoint
 10
354.5001229413624
 20
726.2494621062423
 30
0.0
  0
POINT
  5
AB07C
330
A4D5D
100
AcDbEntity
  8
Defpoints
 62
     0
100
AcDbPoint
 10
354.5001229413624
 20
743.0
 30
0.0
  0
ENDBLK
  5
A4D68
330
A4D5D
100
AcDbEntity
  8
0
100
AcDbBlockEnd
  0
BLOCK
  5
A4D73
330
A4D69
100
AcDbEntity
  8
0
100
AcDbBlockBegin
  2
*D9
 70
     1
 10
0.0
 20
0.0
 30
0.0
  3
*D9
  1

  0
LINE
  5
AB07D
330
A4D69
100
AcDbEntity
  8
AM_5
100
AcDbLine
 10
271.4997022803032
 20
716.9994999999999
 30
0.0
 11
271.4997022803032
 21
761.0
 31
0.0
  0
LINE
  5
AB07E
330
A4D69
100
AcDbEntity
  8
AM_5
100
AcDbLine
 10
366.4998022803029
 20
716.9998999999998
 30
0.0
 11
366.4998022803029
 21
761.0
 31
0.0
  0
LINE
  5
AB07F
330
A4D69
100
AcDbEntity
  8
AM_5
100
AcDbLine
 10
273.4997022803032
 20
759.0
 30
0.0
 11
364.4998022803029
 21
759.0
 31
0.0
  0
INSERT
  5
AB080
330
A4D69
100
AcDbEntity
  8
AM_5
100
AcDbBlockReference
  2
_Dot
 10
271.4997022803032
 20
759.0
 30
0.0
 41
2.0
 42
2.0
 43
2.0
 50
180.0
  0
INSERT
  5
AB081
330
A4D69
100
AcDbEntity
  8
AM_5
100
AcDbBlockReference
  2
_Dot
 10
366.4998022803029
 20
759.0
 30
0.0
 41
2.0
 42
2.0
 43
2.0
  0
MTEXT
  5
AB082
330
A4D69
100
AcDbEntity
  8
AM_5
 62
     2
100
AcDbMText
 10
318.999752280303
 20
765.2000000000001
 30
0.0
 40
6.400000000000002
 41
0.0
 71
     5
 72
     1
  1
A
 73
     1
 44
1.0
1001
ACAD
1000
MTEXTBEGIN
1070
    73
1070
     1
1070
    44
1040
1.0
1070
    74
1070
     0
1000
MTEXTEND
  0
POINT
  5
AB083
330
A4D69
100
AcDbEntity
  8
Defpoints
 62
     0
100
AcDbPoint
 10
271.4997022803032
 20
714.9994999999998
 30
0.0
  0
POINT
  5
AB084
330
A4D69
100
AcDbEntity
  8
Defpoints
 62
     0
100
AcDbPoint
 10
366.4998022803029
 20
714.9998999999998
 30
0.0
  0
POINT
  5
AB085
330
A4D69
100
AcDbEntity
  8
Defpoints
 62
     0
100
AcDbPoint
 10
366.4998022803029
 20
759.0
 30
0.0
  0
ENDBLK
  5
A4D74
330
A4D69
100
AcDbEntity
  8
0
100
AcDbBlockEnd
  0
BLOCK
  5
A4E0E
330
A4E04
100
AcDbEntity
  8
0
100
AcDbBlockBegin
  2
*D10
 70
     1
 10
0.0
 20
0.0
 30
0.0
  3
*D10
  1

  0
LINE
  5
AB086
330
A4E04
100
AcDbEntity
  8
AM_5
100
AcDbLine
 10
294.0846910249611
 20
430.9999962930391
 30
0.0
 11
404.5007888973386
 21
430.9999962930391
 31
0.0
  0
LINE
  5
AB087
330
A4E04
100
AcDbEntity
  8
AM_5
100
AcDbLine
 10
368.5007888973387
 20
583.9999492920205
 30
0.0
 11
404.5007888973386
 21
583.9999492920205
 31
0.0
  0
LINE
  5
AB088
330
A4E04
100
AcDbEntity
  8
AM_5
100
AcDbLine
 10
402.5007888973386
 20
432.9999962930391
 30
0.0
 11
402.5007888973386
 21
581.9999492920206
 31
0.0
  0
INSERT
  5
AB089
330
A4E04
100
AcDbEntity
  8
AM_5
100
AcDbBlockReference
  2
_Dot
 10
402.5007888973386
 20
430.9999962930391
 30
0.0
 41
2.0
 42
2.0
 43
2.0
 50
270.0
  0
INSERT
  5
AB08A
330
A4E04
100
AcDbEntity
  8
AM_5
100
AcDbBlockReference
  2
_Dot
 10
402.5007888973386
 20
583.9999492920205
 30
0.0
 41
2.0
 42
2.0
 43
2.0
 50
90.0
  0
MTEXT
  5
AB08B
330
A4E04
100
AcDbEntity
  8
AM_5
 62
     2
100
AcDbMText
 10
396.3007888973386
 20
507.49997279253
 30
0.0
 40
6.400000000000002
 41
0.0
 71
     5
 72
     1
  1
H1
 11
0.0000000000000001
 21
1.0
 31
0.0
 73
     1
 44
1.0
1001
ACAD
1000
MTEXTBEGIN
1070
    73
1070
     1
1070
    44
1040
1.0
1070
    74
1070
     0
1000
MTEXTEND
  0
POINT
  5
AB08C
330
A4E04
100
AcDbEntity
  8
Defpoints
 62
     0
100
AcDbPoint
 10
292.0846910249611
 20
430.9999962930391
 30
0.0
  0
POINT
  5
AB08D
330
A4E04
100
AcDbEntity
  8
Defpoints
 62
     0
100
AcDbPoint
 10
366.5007888973387
 20
583.9999492920205
 30
0.0
  0
POINT
  5
AB08E
330
A4E04
100
AcDbEntity
  8
Defpoints
 62
     0
100
AcDbPoint
 10
402.5007888973386
 20
583.9999492920205
 30
0.0
  0
ENDBLK
  5
A4E0F
330
A4E04
100
AcDbEntity
  8
0
100
AcDbBlockEnd
  0
BLOCK
  5
A4E36
330
A4E2C
100
AcDbEntity
  8
0
100
AcDbBlockBegin
  2
*D11
 70
     1
 10
0.0
 20
0.0
 30
0.0
  3
*D11
  1

  0
LINE
  5
AB08F
330
A4E2C
100
AcDbEntity
  8
AM_5
100
AcDbLine
 10
286.7805782618309
 20
438.9999488758972
 30
0.0
 11
388.5007888973387
 21
438.9999488758971
 31
0.0
  0
LINE
  5
AB090
330
A4E2C
100
AcDbEntity
  8
AM_5
100
AcDbLine
 10
368.5007888973387
 20
583.9999492920205
 30
0.0
 11
388.5007888973387
 21
583.9999492920205
 31
0.0
  0
LINE
  5
AB091
330
A4E2C
100
AcDbEntity
  8
AM_5
100
AcDbLine
 10
386.5007888973387
 20
440.9999488758971
 30
0.0
 11
386.5007888973387
 21
581.9999492920206
 31
0.0
  0
INSERT
  5
AB092
330
A4E2C
100
AcDbEntity
  8
AM_5
100
AcDbBlockReference
  2
_Dot
 10
386.5007888973387
 20
438.9999488758971
 30
0.0
 41
2.0
 42
2.0
 43
2.0
 50
270.0
  0
INSERT
  5
AB093
330
A4E2C
100
AcDbEntity
  8
AM_5
100
AcDbBlockReference
  2
_Dot
 10
386.5007888973387
 20
583.9999492920205
 30
0.0
 41
2.0
 42
2.0
 43
2.0
 50
90.0
  0
MTEXT
  5
AB094
330
A4E2C
100
AcDbEntity
  8
AM_5
 62
     2
100
AcDbMText
 10
380.3007888973386
 20
511.499949083959
 30
0.0
 40
6.400000000000002
 41
0.0
 71
     5
 72
     1
  1
H2
 11
0.0000000000000001
 21
1.0
 31
0.0
 73
     1
 44
1.0
1001
ACAD
1000
MTEXTBEGIN
1070
    73
1070
     1
1070
    44
1040
1.0
1070
    74
1070
     0
1000
MTEXTEND
  0
POINT
  5
AB095
330
A4E2C
100
AcDbEntity
  8
Defpoints
 62
     0
100
AcDbPoint
 10
284.7805782618309
 20
438.9999488758972
 30
0.0
  0
POINT
  5
AB096
330
A4E2C
100
AcDbEntity
  8
Defpoints
 62
     0
100
AcDbPoint
 10
366.5007888973387
 20
583.9999492920205
 30
0.0
  0
POINT
  5
AB097
330
A4E2C
100
AcDbEntity
  8
Defpoints
 62
     0
100
AcDbPoint
 10
386.5007888973387
 20
583.9999492920205
 30
0.0
  0
ENDBLK
  5
A4E37
330
A4E2C
100
AcDbEntity
  8
0
100
AcDbBlockEnd
  0
BLOCK
  5
A4E70
330
A4E66
100
AcDbEntity
  8
0
100
AcDbBlockBegin
  2
*D12
 70
     1
 10
0.0
 20
0.0
 30
0.0
  3
*D12
  1

  0
LINE
  5
AB098
330
A4E66
100
AcDbEntity
  8
AM_5
100
AcDbLine
 10
292.0846910249611
 20
422.9999962930391
 30
0.0
 11
292.0846910249611
 21
408.9999962930392
 31
0.0
  0
LINE
  5
AB099
330
A4E66
100
AcDbEntity
  8
AM_5
100
AcDbLine
 10
318.9996888973383
 20
478.9999962920205
 30
0.0
 11
318.9996888973383
 21
408.9999962930392
 31
0.0
  0
LINE
  5
AB09A
330
A4E66
100
AcDbEntity
  8
AM_5
100
AcDbLine
 10
294.0846910249611
 20
410.9999962930392
 30
0.0
 11
316.9996888973383
 21
410.9999962930392
 31
0.0
  0
INSERT
  5
AB09B
330
A4E66
100
AcDbEntity
  8
AM_5
100
AcDbBlockReference
  2
_Dot
 10
292.0846910249611
 20
410.9999962930392
 30
0.0
 41
2.0
 42
2.0
 43
2.0
 50
180.0
  0
INSERT
  5
AB09C
330
A4E66
100
AcDbEntity
  8
AM_5
100
AcDbBlockReference
  2
_Dot
 10
318.9996888973383
 20
410.9999962930392
 30
0.0
 41
2.0
 42
2.0
 43
2.0
  0
MTEXT
  5
AB09D
330
A4E66
100
AcDbEntity
  8
AM_5
 62
     2
100
AcDbMText
 10
305.5421899611497
 20
417.1999962930391
 30
0.0
 40
6.400000000000002
 41
0.0
 71
     5
 72
     1
  1
E1
 73
     1
 44
1.0
1001
ACAD
1000
MTEXTBEGIN
1070
    73
1070
     1
1070
    44
1040
1.0
1070
    74
1070
     0
1000
MTEXTEND
  0
POINT
  5
AB09E
330
A4E66
100
AcDbEntity
  8
Defpoints
 62
     0
100
AcDbPoint
 10
292.0846910249611
 20
424.9999962930392
 30
0.0
  0
POINT
  5
AB09F
330
A4E66
100
AcDbEntity
  8
Defpoints
 62
     0
100
AcDbPoint
 10
318.9996888973383
 20
480.9999962920206
 30
0.0
  0
POINT
  5
AB0A0
330
A4E66
100
AcDbEntity
  8
Defpoints
 62
     0
100
AcDbPoint
 10
318.9996888973383
 20
410.9999962930392
 30
0.0
  0
ENDBLK
  5
A4E71
330
A4E66
100
AcDbEntity
  8
0
100
AcDbBlockEnd
  0
BLOCK
  5
A4E8E
330
A4E87
100
AcDbEntity
  8
0
100
AcDbBlockBegin
  2
*D13
 70
     1
 10
0.0
 20
0.0
 30
0.0
  3
*D13
  1

  0
LINE
  5
AB0A1
330
A4E87
100
AcDbEntity
  8
AM_5
100
AcDbLine
 10
235.8177052306702
 20
426.9999962976781
 30
0.0
 11
242.0843718973368
 21
426.9999962976781
 31
0.0
  0
LINE
  5
AB0A2
330
A4E87
100
AcDbEntity
  8
AM_5
100
AcDbLine
 10
242.0843718973368
 20
426.9999962976781
 30
0.0
 11
256.7551542574323
 21
442.8444412449207
 31
0.0
  0
LINE
  5
AB0A3
330
A4E87
100
AcDbEntity
  8
AM_5
100
AcDbLine
 10
327.4135895372434
 20
519.1555513391204
 30
0.0
 11
328.7724056003167
 21
520.6230726870857
 31
0.0
  0
MTEXT
  5
AB0A4
330
A4E87
100
AcDbEntity
  8
AM_5
 62
     2
100
AcDbMText
 10
237.4510385640035
 20
433.499996297678
 30
0.0
 40
7.0
 41
0.0
 71
     5
 72
     1
  1
D
 73
     1
 44
1.0
1001
ACAD
1000
MTEXTBEGIN
1070
    73
1070
     1
1070
    44
1040
1.0
1070
    74
1070
     0
1000
MTEXTEND
  0
LINE
  5
AB0A5
330
A4E87
100
AcDbEntity
  8
AM_5
100
AcDbLine
 10
326.0547734741702
 20
517.6880299911549
 30
0.0
 11
258.1139703205055
 21
444.3119625928861
 31
0.0
  0
INSERT
  5
AB0A6
330
A4E87
100
AcDbEntity
  8
AM_5
100
AcDbBlockReference
  2
_Dot
 10
326.0547734741702
 20
517.6880299911549
 30
0.0
 41
2.0
 42
2.0
 43
2.0
 50
227.2025981587727
  0
INSERT
  5
AB0A7
330
A4E87
100
AcDbEntity
  8
AM_5
100
AcDbBlockReference
  2
_Dot
 10
258.1139703205055
 20
444.3119625928861
 30
0.0
 41
2.0
 42
2.0
 43
2.0
 50
47.20259815877271
  0
POINT
  5
AB0A8
330
A4E87
100
AcDbEntity
  8
Defpoints
 62
     0
100
AcDbPoint
 10
258.1139703205055
 20
444.3119625928861
 30
0.0
  0
POINT
  5
AB0A9
330
A4E87
100
AcDbEntity
  8
Defpoints
 62
     0
100
AcDbPoint
 10
326.0547734741702
 20
517.6880299911549
 30
0.0
  0
ENDBLK
  5
A4E8F
330
A4E87
100
AcDbEntity
  8
0
100
AcDbBlockEnd
  0
BLOCK
  5
A501C
330
A5015
100
AcDbEntity
  8
0
100
AcDbBlockBegin
  2
*D14
 70
     1
 10
0.0
 20
0.0
 30
0.0
  3
*D14
  1

  0
LINE
  5
AB0AA
330
A5015
100
AcDbEntity
  8
AM_5
100
AcDbLine
 10
380.7664689469701
 20
735.0
 30
0.0
 11
374.4998022803015
 21
735.0
 31
0.0
  0
LINE
  5
AB0AB
330
A5015
100
AcDbEntity
  8
AM_5
100
AcDbLine
 10
374.4998022803015
 20
735.0
 30
0.0
 11
359.6261897060255
 21
720.1261951404309
 31
0.0
  0
LINE
  5
AB0AC
330
A5015
100
AcDbEntity
  8
AM_5
100
AcDbLine
 10
349.3740561766983
 20
709.8739290720526
 30
0.0
 11
347.9598517557355
 21
708.4597063683283
 31
0.0
  0
MTEXT
  5
AB0AD
330
A5015
100
AcDbEntity
  8
AM_5
 62
     2
100
AcDbMText
 10
379.1331356136368
 20
741.5
 30
0.0
 40
7.0
 41
0.0
 71
     5
 72
     1
  1
P
 73
     1
 44
1.0
1001
ACAD
1000
MTEXTBEGIN
1070
    73
1070
     1
1070
    44
1040
1.0
1070
    74
1070
     0
1000
MTEXTEND
  0
LINE
  5
AB0AE
330
A5015
100
AcDbEntity
  8
AM_5
100
AcDbLine
 10
350.7882605976611
 20
711.2881517757768
 30
0.0
 11
358.2119852850626
 21
718.7119724367066
 31
0.0
  0
INSERT
  5
AB0AF
330
A5015
100
AcDbEntity
  8
AM_5
100
AcDbBlockReference
  2
_Dot
 10
350.7882605976611
 20
711.2881517757768
 30
0.0
 41
2.0
 42
2.0
 43
2.0
 50
45.00037035604087
  0
INSERT
  5
AB0B0
330
A5015
100
AcDbEntity
  8
AM_5
100
AcDbBlockReference
  2
_Dot
 10
358.2119852850626
 20
718.7119724367066
 30
0.0
 41
2.0
 42
2.0
 43
2.0
 50
225.0003703560409
  0
POINT
  5
AB0B1
330
A5015
100
AcDbEntity
  8
Defpoints
 62
     0
100
AcDbPoint
 10
358.2119852850626
 20
718.7119724367066
 30
0.0
  0
POINT
  5
AB0B2
330
A5015
100
AcDbEntity
  8
Defpoints
 62
     0
100
AcDbPoint
 10
350.7882605976611
 20
711.2881517757768
 30
0.0
  0
ENDBLK
  5
A501D
330
A5015
100
AcDbEntity
  8
0
100
AcDbBlockEnd
  0
BLOCK
  5
A5045
330
A503B
100
AcDbEntity
  8
0
100
AcDbBlockBegin
  2
*D15
 70
     1
 10
0.0
 20
0.0
 30
0.0
  3
*D15
  1

  0
LINE
  5
AB0D7
330
A503B
100
AcDbEntity
  8
AM_5
100
AcDbLine
 10
655.766368946971
 20
734.9999750000015
 30
0.0
 11
649.4997022803042
 21
734.9999750000016
 31
0.0
  0
LINE
  5
AB0D8
330
A503B
100
AcDbEntity
  8
AM_5
100
AcDbLine
 10
649.4997022803042
 20
734.9999750000016
 30
0.0
 11
634.6260897060264
 21
720.1261701404316
 31
0.0
  0
LINE
  5
AB0D9
330
A503B
100
AcDbEntity
  8
AM_5
100
AcDbLine
 10
624.3739561766987
 20
709.8739040720532
 30
0.0
 11
622.9597517557358
 21
708.459681368329
 31
0.0
  0
MTEXT
  5
AB0DA
330
A503B
100
AcDbEntity
  8
AM_5
 62
     2
100
AcDbMText
 10
654.1330356136377
 20
741.4999750000013
 30
0.0
 40
7.0
 41
0.0
 71
     5
 72
     1
  1
P
 73
     1
 44
1.0
1001
ACAD
1000
MTEXTBEGIN
1070
    73
1070
     1
1070
    44
1040
1.0
1070
    74
1070
     0
1000
MTEXTEND
  0
LINE
  5
AB0DB
330
A503B
100
AcDbEntity
  8
AM_5
100
AcDbLine
 10
625.7881605976615
 20
711.2881267757776
 30
0.0
 11
633.2118852850635
 21
718.7119474367074
 31
0.0
  0
INSERT
  5
AB0DC
330
A503B
100
AcDbEntity
  8
AM_5
100
AcDbBlockReference
  2
_Dot
 10
625.7881605976615
 20
711.2881267757776
 30
0.0
 41
2.0
 42
2.0
 43
2.0
 50
45.00037035603919
  0
INSERT
  5
AB0DD
330
A503B
100
AcDbEntity
  8
AM_5
100
AcDbBlockReference
  2
_Dot
 10
633.2118852850635
 20
718.7119474367074
 30
0.0
 41
2.0
 42
2.0
 43
2.0
 50
225.0003703560392
  0
POINT
  5
AB0DE
330
A503B
100
AcDbEntity
  8
Defpoints
 62
     0
100
AcDbPoint
 10
633.2118852850635
 20
718.7119474367074
 30
0.0
  0
POINT
  5
AB0DF
330
A503B
100
AcDbEntity
  8
Defpoints
 62
     0
100
AcDbPoint
 10
625.7881605976615
 20
711.2881267757776
 30
0.0
  0
ENDBLK
  5
A5046
330
A503B
100
AcDbEntity
  8
0
100
AcDbBlockEnd
  0
BLOCK
  5
A5051
330
A5047
100
AcDbEntity
  8
0
100
AcDbBlockBegin
  2
*D16
 70
     1
 10
0.0
 20
0.0
 30
0.0
  3
*D16
  1

  0
LINE
  5
AB0B3
330
A5047
100
AcDbEntity
  8
AM_5
100
AcDbLine
 10
642.7494229413619
 20
644.0000399739187
 30
0.0
 11
663.4997022803036
 21
644.0000399739187
 31
0.0
  0
LINE
  5
AB0B4
330
A5047
100
AcDbEntity
  8
AM_5
100
AcDbLine
 10
642.7494229413619
 20
715.0000399739187
 30
0.0
 11
663.4997022803036
 21
715.0000399739187
 31
0.0
  0
LINE
  5
AB0B5
330
A5047
100
AcDbEntity
  8
AM_5
100
AcDbLine
 10
661.4997022803036
 20
646.0000399739187
 30
0.0
 11
661.4997022803036
 21
713.0000399739188
 31
0.0
  0
INSERT
  5
AB0B6
330
A5047
100
AcDbEntity
  8
AM_5
100
AcDbBlockReference
  2
_Dot
 10
661.4997022803036
 20
644.0000399739187
 30
0.0
 41
2.0
 42
2.0
 43
2.0
 50
270.0
  0
INSERT
  5
AB0B7
330
A5047
100
AcDbEntity
  8
AM_5
100
AcDbBlockReference
  2
_Dot
 10
661.4997022803036
 20
715.0000399739187
 30
0.0
 41
2.0
 42
2.0
 43
2.0
 50
90.0
  0
MTEXT
  5
AB0B8
330
A5047
100
AcDbEntity
  8
AM_5
 62
     2
100
AcDbMText
 10
655.2997022803034
 20
679.5000399739189
 30
0.0
 40
6.400000000000002
 41
0.0
 71
     5
 72
     1
  1
Y
 11
0.0000000000000001
 21
1.0
 31
0.0
 73
     1
 44
1.0
1001
ACAD
1000
MTEXTBEGIN
1070
    73
1070
     1
1070
    44
1040
1.0
1070
    74
1070
     0
1000
MTEXTEND
  0
POINT
  5
AB0B9
330
A5047
100
AcDbEntity
  8
Defpoints
 62
     0
100
AcDbPoint
 10
640.7494229413619
 20
644.0000399739187
 30
0.0
  0
POINT
  5
AB0BA
330
A5047
100
AcDbEntity
  8
Defpoints
 62
     0
100
AcDbPoint
 10
640.7494229413619
 20
715.0000399739187
 30
0.0
  0
POINT
  5
AB0BB
330
A5047
100
AcDbEntity
  8
Defpoints
 62
     0
100
AcDbPoint
 10
661.4997022803036
 20
715.0000399739187
 30
0.0
  0
ENDBLK
  5
A5052
330
A5047
100
AcDbEntity
  8
0
100
AcDbBlockEnd
  0
BLOCK
  5
A505D
330
A5053
100
AcDbEntity
  8
0
100
AcDbBlockBegin
  2
*D17
 70
     1
 10
0.0
 20
0.0
 30
0.0
  3
*D17
  1

  0
LINE
  5
AB0BC
330
A5053
100
AcDbEntity
  8
AM_5
100
AcDbLine
 10
631.499902280303
 20
631.9999750000006
 30
0.0
 11
679.4997022803036
 21
631.9999750000006
 31
0.0
  0
LINE
  5
AB0BD
330
A5053
100
AcDbEntity
  8
AM_5
100
AcDbLine
 10
631.499902280303
 20
726.9996750000005
 30
0.0
 11
679.4997022803036
 21
726.9996750000005
 31
0.0
  0
LINE
  5
AB0BE
330
A5053
100
AcDbEntity
  8
AM_5
100
AcDbLine
 10
677.4997022803035
 20
633.9999750000006
 30
0.0
 11
677.4997022803035
 21
724.9996750000004
 31
0.0
  0
INSERT
  5
AB0BF
330
A5053
100
AcDbEntity
  8
AM_5
100
AcDbBlockReference
  2
_Dot
 10
677.4997022803035
 20
631.9999750000006
 30
0.0
 41
2.0
 42
2.0
 43
2.0
 50
270.0
  0
INSERT
  5
AB0C0
330
A5053
100
AcDbEntity
  8
AM_5
100
AcDbBlockReference
  2
_Dot
 10
677.4997022803035
 20
726.9996750000005
 30
0.0
 41
2.0
 42
2.0
 43
2.0
 50
90.0
  0
MTEXT
  5
AB0C1
330
A5053
100
AcDbEntity
  8
AM_5
 62
     2
100
AcDbMText
 10
671.2997022803034
 20
679.4998250000007
 30
0.0
 40
6.400000000000002
 41
0.0
 71
     5
 72
     1
  1
B
 11
0.0000000000000001
 21
1.0
 31
0.0
 73
     1
 44
1.0
1001
ACAD
1000
MTEXTBEGIN
1070
    73
1070
     1
1070
    44
1040
1.0
1070
    74
1070
     0
1000
MTEXTEND
  0
POINT
  5
AB0C2
330
A5053
100
AcDbEntity
  8
Defpoints
 62
     0
100
AcDbPoint
 10
629.4999022803031
 20
631.9999750000006
 30
0.0
  0
POINT
  5
AB0C3
330
A5053
100
AcDbEntity
  8
Defpoints
 62
     0
100
AcDbPoint
 10
629.4999022803031
 20
726.9996750000005
 30
0.0
  0
POINT
  5
AB0C4
330
A5053
100
AcDbEntity
  8
Defpoints
 62
     0
100
AcDbPoint
 10
677.4997022803035
 20
726.9996750000005
 30
0.0
  0
ENDBLK
  5
A505E
330
A5053
100
AcDbEntity
  8
0
100
AcDbBlockEnd
  0
BLOCK
  5
A5069
330
A505F
100
AcDbEntity
  8
0
100
AcDbBlockBegin
  2
*D18
 70
     1
 10
0.0
 20
0.0
 30
0.0
  3
*D18
  1

  0
LINE
  5
AB0C5
330
A505F
100
AcDbEntity
  8
AM_5
100
AcDbLine
 10
558.5000229413626
 20
728.249437106243
 30
0.0
 11
558.5000229413626
 21
744.9999750000006
 31
0.0
  0
LINE
  5
AB0C6
330
A505F
100
AcDbEntity
  8
AM_5
100
AcDbLine
 10
629.5000229413626
 20
728.249437106243
 30
0.0
 11
629.5000229413626
 21
744.9999750000006
 31
0.0
  0
LINE
  5
AB0C7
330
A505F
100
AcDbEntity
  8
AM_5
100
AcDbLine
 10
560.5000229413626
 20
742.9999750000006
 30
0.0
 11
627.5000229413627
 21
742.9999750000006
 31
0.0
  0
INSERT
  5
AB0C8
330
A505F
100
AcDbEntity
  8
AM_5
100
AcDbBlockReference
  2
_Dot
 10
558.5000229413626
 20
742.9999750000006
 30
0.0
 41
2.0
 42
2.0
 43
2.0
 50
180.0
  0
INSERT
  5
AB0C9
330
A505F
100
AcDbEntity
  8
AM_5
100
AcDbBlockReference
  2
_Dot
 10
629.5000229413626
 20
742.9999750000006
 30
0.0
 41
2.0
 42
2.0
 43
2.0
  0
MTEXT
  5
AB0CA
330
A505F
100
AcDbEntity
  8
AM_5
 62
     2
100
AcDbMText
 10
594.0000229413626
 20
749.1999750000006
 30
0.0
 40
6.400000000000002
 41
0.0
 71
     5
 72
     1
  1
X
 73
     1
 44
1.0
1001
ACAD
1000
MTEXTBEGIN
1070
    73
1070
     1
1070
    44
1040
1.0
1070
    74
1070
     0
1000
MTEXTEND
  0
POINT
  5
AB0CB
330
A505F
100
AcDbEntity
  8
Defpoints
 62
     0
100
AcDbPoint
 10
558.5000229413626
 20
726.249437106243
 30
0.0
  0
POINT
  5
AB0CC
330
A505F
100
AcDbEntity
  8
Defpoints
 62
     0
100
AcDbPoint
 10
629.5000229413626
 20
726.249437106243
 30
0.0
  0
POINT
  5
AB0CD
330
A505F
100
AcDbEntity
  8
Defpoints
 62
     0
100
AcDbPoint
 10
629.5000229413626
 20
742.9999750000006
 30
0.0
  0
ENDBLK
  5
A506A
330
A505F
100
AcDbEntity
  8
0
100
AcDbBlockEnd
  0
BLOCK
  5
A5075
330
A506B
100
AcDbEntity
  8
0
100
AcDbBlockBegin
  2
*D19
 70
     1
 10
0.0
 20
0.0
 30
0.0
  3
*D19
  1

  0
LINE
  5
AB0CE
330
A506B
100
AcDbEntity
  8
AM_5
100
AcDbLine
 10
546.4996022803034
 20
716.9994750000005
 30
0.0
 11
546.4996022803034
 21
760.9999750000006
 31
0.0
  0
LINE
  5
AB0CF
330
A506B
100
AcDbEntity
  8
AM_5
100
AcDbLine
 10
641.4997022803031
 20
716.9998750000004
 30
0.0
 11
641.4997022803031
 21
760.9999750000006
 31
0.0
  0
LINE
  5
AB0D0
330
A506B
100
AcDbEntity
  8
AM_5
100
AcDbLine
 10
548.4996022803033
 20
758.9999750000006
 30
0.0
 11
639.4997022803031
 21
758.9999750000006
 31
0.0
  0
INSERT
  5
AB0D1
330
A506B
100
AcDbEntity
  8
AM_5
100
AcDbBlockReference
  2
_Dot
 10
546.4996022803034
 20
758.9999750000006
 30
0.0
 41
2.0
 42
2.0
 43
2.0
 50
180.0
  0
INSERT
  5
AB0D2
330
A506B
100
AcDbEntity
  8
AM_5
100
AcDbBlockReference
  2
_Dot
 10
641.4997022803031
 20
758.9999750000006
 30
0.0
 41
2.0
 42
2.0
 43
2.0
  0
MTEXT
  5
AB0D3
330
A506B
100
AcDbEntity
  8
AM_5
 62
     2
100
AcDbMText
 10
593.9996522803032
 20
765.1999750000006
 30
0.0
 40
6.400000000000002
 41
0.0
 71
     5
 72
     1
  1
A
 73
     1
 44
1.0
1001
ACAD
1000
MTEXTBEGIN
1070
    73
1070
     1
1070
    44
1040
1.0
1070
    74
1070
     0
1000
MTEXTEND
  0
POINT
  5
AB0D4
330
A506B
100
AcDbEntity
  8
Defpoints
 62
     0
100
AcDbPoint
 10
546.4996022803034
 20
714.9994750000005
 30
0.0
  0
POINT
  5
AB0D5
330
A506B
100
AcDbEntity
  8
Defpoints
 62
     0
100
AcDbPoint
 10
641.4997022803031
 20
714.9998750000004
 30
0.0
  0
POINT
  5
AB0D6
330
A506B
100
AcDbEntity
  8
Defpoints
 62
     0
100
AcDbPoint
 10
641.4997022803031
 20
758.9999750000006
 30
0.0
  0
ENDBLK
  5
A5076
330
A506B
100
AcDbEntity
  8
0
100
AcDbBlockEnd
  0
BLOCK
  5
A50B7
330
A50AD
100
AcDbEntity
  8
0
100
AcDbBlockBegin
  2
*D20
 70
     1
 10
0.0
 20
0.0
 30
0.0
  3
*D20
  1

  0
LINE
  5
AB0F2
330
A50AD
100
AcDbEntity
  8
AM_5
100
AcDbLine
 10
567.0845915806451
 20
422.999506315567
 30
0.0
 11
567.0845915806451
 21
408.999506315567
 31
0.0
  0
LINE
  5
AB0F3
330
A50AD
100
AcDbEntity
  8
AM_5
100
AcDbLine
 10
593.9995894530222
 20
478.9995063145483
 30
0.0
 11
593.9995894530222
 21
408.999506315567
 31
0.0
  0
LINE
  5
AB0F4
330
A50AD
100
AcDbEntity
  8
AM_5
100
AcDbLine
 10
569.0845915806451
 20
410.999506315567
 30
0.0
 11
591.9995894530223
 21
410.999506315567
 31
0.0
  0
INSERT
  5
AB0F5
330
A50AD
100
AcDbEntity
  8
AM_5
100
AcDbBlockReference
  2
_Dot
 10
567.0845915806451
 20
410.999506315567
 30
0.0
 41
2.0
 42
2.0
 43
2.0
 50
180.0
  0
INSERT
  5
AB0F6
330
A50AD
100
AcDbEntity
  8
AM_5
100
AcDbBlockReference
  2
_Dot
 10
593.9995894530222
 20
410.999506315567
 30
0.0
 41
2.0
 42
2.0
 43
2.0
  0
MTEXT
  5
AB0F7
330
A50AD
100
AcDbEntity
  8
AM_5
 62
     2
100
AcDbMText
 10
580.5420905168337
 20
417.1995063155669
 30
0.0
 40
6.400000000000002
 41
0.0
 71
     5
 72
     1
  1
E1
 73
     1
 44
1.0
1001
ACAD
1000
MTEXTBEGIN
1070
    73
1070
     1
1070
    44
1040
1.0
1070
    74
1070
     0
1000
MTEXTEND
  0
POINT
  5
AB0F8
330
A50AD
100
AcDbEntity
  8
Defpoints
 62
     0
100
AcDbPoint
 10
567.0845915806451
 20
424.999506315567
 30
0.0
  0
POINT
  5
AB0F9
330
A50AD
100
AcDbEntity
  8
Defpoints
 62
     0
100
AcDbPoint
 10
593.9995894530222
 20
480.9995063145484
 30
0.0
  0
POINT
  5
AB0FA
330
A50AD
100
AcDbEntity
  8
Defpoints
 62
     0
100
AcDbPoint
 10
593.9995894530222
 20
410.999506315567
 30
0.0
  0
ENDBLK
  5
A50B8
330
A50AD
100
AcDbEntity
  8
0
100
AcDbBlockEnd
  0
BLOCK
  5
A50C3
330
A50B9
100
AcDbEntity
  8
0
100
AcDbBlockBegin
  2
*D21
 70
     1
 10
0.0
 20
0.0
 30
0.0
  3
*D21
  1

  0
LINE
  5
AB0FB
330
A50B9
100
AcDbEntity
  8
AM_5
100
AcDbLine
 10
510.8176057863554
 20
426.9995063202063
 30
0.0
 11
517.0842724530234
 21
426.9995063202062
 31
0.0
  0
LINE
  5
AB0FC
330
A50B9
100
AcDbEntity
  8
AM_5
100
AcDbLine
 10
517.0842724530234
 20
426.9995063202062
 30
0.0
 11
531.7550548131171
 21
442.8439512674477
 31
0.0
  0
LINE
  5
AB0FD
330
A50B9
100
AcDbEntity
  8
AM_5
100
AcDbLine
 10
602.4134900929276
 20
519.1550613616491
 30
0.0
 11
603.7723061560009
 21
520.6225827096146
 31
0.0
  0
MTEXT
  5
AB0FE
330
A50B9
100
AcDbEntity
  8
AM_5
 62
     2
100
AcDbMText
 10
512.4509391196887
 20
433.4995063202063
 30
0.0
 40
7.0
 41
0.0
 71
     5
 72
     1
  1
D
 73
     1
 44
1.0
1001
ACAD
1000
MTEXTBEGIN
1070
    73
1070
     1
1070
    44
1040
1.0
1070
    74
1070
     0
1000
MTEXTEND
  0
LINE
  5
AB0FF
330
A50B9
100
AcDbEntity
  8
AM_5
100
AcDbLine
 10
601.0546740298544
 20
517.6875400136838
 30
0.0
 11
533.1138708761904
 21
444.311472615413
 31
0.0
  0
INSERT
  5
AB100
330
A50B9
100
AcDbEntity
  8
AM_5
100
AcDbBlockReference
  2
_Dot
 10
601.0546740298544
 20
517.6875400136838
 30
0.0
 41
2.0
 42
2.0
 43
2.0
 50
227.2025981587736
  0
INSERT
  5
AB101
330
A50B9
100
AcDbEntity
  8
AM_5
100
AcDbBlockReference
  2
_Dot
 10
533.1138708761904
 20
444.311472615413
 30
0.0
 41
2.0
 42
2.0
 43
2.0
 50
47.20259815877358
  0
POINT
  5
AB102
330
A50B9
100
AcDbEntity
  8
Defpoints
 62
     0
100
AcDbPoint
 10
533.1138708761904
 20
444.311472615413
 30
0.0
  0
POINT
  5
AB103
330
A50B9
100
AcDbEntity
  8
Defpoints
 62
     0
100
AcDbPoint
 10
601.0546740298544
 20
517.6875400136838
 30
0.0
  0
ENDBLK
  5
A50C4
330
A50B9
100
AcDbEntity
  8
0
100
AcDbBlockEnd
  0
BLOCK
  5
A50CF
330
A50C5
100
AcDbEntity
  8
0
100
AcDbBlockBegin
  2
*D22
 70
     1
 10
0.0
 20
0.0
 30
0.0
  3
*D22
  1

  0
LINE
  5
AB0E0
330
A50C5
100
AcDbEntity
  8
AM_5
100
AcDbLine
 10
569.0845915806451
 20
430.999506315567
 30
0.0
 11
679.5006894530226
 21
430.9995063155669
 31
0.0
  0
LINE
  5
AB0E1
330
A50C5
100
AcDbEntity
  8
AM_5
100
AcDbLine
 10
643.5006894530227
 20
583.9994593145483
 30
0.0
 11
679.5006894530226
 21
583.9994593145483
 31
0.0
  0
LINE
  5
AB0E2
330
A50C5
100
AcDbEntity
  8
AM_5
100
AcDbLine
 10
677.5006894530227
 20
432.999506315567
 30
0.0
 11
677.5006894530227
 21
581.9994593145484
 31
0.0
  0
INSERT
  5
AB0E3
330
A50C5
100
AcDbEntity
  8
AM_5
100
AcDbBlockReference
  2
_Dot
 10
677.5006894530227
 20
430.9995063155669
 30
0.0
 41
2.0
 42
2.0
 43
2.0
 50
270.0
  0
INSERT
  5
AB0E4
330
A50C5
100
AcDbEntity
  8
AM_5
100
AcDbBlockReference
  2
_Dot
 10
677.5006894530227
 20
583.9994593145483
 30
0.0
 41
2.0
 42
2.0
 43
2.0
 50
90.0
  0
MTEXT
  5
AB0E5
330
A50C5
100
AcDbEntity
  8
AM_5
 62
     2
100
AcDbMText
 10
671.3006894530225
 20
507.4994828150577
 30
0.0
 40
6.400000000000002
 41
0.0
 71
     5
 72
     1
  1
H1
 11
0.0000000000000001
 21
1.0
 31
0.0
 73
     1
 44
1.0
1001
ACAD
1000
MTEXTBEGIN
1070
    73
1070
     1
1070
    44
1040
1.0
1070
    74
1070
     0
1000
MTEXTEND
  0
POINT
  5
AB0E6
330
A50C5
100
AcDbEntity
  8
Defpoints
 62
     0
100
AcDbPoint
 10
567.0845915806451
 20
430.999506315567
 30
0.0
  0
POINT
  5
AB0E7
330
A50C5
100
AcDbEntity
  8
Defpoints
 62
     0
100
AcDbPoint
 10
641.5006894530226
 20
583.9994593145483
 30
0.0
  0
POINT
  5
AB0E8
330
A50C5
100
AcDbEntity
  8
Defpoints
 62
     0
100
AcDbPoint
 10
677.5006894530227
 20
583.9994593145483
 30
0.0
  0
ENDBLK
  5
A50D0
330
A50C5
100
AcDbEntity
  8
0
100
AcDbBlockEnd
  0
BLOCK
  5
A50DB
330
A50D1
100
AcDbEntity
  8
0
100
AcDbBlockBegin
  2
*D23
 70
     1
 10
0.0
 20
0.0
 30
0.0
  3
*D23
  1

  0
LINE
  5
AB0E9
330
A50D1
100
AcDbEntity
  8
AM_5
100
AcDbLine
 10
561.780478817515
 20
438.999458898425
 30
0.0
 11
663.5006894530227
 21
438.9994588984249
 31
0.0
  0
LINE
  5
AB0EA
330
A50D1
100
AcDbEntity
  8
AM_5
100
AcDbLine
 10
643.5006894530227
 20
583.9994593145483
 30
0.0
 11
663.5006894530227
 21
583.9994593145483
 31
0.0
  0
LINE
  5
AB0EB
330
A50D1
100
AcDbEntity
  8
AM_5
100
AcDbLine
 10
661.5006894530226
 20
440.999458898425
 30
0.0
 11
661.5006894530226
 21
581.9994593145484
 31
0.0
  0
INSERT
  5
AB0EC
330
A50D1
100
AcDbEntity
  8
AM_5
100
AcDbBlockReference
  2
_Dot
 10
661.5006894530226
 20
438.9994588984249
 30
0.0
 41
2.0
 42
2.0
 43
2.0
 50
270.0
  0
INSERT
  5
AB0ED
330
A50D1
100
AcDbEntity
  8
AM_5
100
AcDbBlockReference
  2
_Dot
 10
661.5006894530226
 20
583.9994593145483
 30
0.0
 41
2.0
 42
2.0
 43
2.0
 50
90.0
  0
MTEXT
  5
AB0EE
330
A50D1
100
AcDbEntity
  8
AM_5
 62
     2
100
AcDbMText
 10
655.3006894530225
 20
511.4994591064867
 30
0.0
 40
6.400000000000002
 41
0.0
 71
     5
 72
     1
  1
H2
 11
0.0000000000000001
 21
1.0
 31
0.0
 73
     1
 44
1.0
1001
ACAD
1000
MTEXTBEGIN
1070
    73
1070
     1
1070
    44
1040
1.0
1070
    74
1070
     0
1000
MTEXTEND
  0
POINT
  5
AB0EF
330
A50D1
100
AcDbEntity
  8
Defpoints
 62
     0
100
AcDbPoint
 10
559.780478817515
 20
438.999458898425
 30
0.0
  0
POINT
  5
AB0F0
330
A50D1
100
AcDbEntity
  8
Defpoints
 62
     0
100
AcDbPoint
 10
641.5006894530226
 20
583.9994593145483
 30
0.0
  0
POINT
  5
AB0F1
330
A50D1
100
AcDbEntity
  8
Defpoints
 62
     0
100
AcDbPoint
 10
661.5006894530226
 20
583.9994593145483
 30
0.0
  0
ENDBLK
  5
A50DC
330
A50D1
100
AcDbEntity
  8
0
100
AcDbBlockEnd
  0
BLOCK
  5
A56FD
330
A56F3
100
AcDbEntity
  8
0
100
AcDbBlockBegin
  2
*D24
 70
     1
 10
0.0
 20
0.0
 30
0.0
  3
*D24
  1

  0
LINE
  5
AB104
330
A56F3
100
AcDbEntity
  8
AM_5
100
AcDbLine
 10
910.9997522803038
 20
656.9994068755045
 30
0.0
 11
931.4998022803038
 21
656.9994068755045
 31
0.0
  0
LINE
  5
AB105
330
A56F3
100
AcDbEntity
  8
AM_5
100
AcDbLine
 10
910.9997522803038
 20
701.999506875502
 30
0.0
 11
931.4998022803038
 21
701.999506875502
 31
0.0
  0
LINE
  5
AB106
330
A56F3
100
AcDbEntity
  8
AM_5
100
AcDbLine
 10
929.4998022803039
 20
658.9994068755045
 30
0.0
 11
929.4998022803039
 21
699.9995068755019
 31
0.0
  0
INSERT
  5
AB107
330
A56F3
100
AcDbEntity
  8
AM_5
100
AcDbBlockReference
  2
_Dot
 10
929.4998022803039
 20
656.9994068755045
 30
0.0
 41
2.0
 42
2.0
 43
2.0
 50
270.0
  0
INSERT
  5
AB108
330
A56F3
100
AcDbEntity
  8
AM_5
100
AcDbBlockReference
  2
_Dot
 10
929.4998022803039
 20
701.999506875502
 30
0.0
 41
2.0
 42
2.0
 43
2.0
 50
90.0
  0
MTEXT
  5
AB109
330
A56F3
100
AcDbEntity
  8
AM_5
 62
     2
100
AcDbMText
 10
923.2998022803036
 20
679.4994568755035
 30
0.0
 40
6.400000000000002
 41
0.0
 71
     5
 72
     1
  1
Y
 11
0.0000000000000001
 21
1.0
 31
0.0
 73
     1
 44
1.0
1001
ACAD
1000
MTEXTBEGIN
1070
    73
1070
     1
1070
    44
1040
1.0
1070
    74
1070
     0
1000
MTEXTEND
  0
POINT
  5
AB10A
330
A56F3
100
AcDbEntity
  8
Defpoints
 62
     0
100
AcDbPoint
 10
908.9997522803036
 20
656.9994068755045
 30
0.0
  0
POINT
  5
AB10B
330
A56F3
100
AcDbEntity
  8
Defpoints
 62
     0
100
AcDbPoint
 10
908.9997522803036
 20
701.999506875502
 30
0.0
  0
POINT
  5
AB10C
330
A56F3
100
AcDbEntity
  8
Defpoints
 62
     0
100
AcDbPoint
 10
929.4998022803039
 20
701.999506875502
 30
0.0
  0
ENDBLK
  5
A56FE
330
A56F3
100
AcDbEntity
  8
0
100
AcDbBlockEnd
  0
BLOCK
  5
A5709
330
A56FF
100
AcDbEntity
  8
0
100
AcDbBlockBegin
  2
*D25
 70
     1
 10
0.0
 20
0.0
 30
0.0
  3
*D25
  1

  0
LINE
  5
AB10D
330
A56FF
100
AcDbEntity
  8
AM_5
100
AcDbLine
 10
865.4998022803038
 20
639.5000568755035
 30
0.0
 11
947.4998022803038
 21
639.5000568755035
 31
0.0
  0
LINE
  5
AB10E
330
A56FF
100
AcDbEntity
  8
AM_5
100
AcDbLine
 10
865.4998022803038
 20
719.5001568755047
 30
0.0
 11
947.4998022803038
 21
719.5001568755047
 31
0.0
  0
LINE
  5
AB10F
330
A56FF
100
AcDbEntity
  8
AM_5
100
AcDbLine
 10
945.4998022803037
 20
641.5000568755035
 30
0.0
 11
945.4998022803037
 21
717.5001568755046
 31
0.0
  0
INSERT
  5
AB110
330
A56FF
100
AcDbEntity
  8
AM_5
100
AcDbBlockReference
  2
_Dot
 10
945.4998022803037
 20
639.5000568755035
 30
0.0
 41
2.0
 42
2.0
 43
2.0
 50
270.0
  0
INSERT
  5
AB111
330
A56FF
100
AcDbEntity
  8
AM_5
100
AcDbBlockReference
  2
_Dot
 10
945.4998022803037
 20
719.5001568755047
 30
0.0
 41
2.0
 42
2.0
 43
2.0
 50
90.0
  0
MTEXT
  5
AB112
330
A56FF
100
AcDbEntity
  8
AM_5
 62
     2
100
AcDbMText
 10
939.2998022803036
 20
679.5001068755042
 30
0.0
 40
6.400000000000002
 41
0.0
 71
     5
 72
     1
  1
B
 11
0.0000000000000001
 21
1.0
 31
0.0
 73
     1
 44
1.0
1001
ACAD
1000
MTEXTBEGIN
1070
    73
1070
     1
1070
    44
1040
1.0
1070
    74
1070
     0
1000
MTEXTEND
  0
POINT
  5
AB113
330
A56FF
100
AcDbEntity
  8
Defpoints
 62
     0
100
AcDbPoint
 10
863.4998022803038
 20
639.5000568755035
 30
0.0
  0
POINT
  5
AB114
330
A56FF
100
AcDbEntity
  8
Defpoints
 62
     0
100
AcDbPoint
 10
863.4998022803038
 20
719.5001568755047
 30
0.0
  0
POINT
  5
AB115
330
A56FF
100
AcDbEntity
  8
Defpoints
 62
     0
100
AcDbPoint
 10
945.4998022803037
 20
719.5001568755047
 30
0.0
  0
ENDBLK
  5
A570A
330
A56FF
100
AcDbEntity
  8
0
100
AcDbBlockEnd
  0
BLOCK
  5
A574D
330
A5743
100
AcDbEntity
  8
0
100
AcDbBlockBegin
  2
*D26
 70
     1
 10
0.0
 20
0.0
 30
0.0
  3
*D26
  1

  0
LINE
  5
AB116
330
A5743
100
AcDbEntity
  8
AM_5
100
AcDbLine
 10
817.4993522803038
 20
715.4993068755024
 30
0.0
 11
817.4993522803038
 21
737.5001568755065
 31
0.0
  0
LINE
  5
AB117
330
A5743
100
AcDbEntity
  8
AM_5
100
AcDbLine
 10
897.4999522803031
 20
715.4993068755024
 30
0.0
 11
897.4999522803031
 21
737.5001568755065
 31
0.0
  0
LINE
  5
AB118
330
A5743
100
AcDbEntity
  8
AM_5
100
AcDbLine
 10
819.4993522803038
 20
735.5001568755064
 30
0.0
 11
895.4999522803031
 21
735.5001568755064
 31
0.0
  0
INSERT
  5
AB119
330
A5743
100
AcDbEntity
  8
AM_5
100
AcDbBlockReference
  2
_Dot
 10
817.4993522803038
 20
735.5001568755064
 30
0.0
 41
2.0
 42
2.0
 43
2.0
 50
180.0
  0
INSERT
  5
AB11A
330
A5743
100
AcDbEntity
  8
AM_5
100
AcDbBlockReference
  2
_Dot
 10
897.4999522803031
 20
735.5001568755064
 30
0.0
 41
2.0
 42
2.0
 43
2.0
  0
MTEXT
  5
AB11B
330
A5743
100
AcDbEntity
  8
AM_5
 62
     2
100
AcDbMText
 10
857.4996522803035
 20
741.7001568755065
 30
0.0
 40
6.400000000000002
 41
0.0
 71
     5
 72
     1
  1
X
 73
     1
 44
1.0
1001
ACAD
1000
MTEXTBEGIN
1070
    73
1070
     1
1070
    44
1040
1.0
1070
    74
1070
     0
1000
MTEXTEND
  0
POINT
  5
AB11C
330
A5743
100
AcDbEntity
  8
Defpoints
 62
     0
100
AcDbPoint
 10
817.4993522803038
 20
713.4993068755025
 30
0.0
  0
POINT
  5
AB11D
330
A5743
100
AcDbEntity
  8
Defpoints
 62
     0
100
AcDbPoint
 10
897.4999522803031
 20
713.4993068755025
 30
0.0
  0
POINT
  5
AB11E
330
A5743
100
AcDbEntity
  8
Defpoints
 62
     0
100
AcDbPoint
 10
897.4999522803031
 20
735.5001568755064
 30
0.0
  0
ENDBLK
  5
A574E
330
A5743
100
AcDbEntity
  8
0
100
AcDbBlockEnd
  0
BLOCK
  5
A5759
330
A574F
100
AcDbEntity
  8
0
100
AcDbBlockBegin
  2
*D27
 70
     1
 10
0.0
 20
0.0
 30
0.0
  3
*D27
  1

  0
LINE
  5
AB11F
330
A574F
100
AcDbEntity
  8
AM_5
100
AcDbLine
 10
805.4998022803038
 20
704.0000568755035
 30
0.0
 11
805.4998022803038
 21
753.5001568755064
 31
0.0
  0
LINE
  5
AB120
330
A574F
100
AcDbEntity
  8
AM_5
100
AcDbLine
 10
909.4998022803038
 20
704.0000568755035
 30
0.0
 11
909.4998022803038
 21
753.5001568755064
 31
0.0
  0
LINE
  5
AB121
330
A574F
100
AcDbEntity
  8
AM_5
100
AcDbLine
 10
807.4998022803038
 20
751.5001568755065
 30
0.0
 11
907.4998022803038
 21
751.5001568755065
 31
0.0
  0
INSERT
  5
AB122
330
A574F
100
AcDbEntity
  8
AM_5
100
AcDbBlockReference
  2
_Dot
 10
805.4998022803038
 20
751.5001568755065
 30
0.0
 41
2.0
 42
2.0
 43
2.0
 50
180.0
  0
INSERT
  5
AB123
330
A574F
100
AcDbEntity
  8
AM_5
100
AcDbBlockReference
  2
_Dot
 10
909.4998022803038
 20
751.5001568755065
 30
0.0
 41
2.0
 42
2.0
 43
2.0
  0
MTEXT
  5
AB124
330
A574F
100
AcDbEntity
  8
AM_5
 62
     2
100
AcDbMText
 10
857.4998022803038
 20
757.7001568755065
 30
0.0
 40
6.400000000000002
 41
0.0
 71
     5
 72
     1
  1
A
 73
     1
 44
1.0
1001
ACAD
1000
MTEXTBEGIN
1070
    73
1070
     1
1070
    44
1040
1.0
1070
    74
1070
     0
1000
MTEXTEND
  0
POINT
  5
AB125
330
A574F
100
AcDbEntity
  8
Defpoints
 62
     0
100
AcDbPoint
 10
805.4998022803038
 20
702.0000568755035
 30
0.0
  0
POINT
  5
AB126
330
A574F
100
AcDbEntity
  8
Defpoints
 62
     0
100
AcDbPoint
 10
909.4998022803038
 20
702.0000568755035
 30
0.0
  0
POINT
  5
AB127
330
A574F
100
AcDbEntity
  8
Defpoints
 62
     0
100
AcDbPoint
 10
909.4998022803038
 20
751.5001568755065
 30
0.0
  0
ENDBLK
  5
A575A
330
A574F
100
AcDbEntity
  8
0
100
AcDbBlockEnd
  0
BLOCK
  5
A579F
330
A5795
100
AcDbEntity
  8
0
100
AcDbBlockBegin
  2
*D28
 70
     1
 10
0.0
 20
0.0
 30
0.0
  3
*D28
  1

  0
LINE
  5
AB128
330
A5795
100
AcDbEntity
  8
AM_5
100
AcDbLine
 10
828.5843862803035
 20
430.99999629202
 30
0.0
 11
947.4995028351365
 21
430.99999629202
 31
0.0
  0
LINE
  5
AB129
330
A5795
100
AcDbEntity
  8
AM_5
100
AcDbLine
 10
911.4995028351366
 20
583.9994593145483
 30
0.0
 11
947.4995028351365
 21
583.9994593145483
 31
0.0
  0
LINE
  5
AB12A
330
A5795
100
AcDbEntity
  8
AM_5
100
AcDbLine
 10
945.4995028351365
 20
432.99999629202
 30
0.0
 11
945.4995028351365
 21
581.9994593145484
 31
0.0
  0
INSERT
  5
AB12B
330
A5795
100
AcDbEntity
  8
AM_5
100
AcDbBlockReference
  2
_Dot
 10
945.4995028351365
 20
430.99999629202
 30
0.0
 41
2.0
 42
2.0
 43
2.0
 50
270.0
  0
INSERT
  5
AB12C
330
A5795
100
AcDbEntity
  8
AM_5
100
AcDbBlockReference
  2
_Dot
 10
945.4995028351365
 20
583.9994593145483
 30
0.0
 41
2.0
 42
2.0
 43
2.0
 50
90.0
  0
MTEXT
  5
AB12D
330
A5795
100
AcDbEntity
  8
AM_5
 62
     2
100
AcDbMText
 10
939.2995028351364
 20
507.4997278032844
 30
0.0
 40
6.400000000000002
 41
0.0
 71
     5
 72
     1
  1
H1
 11
0.0000000000000001
 21
1.0
 31
0.0
 73
     1
 44
1.0
1001
ACAD
1000
MTEXTBEGIN
1070
    73
1070
     1
1070
    44
1040
1.0
1070
    74
1070
     0
1000
MTEXTEND
  0
POINT
  5
AB12E
330
A5795
100
AcDbEntity
  8
Defpoints
 62
     0
100
AcDbPoint
 10
826.5843862803034
 20
430.99999629202
 30
0.0
  0
POINT
  5
AB12F
330
A5795
100
AcDbEntity
  8
Defpoints
 62
     0
100
AcDbPoint
 10
909.4995028351366
 20
583.9994593145483
 30
0.0
  0
POINT
  5
AB130
330
A5795
100
AcDbEntity
  8
Defpoints
 62
     0
100
AcDbPoint
 10
945.4995028351365
 20
583.9994593145483
 30
0.0
  0
ENDBLK
  5
A57A0
330
A5795
100
AcDbEntity
  8
0
100
AcDbBlockEnd
  0
BLOCK
  5
A57AB
330
A57A1
100
AcDbEntity
  8
0
100
AcDbBlockBegin
  2
*D29
 70
     1
 10
0.0
 20
0.0
 30
0.0
  3
*D29
  1

  0
LINE
  5
AB131
330
A57A1
100
AcDbEntity
  8
AM_5
100
AcDbLine
 10
821.2805922803037
 20
438.999458898425
 30
0.0
 11
931.4995028351365
 21
438.9994588984249
 31
0.0
  0
LINE
  5
AB132
330
A57A1
100
AcDbEntity
  8
AM_5
100
AcDbLine
 10
911.4995028351366
 20
583.9994593145483
 30
0.0
 11
931.4995028351365
 21
583.9994593145483
 31
0.0
  0
LINE
  5
AB133
330
A57A1
100
AcDbEntity
  8
AM_5
100
AcDbLine
 10
929.4995028351365
 20
440.999458898425
 30
0.0
 11
929.4995028351365
 21
581.9994593145484
 31
0.0
  0
INSERT
  5
AB134
330
A57A1
100
AcDbEntity
  8
AM_5
100
AcDbBlockReference
  2
_Dot
 10
929.4995028351365
 20
438.9994588984249
 30
0.0
 41
2.0
 42
2.0
 43
2.0
 50
270.0
  0
INSERT
  5
AB135
330
A57A1
100
AcDbEntity
  8
AM_5
100
AcDbBlockReference
  2
_Dot
 10
929.4995028351365
 20
583.9994593145483
 30
0.0
 41
2.0
 42
2.0
 43
2.0
 50
90.0
  0
MTEXT
  5
AB136
330
A57A1
100
AcDbEntity
  8
AM_5
 62
     2
100
AcDbMText
 10
923.2995028351364
 20
511.4994591064869
 30
0.0
 40
6.400000000000002
 41
0.0
 71
     5
 72
     1
  1
H2
 11
0.0000000000000001
 21
1.0
 31
0.0
 73
     1
 44
1.0
1001
ACAD
1000
MTEXTBEGIN
1070
    73
1070
     1
1070
    44
1040
1.0
1070
    74
1070
     0
1000
MTEXTEND
  0
POINT
  5
AB137
330
A57A1
100
AcDbEntity
  8
Defpoints
 62
     0
100
AcDbPoint
 10
819.2805922803035
 20
438.999458898425
 30
0.0
  0
POINT
  5
AB138
330
A57A1
100
AcDbEntity
  8
Defpoints
 62
     0
100
AcDbPoint
 10
909.4995028351366
 20
583.9994593145483
 30
0.0
  0
POINT
  5
AB139
330
A57A1
100
AcDbEntity
  8
Defpoints
 62
     0
100
AcDbPoint
 10
929.4995028351365
 20
583.9994593145483
 30
0.0
  0
ENDBLK
  5
A57AC
330
A57A1
100
AcDbEntity
  8
0
100
AcDbBlockEnd
  0
BLOCK
  5
A57B7
330
A57AD
100
AcDbEntity
  8
0
100
AcDbBlockBegin
  2
*D30
 70
     1
 10
0.0
 20
0.0
 30
0.0
  3
*D30
  1

  0
LINE
  5
AB13A
330
A57AD
100
AcDbEntity
  8
AM_5
100
AcDbLine
 10
826.5846798351349
 20
422.999506315567
 30
0.0
 11
826.5846798351349
 21
408.999506315567
 31
0.0
  0
LINE
  5
AB13B
330
A57AD
100
AcDbEntity
  8
AM_5
100
AcDbLine
 10
853.4992022803034
 20
478.9995063145483
 30
0.0
 11
853.4992022803034
 21
408.999506315567
 31
0.0
  0
LINE
  5
AB13C
330
A57AD
100
AcDbEntity
  8
AM_5
100
AcDbLine
 10
828.5846798351348
 20
410.999506315567
 30
0.0
 11
851.4992022803035
 21
410.999506315567
 31
0.0
  0
INSERT
  5
AB13D
330
A57AD
100
AcDbEntity
  8
AM_5
100
AcDbBlockReference
  2
_Dot
 10
826.5846798351349
 20
410.999506315567
 30
0.0
 41
2.0
 42
2.0
 43
2.0
 50
180.0
  0
INSERT
  5
AB13E
330
A57AD
100
AcDbEntity
  8
AM_5
100
AcDbBlockReference
  2
_Dot
 10
853.4992022803034
 20
410.999506315567
 30
0.0
 41
2.0
 42
2.0
 43
2.0
  0
MTEXT
  5
AB13F
330
A57AD
100
AcDbEntity
  8
AM_5
 62
     2
100
AcDbMText
 10
840.0419410577192
 20
417.1995063155669
 30
0.0
 40
6.400000000000002
 41
0.0
 71
     5
 72
     1
  1
E1
 73
     1
 44
1.0
1001
ACAD
1000
MTEXTBEGIN
1070
    73
1070
     1
1070
    44
1040
1.0
1070
    74
1070
     0
1000
MTEXTEND
  0
POINT
  5
AB140
330
A57AD
100
AcDbEntity
  8
Defpoints
 62
     0
100
AcDbPoint
 10
826.5846798351349
 20
424.999506315567
 30
0.0
  0
POINT
  5
AB141
330
A57AD
100
AcDbEntity
  8
Defpoints
 62
     0
100
AcDbPoint
 10
853.4992022803034
 20
480.9995063145484
 30
0.0
  0
POINT
  5
AB142
330
A57AD
100
AcDbEntity
  8
Defpoints
 62
     0
100
AcDbPoint
 10
853.4992022803034
 20
410.999506315567
 30
0.0
  0
ENDBLK
  5
A57B8
330
A57AD
100
AcDbEntity
  8
0
100
AcDbBlockEnd
  0
BLOCK
  5
A5807
330
A57FD
100
AcDbEntity
  8
0
100
AcDbBlockBegin
  2
*D31
 70
     1
 10
0.0
 20
0.0
 30
0.0
  3
*D31
  1

  0
LINE
  5
AB143
330
A57FD
100
AcDbEntity
  8
AM_5
100
AcDbLine
 10
770.3176940408455
 20
427.0000185643612
 30
0.0
 11
776.584360707513
 21
427.0000185643612
 31
0.0
  0
LINE
  5
AB144
330
A57FD
100
AcDbEntity
  8
AM_5
100
AcDbLine
 10
776.584360707513
 20
427.0000185643612
 30
0.0
 11
791.2551430676068
 21
442.8444635116025
 31
0.0
  0
LINE
  5
AB145
330
A57FD
100
AcDbEntity
  8
AM_5
100
AcDbLine
 10
861.9135783474174
 20
519.1555736058029
 30
0.0
 11
863.2723944104908
 21
520.6230949537682
 31
0.0
  0
MTEXT
  5
AB146
330
A57FD
100
AcDbEntity
  8
AM_5
 62
     2
100
AcDbMText
 10
771.9510273741789
 20
433.5000185643613
 30
0.0
 40
7.0
 41
0.0
 71
     5
 72
     1
  1
D
 73
     1
 44
1.0
1001
ACAD
1000
MTEXTBEGIN
1070
    73
1070
     1
1070
    44
1040
1.0
1070
    74
1070
     0
1000
MTEXTEND
  0
LINE
  5
AB147
330
A57FD
100
AcDbEntity
  8
AM_5
100
AcDbLine
 10
860.5547622843442
 20
517.6880522578374
 30
0.0
 11
792.61395913068
 21
444.3119848595679
 31
0.0
  0
INSERT
  5
AB148
330
A57FD
100
AcDbEntity
  8
AM_5
100
AcDbBlockReference
  2
_Dot
 10
860.5547622843442
 20
517.6880522578374
 30
0.0
 41
2.0
 42
2.0
 43
2.0
 50
227.2025981587732
  0
INSERT
  5
AB149
330
A57FD
100
AcDbEntity
  8
AM_5
100
AcDbBlockReference
  2
_Dot
 10
792.61395913068
 20
444.3119848595679
 30
0.0
 41
2.0
 42
2.0
 43
2.0
 50
47.20259815877319
  0
POINT
  5
AB14A
330
A57FD
100
AcDbEntity
  8
Defpoints
 62
     0
100
AcDbPoint
 10
792.61395913068
 20
444.3119848595679
 30
0.0
  0
POINT
  5
AB14B
330
A57FD
100
AcDbEntity
  8
Defpoints
 62
     0
100
AcDbPoint
 10
860.5547622843442
 20
517.6880522578374
 30
0.0
  0
ENDBLK
  5
A5808
330
A57FD
100
AcDbEntity
  8
0
100
AcDbBlockEnd
  0
BLOCK
  5
A5826
330
A581C
100
AcDbEntity
  8
0
100
AcDbBlockBegin
  2
*D32
 70
     1
 10
0.0
 20
0.0
 30
0.0
  3
*D32
  1

  0
LINE
  5
AB14C
330
A581C
100
AcDbEntity
  8
AM_5
100
AcDbLine
 10
284.7805783055701
 20
430.999949292021
 30
0.0
 11
284.7805783055701
 21
392.9999962930392
 31
0.0
  0
LINE
  5
AB14D
330
A581C
100
AcDbEntity
  8
AM_5
100
AcDbLine
 10
318.9996888973383
 20
478.9999962920205
 30
0.0
 11
318.9996888973383
 21
392.9999962930392
 31
0.0
  0
LINE
  5
AB14E
330
A581C
100
AcDbEntity
  8
AM_5
100
AcDbLine
 10
286.7805783055701
 20
394.9999962930392
 30
0.0
 11
316.9996888973383
 21
394.9999962930392
 31
0.0
  0
INSERT
  5
AB14F
330
A581C
100
AcDbEntity
  8
AM_5
100
AcDbBlockReference
  2
_Dot
 10
284.7805783055701
 20
394.9999962930392
 30
0.0
 41
2.0
 42
2.0
 43
2.0
 50
180.0
  0
INSERT
  5
AB150
330
A581C
100
AcDbEntity
  8
AM_5
100
AcDbBlockReference
  2
_Dot
 10
318.9996888973383
 20
394.9999962930392
 30
0.0
 41
2.0
 42
2.0
 43
2.0
  0
MTEXT
  5
AB151
330
A581C
100
AcDbEntity
  8
AM_5
 62
     2
100
AcDbMText
 10
301.8901336014542
 20
401.1999962930391
 30
0.0
 40
6.400000000000002
 41
0.0
 71
     5
 72
     1
  1
E2
 73
     1
 44
1.0
1001
ACAD
1000
MTEXTBEGIN
1070
    73
1070
     1
1070
    44
1040
1.0
1070
    74
1070
     0
1000
MTEXTEND
  0
POINT
  5
AB152
330
A581C
100
AcDbEntity
  8
Defpoints
 62
     0
100
AcDbPoint
 10
284.7805783055701
 20
432.999949292021
 30
0.0
  0
POINT
  5
AB153
330
A581C
100
AcDbEntity
  8
Defpoints
 62
     0
100
AcDbPoint
 10
318.9996888973383
 20
480.9999962920206
 30
0.0
  0
POINT
  5
AB154
330
A581C
100
AcDbEntity
  8
Defpoints
 62
     0
100
AcDbPoint
 10
318.9996888973383
 20
394.9999962930392
 30
0.0
  0
ENDBLK
  5
A5827
330
A581C
100
AcDbEntity
  8
0
100
AcDbBlockEnd
  0
BLOCK
  5
A5869
330
A585F
100
AcDbEntity
  8
0
100
AcDbBlockBegin
  2
*D33
 70
     1
 10
0.0
 20
0.0
 30
0.0
  3
*D33
  1

  0
LINE
  5
AB155
330
A585F
100
AcDbEntity
  8
AM_5
100
AcDbLine
 10
559.7804788612541
 20
430.9994593145488
 30
0.0
 11
559.7804788612541
 21
392.999506315567
 31
0.0
  0
LINE
  5
AB156
330
A585F
100
AcDbEntity
  8
AM_5
100
AcDbLine
 10
593.9995894530222
 20
478.9995063145483
 30
0.0
 11
593.9995894530222
 21
392.999506315567
 31
0.0
  0
LINE
  5
AB157
330
A585F
100
AcDbEntity
  8
AM_5
100
AcDbLine
 10
561.7804788612541
 20
394.999506315567
 30
0.0
 11
591.9995894530223
 21
394.999506315567
 31
0.0
  0
INSERT
  5
AB158
330
A585F
100
AcDbEntity
  8
AM_5
100
AcDbBlockReference
  2
_Dot
 10
559.7804788612541
 20
394.999506315567
 30
0.0
 41
2.0
 42
2.0
 43
2.0
 50
180.0
  0
INSERT
  5
AB159
330
A585F
100
AcDbEntity
  8
AM_5
100
AcDbBlockReference
  2
_Dot
 10
593.9995894530222
 20
394.999506315567
 30
0.0
 41
2.0
 42
2.0
 43
2.0
  0
MTEXT
  5
AB15A
330
A585F
100
AcDbEntity
  8
AM_5
 62
     2
100
AcDbMText
 10
576.8900341571382
 20
401.199506315567
 30
0.0
 40
6.400000000000002
 41
0.0
 71
     5
 72
     1
  1
E2
 73
     1
 44
1.0
1001
ACAD
1000
MTEXTBEGIN
1070
    73
1070
     1
1070
    44
1040
1.0
1070
    74
1070
     0
1000
MTEXTEND
  0
POINT
  5
AB15B
330
A585F
100
AcDbEntity
  8
Defpoints
 62
     0
100
AcDbPoint
 10
559.7804788612541
 20
432.9994593145488
 30
0.0
  0
POINT
  5
AB15C
330
A585F
100
AcDbEntity
  8
Defpoints
 62
     0
100
AcDbPoint
 10
593.9995894530222
 20
480.9995063145484
 30
0.0
  0
POINT
  5
AB15D
330
A585F
100
AcDbEntity
  8
Defpoints
 62
     0
100
AcDbPoint
 10
593.9995894530222
 20
394.999506315567
 30
0.0
  0
ENDBLK
  5
A586A
330
A585F
100
AcDbEntity
  8
0
100
AcDbBlockEnd
  0
BLOCK
  5
A589A
330
A5890
100
AcDbEntity
  8
0
100
AcDbBlockBegin
  2
*D34
 70
     1
 10
0.0
 20
0.0
 30
0.0
  3
*D34
  1

  0
LINE
  5
AB15E
330
A5890
100
AcDbEntity
  8
AM_5
100
AcDbLine
 10
819.2805922803035
 20
430.9999492920187
 30
0.0
 11
819.2805922803035
 21
392.999506315567
 31
0.0
  0
LINE
  5
AB15F
330
A5890
100
AcDbEntity
  8
AM_5
100
AcDbLine
 10
853.4992022803034
 20
478.9999492920187
 30
0.0
 11
853.4992022803034
 21
392.999506315567
 31
0.0
  0
LINE
  5
AB160
330
A5890
100
AcDbEntity
  8
AM_5
100
AcDbLine
 10
821.2805922803037
 20
394.999506315567
 30
0.0
 11
851.4992022803035
 21
394.999506315567
 31
0.0
  0
INSERT
  5
AB161
330
A5890
100
AcDbEntity
  8
AM_5
100
AcDbBlockReference
  2
_Dot
 10
819.2805922803035
 20
394.999506315567
 30
0.0
 41
2.0
 42
2.0
 43
2.0
 50
180.0
  0
INSERT
  5
AB162
330
A5890
100
AcDbEntity
  8
AM_5
100
AcDbBlockReference
  2
_Dot
 10
853.4992022803034
 20
394.999506315567
 30
0.0
 41
2.0
 42
2.0
 43
2.0
  0
MTEXT
  5
AB163
330
A5890
100
AcDbEntity
  8
AM_5
 62
     2
100
AcDbMText
 10
836.3898972803035
 20
401.199506315567
 30
0.0
 40
6.400000000000002
 41
0.0
 71
     5
 72
     1
  1
E2
 73
     1
 44
1.0
1001
ACAD
1000
MTEXTBEGIN
1070
    73
1070
     1
1070
    44
1040
1.0
1070
    74
1070
     0
1000
MTEXTEND
  0
POINT
  5
AB164
330
A5890
100
AcDbEntity
  8
Defpoints
 62
     0
100
AcDbPoint
 10
819.2805922803035
 20
432.9999492920187
 30
0.0
  0
POINT
  5
AB165
330
A5890
100
AcDbEntity
  8
Defpoints
 62
     0
100
AcDbPoint
 10
853.4992022803034
 20
480.9999492920187
 30
0.0
  0
POINT
  5
AB166
330
A5890
100
AcDbEntity
  8
Defpoints
 62
     0
100
AcDbPoint
 10
853.4992022803034
 20
394.999506315567
 30
0.0
  0
ENDBLK
  5
A589B
330
A5890
100
AcDbEntity
  8
0
100
AcDbBlockEnd
  0
ENDSEC
  0
SECTION
  2
ENTITIES
  0
LWPOLYLINE
  5
62524
330
1F
100
AcDbEntity
  8
waku
100
AcDbPolyline
 90
        4
 70
     1
 43
0.0
 10
23.0
 20
823.0
 10
1165.000000000001
 20
823.0
 10
1165.000000000001
 20
17.0
 10
23.0
 20
17.0
1001
GENIUS_GENREC_14
1002
{
1000
PYDIR
1011
23.0
1021
17.0
1031
0.0
1002
}
1002
{
1000
PXDIR
1011
1165.000000000001
1021
823.0
1031
0.0
1002
}
1002
{
1000
PORI
1011
23.0
1021
823.0
1031
0.0
1002
}
1002
{
1000
PINS
1011
23.0
1021
823.0
1031
0.0
1002
}
1002
{
1000
PINS2
1011
1165.000000000001
1021
17.0
1031
0.0
1002
}
1002
{
1000
C
1070
     1
1002
}
1001
GENIUS_GENOBJ-N-REC_13
1002
{
1000
OWNER
1000
GEN
1002
}
1001
GENIUS_GENODEF_13
1002
{
1000
HIER
1070
     0
1002
}
1002
{
1000
MANEDIT
1070
     0
1002
}
1002
{
1000
NOSEL
1070
     0
1002
}
1002
{
1000
BEHIND
1070
     0
1002
}
1002
{
1000
OTHER
1070
     0
1002
}
1002
{
1000
REACTOR
1002
}
  0
LWPOLYLINE
  5
62525
330
1F
100
AcDbEntity
  8
size
100
AcDbPolyline
 90
        4
 70
     1
 43
0.0
 10
0.0
 20
840.0
 10
1188.0
 20
840.0
 10
1188.0
 20
0.0
 10
0.0
 20
0.0
1001
GENIUS_GENREC_14
1002
{
1000
PYDIR
1011
0.0
1021
0.0
1031
0.0
1002
}
1002
{
1000
PXDIR
1011
1188.0
1021
840.0
1031
0.0
1002
}
1002
{
1000
PORI
1011
0.0
1021
840.0
1031
0.0
1002
}
1002
{
1000
PINS
1011
0.0
1021
840.0
1031
0.0
1002
}
1002
{
1000
PINS2
1011
1188.0
1021
0.0
1031
0.0
1002
}
1002
{
1000
C
1070
     1
1002
}
1001
GENIUS_GENODEF_13
1002
{
1000
HIER
1070
     0
1002
}
1002
{
1000
MANEDIT
1070
     0
1002
}
1002
{
1000
NOSEL
1070
     0
1002
}
1002
{
1000
BEHIND
1070
     0
1002
}
1002
{
1000
OTHER
1070
     0
1002
}
1002
{
1000
REACTOR
1002
}
1001
GENIUS_GENOBJ-N-REC_13
1002
{
1000
OWNER
1000
GEN
1002
}
  0
MTEXT
  5
7AC05
330
1F
100
AcDbEntity
  8
AM_6
100
AcDbMText
 10
-1051.000000000001
 20
-5888.0
 30
0.0
 40
6.4
 41
180.0
 71
     4
 72
     5
  1
　
 73
     1
 44
1.0
1001
ACAD
1000
MTEXTBEGIN
1070
    73
1070
     1
1070
    44
1040
1.0
1070
    74
1070
     0
1000
MTEXTEND
  0
MTEXT
  5
7AC06
330
1F
100
AcDbEntity
  8
AM_6
100
AcDbMText
 10
-1051.000000000001
 20
-5920.0
 30
0.0
 40
6.4
 41
180.0
 71
     4
 72
     5
  1
　
 73
     1
 44
1.0
1001
ACAD
1000
MTEXTBEGIN
1070
    73
1070
     1
1070
    44
1040
1.0
1070
    74
1070
     0
1000
MTEXTEND
  0
MTEXT
  5
A4A7D
330
1F
100
AcDbEntity
  8
AM_6
100
AcDbMText
 10
167.0000000000384
 20
312.9999999999973
 30
0.0
 40
6.4
 41
32.0
 71
     5
 72
     5
  1
D
 73
     1
 44
1.0
1001
ACAD
1000
MTEXTBEGIN
1070
    73
1070
     1
1070
    44
1040
1.0
1070
    74
1070
     0
1000
MTEXTEND
  0
MTEXT
  5
A4A7F
330
1F
100
AcDbEntity
  8
AM_6
100
AcDbMText
 10
327.0000000000384
 20
312.9999999999254
 30
0.0
 40
6.4
 41
32.0
 71
     5
 72
     5
  1
H1
 73
     1
 44
1.0
1001
ACAD
1000
MTEXTBEGIN
1070
    73
1070
     1
1070
    44
1040
1.0
1070
    74
1070
     0
1000
MTEXTEND
  0
LINE
  5
A4A80
330
1F
100
AcDbEntity
  8
AM_5
100
AcDbLine
 10
343.0000000000384
 20
337.0000000001328
 30
0.0
 11
343.0000000000386
 21
17.0
 31
0.0
  0
LINE
  5
A4A81
330
1F
100
AcDbEntity
  8
AM_0
100
AcDbLine
 10
567.0000000000477
 20
17.0
 30
0.0
 11
23.0
 21
17.0
 31
0.0
  0
LINE
  5
A4A82
330
1F
100
AcDbEntity
  8
AM_0
100
AcDbLine
 10
22.99999999993611
 20
304.9999999999977
 30
0.0
 11
567.0000000000356
 21
304.9999999999986
 31
0.0
  0
LINE
  5
A4A83
330
1F
100
AcDbEntity
  8
AM_0
100
AcDbLine
 10
23.00000000005571
 20
113.0
 30
0.0
 11
567.0000000001002
 21
113.0
 31
0.0
  0
LINE
  5
A4A84
330
1F
100
AcDbEntity
  8
AM_5
100
AcDbLine
 10
151.0000000000377
 20
17.00000000000091
 30
0.0
 11
151.0000000000384
 21
337.00000000006
 31
0.0
  0
LINE
  5
A4A85
330
1F
100
AcDbEntity
  8
AM_5
100
AcDbLine
 10
183.0000000000384
 20
337.0000000000737
 30
0.0
 11
183.0000000000389
 21
17.0
 31
0.0
  0
LINE
  5
A4A86
330
1F
100
AcDbEntity
  8
AM_5
100
AcDbLine
 10
215.0000000000384
 20
337.0000000000873
 30
0.0
 11
215.0000000000391
 21
17.0
 31
0.0
  0
LINE
  5
A4A87
330
1F
100
AcDbEntity
  8
AM_5
100
AcDbLine
 10
54.99999999997226
 20
273.0000000000073
 30
0.0
 11
151.0000000000573
 21
273.0000000000073
 31
0.0
  0
LINE
  5
A4A88
330
1F
100
AcDbEntity
  8
AM_5
100
AcDbLine
 10
151.000000000045
 20
209.0000000000073
 30
0.0
 11
54.99999999997385
 21
209.0000000000082
 31
0.0
  0
LINE
  5
A4A89
330
1F
100
AcDbEntity
  8
AM_5
100
AcDbLine
 10
54.99999999998227
 20
240.9999999999973
 30
0.0
 11
567.0000000000616
 21
240.9999999999982
 31
0.0
  0
LINE
  5
A4A8A
330
1F
100
AcDbEntity
  8
AM_5
100
AcDbLine
 10
567.0000000000616
 20
176.9999999999981
 30
0.0
 11
503.0000000000616
 21
176.9999999999981
 31
0.0
  0
LINE
  5
A4A8B
330
1F
100
AcDbEntity
  8
AM_5
100
AcDbLine
 10
471.0000000000616
 20
176.9999999999981
 30
0.0
 11
215.0000000000616
 21
176.9999999999981
 31
0.0
  0
LINE
  5
A4A8C
330
1F
100
AcDbEntity
  8
AM_5
100
AcDbLine
 10
183.0000000000616
 20
176.9999999999981
 30
0.0
 11
151.0000000000616
 21
176.9999999999981
 31
0.0
  0
LINE
  5
A4A8D
330
1F
100
AcDbEntity
  8
AM_5
100
AcDbLine
 10
55.00000000009731
 20
81.0
 30
0.0
 11
567.0000000001002
 21
81.0
 31
0.0
  0
MTEXT
  5
A4A8E
330
1F
100
AcDbEntity
  8
AM_6
100
AcDbMText
 10
167.0000000000357
 20
272.9999999999982
 30
0.0
 40
6.4
 41
32.0
 71
     5
 72
     5
  1
100
 73
     1
 44
1.0
1001
ACAD
1000
MTEXTBEGIN
1070
    73
1070
     1
1070
    44
1040
1.0
1070
    74
1070
     0
1000
MTEXTEND
  0
MTEXT
  5
A4A8F
330
1F
100
AcDbEntity
  8
AM_6
100
AcDbMText
 10
167.0000000000616
 20
208.9999999999982
 30
0.0
 40
6.4
 41
32.0
 71
     5
 72
     5
  1
150
 73
     1
 44
1.0
1001
ACAD
1000
MTEXTBEGIN
1070
    73
1070
     1
1070
    44
1040
1.0
1070
    74
1070
     0
1000
MTEXTEND
  0
MTEXT
  5
A4A90
330
1F
100
AcDbEntity
  8
AM_6
100
AcDbMText
 10
167.0000000000616
 20
144.9999999999981
 30
0.0
 40
6.4
 41
32.0
 71
     5
 72
     5
  1
200
 73
     1
 44
1.0
1001
ACAD
1000
MTEXTBEGIN
1070
    73
1070
     1
1070
    44
1040
1.0
1070
    74
1070
     0
1000
MTEXTEND
  0
MTEXT
  5
A4A91
330
1F
100
AcDbEntity
  8
AM_6
100
AcDbMText
 10
327.0000000000616
 20
273.0000000000291
 30
0.0
 40
6.4
 41
32.0
 71
     5
 72
     5
  1
153
 73
     1
 44
1.0
1001
ACAD
1000
MTEXTBEGIN
1070
    73
1070
     1
1070
    44
1040
1.0
1070
    74
1070
     0
1000
MTEXTEND
  0
MTEXT
  5
A4A92
330
1F
100
AcDbEntity
  8
AM_6
100
AcDbMText
 10
327.0000000000875
 20
209.0000000000291
 30
0.0
 40
6.4
 41
32.0
 71
     5
 72
     5
  1
210
 73
     1
 44
1.0
1001
ACAD
1000
MTEXTBEGIN
1070
    73
1070
     1
1070
    44
1040
1.0
1070
    74
1070
     0
1000
MTEXTEND
  0
MTEXT
  5
A4A93
330
1F
100
AcDbEntity
  8
AM_6
100
AcDbMText
 10
327.0000000000875
 20
145.00000000003
 30
0.0
 40
6.4
 41
32.0
 71
     5
 72
     5
  1
260
 73
     1
 44
1.0
1001
ACAD
1000
MTEXTBEGIN
1070
    73
1070
     1
1070
    44
1040
1.0
1070
    74
1070
     0
1000
MTEXTEND
  0
LINE
  5
A4A94
330
1F
100
AcDbEntity
  8
AM_0
100
AcDbLine
 10
22.99999999999068
 20
336.9999999999973
 30
0.0
 11
567.0000000000384
 21
337.0000000002474
 31
0.0
  0
LINE
  5
A4A95
330
1F
100
AcDbEntity
  8
AM_0
100
AcDbLine
 10
23.00000000016553
 20
17.0
 30
0.0
 11
22.9999999999211
 21
336.9999999999973
 31
0.0
  0
MTEXT
  5
A4A96
330
1F
100
AcDbEntity
  8
AM_6
100
AcDbMText
 10
78.99999999992065
 20
320.9999999999559
 30
0.0
 40
6.4
 41
48.00000000005752
 71
     5
 72
     5
  1
品　番
 73
     1
 44
1.0
1001
ACAD
1000
MTEXTBEGIN
1070
    73
1070
     1
1070
    44
1040
1.0
1070
    74
1070
     0
1000
MTEXTEND
1000
ACAD_MTEXT_DEFINED_HEIGHT_BEGIN
1070
    46
1040
12.79999999972079
1000
ACAD_MTEXT_DEFINED_HEIGHT_END
  0
LINE
  5
A4A97
330
1F
100
AcDbEntity
  8
AM_5
100
AcDbLine
 10
55.0000000001246
 20
49.00000000000727
 30
0.0
 11
183.0000000001003
 21
49.0
 31
0.0
  0
LINE
  5
A4A98
330
1F
100
AcDbEntity
  8
AM_5
100
AcDbLine
 10
215.0000000001003
 20
49.0
 30
0.0
 11
471.0000000001002
 21
49.0000000000009
 31
0.0
  0
LINE
  5
A4A99
330
1F
100
AcDbEntity
  8
AM_5
100
AcDbLine
 10
503.0000000001003
 20
49.0
 30
0.0
 11
567.0000000001002
 21
49.0
 31
0.0
  0
MTEXT
  5
A4A9A
330
1F
100
AcDbEntity
  8
AM_6
100
AcDbMText
 10
167.0000000000384
 20
329.0000000000664
 30
0.0
 40
6.4
 41
32.0
 71
     5
 72
     5
  1
車輪サイズ
 73
     1
 44
1.0
1001
ACAD
1000
MTEXTBEGIN
1070
    73
1070
     1
1070
    44
1040
1.0
1070
    74
1070
     0
1000
MTEXTEND
  0
MTEXT
  5
A4A9B
330
1F
100
AcDbEntity
  8
AM_6
100
AcDbMText
 10
199.0000000000384
 20
320.9999999999627
 30
0.0
 40
6.4
 41
32.0
 71
     5
 72
     5
  1
タイヤ幅
 73
     1
 44
1.0
1001
ACAD
1000
MTEXTBEGIN
1070
    73
1070
     1
1070
    44
1040
1.0
1070
    74
1070
     0
1000
MTEXTEND
  0
MTEXT
  5
A4A9C
330
1F
100
AcDbEntity
  8
AM_6
100
AcDbMText
 10
327.0000000000384
 20
328.9999999999945
 30
0.0
 40
6.4
 41
32.0
 71
     5
 72
     5
  1
高さ
 73
     1
 44
1.0
1001
ACAD
1000
MTEXTBEGIN
1070
    73
1070
     1
1070
    44
1040
1.0
1070
    74
1070
     0
1000
MTEXTEND
  0
MTEXT
  5
A4A9D
330
1F
100
AcDbEntity
  8
AM_6
100
AcDbMText
 10
78.99999999991973
 20
280.9999999999795
 30
0.0
 40
6.4
 41
48.0
 71
     5
 72
     5
  1
SAJB-100W
 73
     1
 44
1.0
1001
ACAD
1000
MTEXTBEGIN
1070
    73
1070
     1
1070
    44
1040
1.0
1070
    74
1070
     0
1000
MTEXTEND
  0
MTEXT
  5
A4A9E
330
1F
100
AcDbEntity
  8
AM_6
100
AcDbMText
 10
78.99999999994566
 20
216.99999999998
 30
0.0
 40
6.4
 41
48.0
 71
     5
 72
     5
  1
SAJB-150W
 73
     1
 44
1.0
1001
ACAD
1000
MTEXTBEGIN
1070
    73
1070
     1
1070
    44
1040
1.0
1070
    74
1070
     0
1000
MTEXTEND
  0
MTEXT
  5
A4A9F
330
1F
100
AcDbEntity
  8
AM_6
100
AcDbMText
 10
78.99999999994566
 20
152.99999999998
 30
0.0
 40
6.4
 41
48.0
 71
     5
 72
     5
  1
SAJB-200W
 73
     1
 44
1.0
1001
ACAD
1000
MTEXTBEGIN
1070
    73
1070
     1
1070
    44
1040
1.0
1070
    74
1070
     0
1000
MTEXTEND
  0
MTEXT
  5
A4AA0
330
1F
100
AcDbEntity
  8
AM_6
100
AcDbMText
 10
199.0000000000357
 20
272.9999999999982
 30
0.0
 40
6.4
 41
32.0
 71
     5
 72
     5
  1
35
 73
     1
 44
1.0
1001
ACAD
1000
MTEXTBEGIN
1070
    73
1070
     1
1070
    44
1040
1.0
1070
    74
1070
     0
1000
MTEXTEND
  0
MTEXT
  5
A4AA1
330
1F
100
AcDbEntity
  8
AM_6
100
AcDbMText
 10
199.0000000000616
 20
177.0000000000373
 30
0.0
 40
6.4
 41
32.0
 71
     5
 72
     5
  1
45
 73
     1
 44
1.0
1001
ACAD
1000
MTEXTBEGIN
1070
    73
1070
     1
1070
    44
1040
1.0
1070
    74
1070
     0
1000
MTEXTEND
  0
MTEXT
  5
A4AA2
330
1F
100
AcDbEntity
  8
AM_6
100
AcDbMText
 10
399.0000000000384
 20
312.9999999999527
 30
0.0
 40
6.4
 41
48.0
 71
     5
 72
     5
  1
X  × Y
 73
     1
 44
1.0
1001
ACAD
1000
MTEXTBEGIN
1070
    73
1070
     1
1070
    44
1040
1.0
1070
    74
1070
     0
1000
MTEXTEND
  0
LINE
  5
A4AA3
330
1F
100
AcDbEntity
  8
AM_5
100
AcDbLine
 10
423.0000000000384
 20
337.0000000001601
 30
0.0
 11
423.0000000000382
 21
17.0
 31
0.0
  0
MTEXT
  5
A4AA4
330
1F
100
AcDbEntity
  8
AM_6
100
AcDbMText
 10
447.0000000000484
 20
273.0000000000564
 30
0.0
 40
6.4
 41
47.99999999997408
 71
     5
 72
     5
  1
95 ×95
 73
     1
 44
1.0
1001
ACAD
1000
MTEXTBEGIN
1070
    73
1070
     1
1070
    44
1040
1.0
1070
    74
1070
     0
1000
MTEXTEND
  0
MTEXT
  5
A4AA5
330
1F
100
AcDbEntity
  8
AM_6
100
AcDbMText
 10
399.0000000000384
 20
329.0000000000218
 30
0.0
 40
6.4
 41
48.0
 71
     5
 72
     5
  1
取付孔ピッチ
 73
     1
 44
1.0
1001
ACAD
1000
MTEXTBEGIN
1070
    73
1070
     1
1070
    44
1040
1.0
1070
    74
1070
     0
1000
MTEXTEND
  0
MTEXT
  5
A4AA6
330
1F
100
AcDbEntity
  8
AM_6
100
AcDbMText
 10
447.0000000000744
 20
209.0000000000564
 30
0.0
 40
6.4
 41
47.99999999997408
 71
     5
 72
     5
  1
120 ×120
 73
     1
 44
1.0
1001
ACAD
1000
MTEXTBEGIN
1070
    73
1070
     1
1070
    44
1040
1.0
1070
    74
1070
     0
1000
MTEXTEND
  0
MTEXT
  5
A4AA7
330
1F
100
AcDbEntity
  8
AM_6
100
AcDbMText
 10
447.0000000000744
 20
145.0000000000573
 30
0.0
 40
6.4
 41
47.99999999997408
 71
     5
 72
     5
  1
140 ×140
 73
     1
 44
1.0
1001
ACAD
1000
MTEXTBEGIN
1070
    73
1070
     1
1070
    44
1040
1.0
1070
    74
1070
     0
1000
MTEXTEND
  0
MTEXT
  5
A4AA8
330
1F
100
AcDbEntity
  8
AM_6
100
AcDbMText
 10
447.0000000000384
 20
312.9999999999764
 30
0.0
 40
6.4
 41
48.0
 71
     5
 72
     5
  1
A  × B
 73
     1
 44
1.0
1001
ACAD
1000
MTEXTBEGIN
1070
    73
1070
     1
1070
    44
1040
1.0
1070
    74
1070
     0
1000
MTEXTEND
  0
LINE
  5
A4AA9
330
1F
100
AcDbEntity
  8
AM_5
100
AcDbLine
 10
471.0000000000384
 20
337.0000000001837
 30
0.0
 11
471.0000000000384
 21
17.0
 31
0.0
  0
MTEXT
  5
A4AAA
330
1F
100
AcDbEntity
  8
AM_6
100
AcDbMText
 10
447.0000000000384
 20
329.0000000000455
 30
0.0
 40
6.4
 41
48.0
 71
     5
 72
     5
  1
取付座寸法
 73
     1
 44
1.0
1001
ACAD
1000
MTEXTBEGIN
1070
    73
1070
     1
1070
    44
1040
1.0
1070
    74
1070
     0
1000
MTEXTEND
  0
MTEXT
  5
A4AAB
330
1F
100
AcDbEntity
  8
AM_6
100
AcDbMText
 10
487.0000000000384
 20
312.9999999999918
 30
0.0
 40
6.4
 41
32.0
 71
     5
 72
     5
  1
P
 73
     1
 44
1.0
1001
ACAD
1000
MTEXTBEGIN
1070
    73
1070
     1
1070
    44
1040
1.0
1070
    74
1070
     0
1000
MTEXTEND
  0
LINE
  5
A4AAC
330
1F
100
AcDbEntity
  8
AM_5
100
AcDbLine
 10
503.0000000000383
 20
337.0000000001992
 30
0.0
 11
503.0000000000386
 21
17.0
 31
0.0
  0
MTEXT
  5
A4AAD
330
1F
100
AcDbEntity
  8
AM_6
100
AcDbMText
 10
487.0000000000616
 20
273.0000000000964
 30
0.0
 40
6.4
 41
32.0
 71
     5
 72
     5
  1
11
 73
     1
 44
1.0
1001
ACAD
1000
MTEXTBEGIN
1070
    73
1070
     1
1070
    44
1040
1.0
1070
    74
1070
     0
1000
MTEXTEND
  0
MTEXT
  5
A4AAE
330
1F
100
AcDbEntity
  8
AM_6
100
AcDbMText
 10
487.0000000000875
 20
177.0000000000373
 30
0.0
 40
6.4
 41
32.0
 71
     5
 72
     5
  1
11.5
 73
     1
 44
1.0
1001
ACAD
1000
MTEXTBEGIN
1070
    73
1070
     1
1070
    44
1040
1.0
1070
    74
1070
     0
1000
MTEXTEND
  0
MTEXT
  5
A4AAF
330
1F
100
AcDbEntity
  8
AM_6
100
AcDbMText
 10
487.0000000000384
 20
329.0000000000609
 30
0.0
 40
6.4
 41
32.0
 71
     5
 72
     5
  1
取付孔径
 73
     1
 44
1.0
1001
ACAD
1000
MTEXTBEGIN
1070
    73
1070
     1
1070
    44
1040
1.0
1070
    74
1070
     0
1000
MTEXTEND
  0
MTEXT
  5
A4AB0
330
1F
100
AcDbEntity
  8
AM_6
100
AcDbMText
 10
519.0000000000384
 20
312.9999999999254
 30
0.0
 40
6.4
 41
32.0
 71
     5
 72
     5
  1
E1
 73
     1
 44
1.0
1001
ACAD
1000
MTEXTBEGIN
1070
    73
1070
     1
1070
    44
1040
1.0
1070
    74
1070
     0
1000
MTEXTEND
  0
LINE
  5
A4AB1
330
1F
100
AcDbEntity
  8
AM_5
100
AcDbLine
 10
535.0000000000384
 20
337.0000000001328
 30
0.0
 11
535.0000000000385
 21
17.0
 31
0.0
  0
MTEXT
  5
A4AB2
330
1F
100
AcDbEntity
  8
AM_6
100
AcDbMText
 10
519.0000000000615
 20
273.0000000000291
 30
0.0
 40
6.4
 41
32.0
 71
     5
 72
     5
  1
28.5
 73
     1
 44
1.0
1001
ACAD
1000
MTEXTBEGIN
1070
    73
1070
     1
1070
    44
1040
1.0
1070
    74
1070
     0
1000
MTEXTEND
  0
MTEXT
  5
A4AB3
330
1F
100
AcDbEntity
  8
AM_6
100
AcDbMText
 10
519.0000000000875
 20
209.0000000000291
 30
0.0
 40
6.4
 41
32.0
 71
     5
 72
     5
  1
35
 73
     1
 44
1.0
1001
ACAD
1000
MTEXTBEGIN
1070
    73
1070
     1
1070
    44
1040
1.0
1070
    74
1070
     0
1000
MTEXTEND
  0
MTEXT
  5
A4AB4
330
1F
100
AcDbEntity
  8
AM_6
100
AcDbMText
 10
519.0000000000875
 20
145.00000000003
 30
0.0
 40
6.4
 41
32.0
 71
     5
 72
     5
  1
46.5
 73
     1
 44
1.0
1001
ACAD
1000
MTEXTBEGIN
1070
    73
1070
     1
1070
    44
1040
1.0
1070
    74
1070
     0
1000
MTEXTEND
  0
MTEXT
  5
A4AB5
330
1F
100
AcDbEntity
  8
AM_6
100
AcDbMText
 10
519.0000000000384
 20
328.9999999999945
 30
0.0
 40
6.4
 41
32.0
 71
     5
 72
     5
  1
偏芯
 73
     1
 44
1.0
1001
ACAD
1000
MTEXTBEGIN
1070
    73
1070
     1
1070
    44
1040
1.0
1070
    74
1070
     0
1000
MTEXTEND
  0
MTEXT
  5
A4AB6
330
1F
100
AcDbEntity
  8
AM_6
100
AcDbMText
 10
231.0000000000357
 20
312.9999999999977
 30
0.0
 40
6.4
 41
32.0
 71
     5
 72
     5
  1
N
 73
     1
 44
1.0
1001
ACAD
1000
MTEXTBEGIN
1070
    73
1070
     1
1070
    44
1040
1.0
1070
    74
1070
     0
1000
MTEXTEND
  0
MTEXT
  5
A4AB7
330
1F
100
AcDbEntity
  8
AM_6
100
AcDbMText
 10
263.0000000000357
 20
312.999999999894
 30
0.0
 40
6.4
 41
32.0
 71
     5
 72
     5
  1
kgf
 73
     1
 44
1.0
1001
ACAD
1000
MTEXTBEGIN
1070
    73
1070
     1
1070
    44
1040
1.0
1070
    74
1070
     0
1000
MTEXTEND
  0
LINE
  5
A4AB8
330
1F
100
AcDbEntity
  8
AM_5
100
AcDbLine
 10
247.0000000000384
 20
320.9999999999982
 30
0.0
 11
247.0000000000378
 21
17.0
 31
0.0
  0
LINE
  5
A4AB9
330
1F
100
AcDbEntity
  8
AM_5
100
AcDbLine
 10
279.0000000000384
 20
337.0000000000873
 30
0.0
 11
279.0000000000384
 21
17.0
 31
0.0
  0
MTEXT
  5
A4ABA
330
1F
100
AcDbEntity
  8
AM_6
100
AcDbMText
 10
231.0000000000357
 20
272.9999999999982
 30
0.0
 40
6.4
 41
32.0
 71
     5
 72
     5
  1
980
 73
     1
 44
1.0
1001
ACAD
1000
MTEXTBEGIN
1070
    73
1070
     1
1070
    44
1040
1.0
1070
    74
1070
     0
1000
MTEXTEND
  0
MTEXT
  5
A4ABB
330
1F
100
AcDbEntity
  8
AM_6
100
AcDbMText
 10
231.0000000000616
 20
208.9999999999982
 30
0.0
 40
6.4
 41
32.0
 71
     5
 72
     5
  1
1470
 73
     1
 44
1.0
1001
ACAD
1000
MTEXTBEGIN
1070
    73
1070
     1
1070
    44
1040
1.0
1070
    74
1070
     0
1000
MTEXTEND
  0
MTEXT
  5
A4ABC
330
1F
100
AcDbEntity
  8
AM_6
100
AcDbMText
 10
231.0000000000616
 20
144.9999999999981
 30
0.0
 40
6.4
 41
32.0
 71
     5
 72
     5
  1
2450
 73
     1
 44
1.0
1001
ACAD
1000
MTEXTBEGIN
1070
    73
1070
     1
1070
    44
1040
1.0
1070
    74
1070
     0
1000
MTEXTEND
  0
MTEXT
  5
A4ABD
330
1F
100
AcDbEntity
  8
AM_6
100
AcDbMText
 10
247.0000000000384
 20
329.0000000000664
 30
0.0
 40
6.4
 41
64.0
 71
     5
 72
     5
  1
最大荷重（1ヶ）
 73
     1
 44
1.0
1001
ACAD
1000
MTEXTBEGIN
1070
    73
1070
     1
1070
    44
1040
1.0
1070
    74
1070
     0
1000
MTEXTEND
  0
MTEXT
  5
A4ABE
330
1F
100
AcDbEntity
  8
AM_6
100
AcDbMText
 10
263.0000000000357
 20
272.9999999999982
 30
0.0
 40
6.4
 41
32.0
 71
     5
 72
     5
  1
100
 73
     1
 44
1.0
1001
ACAD
1000
MTEXTBEGIN
1070
    73
1070
     1
1070
    44
1040
1.0
1070
    74
1070
     0
1000
MTEXTEND
  0
MTEXT
  5
A4ABF
330
1F
100
AcDbEntity
  8
AM_6
100
AcDbMText
 10
263.0000000000616
 20
208.9999999999982
 30
0.0
 40
6.4
 41
32.0
 71
     5
 72
     5
  1
150
 73
     1
 44
1.0
1001
ACAD
1000
MTEXTBEGIN
1070
    73
1070
     1
1070
    44
1040
1.0
1070
    74
1070
     0
1000
MTEXTEND
  0
MTEXT
  5
A4AC0
330
1F
100
AcDbEntity
  8
AM_6
100
AcDbMText
 10
263.0000000000616
 20
144.9999999999981
 30
0.0
 40
6.4
 41
32.0
 71
     5
 72
     5
  1
250
 73
     1
 44
1.0
1001
ACAD
1000
MTEXTBEGIN
1070
    73
1070
     1
1070
    44
1040
1.0
1070
    74
1070
     0
1000
MTEXTEND
  0
LINE
  5
A4AC1
330
1F
100
AcDbEntity
  8
AM_5
100
AcDbLine
 10
215.0000000000384
 20
320.9999999999982
 30
0.0
 11
279.0000000000384
 21
320.9999999999982
 31
0.0
  0
MTEXT
  5
A4AC2
330
1F
100
AcDbEntity
  8
AM_6
100
AcDbMText
 10
359.0000000000384
 20
312.9999999999409
 30
0.0
 40
6.4
 41
32.0
 71
     5
 72
     5
  1
H2
 73
     1
 44
1.0
1001
ACAD
1000
MTEXTBEGIN
1070
    73
1070
     1
1070
    44
1040
1.0
1070
    74
1070
     0
1000
MTEXTEND
  0
LINE
  5
A4AC3
330
1F
100
AcDbEntity
  8
AM_5
100
AcDbLine
 10
375.0000000000384
 20
337.0000000001482
 30
0.0
 11
375.0000000000387
 21
17.0
 31
0.0
  0
MTEXT
  5
A4AC4
330
1F
100
AcDbEntity
  8
AM_6
100
AcDbMText
 10
359.0000000000616
 20
273.0000000000455
 30
0.0
 40
6.4
 41
32.0
 71
     5
 72
     5
  1
145
 73
     1
 44
1.0
1001
ACAD
1000
MTEXTBEGIN
1070
    73
1070
     1
1070
    44
1040
1.0
1070
    74
1070
     0
1000
MTEXTEND
  0
MTEXT
  5
A4AC5
330
1F
100
AcDbEntity
  8
AM_6
100
AcDbMText
 10
359.0000000000876
 20
209.0000000000455
 30
0.0
 40
6.4
 41
32.0
 71
     5
 72
     5
  1
198
 73
     1
 44
1.0
1001
ACAD
1000
MTEXTBEGIN
1070
    73
1070
     1
1070
    44
1040
1.0
1070
    74
1070
     0
1000
MTEXTEND
  0
MTEXT
  5
A4AC6
330
1F
100
AcDbEntity
  8
AM_6
100
AcDbMText
 10
359.0000000000876
 20
145.0000000000454
 30
0.0
 40
6.4
 41
32.0
 71
     5
 72
     5
  1
250
 73
     1
 44
1.0
1001
ACAD
1000
MTEXTBEGIN
1070
    73
1070
     1
1070
    44
1040
1.0
1070
    74
1070
     0
1000
MTEXTEND
  0
MTEXT
  5
A4AC7
330
1F
100
AcDbEntity
  8
AM_6
100
AcDbMText
 10
359.0000000000384
 20
329.00000000001
 30
0.0
 40
6.4
 41
32.0
 71
     5
 72
     5
  1
緩衝時高さ
 73
     1
 44
1.0
1001
ACAD
1000
MTEXTBEGIN
1070
    73
1070
     1
1070
    44
1040
1.0
1070
    74
1070
     0
1000
MTEXTEND
  0
MTEXT
  5
A4AC8
330
1F
100
AcDbEntity
  8
AM_6
100
AcDbMText
 10
551.0000000000384
 20
312.9999999999254
 30
0.0
 40
6.4
 41
32.0
 71
     5
 72
     5
  1
E2
 73
     1
 44
1.0
1001
ACAD
1000
MTEXTBEGIN
1070
    73
1070
     1
1070
    44
1040
1.0
1070
    74
1070
     0
1000
MTEXTEND
  0
LINE
  5
A4AC9
330
1F
100
AcDbEntity
  8
AM_0
100
AcDbLine
 10
567.0000000000384
 20
337.0000000001328
 30
0.0
 11
567.0000000000391
 21
17.0
 31
0.0
  0
MTEXT
  5
A4ACA
330
1F
100
AcDbEntity
  8
AM_6
100
AcDbMText
 10
551.0000000000616
 20
273.0000000000291
 30
0.0
 40
6.4
 41
32.0
 71
     5
 72
     5
  1
35
 73
     1
 44
1.0
1001
ACAD
1000
MTEXTBEGIN
1070
    73
1070
     1
1070
    44
1040
1.0
1070
    74
1070
     0
1000
MTEXTEND
  0
MTEXT
  5
A4ACB
330
1F
100
AcDbEntity
  8
AM_6
100
AcDbMText
 10
551.0000000000875
 20
209.0000000000291
 30
0.0
 40
6.4
 41
32.0
 71
     5
 72
     5
  1
48
 73
     1
 44
1.0
1001
ACAD
1000
MTEXTBEGIN
1070
    73
1070
     1
1070
    44
1040
1.0
1070
    74
1070
     0
1000
MTEXTEND
  0
MTEXT
  5
A4ACC
330
1F
100
AcDbEntity
  8
AM_6
100
AcDbMText
 10
551.0000000000875
 20
145.00000000003
 30
0.0
 40
6.4
 41
32.0
 71
     5
 72
     5
  1
58
 73
     1
 44
1.0
1001
ACAD
1000
MTEXTBEGIN
1070
    73
1070
     1
1070
    44
1040
1.0
1070
    74
1070
     0
1000
MTEXTEND
  0
MTEXT
  5
A4ACD
330
1F
100
AcDbEntity
  8
AM_6
100
AcDbMText
 10
551.0000000000384
 20
328.9999999999945
 30
0.0
 40
6.4
 41
32.0
 71
     5
 72
     5
  1
緩衝時偏芯
 73
     1
 44
1.0
1001
ACAD
1000
MTEXTBEGIN
1070
    73
1070
     1
1070
    44
1040
1.0
1070
    74
1070
     0
1000
MTEXTEND
  0
MTEXT
  5
A4ACE
330
1F
100
AcDbEntity
  8
AM_6
100
AcDbMText
 10
78.99999999998704
 20
249.00000000001
 30
0.0
 40
6.4
 41
48.0
 71
     5
 72
     5
  1
SAJB-100UW
 73
     1
 44
1.0
1001
ACAD
1000
MTEXTBEGIN
1070
    73
1070
     1
1070
    44
1040
1.0
1070
    74
1070
     0
1000
MTEXTEND
  0
MTEXT
  5
A4ACF
330
1F
100
AcDbEntity
  8
AM_6
100
AcDbMText
 10
78.99999999997476
 20
185.0000000000091
 30
0.0
 40
6.4
 41
48.0
 71
     5
 72
     5
  1
SAJB-150UW
 73
     1
 44
1.0
1001
ACAD
1000
MTEXTBEGIN
1070
    73
1070
     1
1070
    44
1040
1.0
1070
    74
1070
     0
1000
MTEXTEND
  0
MTEXT
  5
A4AD0
330
1F
100
AcDbEntity
  8
AM_6
100
AcDbMText
 10
79.0000000000125
 20
121.00000000002
 30
0.0
 40
6.4
 41
48.0
 71
     5
 72
     5
  1
SAJB-200UW
 73
     1
 44
1.0
1001
ACAD
1000
MTEXTBEGIN
1070
    73
1070
     1
1070
    44
1040
1.0
1070
    74
1070
     0
1000
MTEXTEND
  0
LINE
  5
A4AD1
330
1F
100
AcDbEntity
  8
AM_5
100
AcDbLine
 10
55.00000000015143
 20
17.0
 30
0.0
 11
54.99999999988109
 21
337.0000000000123
 31
0.0
  0
MTEXT
  5
A4AD2
330
1F
100
AcDbEntity
  8
AM_6
100
AcDbMText
 10
78.99999999996748
 20
296.999999999985
 30
0.0
 40
6.4
 41
48.0
 71
     5
 72
     5
  1
SAJ-100W
 73
     1
 44
1.0
1001
ACAD
1000
MTEXTBEGIN
1070
    73
1070
     1
1070
    44
1040
1.0
1070
    74
1070
     0
1000
MTEXTEND
  0
MTEXT
  5
A4AD3
330
1F
100
AcDbEntity
  8
AM_6
100
AcDbMText
 10
78.99999999999341
 20
232.9999999999854
 30
0.0
 40
6.4
 41
48.0
 71
     5
 72
     5
  1
SAJ-150W
 73
     1
 44
1.0
1001
ACAD
1000
MTEXTBEGIN
1070
    73
1070
     1
1070
    44
1040
1.0
1070
    74
1070
     0
1000
MTEXTEND
  0
MTEXT
  5
A4AD4
330
1F
100
AcDbEntity
  8
AM_6
100
AcDbMText
 10
78.99999999999341
 20
168.9999999999854
 30
0.0
 40
6.4
 41
48.0
 71
     5
 72
     5
  1
SAJ-200W
 73
     1
 44
1.0
1001
ACAD
1000
MTEXTBEGIN
1070
    73
1070
     1
1070
    44
1040
1.0
1070
    74
1070
     0
1000
MTEXTEND
  0
MTEXT
  5
A4AD5
330
1F
100
AcDbEntity
  8
AM_6
100
AcDbMText
 10
79.00000000003434
 20
265.0000000000154
 30
0.0
 40
6.4
 41
48.0
 71
     5
 72
     5
  1
SAJ-100UW
 73
     1
 44
1.0
1001
ACAD
1000
MTEXTBEGIN
1070
    73
1070
     1
1070
    44
1040
1.0
1070
    74
1070
     0
1000
MTEXTEND
  0
MTEXT
  5
A4AD6
330
1F
100
AcDbEntity
  8
AM_6
100
AcDbMText
 10
79.00000000002205
 20
201.0000000000145
 30
0.0
 40
6.4
 41
48.0
 71
     5
 72
     5
  1
SAJ-150UW
 73
     1
 44
1.0
1001
ACAD
1000
MTEXTBEGIN
1070
    73
1070
     1
1070
    44
1040
1.0
1070
    74
1070
     0
1000
MTEXTEND
  0
MTEXT
  5
A4AD7
330
1F
100
AcDbEntity
  8
AM_6
100
AcDbMText
 10
79.0000000000598
 20
137.0000000000255
 30
0.0
 40
6.4
 41
48.0
 71
     5
 72
     5
  1
SAJ-200UW
 73
     1
 44
1.0
1001
ACAD
1000
MTEXTBEGIN
1070
    73
1070
     1
1070
    44
1040
1.0
1070
    74
1070
     0
1000
MTEXTEND
  0
MTEXT
  5
A4AD8
330
1F
100
AcDbEntity
  8
AM_6
100
AcDbMText
 10
38.99999999999159
 20
209.0000000000082
 30
0.0
 40
6.4
 41
32.0
 71
     5
 72
     5
  1
自  在
 73
     1
 44
1.0
1001
ACAD
1000
MTEXTBEGIN
1070
    73
1070
     1
1070
    44
1040
1.0
1070
    74
1070
     0
1000
MTEXTEND
  0
MTEXT
  5
A4AD9
330
1F
100
AcDbEntity
  8
AM_6
100
AcDbMText
 10
167.0000000001002
 20
97.0
 30
0.0
 40
6.4
 41
32.0
 71
     5
 72
     5
  1
100
 73
     1
 44
1.0
1001
ACAD
1000
MTEXTBEGIN
1070
    73
1070
     1
1070
    44
1040
1.0
1070
    74
1070
     0
1000
MTEXTEND
  0
MTEXT
  5
A4ADA
330
1F
100
AcDbEntity
  8
AM_6
100
AcDbMText
 10
167.0000000001002
 20
65.0
 30
0.0
 40
6.4
 41
32.0
 71
     5
 72
     5
  1
150
 73
     1
 44
1.0
1001
ACAD
1000
MTEXTBEGIN
1070
    73
1070
     1
1070
    44
1040
1.0
1070
    74
1070
     0
1000
MTEXTEND
  0
MTEXT
  5
A4ADB
330
1F
100
AcDbEntity
  8
AM_6
100
AcDbMText
 10
167.0000000001002
 20
33.0
 30
0.0
 40
6.4
 41
32.0
 71
     5
 72
     5
  1
200
 73
     1
 44
1.0
1001
ACAD
1000
MTEXTBEGIN
1070
    73
1070
     1
1070
    44
1040
1.0
1070
    74
1070
     0
1000
MTEXTEND
  0
MTEXT
  5
A4ADC
330
1F
100
AcDbEntity
  8
AM_6
100
AcDbMText
 10
199.0000000001002
 20
97.0
 30
0.0
 40
6.4
 41
32.0
 71
     5
 72
     5
  1
35
 73
     1
 44
1.0
1001
ACAD
1000
MTEXTBEGIN
1070
    73
1070
     1
1070
    44
1040
1.0
1070
    74
1070
     0
1000
MTEXTEND
  0
MTEXT
  5
A4ADD
330
1F
100
AcDbEntity
  8
AM_6
100
AcDbMText
 10
199.0000000001002
 20
49.0
 30
0.0
 40
6.4
 41
32.0
 71
     5
 72
     5
  1
45
 73
     1
 44
1.0
1001
ACAD
1000
MTEXTBEGIN
1070
    73
1070
     1
1070
    44
1040
1.0
1070
    74
1070
     0
1000
MTEXTEND
  0
MTEXT
  5
A4ADE
330
1F
100
AcDbEntity
  8
AM_6
100
AcDbMText
 10
231.0000000001003
 20
97.0
 30
0.0
 40
6.4
 41
32.0
 71
     5
 72
     5
  1
980
 73
     1
 44
1.0
1001
ACAD
1000
MTEXTBEGIN
1070
    73
1070
     1
1070
    44
1040
1.0
1070
    74
1070
     0
1000
MTEXTEND
  0
MTEXT
  5
A4ADF
330
1F
100
AcDbEntity
  8
AM_6
100
AcDbMText
 10
231.0000000001003
 20
65.0
 30
0.0
 40
6.4
 41
32.0
 71
     5
 72
     5
  1
1470
 73
     1
 44
1.0
1001
ACAD
1000
MTEXTBEGIN
1070
    73
1070
     1
1070
    44
1040
1.0
1070
    74
1070
     0
1000
MTEXTEND
  0
MTEXT
  5
A4AE0
330
1F
100
AcDbEntity
  8
AM_6
100
AcDbMText
 10
231.0000000001003
 20
33.0
 30
0.0
 40
6.4
 41
32.0
 71
     5
 72
     5
  1
2450
 73
     1
 44
1.0
1001
ACAD
1000
MTEXTBEGIN
1070
    73
1070
     1
1070
    44
1040
1.0
1070
    74
1070
     0
1000
MTEXTEND
  0
MTEXT
  5
A4AE1
330
1F
100
AcDbEntity
  8
AM_6
100
AcDbMText
 10
263.0000000001003
 20
97.0
 30
0.0
 40
6.4
 41
32.0
 71
     5
 72
     5
  1
100
 73
     1
 44
1.0
1001
ACAD
1000
MTEXTBEGIN
1070
    73
1070
     1
1070
    44
1040
1.0
1070
    74
1070
     0
1000
MTEXTEND
  0
MTEXT
  5
A4AE2
330
1F
100
AcDbEntity
  8
AM_6
100
AcDbMText
 10
263.0000000001003
 20
65.0
 30
0.0
 40
6.4
 41
32.0
 71
     5
 72
     5
  1
150
 73
     1
 44
1.0
1001
ACAD
1000
MTEXTBEGIN
1070
    73
1070
     1
1070
    44
1040
1.0
1070
    74
1070
     0
1000
MTEXTEND
  0
MTEXT
  5
A4AE3
330
1F
100
AcDbEntity
  8
AM_6
100
AcDbMText
 10
263.0000000001003
 20
33.0
 30
0.0
 40
6.4
 41
32.0
 71
     5
 72
     5
  1
250
 73
     1
 44
1.0
1001
ACAD
1000
MTEXTBEGIN
1070
    73
1070
     1
1070
    44
1040
1.0
1070
    74
1070
     0
1000
MTEXTEND
  0
MTEXT
  5
A4AE4
330
1F
100
AcDbEntity
  8
AM_6
100
AcDbMText
 10
327.0000000000889
 20
97.00000000003184
 30
0.0
 40
6.4
 41
32.0
 71
     5
 72
     5
  1
153
 73
     1
 44
1.0
1001
ACAD
1000
MTEXTBEGIN
1070
    73
1070
     1
1070
    44
1040
1.0
1070
    74
1070
     0
1000
MTEXTEND
  0
MTEXT
  5
A4AE5
330
1F
100
AcDbEntity
  8
AM_6
100
AcDbMText
 10
327.0000000000889
 20
65.00000000003183
 30
0.0
 40
6.4
 41
32.0
 71
     5
 72
     5
  1
210
 73
     1
 44
1.0
1001
ACAD
1000
MTEXTBEGIN
1070
    73
1070
     1
1070
    44
1040
1.0
1070
    74
1070
     0
1000
MTEXTEND
  0
MTEXT
  5
A4AE6
330
1F
100
AcDbEntity
  8
AM_6
100
AcDbMText
 10
327.0000000000889
 20
33.00000000003183
 30
0.0
 40
6.4
 41
32.0
 71
     5
 72
     5
  1
260
 73
     1
 44
1.0
1001
ACAD
1000
MTEXTBEGIN
1070
    73
1070
     1
1070
    44
1040
1.0
1070
    74
1070
     0
1000
MTEXTEND
  0
MTEXT
  5
A4AE7
330
1F
100
AcDbEntity
  8
AM_6
100
AcDbMText
 10
359.0000000000889
 20
97.00000000004729
 30
0.0
 40
6.4
 41
32.0
 71
     5
 72
     5
  1
145
 73
     1
 44
1.0
1001
ACAD
1000
MTEXTBEGIN
1070
    73
1070
     1
1070
    44
1040
1.0
1070
    74
1070
     0
1000
MTEXTEND
  0
MTEXT
  5
A4AE8
330
1F
100
AcDbEntity
  8
AM_6
100
AcDbMText
 10
359.0000000000889
 20
65.00000000004729
 30
0.0
 40
6.4
 41
32.0
 71
     5
 72
     5
  1
198
 73
     1
 44
1.0
1001
ACAD
1000
MTEXTBEGIN
1070
    73
1070
     1
1070
    44
1040
1.0
1070
    74
1070
     0
1000
MTEXTEND
  0
MTEXT
  5
A4AE9
330
1F
100
AcDbEntity
  8
AM_6
100
AcDbMText
 10
359.0000000000889
 20
33.00000000004729
 30
0.0
 40
6.4
 41
32.0
 71
     5
 72
     5
  1
250
 73
     1
 44
1.0
1001
ACAD
1000
MTEXTBEGIN
1070
    73
1070
     1
1070
    44
1040
1.0
1070
    74
1070
     0
1000
MTEXTEND
  0
MTEXT
  5
A4AEA
330
1F
100
AcDbEntity
  8
AM_6
100
AcDbMText
 10
399.0000000000744
 20
209.0000000000564
 30
0.0
 40
6.4
 41
47.99999999997408
 71
     5
 72
     5
  1
90 ×90
 73
     1
 44
1.0
1001
ACAD
1000
MTEXTBEGIN
1070
    73
1070
     1
1070
    44
1040
1.0
1070
    74
1070
     0
1000
MTEXTEND
  0
MTEXT
  5
A4AEB
330
1F
100
AcDbEntity
  8
AM_6
100
AcDbMText
 10
399.0000000000744
 20
145.0000000000564
 30
0.0
 40
6.4
 41
47.99999999997408
 71
     5
 72
     5
  1
112 ×112
 73
     1
 44
1.0
1001
ACAD
1000
MTEXTBEGIN
1070
    73
1070
     1
1070
    44
1040
1.0
1070
    74
1070
     0
1000
MTEXTEND
  0
MTEXT
  5
A4AEC
330
1F
100
AcDbEntity
  8
AM_6
100
AcDbMText
 10
399.0000000000484
 20
273.0000000000564
 30
0.0
 40
6.4
 41
47.99999999997408
 71
     5
 72
     5
  1
71 ×71
 73
     1
 44
1.0
1001
ACAD
1000
MTEXTBEGIN
1070
    73
1070
     1
1070
    44
1040
1.0
1070
    74
1070
     0
1000
MTEXTEND
  0
MTEXT
  5
A4AED
330
1F
100
AcDbEntity
  8
AM_6
100
AcDbMText
 10
447.000000000113
 20
97.00000000006003
 30
0.0
 40
6.4
 41
47.99999999997408
 71
     5
 72
     5
  1
104 ×80
 73
     1
 44
1.0
1001
ACAD
1000
MTEXTBEGIN
1070
    73
1070
     1
1070
    44
1040
1.0
1070
    74
1070
     0
1000
MTEXTEND
  0
MTEXT
  5
A4AEE
330
1F
100
AcDbEntity
  8
AM_6
100
AcDbMText
 10
447.000000000113
 20
65.00000000006003
 30
0.0
 40
6.4
 41
47.99999999997408
 71
     5
 72
     5
  1
126 ×93
 73
     1
 44
1.0
1001
ACAD
1000
MTEXTBEGIN
1070
    73
1070
     1
1070
    44
1040
1.0
1070
    74
1070
     0
1000
MTEXTEND
  0
MTEXT
  5
A4AEF
330
1F
100
AcDbEntity
  8
AM_6
100
AcDbMText
 10
447.000000000113
 20
33.00000000006003
 30
0.0
 40
6.4
 41
47.99999999997408
 71
     5
 72
     5
  1
140 ×102
 73
     1
 44
1.0
1001
ACAD
1000
MTEXTBEGIN
1070
    73
1070
     1
1070
    44
1040
1.0
1070
    74
1070
     0
1000
MTEXTEND
  0
MTEXT
  5
A4AF0
330
1F
100
AcDbEntity
  8
AM_6
100
AcDbMText
 10
487.0000000001262
 20
97.00000000009822
 30
0.0
 40
6.4
 41
32.0
 71
     5
 72
     5
  1
11
 73
     1
 44
1.0
1001
ACAD
1000
MTEXTBEGIN
1070
    73
1070
     1
1070
    44
1040
1.0
1070
    74
1070
     0
1000
MTEXTEND
  0
MTEXT
  5
A4AF1
330
1F
100
AcDbEntity
  8
AM_6
100
AcDbMText
 10
487.0000000001262
 20
49.0
 30
0.0
 40
6.4
 41
32.0
 71
     5
 72
     5
  1
11.5
 73
     1
 44
1.0
1001
ACAD
1000
MTEXTBEGIN
1070
    73
1070
     1
1070
    44
1040
1.0
1070
    74
1070
     0
1000
MTEXTEND
  0
MTEXT
  5
A4AF2
330
1F
100
AcDbEntity
  8
AM_6
100
AcDbMText
 10
519.0000000001261
 20
97.00000000003274
 30
0.0
 40
6.4
 41
32.0
 71
     5
 72
     5
  1
28.5
 73
     1
 44
1.0
1001
ACAD
1000
MTEXTBEGIN
1070
    73
1070
     1
1070
    44
1040
1.0
1070
    74
1070
     0
1000
MTEXTEND
  0
MTEXT
  5
A4AF3
330
1F
100
AcDbEntity
  8
AM_6
100
AcDbMText
 10
519.0000000001261
 20
65.00000000003274
 30
0.0
 40
6.4
 41
32.0
 71
     5
 72
     5
  1
35
 73
     1
 44
1.0
1001
ACAD
1000
MTEXTBEGIN
1070
    73
1070
     1
1070
    44
1040
1.0
1070
    74
1070
     0
1000
MTEXTEND
  0
MTEXT
  5
A4AF4
330
1F
100
AcDbEntity
  8
AM_6
100
AcDbMText
 10
519.0000000001261
 20
33.00000000003274
 30
0.0
 40
6.4
 41
32.0
 71
     5
 72
     5
  1
46.5
 73
     1
 44
1.0
1001
ACAD
1000
MTEXTBEGIN
1070
    73
1070
     1
1070
    44
1040
1.0
1070
    74
1070
     0
1000
MTEXTEND
  0
MTEXT
  5
A4AF5
330
1F
100
AcDbEntity
  8
AM_6
100
AcDbMText
 10
551.0000000001261
 20
97.00000000003274
 30
0.0
 40
6.4
 41
32.0
 71
     5
 72
     5
  1
35
 73
     1
 44
1.0
1001
ACAD
1000
MTEXTBEGIN
1070
    73
1070
     1
1070
    44
1040
1.0
1070
    74
1070
     0
1000
MTEXTEND
  0
MTEXT
  5
A4AF6
330
1F
100
AcDbEntity
  8
AM_6
100
AcDbMText
 10
551.0000000001261
 20
65.00000000003274
 30
0.0
 40
6.4
 41
32.0
 71
     5
 72
     5
  1
48
 73
     1
 44
1.0
1001
ACAD
1000
MTEXTBEGIN
1070
    73
1070
     1
1070
    44
1040
1.0
1070
    74
1070
     0
1000
MTEXTEND
  0
MTEXT
  5
A4AF7
330
1F
100
AcDbEntity
  8
AM_6
100
AcDbMText
 10
551.0000000001261
 20
33.00000000003274
 30
0.0
 40
6.4
 41
32.0
 71
     5
 72
     5
  1
58
 73
     1
 44
1.0
1001
ACAD
1000
MTEXTBEGIN
1070
    73
1070
     1
1070
    44
1040
1.0
1070
    74
1070
     0
1000
MTEXTEND
  0
MTEXT
  5
A4AF8
330
1F
100
AcDbEntity
  8
AM_6
100
AcDbMText
 10
79.00000000003206
 20
104.9999999999872
 30
0.0
 40
6.4
 41
48.0
 71
     5
 72
     5
  1
SAK-100W
 73
     1
 44
1.0
1001
ACAD
1000
MTEXTBEGIN
1070
    73
1070
     1
1070
    44
1040
1.0
1070
    74
1070
     0
1000
MTEXTEND
  0
MTEXT
  5
A4AF9
330
1F
100
AcDbEntity
  8
AM_6
100
AcDbMText
 10
79.00000000003206
 20
72.99999999998727
 30
0.0
 40
6.4
 41
48.0
 71
     5
 72
     5
  1
SAK-150W
 73
     1
 44
1.0
1001
ACAD
1000
MTEXTBEGIN
1070
    73
1070
     1
1070
    44
1040
1.0
1070
    74
1070
     0
1000
MTEXTEND
  0
MTEXT
  5
A4AFA
330
1F
100
AcDbEntity
  8
AM_6
100
AcDbMText
 10
79.00000000003206
 20
40.99999999998726
 30
0.0
 40
6.4
 41
48.0
 71
     5
 72
     5
  1
SAK-200W
 73
     1
 44
1.0
1001
ACAD
1000
MTEXTBEGIN
1070
    73
1070
     1
1070
    44
1040
1.0
1070
    74
1070
     0
1000
MTEXTEND
  0
MTEXT
  5
A4AFB
330
1F
100
AcDbEntity
  8
AM_6
100
AcDbMText
 10
79.00000000004798
 20
88.99999999998726
 30
0.0
 40
6.4
 41
48.0
 71
     5
 72
     5
  1
SAK-100UW
 73
     1
 44
1.0
1001
ACAD
1000
MTEXTBEGIN
1070
    73
1070
     1
1070
    44
1040
1.0
1070
    74
1070
     0
1000
MTEXTEND
  0
MTEXT
  5
A4AFC
330
1F
100
AcDbEntity
  8
AM_6
100
AcDbMText
 10
79.00000000004798
 20
56.99999999998727
 30
0.0
 40
6.4
 41
48.0
 71
     5
 72
     5
  1
SAK-150UW
 73
     1
 44
1.0
1001
ACAD
1000
MTEXTBEGIN
1070
    73
1070
     1
1070
    44
1040
1.0
1070
    74
1070
     0
1000
MTEXTEND
  0
MTEXT
  5
A4AFD
330
1F
100
AcDbEntity
  8
AM_6
100
AcDbMText
 10
79.00000000004798
 20
24.99999999998727
 30
0.0
 40
6.4
 41
48.0
 71
     5
 72
     5
  1
SAK-200UW
 73
     1
 44
1.0
1001
ACAD
1000
MTEXTBEGIN
1070
    73
1070
     1
1070
    44
1040
1.0
1070
    74
1070
     0
1000
MTEXTEND
  0
MTEXT
  5
A4AFE
330
1F
100
AcDbEntity
  8
AM_6
100
AcDbMText
 10
399.000000000113
 20
65.00000000005911
 30
0.0
 40
6.4
 41
47.99999999997408
 71
     5
 72
     5
  1
100 ×56
 73
     1
 44
1.0
1001
ACAD
1000
MTEXTBEGIN
1070
    73
1070
     1
1070
    44
1040
1.0
1070
    74
1070
     0
1000
MTEXTEND
  0
MTEXT
  5
A4AFF
330
1F
100
AcDbEntity
  8
AM_6
100
AcDbMText
 10
399.000000000113
 20
33.00000000005912
 30
0.0
 40
6.4
 41
47.99999999997408
 71
     5
 72
     5
  1
112 ×63
 73
     1
 44
1.0
1001
ACAD
1000
MTEXTBEGIN
1070
    73
1070
     1
1070
    44
1040
1.0
1070
    74
1070
     0
1000
MTEXTEND
  0
MTEXT
  5
A4B00
330
1F
100
AcDbEntity
  8
AM_6
100
AcDbMText
 10
399.000000000113
 20
97.00000000005912
 30
0.0
 40
6.4
 41
47.99999999997408
 71
     5
 72
     5
  1
80 ×45
 73
     1
 44
1.0
1001
ACAD
1000
MTEXTBEGIN
1070
    73
1070
     1
1070
    44
1040
1.0
1070
    74
1070
     0
1000
MTEXTEND
  0
MTEXT
  5
A4B01
330
1F
100
AcDbEntity
  8
AM_6
100
AcDbMText
 10
126.9999999999866
 20
320.999999999985
 30
0.0
 40
6.4
 41
48.0
 71
     5
 72
     5
  1
車　輪
 73
     1
 44
1.0
1001
ACAD
1000
MTEXTBEGIN
1070
    73
1070
     1
1070
    44
1040
1.0
1070
    74
1070
     0
1000
MTEXTEND
  0
LINE
  5
A4B02
330
1F
100
AcDbEntity
  8
AM_5
100
AcDbLine
 10
103.0000000001694
 20
17.0
 30
0.0
 11
102.9999999999404
 21
337.0000000000286
 31
0.0
  0
MTEXT
  5
A4B03
330
1F
100
AcDbEntity
  8
AM_6
100
AcDbMText
 10
126.9999999999866
 20
256.9999999999855
 30
0.0
 40
6.4
 41
48.0
 71
     5
 72
     5
  1
ウレタン車
 73
     1
 44
1.0
1001
ACAD
1000
MTEXTBEGIN
1070
    73
1070
     1
1070
    44
1040
1.0
1070
    74
1070
     0
1000
MTEXTEND
  0
MTEXT
  5
A4B04
330
1F
100
AcDbEntity
  8
AM_6
100
AcDbMText
 10
127.0000000000363
 20
288.999999999985
 30
0.0
 40
6.4
 41
48.0
 71
     5
 72
     5
  1
ゴム車
 73
     1
 44
1.0
1001
ACAD
1000
MTEXTBEGIN
1070
    73
1070
     1
1070
    44
1040
1.0
1070
    74
1070
     0
1000
MTEXTEND
  0
MTEXT
  5
A4B05
330
1F
100
AcDbEntity
  8
AM_6
100
AcDbMText
 10
39.00000000007845
 20
65.0
 30
0.0
 40
6.4
 41
32.0
 71
     5
 72
     5
  1
固　定
 73
     1
 44
1.0
1001
ACAD
1000
MTEXTBEGIN
1070
    73
1070
     1
1070
    44
1040
1.0
1070
    74
1070
     0
1000
MTEXTEND
  0
MTEXT
  5
A4B06
330
1F
100
AcDbEntity
  8
AM_6
100
AcDbMText
 10
295.0000000000384
 20
312.99999999991
 30
0.0
 40
6.4
 41
32.0
 71
     5
 72
     5
  1
kg
 73
     1
 44
1.0
1001
ACAD
1000
MTEXTBEGIN
1070
    73
1070
     1
1070
    44
1040
1.0
1070
    74
1070
     0
1000
MTEXTEND
  0
LINE
  5
A4B07
330
1F
100
AcDbEntity
  8
AM_5
100
AcDbLine
 10
311.0000000000384
 20
337.0000000001173
 30
0.0
 11
311.0000000000387
 21
17.0
 31
0.0
  0
MTEXT
  5
A4B08
330
1F
100
AcDbEntity
  8
AM_6
100
AcDbMText
 10
295.0000000000616
 20
273.0000000000146
 30
0.0
 40
6.4
 41
32.0
 71
     5
 72
     5
  1
10 ～60
 73
     1
 44
1.0
1001
ACAD
1000
MTEXTBEGIN
1070
    73
1070
     1
1070
    44
1040
1.0
1070
    74
1070
     0
1000
MTEXTEND
  0
MTEXT
  5
A4B09
330
1F
100
AcDbEntity
  8
AM_6
100
AcDbMText
 10
295.0000000000875
 20
209.0000000000145
 30
0.0
 40
6.4
 41
32.0
 71
     5
 72
     5
  1
20 ～110
 73
     1
 44
1.0
1001
ACAD
1000
MTEXTBEGIN
1070
    73
1070
     1
1070
    44
1040
1.0
1070
    74
1070
     0
1000
MTEXTEND
  0
MTEXT
  5
A4B0A
330
1F
100
AcDbEntity
  8
AM_6
100
AcDbMText
 10
295.0000000000875
 20
145.0000000000145
 30
0.0
 40
6.4
 41
32.0
 71
     5
 72
     5
  1
20 ～220
 73
     1
 44
1.0
1001
ACAD
1000
MTEXTBEGIN
1070
    73
1070
     1
1070
    44
1040
1.0
1070
    74
1070
     0
1000
MTEXTEND
  0
MTEXT
  5
A4B0B
330
1F
100
AcDbEntity
  8
AM_6
100
AcDbMText
 10
295.0000000000384
 20
328.9999999999791
 30
0.0
 40
6.4
 41
32.0
 71
     5
 72
     5
  1
緩衝荷重
 73
     1
 44
1.0
1001
ACAD
1000
MTEXTBEGIN
1070
    73
1070
     1
1070
    44
1040
1.0
1070
    74
1070
     0
1000
MTEXTEND
  0
MTEXT
  5
A4B0C
330
1F
100
AcDbEntity
  8
AM_6
100
AcDbMText
 10
295.0000000001262
 20
97.00000000001637
 30
0.0
 40
6.4
 41
32.0
 71
     5
 72
     5
  1
10 ～60
 73
     1
 44
1.0
1001
ACAD
1000
MTEXTBEGIN
1070
    73
1070
     1
1070
    44
1040
1.0
1070
    74
1070
     0
1000
MTEXTEND
  0
MTEXT
  5
A4B0D
330
1F
100
AcDbEntity
  8
AM_6
100
AcDbMText
 10
295.0000000001262
 20
65.00000000001637
 30
0.0
 40
6.4
 41
32.0
 71
     5
 72
     5
  1
20 ～110
 73
     1
 44
1.0
1001
ACAD
1000
MTEXTBEGIN
1070
    73
1070
     1
1070
    44
1040
1.0
1070
    74
1070
     0
1000
MTEXTEND
  0
MTEXT
  5
A4B0E
330
1F
100
AcDbEntity
  8
AM_6
100
AcDbMText
 10
295.0000000001262
 20
33.00000000001637
 30
0.0
 40
6.4
 41
32.0
 71
     5
 72
     5
  1
20 ～220
 73
     1
 44
1.0
1001
ACAD
1000
MTEXTBEGIN
1070
    73
1070
     1
1070
    44
1040
1.0
1070
    74
1070
     0
1000
MTEXTEND
  0
LINE
  5
A4B0F
330
1F
100
AcDbEntity
  8
AM_5
100
AcDbLine
 10
151.0000000001091
 20
177.0000000000163
 30
0.0
 11
55.00000000003797
 21
177.0000000000172
 31
0.0
  0
LINE
  5
A4B10
330
1F
100
AcDbEntity
  8
AM_5
100
AcDbLine
 10
151.0000000000452
 20
145.0000000000073
 30
0.0
 11
54.99999999997408
 21
145.0000000000082
 31
0.0
  0
LINE
  5
A4B15
330
1F
100
AcDbEntity
  8
AM_5
100
AcDbLine
 10
151.0000000000452
 20
97.0
 30
0.0
 11
54.99999999997408
 21
97.00000000000091
 31
0.0
  0
LINE
  5
A4B16
330
1F
100
AcDbEntity
  8
AM_5
100
AcDbLine
 10
151.0000000000452
 20
65.0
 30
0.0
 11
54.99999999997408
 21
65.0
 31
0.0
  0
LINE
  5
A4B17
330
1F
100
AcDbEntity
  8
AM_5
100
AcDbLine
 10
151.0000000000377
 20
33.00000000000182
 30
0.0
 11
54.99999999996657
 21
33.00000000000182
 31
0.0
  0
MTEXT
  5
A4B18
330
1F
100
AcDbEntity
  8
AM_6
100
AcDbMText
 10
127.0000000001591
 20
105.0
 30
0.0
 40
6.4
 41
48.0
 71
     5
 72
     5
  1
ゴム車
 73
     1
 44
1.0
1001
ACAD
1000
MTEXTBEGIN
1070
    73
1070
     1
1070
    44
1040
1.0
1070
    74
1070
     0
1000
MTEXTEND
  0
MTEXT
  5
A4B19
330
1F
100
AcDbEntity
  8
AM_6
100
AcDbMText
 10
127.0000000001093
 20
89.0
 30
0.0
 40
6.4
 41
48.0
 71
     5
 72
     5
  1
ウレタン車
 73
     1
 44
1.0
1001
ACAD
1000
MTEXTBEGIN
1070
    73
1070
     1
1070
    44
1040
1.0
1070
    74
1070
     0
1000
MTEXTEND
  0
LINE
  5
A4B1E
330
1F
100
AcDbEntity
  8
AM_0
100
AcDbLine
 10
23.0
 20
823.0
 30
0.0
 11
23.00000000000932
 21
695.0
 31
0.0
  0
LINE
  5
A4B1F
330
1F
100
AcDbEntity
  8
AM_0
100
AcDbLine
 10
23.0
 20
823.0
 30
0.0
 11
203.0
 21
823.0
 31
0.0
  0
LINE
  5
A4B20
330
1F
100
AcDbEntity
  8
AM_0
100
AcDbLine
 10
203.0
 20
823.0
 30
0.0
 11
202.9999999999984
 21
695.0
 31
0.0
  0
LINE
  5
A4B21
330
1F
100
AcDbEntity
  8
AM_0
100
AcDbLine
 10
62.9999999999975
 20
695.0
 30
0.0
 11
63.0
 21
823.0
 31
0.0
  0
LINE
  5
A4B22
330
1F
100
AcDbEntity
  8
AM_5
100
AcDbLine
 10
23.0
 20
807.0
 30
0.0
 11
203.0
 21
807.0
 31
0.0
  0
LINE
  5
A4B23
330
1F
100
AcDbEntity
  8
AM_5
100
AcDbLine
 10
22.99999999999954
 20
791.0
 30
0.0
 11
202.9999999999995
 21
791.0
 31
0.0
  0
MTEXT
  5
A4B24
330
1F
100
AcDbEntity
  8
AM_6
100
AcDbMText
 10
43.0
 20
815.0
 30
0.0
 40
6.4
 41
40.0
 71
     5
 72
     5
  1
品　名
 73
     1
 44
1.0
1001
ACAD
1000
MTEXTBEGIN
1070
    73
1070
     1
1070
    44
1040
1.0
1070
    74
1070
     0
1000
MTEXTEND
  0
MTEXT
  5
A4B25
330
1F
100
AcDbEntity
  8
AM_6
100
AcDbMText
 10
63.0
 20
815.0
 30
0.0
 40
6.4
 41
140.0
 71
     4
 72
     5
  1
　緩衝キャスター センタースプリングタイプ
 73
     1
 44
1.0
1001
ACAD
1000
MTEXTBEGIN
1070
    73
1070
     1
1070
    44
1040
1.0
1070
    74
1070
     0
1000
MTEXTEND
  0
MTEXT
  5
A4B26
330
1F
100
AcDbEntity
  8
AM_6
100
AcDbMText
 10
43.0
 20
799.0
 30
0.0
 40
6.4
 41
40.0
 71
     5
 72
     5
  1
品　番
 73
     1
 44
1.0
1001
ACAD
1000
MTEXTBEGIN
1070
    73
1070
     1
1070
    44
1040
1.0
1070
    74
1070
     0
1000
MTEXTEND
  0
MTEXT
  5
A4B27
330
1F
100
AcDbEntity
  8
AM_6
100
AcDbMText
 10
63.0
 20
799.0
 30
0.0
 40
6.4
 41
140.0
 71
     4
 72
     5
  1
　SAJ / SAJB / SAK
 73
     1
 44
1.0
1001
ACAD
1000
MTEXTBEGIN
1070
    73
1070
     1
1070
    44
1040
1.0
1070
    74
1070
     0
1000
MTEXTEND
  0
MTEXT
  5
A4B28
330
1F
100
AcDbEntity
  8
AM_6
100
AcDbMText
 10
42.99999999999954
 20
783.0
 30
0.0
 40
6.4
 41
40.0
 71
     5
 72
     5
  1
材　質
 73
     1
 44
1.0
1001
ACAD
1000
MTEXTBEGIN
1070
    73
1070
     1
1070
    44
1040
1.0
1070
    74
1070
     0
1000
MTEXTEND
  0
MTEXT
  5
A4B29
330
1F
100
AcDbEntity
  8
AM_6
100
AcDbMText
 10
62.99999999999954
 20
783.0
 30
0.0
 40
6.4
 41
140.0
 71
     4
 72
     5
  1
　本体 ： スチール
 73
     1
 44
1.0
1001
ACAD
1000
MTEXTBEGIN
1070
    73
1070
     1
1070
    44
1040
1.0
1070
    74
1070
     0
1000
MTEXTEND
  0
LINE
  5
A4B2A
330
1F
100
AcDbEntity
  8
AM_5
100
AcDbLine
 10
22.99999999999863
 20
743.0
 30
0.0
 11
202.9999999999986
 21
743.0
 31
0.0
  0
MTEXT
  5
A4B2B
330
1F
100
AcDbEntity
  8
AM_6
100
AcDbMText
 10
42.99999999999863
 20
735.0
 30
0.0
 40
6.4
 41
40.0
 71
     5
 72
     5
  1
仕上げ
 73
     1
 44
1.0
1001
ACAD
1000
MTEXTBEGIN
1070
    73
1070
     1
1070
    44
1040
1.0
1070
    74
1070
     0
1000
MTEXTEND
  0
MTEXT
  5
A4B2C
330
1F
100
AcDbEntity
  8
AM_6
100
AcDbMText
 10
62.99999999999773
 20
735.0
 30
0.0
 40
6.4
 41
140.0
 71
     4
 72
     5
  1
　本体 ： 光沢クロメート
 73
     1
 44
1.0
1001
ACAD
1000
MTEXTBEGIN
1070
    73
1070
     1
1070
    44
1040
1.0
1070
    74
1070
     0
1000
MTEXTEND
  0
LINE
  5
A4B2E
330
1F
100
AcDbEntity
  8
AM_5
100
AcDbLine
 10
62.99999999999863
 20
775.0
 30
0.0
 11
202.9999999999995
 21
775.0
 31
0.0
  0
MTEXT
  5
A4B2F
330
1F
100
AcDbEntity
  8
AM_6
100
AcDbMText
 10
62.99999999999954
 20
767.0
 30
0.0
 40
6.4
 41
140.0
 71
     4
 72
     5
  1
　キャスター ： ゴム　（W）
 73
     1
 44
1.0
1001
ACAD
1000
MTEXTBEGIN
1070
    73
1070
     1
1070
    44
1040
1.0
1070
    74
1070
     0
1000
MTEXTEND
  0
MTEXT
  5
A4B30
330
1F
100
AcDbEntity
  8
AM_6
100
AcDbMText
 10
62.99999999999863
 20
751.0
 30
0.0
 40
6.4
 41
140.0
 71
     4
 72
     5
  1
　        　　　ウレタン　（UW）
 73
     1
 44
1.0
1001
ACAD
1000
MTEXTBEGIN
1070
    73
1070
     1
1070
    44
1040
1.0
1070
    74
1070
     0
1000
MTEXTEND
  0
LWPOLYLINE
  5
A4BA2
330
1F
100
AcDbEntity
  8
AM_0
100
AcDbPolyline
 90
        4
 70
     1
 43
0.0
 10
299.0002137510073
 20
378.9999962930392
 10
339.0002137510073
 20
378.9999962930392
 10
339.0002137510073
 20
366.9999962930392
 10
299.0002137510073
 20
366.9999962930392
1001
GENIUS_GENREC_14
1002
{
1000
PYDIR
1011
299.0002137510073
1021
366.9999962930392
1031
0.0
1002
}
1002
{
1000
PXDIR
1011
339.0002137510073
1021
378.9999962930392
1031
0.0
1002
}
1002
{
1000
PORI
1011
299.0002137510073
1021
378.9999962930392
1031
0.0
1002
}
1002
{
1000
PINS
1011
299.0002137510073
1021
378.9999962930392
1031
0.0
1002
}
1002
{
1000
PINS2
1011
339.0002137510073
1021
366.9999962930392
1031
0.0
1002
}
1002
{
1000
C
1070
     1
1002
}
1001
GENIUS_GENODEF_13
1002
{
1000
HIER
1070
     0
1002
}
1002
{
1000
MANEDIT
1070
     0
1002
}
1002
{
1000
NOSEL
1070
     0
1002
}
1002
{
1000
BEHIND
1070
     0
1002
}
1002
{
1000
OTHER
1070
     0
1002
}
1002
{
1000
REACTOR
1002
}
1001
GENIUS_GENOBJ-N-REC_13
1002
{
1000
OWNER
1000
GEN
1002
}
  0
MTEXT
  5
A4BA3
330
1F
100
AcDbEntity
  8
AM_6
100
AcDbMText
 10
319.0002137510073
 20
372.9999962930392
 30
0.0
 40
6.4
 41
40.0
 71
     5
 72
     5
  1
SAJ
 73
     1
 44
1.0
1001
ACAD
1000
MTEXTBEGIN
1070
    73
1070
     1
1070
    44
1040
1.0
1070
    74
1070
     0
1000
MTEXTEND
  0
CIRCLE
  5
A4C79
330
1F
100
AcDbEntity
  8
AM_0
100
AcDbCircle
 10
292.0846658973383
 20
481.0002052920204
 30
0.0
 40
8.749599999999999
  0
ARC
  5
A4C7A
330
1F
100
AcDbEntity
  8
AM_0
100
AcDbCircle
 10
129.3539418973387
 20
536.0741752920198
 30
0.0
 40
156.8272
100
AcDbArc
 50
341.6277149999947
 51
2.892715000014914
  0
ARC
  5
A4C7B
330
1F
100
AcDbEntity
  8
AM_0
100
AcDbCircle
 10
188.1786968973383
 20
619.9538782920208
 30
0.0
 40
188.4807
100
AcDbArc
 50
307.0721150000137
 51
332.6262149999918
  0
ARC
  5
A4C7C
330
1F
100
AcDbEntity
  8
AM_0
100
AcDbCircle
 10
292.0848868973385
 20
480.9995122920222
 30
0.0
 40
14.9999
100
AcDbArc
 50
157.8958150000155
 51
310.3590149999739
  0
ARC
  5
A4C7D
330
1F
100
AcDbEntity
  8
AM_0
100
AcDbCircle
 10
303.6511968973382
 20
502.029055292021
 30
0.0
 40
10.0
100
AcDbArc
 50
168.9396150000134
 51
314.4019150000131
  0
ARC
  5
A4C7E
330
1F
100
AcDbEntity
  8
AM_0
100
AcDbCircle
 10
188.1786968973383
 20
619.9538782920208
 30
0.0
 40
175.0458
100
AcDbArc
 50
314.398215000018
 51
325.3194150000169
  0
LINE
  5
A4C7F
330
1F
100
AcDbEntity
  8
AM_0
100
AcDbLine
 10
291.5624598973382
 20
515.5989052920208
 30
0.0
 11
284.6053848973383
 21
513.8992712920203
 31
0.0
  0
LINE
  5
A4C80
330
1F
100
AcDbEntity
  8
AM_0
100
AcDbLine
 10
334.4651438973383
 20
521.9627812920203
 30
0.0
 11
351.6682308973386
 21
526.1659752920199
 31
0.0
  0
ARC
  5
A4C81
330
1F
100
AcDbEntity
  8
AM_0
100
AcDbCircle
 10
129.3539418973387
 20
536.0741752920198
 30
0.0
 40
167.5911
100
AcDbArc
 50
348.9482150000109
 51
351.8215149999991
  0
ARC
  5
A4C82
330
1F
100
AcDbEntity
  8
AM_0
100
AcDbCircle
 10
292.2744348973383
 20
512.6846652920208
 30
0.0
 40
3.000399999999999
100
AcDbArc
 50
351.3456149999974
 51
103.7278149999816
  0
ARC
  5
A4C83
330
1F
100
AcDbEntity
  8
AM_0
100
AcDbCircle
 10
335.4145298973385
 20
518.0775642920211
 30
0.0
 40
3.9996
100
AcDbArc
 50
103.7323149999819
 51
145.3288149999807
  0
ARC
  5
A4C84
330
1F
100
AcDbEntity
  8
AM_0
100
AcDbCircle
 10
354.5000022803029
 20
643.9998999999998
 30
0.0
 40
11.9999
100
AcDbArc
 50
270.0
 51
0.0
  0
LINE
  5
A4C85
330
1F
100
AcDbEntity
  8
AM_0
100
AcDbLine
 10
366.4998022803033
 20
643.9998999999998
 30
0.0
 11
366.4998022803033
 21
714.9998999999998
 31
0.0
  0
LINE
  5
A4C86
330
1F
100
AcDbEntity
  8
AM_0
100
AcDbLine
 10
271.4999022803031
 20
643.9998999999998
 30
0.0
 11
271.4999022803031
 21
714.9994999999998
 31
0.0
  0
ARC
  5
A4C87
330
1F
100
AcDbEntity
  8
AM_0
100
AcDbCircle
 10
283.5004022803032
 20
643.9998999999998
 30
0.0
 40
12.0005
100
AcDbArc
 50
180.0
 51
270.0
  0
LINE
  5
A4C88
330
1F
100
AcDbEntity
  8
AM_0
100
AcDbLine
 10
283.5004022803032
 20
632.0002999999997
 30
0.0
 11
354.5000022803029
 21
632.0
 31
0.0
  0
CIRCLE
  5
A4C89
330
1F
100
AcDbEntity
  8
AM_0
100
AcDbCircle
 10
354.5001229413624
 20
715.0000621062422
 30
0.0
 40
5.249399999999999
  0
ARC
  5
A4C8A
330
1F
100
AcDbEntity
  8
AM_0
100
AcDbCircle
 10
354.5000022803029
 20
714.9998999999998
 30
0.0
 40
11.9998
100
AcDbArc
 50
0.0
 51
90.0
  0
ARC
  5
A4C8B
330
1F
100
AcDbEntity
  8
AM_0
100
AcDbCircle
 10
283.5002022803033
 20
714.9994999999998
 30
0.0
 40
12.0005
100
AcDbArc
 50
90.0
 51
180.0
  0
LINE
  5
A4C8C
330
1F
100
AcDbEntity
  8
AM_0
100
AcDbLine
 10
283.5002022803033
 20
727.0
 30
0.0
 11
354.5000022803029
 21
727.0
 31
0.0
  0
CIRCLE
  5
A4C8D
330
1F
100
AcDbEntity
  8
AM_0
100
AcDbCircle
 10
318.9995022803032
 20
679.5000999999992
 30
0.0
 40
32.00010000000001
  0
CIRCLE
  5
A4C8E
330
1F
100
AcDbEntity
  8
AM_0
100
AcDbCircle
 10
318.9995022803032
 20
679.5000999999992
 30
0.0
 40
19.725
  0
CIRCLE
  5
A4C8F
330
1F
100
AcDbEntity
  8
AM_0
100
AcDbCircle
 10
318.9995022803032
 20
679.5000999999992
 30
0.0
 40
17.0601
  0
LINE
  5
A4C90
330
1F
100
AcDbEntity
  8
AM_0
100
AcDbLine
 10
271.4985888973383
 20
583.9999492920205
 30
0.0
 11
271.4985888973383
 21
579.9995492920206
 31
0.0
  0
LINE
  5
A4C91
330
1F
100
AcDbEntity
  8
AM_0
100
AcDbLine
 10
284.9291888973385
 20
574.9625492920204
 30
0.0
 11
284.9291888973385
 21
569.0612492920208
 31
0.0
  0
ARC
  5
A4C92
330
1F
100
AcDbEntity
  8
AM_0
100
AcDbCircle
 10
289.0289888973384
 20
569.0612492920208
 30
0.0
 40
4.0998
100
AcDbArc
 50
180.0
 51
270.0
  0
ARC
  5
A4C93
330
1F
100
AcDbEntity
  8
AM_0
100
AcDbCircle
 10
349.3996888973384
 20
561.3620492920208
 30
0.0
 40
3.6
100
AcDbArc
 50
0.0
 51
90.97555899998946
  0
LINE
  5
A4C94
330
1F
100
AcDbEntity
  8
AM_0
100
AcDbLine
 10
278.2491908973384
 20
541.8255652920211
 30
0.0
 11
278.3972108973385
 21
544.4216152920212
 31
0.0
  0
LINE
  5
A4C95
330
1F
100
AcDbEntity
  8
AM_0
100
AcDbLine
 10
286.3305748973385
 20
543.9991462920202
 30
0.0
 11
311.9090998973384
 21
547.016407292021
 31
0.0
  0
LINE
  5
A4C96
330
1F
100
AcDbEntity
  8
AM_0
100
AcDbLine
 10
285.9813338973381
 20
543.9886022920213
 30
0.0
 11
278.3972108973385
 21
544.4216152920212
 31
0.0
  0
LINE
  5
A4C97
330
1F
100
AcDbEntity
  8
AM_0
100
AcDbLine
 10
285.8333018973385
 20
541.3929522920202
 30
0.0
 11
278.2491908973384
 21
541.8255652920211
 31
0.0
  0
ARC
  5
A4C98
330
1F
100
AcDbEntity
  8
AM_0
100
AcDbCircle
 10
286.0954488973384
 20
545.984555292021
 30
0.0
 40
1.9991
100
AcDbArc
 50
266.7280149999886
 51
276.7535149999899
  0
ARC
  5
A4C99
330
1F
100
AcDbEntity
  8
AM_0
100
AcDbCircle
 10
286.0954488973384
 20
545.984555292021
 30
0.0
 40
4.599
100
AcDbArc
 50
266.7330149999959
 51
269.9467440000045
  0
ARC
  5
A4C9A
330
1F
100
AcDbEntity
  8
AM_0
100
AcDbCircle
 10
314.5370478973382
 20
530.0649542920214
 30
0.0
 40
1.9999
100
AcDbArc
 50
165.3351149999784
 51
345.3434150000065
  0
ARC
  5
A4C9B
330
1F
100
AcDbEntity
  8
AM_0
100
AcDbCircle
 10
280.7483888973384
 20
579.4997492920201
 30
0.0
 40
0.5002
100
AcDbArc
 50
38.72200000001413
 51
90.0
  0
LINE
  5
A4C9C
330
1F
100
AcDbEntity
  8
AM_0
100
AcDbLine
 10
271.4985888973379
 20
583.9999492920205
 30
0.0
 11
366.5007888973387
 21
583.9999492920205
 31
0.0
  0
LINE
  5
A4C9D
330
1F
100
AcDbEntity
  8
AM_0
100
AcDbLine
 10
366.5007888973387
 20
583.9999492920205
 30
0.0
 11
366.5007888973387
 21
579.9995492920206
 31
0.0
  0
LINE
  5
A4C9E
330
1F
100
AcDbEntity
  8
AM_0
100
AcDbLine
 10
353.0700888973383
 20
574.9625492920204
 30
0.0
 11
353.0700888973383
 21
569.0616492920208
 31
0.0
  0
ARC
  5
A4C9F
330
1F
100
AcDbEntity
  8
AM_0
100
AcDbCircle
 10
351.0008888973384
 20
580.5002492920202
 30
0.0
 40
5.0
100
AcDbArc
 50
270.0
 51
321.2404999999946
  0
ARC
  5
A4CA0
330
1F
100
AcDbEntity
  8
AM_0
100
AcDbCircle
 10
357.2509888973382
 20
579.4993492920203
 30
0.0
 40
0.5002
100
AcDbArc
 50
90.0
 51
141.2376000000087
  0
LINE
  5
A4CA1
330
1F
100
AcDbEntity
  8
AM_0
100
AcDbLine
 10
354.8997888973385
 20
577.3699492920204
 30
0.0
 11
356.8585778973384
 21
579.8099942920207
 31
0.0
  0
LINE
  5
A4CA2
330
1F
100
AcDbEntity
  8
AM_0
100
AcDbLine
 10
290.5997888973384
 20
553.1382492920197
 30
0.0
 11
287.9996888973383
 21
553.1382492920197
 31
0.0
  0
LINE
  5
A4CA3
330
1F
100
AcDbEntity
  8
AM_0
100
AcDbLine
 10
287.9996888973383
 20
553.1382492920197
 30
0.0
 11
287.9996888973383
 21
559.4316082920204
 31
0.0
  0
LINE
  5
A4CA4
330
1F
100
AcDbEntity
  8
AM_0
100
AcDbLine
 10
352.1167578973382
 20
551.7605712920207
 30
0.0
 11
350.5521318973383
 21
551.5762942920205
 31
0.0
  0
LINE
  5
A4CA5
330
1F
100
AcDbEntity
  8
AM_0
100
AcDbLine
 10
352.4209928973387
 20
549.178218292021
 30
0.0
 11
351.3543478973383
 21
549.0524352920196
 31
0.0
  0
LINE
  5
A4CA6
330
1F
100
AcDbEntity
  8
AM_0
100
AcDbLine
 10
316.4719958973383
 20
529.5588962920205
 30
0.0
 11
320.1035568973384
 21
543.4381722920202
 31
0.0
  0
LINE
  5
A4CA7
330
1F
100
AcDbEntity
  8
AM_0
100
AcDbLine
 10
312.6022858973383
 20
530.5712952920198
 30
0.0
 11
316.4142148973383
 21
545.1408602920214
 31
0.0
  0
LINE
  5
A4CA8
330
1F
100
AcDbEntity
  8
AM_0
100
AcDbLine
 10
319.8985708973387
 20
542.6542352920201
 30
0.0
 11
319.8985648973385
 21
542.6542152920205
 31
0.0
  0
ARC
  5
A4CA9
330
1F
100
AcDbEntity
  8
AM_0
100
AcDbCircle
 10
357.2484848973382
 20
579.4969892920208
 30
0.0
 40
0.5
100
AcDbArc
 50
90.0
 51
141.24364200003
  0
LINE
  5
A4CAA
330
1F
100
AcDbEntity
  8
AM_0
100
AcDbLine
 10
286.9976558973385
 20
575.5003752920202
 30
0.0
 11
351.0008888973384
 21
575.5001272920208
 31
0.0
  0
ARC
  5
A4CAB
330
1F
100
AcDbEntity
  8
AM_0
100
AcDbCircle
 10
286.9976748973386
 20
580.5003752920201
 30
0.0
 40
5.0
100
AcDbArc
 50
218.7592739999859
 51
269.9997739999824
  0
LINE
  5
A4CAC
330
1F
100
AcDbEntity
  8
AM_0
100
AcDbLine
 10
283.0987628973385
 20
577.3700902920209
 30
0.0
 11
281.1399838973384
 21
579.8101432920202
 31
0.0
  0
LINE
  5
A4CAD
330
1F
100
AcDbEntity
  8
AM_0
100
AcDbLine
 10
366.5007888973387
 20
579.996807292021
 30
0.0
 11
271.4977728973381
 21
579.9971762920204
 31
0.0
  0
LINE
  5
A4CAE
330
1F
100
AcDbEntity
  8
AM_0
100
AcDbLine
 10
284.9291888973385
 20
574.9625492920204
 30
0.0
 11
353.0700888973383
 21
574.9625492920204
 31
0.0
  0
LINE
  5
A4CAF
330
1F
100
AcDbEntity
  8
AM_0
100
AcDbLine
 10
288.9779098973386
 20
564.9617672920203
 30
0.0
 11
349.3383958973382
 21
564.9615272920209
 31
0.0
  0
ARC
  5
A4CB0
330
1F
100
AcDbEntity
  8
AM_7
370
     9
100
AcDbCircle
 10
119.2269328973384
 20
589.7696062920203
 30
0.0
 40
204.2318
100
AcDbArc
 50
327.8201149999816
 51
347.6770149999909
  0
ARC
  5
A4CB1
330
1F
100
AcDbEntity
  8
AM_0
100
AcDbCircle
 10
292.0843718973383
 20
480.9999962920206
 30
0.0
 40
50.0
100
AcDbArc
 50
96.88949100001039
 51
27.09831200002799
  0
ARC
  5
A4CB5
330
1F
100
AcDbEntity
  8
AM_0
100
AcDbCircle
 10
292.0843718973383
 20
480.9999962920206
 30
0.0
 40
17.5
100
AcDbArc
 50
131.6584340000137
 51
339.4213850000188
  0
ARC
  5
A4CB6
330
1F
100
AcDbEntity
  8
AM_0
100
AcDbCircle
 10
293.5992518973385
 20
559.3616492920209
 30
0.0
 40
5.599999999999999
100
AcDbArc
 50
89.99977199999269
 51
180.0
  0
ARC
  5
A4CB7
330
1F
100
AcDbEntity
  8
AM_0
100
AcDbCircle
 10
348.9700888973384
 20
569.0616492920208
 30
0.0
 40
4.099999999999999
100
AcDbArc
 50
270.0
 51
0.0
  0
ARC
  5
A4CB8
330
1F
100
AcDbEntity
  8
AM_7
370
     9
100
AcDbCircle
 10
346.9984888973386
 20
538.4695492920213
 30
0.0
 40
79.487796
100
AcDbArc
 50
218.4882890000175
 51
226.3028890000346
  0
CIRCLE
  5
A4CB9
330
1F
100
AcDbEntity
  8
AM_0
100
AcDbCircle
 10
346.9984888973386
 20
538.4695492920213
 30
0.0
 40
6.5
  0
LINE
  5
A4CBA
330
1F
100
AcDbEntity
  8
AM_0
100
AcDbLine
 10
340.4983888973384
 20
542.2224492920208
 30
0.0
 11
340.4983888973384
 21
534.7165492920208
 31
0.0
  0
LINE
  5
A4CBB
330
1F
100
AcDbEntity
  8
AM_0
100
AcDbLine
 10
340.4983888973384
 20
534.7165492920208
 30
0.0
 11
346.9984888973386
 21
530.9645492920203
 31
0.0
  0
LINE
  5
A4CBC
330
1F
100
AcDbEntity
  8
AM_0
100
AcDbLine
 10
346.9984888973386
 20
530.9645492920203
 30
0.0
 11
353.4984888973386
 21
534.7165492920208
 31
0.0
  0
LINE
  5
A4CBD
330
1F
100
AcDbEntity
  8
AM_0
100
AcDbLine
 10
353.4984888973386
 20
534.7165492920208
 30
0.0
 11
353.4984888973386
 21
542.2224492920208
 31
0.0
  0
LINE
  5
A4CBE
330
1F
100
AcDbEntity
  8
AM_0
100
AcDbLine
 10
353.4984888973386
 20
542.2224492920208
 30
0.0
 11
346.9984888973386
 21
545.9754492920196
 31
0.0
  0
LINE
  5
A4CBF
330
1F
100
AcDbEntity
  8
AM_0
100
AcDbLine
 10
346.9984888973386
 20
545.9754492920196
 30
0.0
 11
340.4983888973384
 21
542.2224492920208
 31
0.0
  0
ARC
  5
A4CC0
330
1F
100
AcDbEntity
  8
AM_0
100
AcDbCircle
 10
346.9984888973386
 20
538.4695492920213
 30
0.0
 40
10.0004
100
AcDbArc
 50
227.5823999999972
 51
327.0891440000302
  0
ARC
  5
A4CC1
330
1F
100
AcDbEntity
  8
AM_0
100
AcDbCircle
 10
268.8193888973383
 20
437.1652492920215
 30
0.0
 40
118.0
100
AcDbArc
 50
52.74459999997294
 51
79.36339999999269
  0
ARC
  5
A4CC2
330
1F
100
AcDbEntity
  8
AM_0
100
AcDbCircle
 10
346.9984888973386
 20
538.4695492920213
 30
0.0
 40
10.0004
100
AcDbArc
 50
327.0891440000302
 51
47.93114199999235
  0
ARC
  5
A4CC3
330
1F
100
AcDbEntity
  8
AM_0
100
AcDbCircle
 10
360.3993888973382
 20
553.3168492920208
 30
0.0
 40
9.9999
100
AcDbArc
 50
179.173185000012
 51
227.9312000000041
  0
LINE
  5
A4CC4
330
1F
100
AcDbEntity
  8
AM_0
100
AcDbLine
 10
352.9997888973385
 20
553.4611492920207
 30
0.0
 11
350.3994888973384
 21
553.4611492920207
 31
0.0
  0
LINE
  5
A4CC5
330
1F
100
AcDbEntity
  8
AM_0
100
AcDbLine
 10
352.9997888973385
 20
561.3620492920208
 30
0.0
 11
352.9997888973385
 21
552.7537072920199
 31
0.0
  0
LINE
  5
A4CC6
330
1F
100
AcDbEntity
  8
AM_0
100
AcDbLine
 10
358.5996888973387
 20
561.3620492920208
 30
0.0
 11
352.9997888973385
 21
561.3620492920208
 31
0.0
  0
LINE
  5
A4CC7
330
1F
100
AcDbEntity
  8
AM_0
100
AcDbLine
 10
355.5993888973385
 20
552.7534452920203
 30
0.0
 11
355.5993888973385
 21
561.3620492920208
 31
0.0
  0
LINE
  5
A4CC8
330
1F
100
AcDbEntity
  8
AM_0
100
AcDbLine
 10
358.5996888973387
 20
552.7534812920198
 30
0.0
 11
358.5996888973387
 21
561.3620492920208
 31
0.0
  0
ARC
  5
A4CC9
330
1F
100
AcDbEntity
  8
AM_0
100
AcDbCircle
 10
351.9997888973385
 20
552.7537072920199
 30
0.0
 40
1.0
100
AcDbArc
 50
276.7171919999974
 51
0.0
  0
ARC
  5
A4CCA
330
1F
100
AcDbEntity
  8
AM_0
100
AcDbCircle
 10
351.9993888973386
 20
552.7534452920203
 30
0.0
 40
3.6
100
AcDbArc
 50
276.7254719999976
 51
0.0
  0
ARC
  5
A4CCB
330
1F
100
AcDbEntity
  8
AM_0
100
AcDbCircle
 10
351.9996888973383
 20
552.7534812920198
 30
0.0
 40
6.599999999999999
100
AcDbArc
 50
281.3004769999912
 51
0.0
  0
LINE
  5
A4CCC
330
1F
100
AcDbEntity
  8
AM_7
370
     9
100
AcDbLine
 10
284.7805778973384
 20
488.9999492920209
 30
0.0
 11
284.7805783055701
 21
432.999949292021
 31
0.0
  0
CIRCLE
  5
A4CCD
330
1F
100
AcDbEntity
  8
AM_11
100
AcDbCircle
 10
284.7805787138018
 20
488.9999488758972
 30
0.0
 40
50.0
  0
LINE
  5
A4CCE
330
1F
100
AcDbEntity
  8
AM_7
370
     9
100
AcDbLine
 10
292.0846910249611
 20
424.9996930478678
 30
0.0
 11
292.0846910249611
 21
536.9996930478678
 31
0.0
1001
GENIUS_GENODEF_13
1002
{
1000
HIER
1070
     0
1002
}
1002
{
1000
MANEDIT
1070
     0
1002
}
1002
{
1000
NOSEL
1070
     0
1002
}
1002
{
1000
BEHIND
1070
     0
1002
}
1002
{
1000
OTHER
1070
     0
1002
}
1002
{
1000
REACTOR
1002
}
1001
GENIUS_GENOBJ-N-CEN_13
1002
{
1000
OWNER
1000
GEN
1002
}
1001
GENIUS_GENCEN_19
1002
{
1040
6.0
1002
}
  0
LINE
  5
A4CCF
330
1F
100
AcDbEntity
  8
AM_7
370
     9
100
AcDbLine
 10
236.0843718973383
 20
480.9999962920206
 30
0.0
 11
348.0843718973383
 21
480.9999962920206
 31
0.0
1001
GENIUS_GENODEF_13
1002
{
1000
HIER
1070
     0
1002
}
1002
{
1000
MANEDIT
1070
     0
1002
}
1002
{
1000
NOSEL
1070
     0
1002
}
1002
{
1000
BEHIND
1070
     0
1002
}
1002
{
1000
OTHER
1070
     0
1002
}
1002
{
1000
REACTOR
1002
}
1001
GENIUS_GENOBJ-N-CEN_13
1002
{
1000
OWNER
1000
GEN
1002
}
1001
GENIUS_GENCEN_19
1002
{
1040
6.0
1002
}
  0
LINE
  5
A4CD0
330
1F
100
AcDbEntity
  8
AM_7
370
     9
100
AcDbLine
 10
318.9996888973383
 20
589.9999492920206
 30
0.0
 11
318.9996888973383
 21
480.9999962920206
 31
0.0
1001
GENIUS_GENOBJ-N-CEN_13
1002
{
1000
OWNER
1000
GEN
1002
}
1001
GENIUS_GENODEF_13
1002
{
1000
HIER
1070
     0
1002
}
1002
{
1000
MANEDIT
1070
     0
1002
}
1002
{
1000
NOSEL
1070
     0
1002
}
1002
{
1000
BEHIND
1070
     0
1002
}
1002
{
1000
OTHER
1070
     0
1002
}
1002
{
1000
REACTOR
1002
}
1001
GENIUS_GENCEN_19
1002
{
1040
6.0
1002
}
  0
CIRCLE
  5
A4CD1
330
1F
100
AcDbEntity
  8
AM_0
100
AcDbCircle
 10
283.5000885293416
 20
715.0000621062422
 30
0.0
 40
5.249399999999999
  0
CIRCLE
  5
A4CD2
330
1F
100
AcDbEntity
  8
AM_0
100
AcDbCircle
 10
354.5001229413624
 20
643.999575786423
 30
0.0
 40
5.249399999999999
  0
CIRCLE
  5
A4CD3
330
1F
100
AcDbEntity
  8
AM_0
100
AcDbCircle
 10
283.5000885293416
 20
643.999575786423
 30
0.0
 40
5.249399999999999
  0
LINE
  5
A4CD4
330
1F
100
AcDbEntity
  8
AM_7
370
     9
100
AcDbLine
 10
354.5001229413624
 20
726.2494621062423
 30
0.0
 11
354.5001229413624
 21
703.750662106242
 31
0.0
1001
GENIUS_GENOBJ-N-CEN_13
1002
{
1000
OWNER
1000
GEN
1002
}
1001
GENIUS_GENODEF_13
1002
{
1000
HIER
1070
     0
1002
}
1002
{
1000
MANEDIT
1070
     0
1002
}
1002
{
1000
NOSEL
1070
     0
1002
}
1002
{
1000
BEHIND
1070
     0
1002
}
1002
{
1000
OTHER
1070
     0
1002
}
1002
{
1000
REACTOR
1002
}
1001
GENIUS_GENCEN_19
1002
{
1040
6.0
1002
}
  0
LINE
  5
A4CD5
330
1F
100
AcDbEntity
  8
AM_7
370
     9
100
AcDbLine
 10
343.2507229413659
 20
715.0000542207067
 30
0.0
 11
365.7495229413616
 21
715.0000649739181
 31
0.0
1001
GENIUS_GENODEF_13
1002
{
1000
HIER
1070
     0
1002
}
1002
{
1000
MANEDIT
1070
     0
1002
}
1002
{
1000
NOSEL
1070
     0
1002
}
1002
{
1000
BEHIND
1070
     0
1002
}
1002
{
1000
OTHER
1070
     0
1002
}
1002
{
1000
REACTOR
1002
}
1001
GENIUS_GENOBJ-N-CEN_13
1002
{
1000
OWNER
1000
GEN
1002
}
1001
GENIUS_GENCEN_19
1002
{
1040
6.0
1002
}
  0
LINE
  5
A4CD6
330
1F
100
AcDbEntity
  8
AM_7
370
     9
100
AcDbLine
 10
283.5001229413624
 20
726.2494621062423
 30
0.0
 11
283.5001229413624
 21
703.750662106242
 31
0.0
1001
GENIUS_GENOBJ-N-CEN_13
1002
{
1000
OWNER
1000
GEN
1002
}
1001
GENIUS_GENODEF_13
1002
{
1000
HIER
1070
     0
1002
}
1002
{
1000
MANEDIT
1070
     0
1002
}
1002
{
1000
NOSEL
1070
     0
1002
}
1002
{
1000
BEHIND
1070
     0
1002
}
1002
{
1000
OTHER
1070
     0
1002
}
1002
{
1000
REACTOR
1002
}
1001
GENIUS_GENCEN_19
1002
{
1040
6.0
1002
}
  0
LINE
  5
A4CD7
330
1F
100
AcDbEntity
  8
AM_7
370
     9
100
AcDbLine
 10
272.2507229413659
 20
715.0000542207067
 30
0.0
 11
294.7495229413616
 21
715.0000649739181
 31
0.0
1001
GENIUS_GENODEF_13
1002
{
1000
HIER
1070
     0
1002
}
1002
{
1000
MANEDIT
1070
     0
1002
}
1002
{
1000
NOSEL
1070
     0
1002
}
1002
{
1000
BEHIND
1070
     0
1002
}
1002
{
1000
OTHER
1070
     0
1002
}
1002
{
1000
REACTOR
1002
}
1001
GENIUS_GENOBJ-N-CEN_13
1002
{
1000
OWNER
1000
GEN
1002
}
1001
GENIUS_GENCEN_19
1002
{
1040
6.0
1002
}
  0
LINE
  5
A4CD8
330
1F
100
AcDbEntity
  8
AM_7
370
     9
100
AcDbLine
 10
354.5001229413624
 20
655.2494621062423
 30
0.0
 11
354.5001229413624
 21
632.750662106242
 31
0.0
1001
GENIUS_GENOBJ-N-CEN_13
1002
{
1000
OWNER
1000
GEN
1002
}
1001
GENIUS_GENODEF_13
1002
{
1000
HIER
1070
     0
1002
}
1002
{
1000
MANEDIT
1070
     0
1002
}
1002
{
1000
NOSEL
1070
     0
1002
}
1002
{
1000
BEHIND
1070
     0
1002
}
1002
{
1000
OTHER
1070
     0
1002
}
1002
{
1000
REACTOR
1002
}
1001
GENIUS_GENCEN_19
1002
{
1040
6.0
1002
}
  0
LINE
  5
A4CD9
330
1F
100
AcDbEntity
  8
AM_7
370
     9
100
AcDbLine
 10
343.2507229413659
 20
644.0000542207067
 30
0.0
 11
365.7495229413616
 21
644.0000649739181
 31
0.0
1001
GENIUS_GENODEF_13
1002
{
1000
HIER
1070
     0
1002
}
1002
{
1000
MANEDIT
1070
     0
1002
}
1002
{
1000
NOSEL
1070
     0
1002
}
1002
{
1000
BEHIND
1070
     0
1002
}
1002
{
1000
OTHER
1070
     0
1002
}
1002
{
1000
REACTOR
1002
}
1001
GENIUS_GENOBJ-N-CEN_13
1002
{
1000
OWNER
1000
GEN
1002
}
1001
GENIUS_GENCEN_19
1002
{
1040
6.0
1002
}
  0
LINE
  5
A4CDA
330
1F
100
AcDbEntity
  8
AM_7
370
     9
100
AcDbLine
 10
283.5001229413624
 20
655.2494621062423
 30
0.0
 11
283.5001229413624
 21
632.750662106242
 31
0.0
1001
GENIUS_GENOBJ-N-CEN_13
1002
{
1000
OWNER
1000
GEN
1002
}
1001
GENIUS_GENODEF_13
1002
{
1000
HIER
1070
     0
1002
}
1002
{
1000
MANEDIT
1070
     0
1002
}
1002
{
1000
NOSEL
1070
     0
1002
}
1002
{
1000
BEHIND
1070
     0
1002
}
1002
{
1000
OTHER
1070
     0
1002
}
1002
{
1000
REACTOR
1002
}
1001
GENIUS_GENCEN_19
1002
{
1040
6.0
1002
}
  0
LINE
  5
A4CDB
330
1F
100
AcDbEntity
  8
AM_7
370
     9
100
AcDbLine
 10
272.2507229413659
 20
644.0000542207067
 30
0.0
 11
294.7495229413616
 21
644.0000649739181
 31
0.0
1001
GENIUS_GENODEF_13
1002
{
1000
HIER
1070
     0
1002
}
1002
{
1000
MANEDIT
1070
     0
1002
}
1002
{
1000
NOSEL
1070
     0
1002
}
1002
{
1000
BEHIND
1070
     0
1002
}
1002
{
1000
OTHER
1070
     0
1002
}
1002
{
1000
REACTOR
1002
}
1001
GENIUS_GENOBJ-N-CEN_13
1002
{
1000
OWNER
1000
GEN
1002
}
1001
GENIUS_GENCEN_19
1002
{
1040
6.0
1002
}
  0
ARC
  5
A4CDC
330
1F
100
AcDbEntity
  8
AM_3
370
     9
100
AcDbCircle
 10
292.0846918414245
 20
480.9996926317449
 30
0.0
 40
50.0
100
AcDbArc
 50
27.09867601806732
 51
96.88953304867549
  0
LINE
  5
A4CDD
330
1F
100
AcDbEntity
  8
AM_7
370
     9
100
AcDbLine
 10
265.5002318755091
 20
679.5000181244963
 30
0.0
 11
372.5000818754984
 21
679.5001318755034
 31
0.0
1001
GENIUS_GENOBJ-N-CEN_13
1002
{
1000
OWNER
1000
GEN
1002
}
1001
GENIUS_GENODEF_13
1002
{
1000
HIER
1070
     0
1002
}
1002
{
1000
MANEDIT
1070
     0
1002
}
1002
{
1000
NOSEL
1070
     0
1002
}
1002
{
1000
BEHIND
1070
     0
1002
}
1002
{
1000
OTHER
1070
     0
1002
}
1002
{
1000
REACTOR
1002
}
1001
GENIUS_GENCEN_19
1002
{
1040
12.0
1002
}
  0
LINE
  5
A4CF4
330
1F
100
AcDbEntity
  8
AM_7
370
     9
100
AcDbLine
 10
319.0001000000002
 20
732.9999999999945
 30
0.0
 11
319.0002137510073
 21
626.0001500000052
 31
0.0
1001
GENIUS_GENOBJ-N-CEN_13
1002
{
1000
OWNER
1000
GEN
1002
}
1001
GENIUS_GENODEF_13
1002
{
1000
HIER
1070
     0
1002
}
1002
{
1000
MANEDIT
1070
     0
1002
}
1002
{
1000
NOSEL
1070
     0
1002
}
1002
{
1000
BEHIND
1070
     0
1002
}
1002
{
1000
OTHER
1070
     0
1002
}
1002
{
1000
REACTOR
1002
}
1001
GENIUS_GENCEN_19
1002
{
1040
12.0
1002
}
  0
DIMENSION
  5
A4D0B
330
1F
100
AcDbEntity
  8
AM_5
100
AcDbDimension
  2
*D6
 10
386.4998022803034
 20
715.0000649739181
 30
0.0
 11
380.2998022803032
 21
679.5000649739182
 31
0.0
 70
    32
  1
Y
 71
     5
 42
71.0
  3
SYS$0
100
AcDbAlignedDimension
 13
365.7495229413616
 23
644.0000649739181
 33
0.0
 14
365.7495229413616
 24
715.0000649739181
 34
0.0
 50
90.0
100
AcDbRotatedDimension
1001
ACAD
1000
DSTYLE
1002
{
1070
    40
1040
2.0
1002
}
  0
DIMENSION
  5
A4D0C
330
1F
100
AcDbEntity
  8
AM_5
100
AcDbDimension
  2
*D7
 10
402.4998022803033
 20
726.9996999999998
 30
0.0
 11
396.2998022803033
 21
679.49985
 31
0.0
 70
    32
  1
B
 71
     5
 42
94.99969999999985
  3
SYS$0
100
AcDbAlignedDimension
 13
354.5000022803029
 23
632.0
 33
0.0
 14
354.5000022803029
 24
726.9996999999998
 34
0.0
 50
90.0
100
AcDbRotatedDimension
1001
ACAD
1000
DSTYLE
1002
{
1070
    40
1040
2.0
1002
}
  0
DIMENSION
  5
A4D5B
330
1F
100
AcDbEntity
  8
AM_5
100
AcDbDimension
  2
*D8
 10
354.5001229413624
 20
743.0
 30
0.0
 11
319.0001229413624
 21
749.2
 31
0.0
 70
    32
  1
X
 71
     5
 42
71.0
  3
SYS$0
100
AcDbAlignedDimension
 13
283.5001229413624
 23
726.2494621062423
 33
0.0
 14
354.5001229413624
 24
726.2494621062423
 34
0.0
100
AcDbRotatedDimension
1001
ACAD
1000
DSTYLE
1002
{
1070
    40
1040
2.0
1002
}
  0
DIMENSION
  5
A4D5C
330
1F
100
AcDbEntity
  8
AM_5
100
AcDbDimension
  2
*D9
 10
366.4998022803029
 20
759.0
 30
0.0
 11
318.999752280303
 21
765.2000000000001
 31
0.0
 70
    32
  1
A
 71
     5
 42
95.00009999999974
  3
SYS$0
100
AcDbAlignedDimension
 13
271.4997022803032
 23
714.9994999999998
 33
0.0
 14
366.4998022803029
 24
714.9998999999998
 34
0.0
100
AcDbRotatedDimension
1001
ACAD
1000
DSTYLE
1002
{
1070
    40
1040
2.0
1002
}
  0
DIMENSION
  5
A4E03
330
1F
100
AcDbEntity
  8
AM_5
100
AcDbDimension
  2
*D10
 10
402.5007888973386
 20
583.9999492920205
 30
0.0
 11
396.3007888973386
 21
507.49997279253
 31
0.0
 70
    32
  1
H1
 71
     5
 42
152.9999529989814
  3
SYS$0
100
AcDbAlignedDimension
 13
292.0846910249611
 23
430.9999962930391
 33
0.0
 14
366.5007888973387
 24
583.9999492920205
 34
0.0
 50
90.0
100
AcDbRotatedDimension
1001
ACAD
1000
DSTYLE
1002
{
1070
    40
1040
2.0
1002
}
  0
DIMENSION
  5
A4E2B
330
1F
100
AcDbEntity
  8
AM_5
100
AcDbDimension
  2
*D11
 10
386.5007888973387
 20
583.9999492920205
 30
0.0
 11
380.3007888973386
 21
511.499949083959
 31
0.0
 70
    32
  1
H2
 71
     5
 42
145.0000004161234
  3
SYS$0
100
AcDbAlignedDimension
 13
284.7805782618309
 23
438.9999488758972
 33
0.0
 14
366.5007888973387
 24
583.9999492920205
 34
0.0
 50
90.0
100
AcDbRotatedDimension
1001
ACAD
1000
DSTYLE
1002
{
1070
    40
1040
2.0
1002
}
  0
DIMENSION
  5
A4E65
330
1F
100
AcDbEntity
  8
AM_5
100
AcDbDimension
  2
*D12
 10
318.9996888973383
 20
410.9999962930392
 30
0.0
 11
305.5421899611497
 21
417.1999962930391
 31
0.0
 70
    32
  1
E1
 71
     5
 42
26.91499787237717
  3
SYS$0
100
AcDbAlignedDimension
 13
292.0846910249611
 23
424.9999962930392
 33
0.0
 14
318.9996888973383
 24
480.9999962920206
 34
0.0
100
AcDbRotatedDimension
1001
ACAD
1000
DSTYLE
1002
{
1070
    40
1040
2.0
1002
}
  0
DIMENSION
  5
A4E86
330
1F
100
AcDbEntity
  8
AM_5
100
AcDbDimension
  2
*D13
 10
326.0547734741702
 20
517.6880299911549
 30
0.0
 11
237.4510385640035
 21
426.9999962976781
 31
0.0
 70
   163
  1
D
 71
     5
 42
100.0000000000015
  3
SYS$3
100
AcDbDiametricDimension
 15
258.1139703205055
 25
444.3119625928861
 35
0.0
 40
0.0
1001
ACAD
1000
DSTYLE
1002
{
1070
    40
1040
2.0
1070
    41
1040
1.0
1070
   172
1070
     1
1070
   173
1070
     1
1070
   342
1005
0
1070
   343
1005
6C4
1070
   344
1005
6C4
1002
}
  0
CIRCLE
  5
A4F00
330
1F
100
AcDbEntity
  8
AM_0
100
AcDbCircle
 10
558.4992022803034
 20
643.9998749999976
 30
0.0
 40
5.2507
  0
CIRCLE
  5
A4F01
330
1F
100
AcDbEntity
  8
AM_0
100
AcDbCircle
 10
629.4999022803035
 20
643.9998749999976
 30
0.0
 40
5.249399999999999
  0
ARC
  5
A4F02
330
1F
100
AcDbEntity
  8
AM_0
100
AcDbCircle
 10
629.4999022803035
 20
643.9998749999976
 30
0.0
 40
11.9999
100
AcDbArc
 50
270.0
 51
0.0
  0
LINE
  5
A4F03
330
1F
100
AcDbEntity
  8
AM_0
100
AcDbLine
 10
641.4997022803036
 20
643.9998749999976
 30
0.0
 11
641.4997022803036
 21
714.9998749999976
 31
0.0
  0
LINE
  5
A4F04
330
1F
100
AcDbEntity
  8
AM_0
100
AcDbLine
 10
546.4998022803033
 20
643.9998749999976
 30
0.0
 11
546.4998022803033
 21
714.9994749999986
 31
0.0
  0
ARC
  5
A4F05
330
1F
100
AcDbEntity
  8
AM_0
100
AcDbCircle
 10
558.5003022803034
 20
643.9998749999976
 30
0.0
 40
12.0005
100
AcDbArc
 50
180.0
 51
270.0
  0
LINE
  5
A4F06
330
1F
100
AcDbEntity
  8
AM_0
100
AcDbLine
 10
558.5003022803034
 20
632.0002749999985
 30
0.0
 11
629.4999022803035
 21
631.9999749999988
 31
0.0
  0
CIRCLE
  5
A4F07
330
1F
100
AcDbEntity
  8
AM_0
100
AcDbCircle
 10
558.4992022803034
 20
714.9998749999976
 30
0.0
 40
5.2507
  0
CIRCLE
  5
A4F08
330
1F
100
AcDbEntity
  8
AM_0
100
AcDbCircle
 10
629.4999022803035
 20
714.9998749999976
 30
0.0
 40
5.249399999999999
  0
ARC
  5
A4F09
330
1F
100
AcDbEntity
  8
AM_0
100
AcDbCircle
 10
629.4999022803035
 20
714.9998749999976
 30
0.0
 40
11.9998
100
AcDbArc
 50
0.0
 51
90.0
  0
ARC
  5
A4F0A
330
1F
100
AcDbEntity
  8
AM_0
100
AcDbCircle
 10
558.5001022803035
 20
714.9994749999986
 30
0.0
 40
12.0005
100
AcDbArc
 50
90.0
 51
180.0
  0
LINE
  5
A4F0B
330
1F
100
AcDbEntity
  8
AM_0
100
AcDbLine
 10
558.5001022803035
 20
726.9999749999988
 30
0.0
 11
629.4999022803035
 21
726.9999749999988
 31
0.0
  0
CIRCLE
  5
A4F0C
330
1F
100
AcDbEntity
  8
AM_0
100
AcDbCircle
 10
593.9994022803034
 20
679.5000749999999
 30
0.0
 40
32.00010000000001
  0
CIRCLE
  5
A4F0D
330
1F
100
AcDbEntity
  8
AM_0
100
AcDbCircle
 10
593.9994022803034
 20
679.5000749999999
 30
0.0
 40
19.725
  0
CIRCLE
  5
A4F0E
330
1F
100
AcDbEntity
  8
AM_0
100
AcDbCircle
 10
593.9994022803034
 20
679.5000749999999
 30
0.0
 40
17.0601
  0
LINE
  5
A4F0F
330
1F
100
AcDbEntity
  8
AM_0
100
AcDbLine
 10
505.7376492803037
 20
654.5002599999989
 30
0.0
 11
505.7376492803037
 21
704.5002599999989
 31
0.0
  0
ARC
  5
A4F10
330
1F
100
AcDbEntity
  8
AM_0
100
AcDbCircle
 10
503.8235792803034
 20
661.0003319999996
 30
0.0
 40
0.5
100
AcDbArc
 50
11.32818900001945
 51
86.95863300000631
  0
LINE
  5
A4F11
330
1F
100
AcDbEntity
  8
AM_0
100
AcDbLine
 10
503.5561892803034
 20
661.5316579999999
 30
0.0
 11
503.8765612803035
 21
661.4975169999998
 31
0.0
  0
ARC
  5
A4F12
330
1F
100
AcDbEntity
  8
AM_0
100
AcDbCircle
 10
509.3144812803034
 20
662.1003319999982
 30
0.0
 40
5.099999999999999
100
AcDbArc
 50
191.3281890000194
 51
225.4654170000294
  0
ARC
  5
A4F13
330
1F
100
AcDbEntity
  8
AM_0
100
AcDbCircle
 10
503.8235792803034
 20
698.0003319999996
 30
0.0
 40
0.5
100
AcDbArc
 50
273.0413669999937
 51
348.6718109999805
  0
LINE
  5
A4F14
330
1F
100
AcDbEntity
  8
AM_0
100
AcDbLine
 10
503.5561892803034
 20
697.4690069999996
 30
0.0
 11
503.8765612803035
 21
697.5031469999994
 31
0.0
  0
ARC
  5
A4F15
330
1F
100
AcDbEntity
  8
AM_0
100
AcDbCircle
 10
509.3144812803034
 20
696.9003319999974
 30
0.0
 40
5.099999999999999
100
AcDbArc
 50
134.5345829999706
 51
168.6718109999805
  0
LINE
  5
A4F16
330
1F
100
AcDbEntity
  8
AM_0
100
AcDbLine
 10
509.7376492803037
 20
690.5003319999996
 30
0.0
 11
523.3649612803032
 21
690.5003319999996
 31
0.0
  0
LINE
  5
A4F17
330
1F
100
AcDbEntity
  8
AM_0
100
AcDbLine
 10
521.9516432803033
 20
670.412347999998
 30
0.0
 11
521.9516432803033
 21
688.5883169999979
 31
0.0
  0
ARC
  5
A4F18
330
1F
100
AcDbEntity
  8
AM_0
100
AcDbCircle
 10
533.1516432803032
 20
687.0003319999995
 30
0.0
 40
4.0
100
AcDbArc
 50
0.0
 51
90.0
  0
LINE
  5
A4F19
330
1F
100
AcDbEntity
  8
AM_0
100
AcDbLine
 10
523.8617252803037
 20
690.5862939999988
 30
0.0
 11
532.9718082803033
 21
690.9962879999985
 31
0.0
  0
ARC
  5
A4F1A
330
1F
100
AcDbEntity
  8
AM_0
100
AcDbCircle
 10
523.9516432803034
 20
688.5883169999979
 30
0.0
 40
2.0
100
AcDbArc
 50
92.57682100000755
 51
180.0
  0
LINE
  5
A4F1B
330
1F
100
AcDbEntity
  8
AM_0
100
AcDbLine
 10
535.4516432803034
 20
672.2177419999988
 30
0.0
 11
535.4516432803034
 21
686.7829229999988
 31
0.0
  0
LINE
  5
A4F1C
330
1F
100
AcDbEntity
  8
AM_0
100
AcDbLine
 10
533.0168252803036
 20
672.2177419999988
 30
0.0
 11
533.0168252803036
 21
686.7829229999988
 31
0.0
  0
LINE
  5
A4F1D
330
1F
100
AcDbEntity
  8
AM_0
100
AcDbLine
 10
531.9516432803034
 20
671.6605949999975
 30
0.0
 11
531.9516432803034
 21
687.340068999998
 31
0.0
  0
LINE
  5
A4F1E
330
1F
100
AcDbEntity
  8
AM_0
100
AcDbLine
 10
529.6311172803034
 20
671.6605949999975
 30
0.0
 11
529.6311172803034
 21
687.340068999998
 31
0.0
  0
LINE
  5
A4F1F
330
1F
100
AcDbEntity
  8
AM_0
100
AcDbLine
 10
528.4516432803034
 20
673.2503319999996
 30
0.0
 11
528.4516432803034
 21
685.7503319999996
 31
0.0
  0
LINE
  5
A4F20
330
1F
100
AcDbEntity
  8
AM_0
100
AcDbLine
 10
525.9516432803033
 20
673.2503319999996
 30
0.0
 11
525.9516432803033
 21
685.7503319999996
 31
0.0
  0
ARC
  5
A4F21
330
1F
100
AcDbEntity
  8
AM_0
100
AcDbCircle
 10
527.2016432803034
 20
685.7503319999996
 30
0.0
 40
1.25
100
AcDbArc
 50
0.0
 51
180.0
  0
ARC
  5
A4F22
330
1F
100
AcDbEntity
  8
AM_0
100
AcDbCircle
 10
530.7913802803036
 20
687.340068999998
 30
0.0
 40
1.160262999999999
100
AcDbArc
 50
0.0
 51
180.0
  0
ARC
  5
A4F23
330
1F
100
AcDbEntity
  8
AM_0
100
AcDbCircle
 10
534.2342342803035
 20
686.7829229999988
 30
0.0
 40
1.217408999999999
100
AcDbArc
 50
0.0
 51
180.0
  0
LINE
  5
A4F24
330
1F
100
AcDbEntity
  8
AM_0
100
AcDbLine
 10
510.6516432803032
 20
690.5003319999996
 30
0.0
 11
510.6516432803032
 21
668.5003319999996
 31
0.0
  0
LINE
  5
A4F25
330
1F
100
AcDbEntity
  8
AM_0
100
AcDbLine
 10
504.4516432803034
 20
696.6003319999981
 30
0.0
 11
504.4516432803034
 21
662.4003319999974
 31
0.0
  0
ARC
  5
A4F26
330
1F
100
AcDbEntity
  8
AM_0
100
AcDbCircle
 10
506.4516432803034
 20
692.5003319999996
 30
0.0
 40
2.0
100
AcDbArc
 50
180.0
 51
249.0841239999719
  0
LINE
  5
A4F27
330
1F
100
AcDbEntity
  8
AM_0
100
AcDbLine
 10
501.6516432803032
 20
697.1003319999981
 30
0.0
 11
503.9516432803034
 21
697.1003319999981
 31
0.0
  0
LINE
  5
A4F28
330
1F
100
AcDbEntity
  8
AM_0
100
AcDbLine
 10
501.6516432803032
 20
698.6073149999974
 30
0.0
 11
501.6516432803032
 21
661.9003319999974
 31
0.0
  0
LINE
  5
A4F29
330
1F
100
AcDbEntity
  8
AM_0
100
AcDbLine
 10
474.7516432803036
 20
661.6003319999982
 30
0.0
 11
474.7516432803036
 21
697.4003319999974
 31
0.0
  0
ARC
  5
A4F2A
330
1F
100
AcDbEntity
  8
AM_0
100
AcDbCircle
 10
479.7516432803035
 20
697.4003319999974
 30
0.0
 40
5.0
100
AcDbArc
 50
69.0089450000362
 51
180.0
  0
LINE
  5
A4F2B
330
1F
100
AcDbEntity
  8
AM_0
100
AcDbLine
 10
499.4538642803036
 20
698.7503319999996
 30
0.0
 11
500.7364092803036
 21
698.7503319999996
 31
0.0
  0
ARC
  5
A4F2C
330
1F
100
AcDbEntity
  8
AM_0
100
AcDbCircle
 10
499.4538642803036
 20
748.7503319999996
 30
0.0
 40
50.0
100
AcDbArc
 50
249.0089450000362
 51
270.0
  0
ARC
  5
A4F2D
330
1F
100
AcDbEntity
  8
AM_0
100
AcDbCircle
 10
503.9516432803034
 20
696.6003319999981
 30
0.0
 40
0.5
100
AcDbArc
 50
0.0
 51
90.0
  0
LINE
  5
A4F2E
330
1F
100
AcDbEntity
  8
AM_0
100
AcDbLine
 10
502.4110172803034
 20
698.2394469999999
 30
0.0
 11
504.2307442803035
 21
697.0151850000002
 31
0.0
  0
ARC
  5
A4F2F
330
1F
100
AcDbEntity
  8
AM_0
100
AcDbCircle
 10
500.7364092803036
 20
695.7503319999996
 30
0.0
 40
3.0
100
AcDbArc
 50
56.06843000002487
 51
90.0
  0
LINE
  5
A4F30
330
1F
100
AcDbEntity
  8
AM_0
100
AcDbLine
 10
480.7516432803035
 20
662.1003319999982
 30
0.0
 11
480.7516432803035
 21
696.9003319999974
 31
0.0
  0
LINE
  5
A4F31
330
1F
100
AcDbEntity
  8
AM_0
100
AcDbLine
 10
478.0516432803038
 20
662.1003319999982
 30
0.0
 11
478.0516432803038
 21
696.9003319999974
 31
0.0
  0
LINE
  5
A4F32
330
1F
100
AcDbEntity
  8
AM_0
100
AcDbLine
 10
482.5516432803038
 20
661.3503319999981
 30
0.0
 11
482.5516432803038
 21
697.6503319999974
 31
0.0
  0
LINE
  5
A4F33
330
1F
100
AcDbEntity
  8
AM_0
100
AcDbLine
 10
485.2516432803035
 20
661.3503319999981
 30
0.0
 11
485.2516432803035
 21
697.6503319999974
 31
0.0
  0
LINE
  5
A4F34
330
1F
100
AcDbEntity
  8
AM_0
100
AcDbLine
 10
487.0516432803038
 20
664.1003319999981
 30
0.0
 11
487.0516432803038
 21
694.9003319999974
 31
0.0
  0
LINE
  5
A4F35
330
1F
100
AcDbEntity
  8
AM_0
100
AcDbLine
 10
489.7516432803036
 20
664.1003319999981
 30
0.0
 11
489.7516432803036
 21
694.9003319999974
 31
0.0
  0
ARC
  5
A4F36
330
1F
100
AcDbEntity
  8
AM_0
100
AcDbCircle
 10
479.4016432803032
 20
696.9003319999974
 30
0.0
 40
1.35
100
AcDbArc
 50
0.0
 51
180.0
  0
ARC
  5
A4F37
330
1F
100
AcDbEntity
  8
AM_0
100
AcDbCircle
 10
483.9016432803032
 20
697.6503319999974
 30
0.0
 40
1.35
100
AcDbArc
 50
0.0
 51
180.0
  0
ARC
  5
A4F38
330
1F
100
AcDbEntity
  8
AM_0
100
AcDbCircle
 10
488.4016432803032
 20
694.9003319999974
 30
0.0
 40
1.35
100
AcDbArc
 50
0.0
 51
180.0
  0
LINE
  5
A4F39
330
1F
100
AcDbEntity
  8
AM_0
100
AcDbLine
 10
509.7376492803037
 20
668.5003319999996
 30
0.0
 11
523.3649612803032
 21
668.5003319999996
 31
0.0
  0
ARC
  5
A4F3A
330
1F
100
AcDbEntity
  8
AM_0
100
AcDbCircle
 10
533.1516432803032
 20
672.0003319999996
 30
0.0
 40
4.0
100
AcDbArc
 50
270.0
 51
0.0
  0
LINE
  5
A4F3B
330
1F
100
AcDbEntity
  8
AM_0
100
AcDbLine
 10
523.8617252803037
 20
668.4143699999985
 30
0.0
 11
532.9718082803033
 21
668.0043769999975
 31
0.0
  0
ARC
  5
A4F3C
330
1F
100
AcDbEntity
  8
AM_0
100
AcDbCircle
 10
523.9516432803034
 20
670.412347999998
 30
0.0
 40
2.0
100
AcDbArc
 50
180.0
 51
267.4231789999924
  0
ARC
  5
A4F3D
330
1F
100
AcDbEntity
  8
AM_0
100
AcDbCircle
 10
527.2016432803034
 20
673.2503319999996
 30
0.0
 40
1.25
100
AcDbArc
 50
180.0
 51
0.0
  0
ARC
  5
A4F3E
330
1F
100
AcDbEntity
  8
AM_0
100
AcDbCircle
 10
530.7913802803036
 20
671.6605949999975
 30
0.0
 40
1.160262999999999
100
AcDbArc
 50
180.0
 51
0.0
  0
ARC
  5
A4F3F
330
1F
100
AcDbEntity
  8
AM_0
100
AcDbCircle
 10
534.2342342803035
 20
672.2177419999988
 30
0.0
 40
1.217408999999999
100
AcDbArc
 50
180.0
 51
0.0
  0
ARC
  5
A4F40
330
1F
100
AcDbEntity
  8
AM_0
100
AcDbCircle
 10
506.4516432803034
 20
666.5003319999996
 30
0.0
 40
2.0
100
AcDbArc
 50
110.9158760000281
 51
180.0
  0
LINE
  5
A4F41
330
1F
100
AcDbEntity
  8
AM_0
100
AcDbLine
 10
501.6516432803032
 20
661.9003319999974
 30
0.0
 11
503.9516432803034
 21
661.9003319999974
 31
0.0
  0
ARC
  5
A4F42
330
1F
100
AcDbEntity
  8
AM_0
100
AcDbCircle
 10
479.7516432803035
 20
661.6003319999982
 30
0.0
 40
5.0
100
AcDbArc
 50
180.0
 51
290.9910549999638
  0
LINE
  5
A4F43
330
1F
100
AcDbEntity
  8
AM_0
100
AcDbLine
 10
499.4538642803036
 20
660.2503319999996
 30
0.0
 11
500.7364092803036
 21
660.2503319999996
 31
0.0
  0
ARC
  5
A4F44
330
1F
100
AcDbEntity
  8
AM_0
100
AcDbCircle
 10
499.4538642803036
 20
610.2503319999996
 30
0.0
 40
50.0
100
AcDbArc
 50
90.0
 51
110.9910549999638
  0
ARC
  5
A4F45
330
1F
100
AcDbEntity
  8
AM_0
100
AcDbCircle
 10
503.9516432803034
 20
662.4003319999974
 30
0.0
 40
0.5
100
AcDbArc
 50
270.0
 51
0.0
  0
LINE
  5
A4F46
330
1F
100
AcDbEntity
  8
AM_0
100
AcDbLine
 10
502.4110172803034
 20
660.7612179999996
 30
0.0
 11
504.2307442803035
 21
661.9854799999993
 31
0.0
  0
ARC
  5
A4F47
330
1F
100
AcDbEntity
  8
AM_0
100
AcDbCircle
 10
500.7364092803036
 20
663.2503319999996
 30
0.0
 40
3.0
100
AcDbArc
 50
270.0
 51
303.9315699999751
  0
ARC
  5
A4F48
330
1F
100
AcDbEntity
  8
AM_0
100
AcDbCircle
 10
479.4016432803032
 20
662.1003319999982
 30
0.0
 40
1.35
100
AcDbArc
 50
180.0
 51
0.0
  0
ARC
  5
A4F49
330
1F
100
AcDbEntity
  8
AM_0
100
AcDbCircle
 10
483.9016432803032
 20
661.3503319999981
 30
0.0
 40
1.35
100
AcDbArc
 50
180.0
 51
0.0
  0
ARC
  5
A4F4A
330
1F
100
AcDbEntity
  8
AM_0
100
AcDbCircle
 10
488.4016432803032
 20
664.1003319999981
 30
0.0
 40
1.35
100
AcDbArc
 50
180.0
 51
0.0
  0
LINE
  5
A4F4B
330
1F
100
AcDbEntity
  8
AM_0
100
AcDbLine
 10
529.7376492803037
 20
668.0003319999996
 30
0.0
 11
509.7376492803037
 21
668.0003319999996
 31
0.0
  0
LINE
  5
A4F4C
330
1F
100
AcDbEntity
  8
AM_0
100
AcDbLine
 10
529.7376492803037
 20
691.0003319999995
 30
0.0
 11
509.7376492803037
 21
691.0003319999995
 31
0.0
  0
LINE
  5
A4F4D
330
1F
100
AcDbEntity
  8
AM_0
100
AcDbLine
 10
509.7376492803037
 20
668.0003319999996
 30
0.0
 11
509.7376492803037
 21
691.0003319999995
 31
0.0
  0
LINE
  5
A4F4E
330
1F
100
AcDbEntity
  8
AM_0
100
AcDbLine
 10
529.7376492803037
 20
668.0003319999996
 30
0.0
 11
529.7376492803037
 21
668.1499279999989
 31
0.0
  0
LINE
  5
A4F4F
330
1F
100
AcDbEntity
  8
AM_0
100
AcDbLine
 10
511.7376492803036
 20
691.0003319999995
 30
0.0
 11
511.7376492803036
 21
696.0003319999996
 31
0.0
  0
LINE
  5
A4F50
330
1F
100
AcDbEntity
  8
AM_0
100
AcDbLine
 10
515.7376492803036
 20
691.0003319999995
 30
0.0
 11
515.7376492803036
 21
696.0003319999996
 31
0.0
  0
LINE
  5
A4F51
330
1F
100
AcDbEntity
  8
AM_0
100
AcDbLine
 10
515.7376492803036
 20
696.0003319999996
 30
0.0
 11
511.7376492803036
 21
696.0003319999996
 31
0.0
  0
LINE
  5
A4F52
330
1F
100
AcDbEntity
  8
AM_0
100
AcDbLine
 10
512.2376492803036
 20
668.0003319999996
 30
0.0
 11
512.2376492803036
 21
663.0003319999996
 31
0.0
  0
LINE
  5
A4F53
330
1F
100
AcDbEntity
  8
AM_0
100
AcDbLine
 10
516.2376492803036
 20
668.0003319999996
 30
0.0
 11
516.2376492803036
 21
663.0003319999996
 31
0.0
  0
LINE
  5
A4F54
330
1F
100
AcDbEntity
  8
AM_0
100
AcDbLine
 10
516.2376492803036
 20
663.0003319999996
 30
0.0
 11
512.2376492803036
 21
663.0003319999996
 31
0.0
  0
LINE
  5
A4F55
330
1F
100
AcDbEntity
  8
AM_0
100
AcDbLine
 10
529.7376492803037
 20
690.8507369999988
 30
0.0
 11
529.7376492803037
 21
691.0003319999995
 31
0.0
  0
LINE
  5
A4F56
330
1F
100
AcDbEntity
  8
AM_0
100
AcDbLine
 10
537.1516432803032
 20
687.0003319999995
 30
0.0
 11
537.1516432803032
 21
672.0003319999996
 31
0.0
  0
LINE
  5
A4F57
330
1F
100
AcDbEntity
  8
AM_0
100
AcDbLine
 10
546.4998022803033
 20
704.5002599999989
 30
0.0
 11
505.7376492803037
 21
704.5002599999989
 31
0.0
  0
LINE
  5
A4F58
330
1F
100
AcDbEntity
  8
AM_0
100
AcDbLine
 10
546.4998022803033
 20
654.5002599999989
 30
0.0
 11
505.7376492803037
 21
654.5002599999989
 31
0.0
  0
CIRCLE
  5
A4F59
330
1F
100
AcDbEntity
  8
AM_0
100
AcDbCircle
 10
567.0845658981898
 20
481.0002052920217
 30
0.0
 40
8.749599999999999
  0
ARC
  5
A4F5A
330
1F
100
AcDbEntity
  8
AM_0
100
AcDbCircle
 10
404.3538418981897
 20
536.0741752920212
 30
0.0
 40
156.8272
100
AcDbArc
 50
341.6277149999947
 51
2.892715000014914
  0
ARC
  5
A4F5B
330
1F
100
AcDbEntity
  8
AM_0
100
AcDbCircle
 10
463.1785968981898
 20
619.9538782920217
 30
0.0
 40
188.4807
100
AcDbArc
 50
307.0721150000137
 51
332.6262149999918
  0
ARC
  5
A4F5C
330
1F
100
AcDbEntity
  8
AM_0
100
AcDbCircle
 10
567.0847868981895
 20
480.9995122920217
 30
0.0
 40
14.9999
100
AcDbArc
 50
157.8958150000106
 51
310.3590149999739
  0
ARC
  5
A4F5D
330
1F
100
AcDbEntity
  8
AM_0
100
AcDbCircle
 10
578.6510968981897
 20
502.0290552920223
 30
0.0
 40
10.0
100
AcDbArc
 50
168.9396150000134
 51
314.4019150000131
  0
ARC
  5
A4F5E
330
1F
100
AcDbEntity
  8
AM_0
100
AcDbCircle
 10
463.1785968981898
 20
619.9538782920217
 30
0.0
 40
175.0458
100
AcDbArc
 50
314.3982149999812
 51
325.3194150000169
  0
LINE
  5
A4F5F
330
1F
100
AcDbEntity
  8
AM_0
100
AcDbLine
 10
566.5623598981897
 20
515.5989052920221
 30
0.0
 11
559.6052848981894
 21
513.8992712920217
 31
0.0
  0
LINE
  5
A4F60
330
1F
100
AcDbEntity
  8
AM_0
100
AcDbLine
 10
609.4650438981894
 20
521.9627812920216
 30
0.0
 11
626.6681308981897
 21
526.1659752920214
 31
0.0
  0
ARC
  5
A4F61
330
1F
100
AcDbEntity
  8
AM_0
100
AcDbCircle
 10
404.3538418981897
 20
536.0741752920212
 30
0.0
 40
167.5911
100
AcDbArc
 50
348.9482150000109
 51
351.8215149999991
  0
ARC
  5
A4F62
330
1F
100
AcDbEntity
  8
AM_0
100
AcDbCircle
 10
567.2743348981899
 20
512.6846652920203
 30
0.0
 40
3.000399999999999
100
AcDbArc
 50
351.3456149999974
 51
103.7278149999816
  0
ARC
  5
A4F63
330
1F
100
AcDbEntity
  8
AM_0
100
AcDbCircle
 10
610.4144298981895
 20
518.0775642920225
 30
0.0
 40
3.9996
100
AcDbArc
 50
103.7323149999819
 51
145.3288149999807
  0
LINE
  5
A4F64
330
1F
100
AcDbEntity
  8
AM_0
100
AcDbLine
 10
593.9991888981899
 20
583.9999492920205
 30
0.0
 11
546.4984888981894
 21
583.9999492920205
 31
0.0
  0
LINE
  5
A4F65
330
1F
100
AcDbEntity
  8
AM_0
100
AcDbLine
 10
546.4984888981894
 20
583.9999492920205
 30
0.0
 11
546.4984888981894
 21
579.9995492920215
 31
0.0
  0
LINE
  5
A4F66
330
1F
100
AcDbEntity
  8
AM_0
100
AcDbLine
 10
559.9290888981895
 20
574.9625492920213
 30
0.0
 11
559.9290888981895
 21
569.0612492920218
 31
0.0
  0
ARC
  5
A4F67
330
1F
100
AcDbEntity
  8
AM_0
100
AcDbCircle
 10
564.0288888981899
 20
569.0612492920218
 30
0.0
 40
4.0998
100
AcDbArc
 50
180.0
 51
270.0
  0
ARC
  5
A4F68
330
1F
100
AcDbEntity
  8
AM_0
100
AcDbCircle
 10
624.3995888981894
 20
561.3620492920226
 30
0.0
 40
3.6
100
AcDbArc
 50
0.0
 51
90.97555899998946
  0
LINE
  5
A4F69
330
1F
100
AcDbEntity
  8
AM_0
100
AcDbLine
 10
553.2490908981895
 20
541.8255652920224
 30
0.0
 11
553.3971108981895
 21
544.4216152920225
 31
0.0
  0
LINE
  5
A4F6A
330
1F
100
AcDbEntity
  8
AM_0
100
AcDbLine
 10
561.3304748981895
 20
543.9991462920215
 30
0.0
 11
586.9089998981894
 21
547.0164072920224
 31
0.0
  0
LINE
  5
A4F6B
330
1F
100
AcDbEntity
  8
AM_0
100
AcDbLine
 10
560.9812338981896
 20
543.9886022920209
 30
0.0
 11
553.3971108981895
 21
544.4216152920225
 31
0.0
  0
LINE
  5
A4F6C
330
1F
100
AcDbEntity
  8
AM_0
100
AcDbLine
 10
560.8332018981895
 20
541.3929522920216
 30
0.0
 11
553.2490908981895
 21
541.8255652920224
 31
0.0
  0
ARC
  5
A4F6D
330
1F
100
AcDbEntity
  8
AM_0
100
AcDbCircle
 10
561.0953488981899
 20
545.9845552920223
 30
0.0
 40
1.9991
100
AcDbArc
 50
266.7280149999886
 51
276.7535149999899
  0
ARC
  5
A4F6E
330
1F
100
AcDbEntity
  8
AM_0
100
AcDbCircle
 10
561.0953488981899
 20
545.9845552920223
 30
0.0
 40
4.599
100
AcDbArc
 50
266.7330149999959
 51
269.9467439999784
  0
ARC
  5
A4F6F
330
1F
100
AcDbEntity
  8
AM_0
100
AcDbCircle
 10
589.5369478981897
 20
530.064954292021
 30
0.0
 40
1.9999
100
AcDbArc
 50
165.3351149999784
 51
345.3434150000065
  0
ARC
  5
A4F70
330
1F
100
AcDbEntity
  8
AM_0
100
AcDbCircle
 10
555.7482888981899
 20
579.4997492920219
 30
0.0
 40
0.5002
100
AcDbArc
 50
38.72200000000598
 51
90.0
  0
LINE
  5
A4F71
330
1F
100
AcDbEntity
  8
AM_0
100
AcDbLine
 10
593.9999888981897
 20
583.9999492920205
 30
0.0
 11
641.5006888981897
 21
583.9999492920205
 31
0.0
  0
LINE
  5
A4F72
330
1F
100
AcDbEntity
  8
AM_0
100
AcDbLine
 10
641.5006888981897
 20
583.9999492920205
 30
0.0
 11
641.5006888981897
 21
579.9995492920215
 31
0.0
  0
LINE
  5
A4F73
330
1F
100
AcDbEntity
  8
AM_0
100
AcDbLine
 10
628.0699888981894
 20
574.9625492920213
 30
0.0
 11
628.0699888981894
 21
569.0616492920225
 31
0.0
  0
ARC
  5
A4F74
330
1F
100
AcDbEntity
  8
AM_0
100
AcDbCircle
 10
626.0007888981895
 20
580.5002492920202
 30
0.0
 40
5.0
100
AcDbArc
 50
270.0
 51
321.2404999999946
  0
ARC
  5
A4F75
330
1F
100
AcDbEntity
  8
AM_0
100
AcDbCircle
 10
632.2508888981897
 20
579.4993492920212
 30
0.0
 40
0.5002
100
AcDbArc
 50
90.0
 51
141.2376000000087
  0
LINE
  5
A4F76
330
1F
100
AcDbEntity
  8
AM_0
100
AcDbLine
 10
629.8996888981896
 20
577.3699492920213
 30
0.0
 11
631.8584778981898
 21
579.8099942920226
 31
0.0
  0
LINE
  5
A4F77
330
1F
100
AcDbEntity
  8
AM_0
100
AcDbLine
 10
565.5996888981895
 20
553.1382492920211
 30
0.0
 11
562.9995888981897
 21
553.1382492920211
 31
0.0
  0
LINE
  5
A4F78
330
1F
100
AcDbEntity
  8
AM_0
100
AcDbLine
 10
562.9995888981897
 20
553.1382492920211
 30
0.0
 11
562.9995888981897
 21
559.4316082920222
 31
0.0
  0
LINE
  5
A4F79
330
1F
100
AcDbEntity
  8
AM_0
100
AcDbLine
 10
627.1166578981897
 20
551.7605712920222
 30
0.0
 11
625.5520318981893
 21
551.5762942920218
 31
0.0
  0
LINE
  5
A4F7A
330
1F
100
AcDbEntity
  8
AM_0
100
AcDbLine
 10
627.4208928981898
 20
549.1782182920205
 30
0.0
 11
626.3542478981894
 21
549.0524352920211
 31
0.0
  0
LINE
  5
A4F7B
330
1F
100
AcDbEntity
  8
AM_0
100
AcDbLine
 10
591.4718958981898
 20
529.5588962920219
 30
0.0
 11
595.1034568981899
 21
543.4381722920216
 31
0.0
  0
LINE
  5
A4F7C
330
1F
100
AcDbEntity
  8
AM_0
100
AcDbLine
 10
587.6021858981898
 20
530.5712952920211
 30
0.0
 11
591.4141148981894
 21
545.1408602920228
 31
0.0
  0
LINE
  5
A4F7D
330
1F
100
AcDbEntity
  8
AM_0
100
AcDbLine
 10
594.8984708981897
 20
542.6542352920214
 30
0.0
 11
594.8984648981896
 21
542.6542152920219
 31
0.0
  0
ARC
  5
A4F7E
330
1F
100
AcDbEntity
  8
AM_0
100
AcDbCircle
 10
632.2483848981896
 20
579.4969892920225
 30
0.0
 40
0.5
100
AcDbArc
 50
90.0
 51
141.24364200003
  0
LINE
  5
A4F7F
330
1F
100
AcDbEntity
  8
AM_0
100
AcDbLine
 10
561.9975558981896
 20
575.500375292021
 30
0.0
 11
626.0007888981895
 21
575.5001272920226
 31
0.0
  0
ARC
  5
A4F80
330
1F
100
AcDbEntity
  8
AM_0
100
AcDbCircle
 10
561.9975748981897
 20
580.500375292021
 30
0.0
 40
5.0
100
AcDbArc
 50
218.7592739999941
 51
269.9997739999824
  0
LINE
  5
A4F81
330
1F
100
AcDbEntity
  8
AM_0
100
AcDbLine
 10
558.0986628981896
 20
577.3700902920218
 30
0.0
 11
556.1398838981895
 21
579.810143292022
 31
0.0
  0
LINE
  5
A4F82
330
1F
100
AcDbEntity
  8
AM_0
100
AcDbLine
 10
641.5006888981897
 20
579.9968072920228
 30
0.0
 11
546.4976728981896
 21
579.9971762920204
 31
0.0
  0
LINE
  5
A4F83
330
1F
100
AcDbEntity
  8
AM_0
100
AcDbLine
 10
559.9290888981895
 20
574.9625492920213
 30
0.0
 11
628.0699888981894
 21
574.9625492920213
 31
0.0
  0
LINE
  5
A4F84
330
1F
100
AcDbEntity
  8
AM_0
100
AcDbLine
 10
563.9778098981897
 20
564.9617672920203
 30
0.0
 11
624.3382958981896
 21
564.9615272920227
 31
0.0
  0
ARC
  5
A4F85
330
1F
100
AcDbEntity
  8
AM_7
370
     9
100
AcDbCircle
 10
394.2268328981895
 20
589.7696062920212
 30
0.0
 40
204.2318
100
AcDbArc
 50
327.8201149999816
 51
347.6770149999909
  0
ARC
  5
A4F86
330
1F
100
AcDbEntity
  8
AM_0
100
AcDbCircle
 10
567.0842718981898
 20
480.9999962920219
 30
0.0
 40
50.0
100
AcDbArc
 50
147.4186139999999
 51
27.09831200002799
  0
ARC
  5
A4F8A
330
1F
100
AcDbEntity
  8
AM_0
100
AcDbCircle
 10
567.0842718981898
 20
480.9999962920219
 30
0.0
 40
17.5
100
AcDbArc
 50
131.6584340000137
 51
339.4213850000188
  0
ARC
  5
A4F8B
330
1F
100
AcDbEntity
  8
AM_0
100
AcDbCircle
 10
568.5991518981896
 20
559.3616492920218
 30
0.0
 40
5.599999999999999
100
AcDbArc
 50
89.99977199999269
 51
180.0
  0
ARC
  5
A4F8C
330
1F
100
AcDbEntity
  8
AM_0
100
AcDbCircle
 10
623.9699888981899
 20
569.0616492920225
 30
0.0
 40
4.099999999999999
100
AcDbArc
 50
270.0
 51
0.0
  0
ARC
  5
A4F8D
330
1F
100
AcDbEntity
  8
AM_7
370
     9
100
AcDbCircle
 10
621.9983888981897
 20
538.4695492920209
 30
0.0
 40
79.487796
100
AcDbArc
 50
218.4882890000256
 51
226.3028890000346
  0
CIRCLE
  5
A4F8E
330
1F
100
AcDbEntity
  8
AM_0
100
AcDbCircle
 10
621.9983888981897
 20
538.4695492920209
 30
0.0
 40
6.5
  0
LINE
  5
A4F8F
330
1F
100
AcDbEntity
  8
AM_0
100
AcDbLine
 10
615.4982888981899
 20
542.2224492920204
 30
0.0
 11
615.4982888981899
 21
534.7165492920203
 31
0.0
  0
LINE
  5
A4F90
330
1F
100
AcDbEntity
  8
AM_0
100
AcDbLine
 10
615.4982888981899
 20
534.7165492920203
 30
0.0
 11
621.9983888981897
 21
530.9645492920217
 31
0.0
  0
LINE
  5
A4F91
330
1F
100
AcDbEntity
  8
AM_0
100
AcDbLine
 10
621.9983888981897
 20
530.9645492920217
 30
0.0
 11
628.4983888981896
 21
534.7165492920203
 31
0.0
  0
LINE
  5
A4F92
330
1F
100
AcDbEntity
  8
AM_0
100
AcDbLine
 10
628.4983888981896
 20
534.7165492920203
 30
0.0
 11
628.4983888981896
 21
542.2224492920204
 31
0.0
  0
LINE
  5
A4F93
330
1F
100
AcDbEntity
  8
AM_0
100
AcDbLine
 10
628.4983888981896
 20
542.2224492920204
 30
0.0
 11
621.9983888981897
 21
545.975449292021
 31
0.0
  0
LINE
  5
A4F94
330
1F
100
AcDbEntity
  8
AM_0
100
AcDbLine
 10
621.9983888981897
 20
545.975449292021
 30
0.0
 11
615.4982888981899
 21
542.2224492920204
 31
0.0
  0
ARC
  5
A4F95
330
1F
100
AcDbEntity
  8
AM_0
100
AcDbCircle
 10
621.9983888981897
 20
538.4695492920209
 30
0.0
 40
10.0004
100
AcDbArc
 50
227.5823999999972
 51
327.0891440000302
  0
ARC
  5
A4F96
330
1F
100
AcDbEntity
  8
AM_0
100
AcDbCircle
 10
543.8192888981898
 20
437.1652492920211
 30
0.0
 40
118.0
100
AcDbArc
 50
52.74459999997294
 51
79.36339999999269
  0
ARC
  5
A4F97
330
1F
100
AcDbEntity
  8
AM_0
100
AcDbCircle
 10
621.9983888981897
 20
538.4695492920209
 30
0.0
 40
10.0004
100
AcDbArc
 50
327.0891440000302
 51
47.93114199999235
  0
ARC
  5
A4F98
330
1F
100
AcDbEntity
  8
AM_0
100
AcDbCircle
 10
635.3992888981897
 20
553.3168492920221
 30
0.0
 40
9.9999
100
AcDbArc
 50
179.173185000012
 51
227.9312000000041
  0
LINE
  5
A4F99
330
1F
100
AcDbEntity
  8
AM_0
100
AcDbLine
 10
627.9996888981895
 20
553.4611492920221
 30
0.0
 11
625.39938889819
 21
553.4611492920221
 31
0.0
  0
LINE
  5
A4F9A
330
1F
100
AcDbEntity
  8
AM_0
100
AcDbLine
 10
627.9996888981895
 20
561.3620492920226
 30
0.0
 11
627.9996888981895
 21
552.7537072920213
 31
0.0
  0
LINE
  5
A4F9B
330
1F
100
AcDbEntity
  8
AM_0
100
AcDbLine
 10
633.5995888981897
 20
561.3620492920226
 30
0.0
 11
627.9996888981895
 21
561.3620492920226
 31
0.0
  0
LINE
  5
A4F9C
330
1F
100
AcDbEntity
  8
AM_0
100
AcDbLine
 10
630.5992888981895
 20
552.7534452920217
 30
0.0
 11
630.5992888981895
 21
561.3620492920226
 31
0.0
  0
LINE
  5
A4F9D
330
1F
100
AcDbEntity
  8
AM_0
100
AcDbLine
 10
633.5995888981897
 20
552.7534812920212
 30
0.0
 11
633.5995888981897
 21
561.3620492920226
 31
0.0
  0
ARC
  5
A4F9E
330
1F
100
AcDbEntity
  8
AM_0
100
AcDbCircle
 10
626.9996888981895
 20
552.7537072920213
 30
0.0
 40
1.0
100
AcDbArc
 50
276.7171919999974
 51
0.0
  0
ARC
  5
A4F9F
330
1F
100
AcDbEntity
  8
AM_0
100
AcDbCircle
 10
626.9992888981896
 20
552.7534452920217
 30
0.0
 40
3.6
100
AcDbArc
 50
276.7254719999976
 51
0.0
  0
ARC
  5
A4FA0
330
1F
100
AcDbEntity
  8
AM_0
100
AcDbCircle
 10
626.9995888981898
 20
552.7534812920212
 30
0.0
 40
6.599999999999999
100
AcDbArc
 50
281.3004769999912
 51
0.0
  0
LINE
  5
A4FA2
330
1F
100
AcDbEntity
  8
AM_0
100
AcDbLine
 10
516.6966918981898
 20
493.9087792920209
 30
0.0
 11
521.8222318981897
 21
506.7648862920204
 31
0.0
  0
LINE
  5
A4FA3
330
1F
100
AcDbEntity
  8
AM_0
100
AcDbLine
 10
515.5820148981897
 20
494.3531852920214
 30
0.0
 11
520.3064708981896
 21
506.2032732920224
 31
0.0
  0
LINE
  5
A4FA4
330
1F
100
AcDbEntity
  8
AM_0
100
AcDbLine
 10
516.6966918981898
 20
493.9087792920209
 30
0.0
 11
514.9317868981897
 21
494.6124212920213
 31
0.0
  0
LINE
  5
A4FA5
330
1F
100
AcDbEntity
  8
AM_0
100
AcDbLine
 10
518.8586638981896
 20
497.4413672920227
 30
0.0
 11
517.2635958981896
 21
495.3307132920226
 31
0.0
  0
LINE
  5
A4FA6
330
1F
100
AcDbEntity
  8
AM_0
100
AcDbLine
 10
518.2084358981897
 20
497.7006042920211
 30
0.0
 11
518.8586638981896
 21
497.4413672920227
 31
0.0
  0
LINE
  5
A4FA7
330
1F
100
AcDbEntity
  8
AM_0
100
AcDbLine
 10
520.3704088981899
 20
501.2331912920226
 30
0.0
 11
520.6650208981896
 21
503.8623182920227
 31
0.0
  0
LINE
  5
A4FA8
330
1F
100
AcDbEntity
  8
AM_0
100
AcDbLine
 10
519.7201808981894
 20
501.492428292021
 30
0.0
 11
520.3704088981899
 21
501.2331912920226
 31
0.0
  0
LINE
  5
A4FA9
330
1F
100
AcDbEntity
  8
AM_0
100
AcDbLine
 10
518.6393208981894
 20
505.6504282920204
 30
0.0
 11
514.9317868981897
 21
494.6124212920213
 31
0.0
  0
LINE
  5
A4FAA
330
1F
100
AcDbEntity
  8
AM_0
100
AcDbLine
 10
521.3223998981898
 20
531.9685162920205
 30
0.0
 11
523.2717028981896
 21
533.1892612920228
 31
0.0
  0
LINE
  5
A4FAB
330
1F
100
AcDbEntity
  8
AM_0
100
AcDbLine
 10
527.8410638981894
 20
534.8708972920203
 30
0.0
 11
529.7351238981896
 21
536.0570462920214
 31
0.0
  0
LINE
  5
A4FAC
330
1F
100
AcDbEntity
  8
AM_0
100
AcDbLine
 10
531.5918258981896
 20
532.5001642920206
 30
0.0
 11
532.6209278981896
 21
533.1446362920205
 31
0.0
  0
LINE
  5
A4FAD
330
1F
100
AcDbEntity
  8
AM_0
100
AcDbLine
 10
532.9376928981896
 20
534.5229172920217
 30
0.0
 11
532.8148458981895
 21
534.719082292021
 31
0.0
  0
LINE
  5
A4FAE
330
1F
100
AcDbEntity
  8
AM_0
100
AcDbLine
 10
520.4753038981894
 20
525.7847852920213
 30
0.0
 11
520.0553398981896
 21
526.4553902920225
 31
0.0
  0
LINE
  5
A4FAF
330
1F
100
AcDbEntity
  8
AM_0
100
AcDbLine
 10
530.1169318981897
 20
535.824188292022
 30
0.0
 11
530.0107798981894
 21
535.9936932920218
 31
0.0
  0
LINE
  5
A4FB0
330
1F
100
AcDbEntity
  8
AM_0
100
AcDbLine
 10
526.8548058981896
 20
534.4388632920226
 30
0.0
 11
526.7790698981894
 21
534.5598002920223
 31
0.0
  0
LINE
  5
A4FB1
330
1F
100
AcDbEntity
  8
AM_0
100
AcDbLine
 10
523.6141368981893
 20
533.0192762920224
 30
0.0
 11
523.5473588981899
 21
533.1259082920214
 31
0.0
  0
ARC
  5
A4FB2
330
1F
100
AcDbEntity
  8
AM_0
100
AcDbCircle
 10
532.0901698981897
 20
533.9921592920209
 30
0.0
 40
1.0
100
AcDbArc
 50
302.056707999979
 51
32.056707999979
  0
ARC
  5
A4FB3
330
1F
100
AcDbEntity
  8
AM_0
100
AcDbCircle
 10
530.6960378981898
 20
533.3921862920205
 30
0.0
 40
2.5
100
AcDbArc
 50
32.056707999979
 51
113.6560099999911
  0
ARC
  5
A4FB4
330
1F
100
AcDbEntity
  8
AM_0
100
AcDbCircle
 10
529.8412758981899
 20
535.8875412920215
 30
0.0
 40
0.2
100
AcDbArc
 50
32.056707999979
 51
122.056707999979
  0
ARC
  5
A4FB5
330
1F
100
AcDbEntity
  8
AM_0
100
AcDbCircle
 10
523.4454328981896
 20
528.5784242920226
 30
0.0
 40
4.0
100
AcDbArc
 50
113.6560099999911
 51
212.056707999979
  0
LINE
  5
A4FB6
330
1F
100
AcDbEntity
  8
AM_0
100
AcDbLine
 10
521.8404548981898
 20
532.2423072920218
 30
0.0
 11
529.6929258981895
 21
535.6821132920222
 31
0.0
  0
ARC
  5
A4FB7
330
1F
100
AcDbEntity
  8
AM_0
100
AcDbCircle
 10
523.3778548981895
 20
533.0197562920211
 30
0.0
 40
0.2
100
AcDbArc
 50
32.056707999979
 51
122.056707999979
  0
LINE
  5
A4FB8
330
1F
100
AcDbEntity
  8
AM_0
100
AcDbLine
 10
524.7062188981894
 20
533.4976662920225
 30
0.0
 11
526.5034138981896
 21
534.6231532920219
 31
0.0
  0
ARC
  5
A4FB9
330
1F
100
AcDbEntity
  8
AM_0
100
AcDbCircle
 10
526.6095648981895
 20
534.4536492920224
 30
0.0
 40
0.2
100
AcDbArc
 50
32.056707999979
 51
122.056707999979
  0
LINE
  5
A4FBA
330
1F
100
AcDbEntity
  8
AM_0
100
AcDbLine
 10
532.9376928981896
 20
534.5229172920217
 30
0.0
 11
523.7733198981896
 21
529.3737162920215
 31
0.0
  0
ARC
  5
A4FBB
330
1F
100
AcDbEntity
  8
AM_0
100
AcDbCircle
 10
515.2980878981898
 20
524.0661322920214
 30
0.0
 40
10.0
100
AcDbArc
 50
24.20960600001156
 51
32.056707999979
  0
LINE
  5
A4FBC
330
1F
100
AcDbEntity
  8
AM_0
100
AcDbLine
 10
504.2305908981898
 20
513.4774352920203
 30
0.0
 11
503.4344538981895
 21
514.748720292021
 31
0.0
  0
LINE
  5
A4FBD
330
1F
100
AcDbEntity
  8
AM_0
100
AcDbLine
 10
503.6998328981894
 20
514.3249582920207
 30
0.0
 11
505.2123688981896
 21
514.2329522920217
 31
0.0
  0
LINE
  5
A4FBE
330
1F
100
AcDbEntity
  8
AM_0
100
AcDbLine
 10
475.4877238981894
 20
508.6922952920203
 30
0.0
 11
474.9038898981893
 21
509.6245712920217
 31
0.0
  0
LINE
  5
A4FBF
330
1F
100
AcDbEntity
  8
AM_0
100
AcDbLine
 10
478.5096658981897
 20
507.6350042920211
 30
0.0
 11
478.2442868981897
 21
508.0587662920216
 31
0.0
  0
LINE
  5
A4FC0
330
1F
100
AcDbEntity
  8
AM_0
100
AcDbLine
 10
481.2662288981896
 20
507.0014742920202
 30
0.0
 11
490.3275988981895
 21
512.6761242920211
 31
0.0
  0
LINE
  5
A4FC1
330
1F
100
AcDbEntity
  8
AM_0
100
AcDbLine
 10
478.2442868981897
 20
508.0587662920216
 30
0.0
 11
488.9502408981898
 21
514.7633312920215
 31
0.0
  0
ARC
  5
A4FC2
330
1F
100
AcDbEntity
  8
AM_0
100
AcDbCircle
 10
475.7514128981897
 20
510.1553292920207
 30
0.0
 40
1.0
100
AcDbArc
 50
116.3293609999952
 51
212.056707999979
  0
ARC
  5
A4FC3
330
1F
100
AcDbEntity
  8
AM_0
100
AcDbCircle
 10
480.2047118981895
 20
508.6965212920213
 30
0.0
 40
2.0
100
AcDbArc
 50
212.056707999979
 51
302.056707999979
  0
ARC
  5
A4FC4
330
1F
100
AcDbEntity
  8
AM_0
100
AcDbCircle
 10
477.1827698981897
 20
509.7538122920223
 30
0.0
 40
2.0
100
AcDbArc
 50
212.056707999979
 51
302.056707999979
  0
LINE
  5
A4FC5
330
1F
100
AcDbEntity
  8
AM_0
100
AcDbLine
 10
503.8779428981897
 20
510.0839472920224
 30
0.0
 11
508.1223068981894
 21
509.4195282920217
 31
0.0
  0
ARC
  5
A4FC6
330
1F
100
AcDbEntity
  8
AM_0
100
AcDbCircle
 10
491.9006498981893
 20
505.8738452920215
 30
0.0
 40
12.0
100
AcDbArc
 50
72.03236800000815
 51
116.3293609999952
  0
LINE
  5
A4FC7
330
1F
100
AcDbEntity
  8
AM_0
100
AcDbLine
 10
475.3078818981898
 20
511.0515882920217
 30
0.0
 11
486.5782828981896
 21
516.6289562920201
 31
0.0
  0
ARC
  5
A4FC8
330
1F
100
AcDbEntity
  8
AM_0
100
AcDbCircle
 10
508.2769648981898
 20
510.4074962920212
 30
0.0
 40
1.0
100
AcDbArc
 50
261.1030450000007
 51
264.1058260000156
  0
LINE
  5
A4FC9
330
1F
100
AcDbEntity
  8
AM_0
100
AcDbLine
 10
504.2305908981898
 20
513.4774352920203
 30
0.0
 11
506.2833078981898
 21
512.4601392920221
 31
0.0
  0
ARC
  5
A4FCA
330
1F
100
AcDbEntity
  8
AM_0
100
AcDbCircle
 10
494.2578248981894
 20
506.2880992920208
 30
0.0
 40
10.0
100
AcDbArc
 50
68.22954400002338
 51
122.056707999979
  0
LINE
  5
A4FCB
330
1F
100
AcDbEntity
  8
AM_0
100
AcDbLine
 10
479.5883758981895
 20
513.4488902920211
 30
0.0
 11
479.7217708981897
 21
513.2358832920208
 31
0.0
  0
LINE
  5
A4FCC
330
1F
100
AcDbEntity
  8
AM_0
100
AcDbLine
 10
481.3534638981896
 20
514.0217432920207
 30
0.0
 11
481.3431308981894
 21
514.0382432920223
 31
0.0
  0
LINE
  5
A4FCD
330
1F
100
AcDbEntity
  8
AM_0
100
AcDbLine
 10
483.6417768981895
 20
515.4547912920215
 30
0.0
 11
483.7751718981894
 21
515.2417842920213
 31
0.0
  0
LINE
  5
A4FCE
330
1F
100
AcDbEntity
  8
AM_0
100
AcDbLine
 10
485.4068648981897
 20
516.0276442920213
 30
0.0
 11
485.3965318981895
 21
516.0441442920228
 31
0.0
  0
LINE
  5
A4FCF
330
1F
100
AcDbEntity
  8
AM_0
100
AcDbLine
 10
487.6951778981897
 20
517.4606922920202
 30
0.0
 11
487.8724888981897
 21
517.1775572920223
 31
0.0
  0
LINE
  5
A4FD0
330
1F
100
AcDbEntity
  8
AM_0
100
AcDbLine
 10
481.4168168981896
 20
514.2974002920227
 30
0.0
 11
483.3661198981895
 21
515.5181442920211
 31
0.0
  0
LINE
  5
A4FD1
330
1F
100
AcDbEntity
  8
AM_0
100
AcDbLine
 10
485.4702178981897
 20
516.3033002920228
 30
0.0
 11
487.4195208981896
 21
517.5240452920215
 31
0.0
  0
LINE
  5
A4FD2
330
1F
100
AcDbEntity
  8
AM_0
100
AcDbLine
 10
479.3127188981897
 20
513.5122432920207
 30
0.0
 11
477.3634158981899
 21
512.2914992920223
 31
0.0
  0
ARC
  5
A4FD3
330
1F
100
AcDbEntity
  8
AM_0
100
AcDbCircle
 10
477.4695678981897
 20
512.1219942920206
 30
0.0
 40
0.2
100
AcDbArc
 50
122.056707999979
 51
206.4977349999979
  0
ARC
  5
A4FD4
330
1F
100
AcDbEntity
  8
AM_0
100
AcDbCircle
 10
479.4188708981896
 20
513.3427382920226
 30
0.0
 40
0.2
100
AcDbArc
 50
32.056707999979
 51
122.056707999979
  0
ARC
  5
A4FD5
330
1F
100
AcDbEntity
  8
AM_0
100
AcDbCircle
 10
481.5229688981894
 20
514.127895292021
 30
0.0
 40
0.2
100
AcDbArc
 50
122.056707999979
 51
212.056707999979
  0
ARC
  5
A4FD6
330
1F
100
AcDbEntity
  8
AM_0
100
AcDbCircle
 10
483.4722718981898
 20
515.3486392920212
 30
0.0
 40
0.2
100
AcDbArc
 50
32.056707999979
 51
122.056707999979
  0
ARC
  5
A4FD7
330
1F
100
AcDbEntity
  8
AM_0
100
AcDbCircle
 10
485.5763698981895
 20
516.1337962920215
 30
0.0
 40
0.2
100
AcDbArc
 50
122.056707999979
 51
212.056707999979
  0
ARC
  5
A4FD8
330
1F
100
AcDbEntity
  8
AM_0
100
AcDbCircle
 10
487.5256728981899
 20
517.3545402920217
 30
0.0
 40
0.2
100
AcDbArc
 50
32.056707999979
 51
122.056707999979
  0
LINE
  5
A4FD9
330
1F
100
AcDbEntity
  8
AM_0
100
AcDbLine
 10
503.8779428981897
 20
510.0839472920224
 30
0.0
 11
486.7195188981895
 21
513.3663492920213
 31
0.0
  0
LINE
  5
A4FDA
330
1F
100
AcDbEntity
  8
AM_0
100
AcDbLine
 10
506.4478718981895
 20
512.187722292022
 30
0.0
 11
497.9667148981893
 21
515.5748712920203
 31
0.0
  0
LINE
  5
A4FDB
330
1F
100
AcDbEntity
  8
AM_0
100
AcDbLine
 10
503.4344538981895
 20
514.748720292021
 30
0.0
 11
495.6024058981897
 21
517.2886162920213
 31
0.0
  0
LINE
  5
A4FDC
330
1F
100
AcDbEntity
  8
AM_0
100
AcDbLine
 10
504.1804248981898
 20
515.9412132920215
 30
0.0
 11
507.6592858981898
 21
510.1823682920212
 31
0.0
  0
LINE
  5
A4FDD
330
1F
100
AcDbEntity
  8
AM_0
100
AcDbLine
 10
504.1804248981898
 20
515.9412132920215
 30
0.0
 11
549.5454898981897
 21
543.3457912920212
 31
0.0
  0
LINE
  5
A4FDE
330
1F
100
AcDbEntity
  8
AM_0
100
AcDbLine
 10
549.5454898981897
 20
543.3457912920212
 30
0.0
 11
552.1308278981896
 21
539.0660682920215
 31
0.0
  0
ARC
  5
A4FDF
330
1F
100
AcDbEntity
  8
AM_0
100
AcDbCircle
 10
516.2187318981896
 20
515.3530432920224
 30
0.0
 40
10.0
100
AcDbArc
 50
211.1357510000253
 51
290.3304600000209
  0
CIRCLE
  5
A4FE0
330
1F
100
AcDbEntity
  8
AM_0
100
AcDbCircle
 10
547.8132708981897
 20
531.7846762920225
 30
0.0
 40
4.0
  0
LINE
  5
A4FE1
330
1F
100
AcDbEntity
  8
AM_0
100
AcDbLine
 10
552.4299688981896
 20
531.9240952920218
 30
0.0
 11
550.0008798981894
 21
535.8525632920218
 31
0.0
  0
LINE
  5
A4FE2
330
1F
100
AcDbEntity
  8
AM_0
100
AcDbLine
 10
550.0008798981894
 20
535.8525632920218
 30
0.0
 11
545.3841828981899
 21
535.7131452920212
 31
0.0
  0
LINE
  5
A4FE3
330
1F
100
AcDbEntity
  8
AM_0
100
AcDbLine
 10
545.3841828981899
 20
535.7131452920212
 30
0.0
 11
543.1965738981894
 21
531.6452582920219
 31
0.0
  0
LINE
  5
A4FE4
330
1F
100
AcDbEntity
  8
AM_0
100
AcDbLine
 10
543.1965738981894
 20
531.6452582920219
 30
0.0
 11
545.6256618981897
 21
527.7167902920218
 31
0.0
  0
LINE
  5
A4FE5
330
1F
100
AcDbEntity
  8
AM_0
100
AcDbLine
 10
545.6256618981897
 20
527.7167902920218
 30
0.0
 11
550.2423598981895
 21
527.8562082920207
 31
0.0
  0
LINE
  5
A4FE6
330
1F
100
AcDbEntity
  8
AM_0
100
AcDbLine
 10
550.2423598981895
 20
527.8562082920207
 30
0.0
 11
552.4299688981896
 21
531.9240952920218
 31
0.0
  0
LINE
  5
A4FE7
330
1F
100
AcDbEntity
  8
AM_0
100
AcDbLine
 10
519.6930738981896
 20
505.976000292022
 30
0.0
 11
560.4622688981894
 21
521.0816282920213
 31
0.0
  0
CIRCLE
  5
A4FE8
330
1F
100
AcDbEntity
  8
AM_0
100
AcDbCircle
 10
567.5077918981896
 20
534.6859452920207
 30
0.0
 40
4.0
  0
CIRCLE
  5
A4FE9
330
1F
100
AcDbEntity
  8
AM_0
100
AcDbCircle
 10
579.6143428981895
 20
534.5763782920212
 30
0.0
 40
4.0
  0
LINE
  5
A4FEA
330
1F
100
AcDbEntity
  8
AM_0
100
AcDbLine
 10
552.1308278981896
 20
539.0660682920215
 30
0.0
 11
561.1415808981896
 21
539.5642432920204
 31
0.0
  0
CIRCLE
  5
A4FEB
330
1F
100
AcDbEntity
  8
AM_11
100
AcDbCircle
 10
559.7804787146528
 20
488.9999488758958
 30
0.0
 40
50.0
  0
ARC
  5
A4FEF
330
1F
100
AcDbEntity
  8
AM_3
370
     9
100
AcDbCircle
 10
567.0845839005405
 20
481.0000038176339
 30
0.0
 40
50.0
100
AcDbArc
 50
27.09867601806732
 51
147.4184213427222
  0
LINE
  5
A4FF1
330
1F
100
AcDbEntity
  8
AM_7
370
     9
100
AcDbLine
 10
629.4993683457305
 20
726.2499136556543
 30
0.0
 11
629.4993683457305
 21
703.751113655655
 31
0.0
1001
GENIUS_GENOBJ-N-CEN_13
1002
{
1000
OWNER
1000
GEN
1002
}
1001
GENIUS_GENODEF_13
1002
{
1000
HIER
1070
     0
1002
}
1002
{
1000
MANEDIT
1070
     0
1002
}
1002
{
1000
NOSEL
1070
     0
1002
}
1002
{
1000
BEHIND
1070
     0
1002
}
1002
{
1000
OTHER
1070
     0
1002
}
1002
{
1000
REACTOR
1002
}
1001
GENIUS_GENCEN_19
1002
{
1040
6.0
1002
}
  0
LINE
  5
A4FF2
330
1F
100
AcDbEntity
  8
AM_7
370
     9
100
AcDbLine
 10
618.249968345734
 20
715.00050577012
 30
0.0
 11
640.7487683457297
 21
715.0005165233306
 31
0.0
1001
GENIUS_GENODEF_13
1002
{
1000
HIER
1070
     0
1002
}
1002
{
1000
MANEDIT
1070
     0
1002
}
1002
{
1000
NOSEL
1070
     0
1002
}
1002
{
1000
BEHIND
1070
     0
1002
}
1002
{
1000
OTHER
1070
     0
1002
}
1002
{
1000
REACTOR
1002
}
1001
GENIUS_GENOBJ-N-CEN_13
1002
{
1000
OWNER
1000
GEN
1002
}
1001
GENIUS_GENCEN_19
1002
{
1040
6.0
1002
}
  0
LINE
  5
A4FF3
330
1F
100
AcDbEntity
  8
AM_7
370
     9
100
AcDbLine
 10
558.4993683457305
 20
726.2499136556543
 30
0.0
 11
558.4993683457305
 21
703.751113655655
 31
0.0
1001
GENIUS_GENOBJ-N-CEN_13
1002
{
1000
OWNER
1000
GEN
1002
}
1001
GENIUS_GENODEF_13
1002
{
1000
HIER
1070
     0
1002
}
1002
{
1000
MANEDIT
1070
     0
1002
}
1002
{
1000
NOSEL
1070
     0
1002
}
1002
{
1000
BEHIND
1070
     0
1002
}
1002
{
1000
OTHER
1070
     0
1002
}
1002
{
1000
REACTOR
1002
}
1001
GENIUS_GENCEN_19
1002
{
1040
6.0
1002
}
  0
LINE
  5
A4FF4
330
1F
100
AcDbEntity
  8
AM_7
370
     9
100
AcDbLine
 10
547.249968345734
 20
715.00050577012
 30
0.0
 11
569.7487683457297
 21
715.0005165233306
 31
0.0
1001
GENIUS_GENODEF_13
1002
{
1000
HIER
1070
     0
1002
}
1002
{
1000
MANEDIT
1070
     0
1002
}
1002
{
1000
NOSEL
1070
     0
1002
}
1002
{
1000
BEHIND
1070
     0
1002
}
1002
{
1000
OTHER
1070
     0
1002
}
1002
{
1000
REACTOR
1002
}
1001
GENIUS_GENOBJ-N-CEN_13
1002
{
1000
OWNER
1000
GEN
1002
}
1001
GENIUS_GENCEN_19
1002
{
1040
6.0
1002
}
  0
LINE
  5
A4FF5
330
1F
100
AcDbEntity
  8
AM_7
370
     9
100
AcDbLine
 10
629.4993683457305
 20
655.2499136556562
 30
0.0
 11
629.4993683457305
 21
632.751113655655
 31
0.0
1001
GENIUS_GENOBJ-N-CEN_13
1002
{
1000
OWNER
1000
GEN
1002
}
1001
GENIUS_GENODEF_13
1002
{
1000
HIER
1070
     0
1002
}
1002
{
1000
MANEDIT
1070
     0
1002
}
1002
{
1000
NOSEL
1070
     0
1002
}
1002
{
1000
BEHIND
1070
     0
1002
}
1002
{
1000
OTHER
1070
     0
1002
}
1002
{
1000
REACTOR
1002
}
1001
GENIUS_GENCEN_19
1002
{
1040
6.0
1002
}
  0
LINE
  5
A4FF6
330
1F
100
AcDbEntity
  8
AM_7
370
     9
100
AcDbLine
 10
618.249968345734
 20
644.00050577012
 30
0.0
 11
640.7487683457297
 21
644.0005165233306
 31
0.0
1001
GENIUS_GENODEF_13
1002
{
1000
HIER
1070
     0
1002
}
1002
{
1000
MANEDIT
1070
     0
1002
}
1002
{
1000
NOSEL
1070
     0
1002
}
1002
{
1000
BEHIND
1070
     0
1002
}
1002
{
1000
OTHER
1070
     0
1002
}
1002
{
1000
REACTOR
1002
}
1001
GENIUS_GENOBJ-N-CEN_13
1002
{
1000
OWNER
1000
GEN
1002
}
1001
GENIUS_GENCEN_19
1002
{
1040
6.0
1002
}
  0
LINE
  5
A4FF7
330
1F
100
AcDbEntity
  8
AM_7
370
     9
100
AcDbLine
 10
558.4993683457305
 20
655.2499136556562
 30
0.0
 11
558.4993683457305
 21
632.751113655655
 31
0.0
1001
GENIUS_GENOBJ-N-CEN_13
1002
{
1000
OWNER
1000
GEN
1002
}
1001
GENIUS_GENODEF_13
1002
{
1000
HIER
1070
     0
1002
}
1002
{
1000
MANEDIT
1070
     0
1002
}
1002
{
1000
NOSEL
1070
     0
1002
}
1002
{
1000
BEHIND
1070
     0
1002
}
1002
{
1000
OTHER
1070
     0
1002
}
1002
{
1000
REACTOR
1002
}
1001
GENIUS_GENCEN_19
1002
{
1040
6.0
1002
}
  0
LINE
  5
A4FF8
330
1F
100
AcDbEntity
  8
AM_7
370
     9
100
AcDbLine
 10
547.249968345734
 20
644.00050577012
 30
0.0
 11
569.7487683457297
 21
644.0005165233306
 31
0.0
1001
GENIUS_GENODEF_13
1002
{
1000
HIER
1070
     0
1002
}
1002
{
1000
MANEDIT
1070
     0
1002
}
1002
{
1000
NOSEL
1070
     0
1002
}
1002
{
1000
BEHIND
1070
     0
1002
}
1002
{
1000
OTHER
1070
     0
1002
}
1002
{
1000
REACTOR
1002
}
1001
GENIUS_GENOBJ-N-CEN_13
1002
{
1000
OWNER
1000
GEN
1002
}
1001
GENIUS_GENCEN_19
1002
{
1040
6.0
1002
}
  0
DIMENSION
  5
A5014
330
1F
100
AcDbEntity
  8
AM_5
100
AcDbDimension
  2
*D14
 10
350.7882605976611
 20
711.2881517757768
 30
0.0
 11
379.1331356136368
 21
735.0
 31
0.0
 70
   163
  1
P
 71
     5
 42
10.49879999999916
  3
SYS$3
100
AcDbDiametricDimension
 15
358.2119852850626
 25
718.7119724367066
 35
0.0
 40
0.0
1001
ACAD
1000
DSTYLE
1002
{
1070
    40
1040
2.0
1070
    41
1040
1.0
1070
   172
1070
     1
1070
   173
1070
     1
1070
   342
1005
0
1070
   343
1005
6C4
1070
   344
1005
6C4
1002
}
  0
LINE
  5
A5034
330
1F
100
AcDbEntity
  8
AM_7
370
     9
100
AcDbLine
 10
468.7516432803035
 20
679.4999931244969
 30
0.0
 11
647.4999818754986
 21
679.5001068755041
 31
0.0
1001
GENIUS_GENOBJ-N-CEN_13
1002
{
1000
OWNER
1000
GEN
1002
}
1001
GENIUS_GENODEF_13
1002
{
1000
HIER
1070
     0
1002
}
1002
{
1000
MANEDIT
1070
     0
1002
}
1002
{
1000
NOSEL
1070
     0
1002
}
1002
{
1000
BEHIND
1070
     0
1002
}
1002
{
1000
OTHER
1070
     0
1002
}
1002
{
1000
REACTOR
1002
}
1001
GENIUS_GENCEN_19
1002
{
1040
12.0
1002
}
  0
LINE
  5
A5035
330
1F
100
AcDbEntity
  8
AM_7
370
     9
100
AcDbLine
 10
594.0000000000004
 20
732.9999749999951
 30
0.0
 11
594.0001137510075
 21
626.0001250000059
 31
0.0
1001
GENIUS_GENOBJ-N-CEN_13
1002
{
1000
OWNER
1000
GEN
1002
}
1001
GENIUS_GENODEF_13
1002
{
1000
HIER
1070
     0
1002
}
1002
{
1000
MANEDIT
1070
     0
1002
}
1002
{
1000
NOSEL
1070
     0
1002
}
1002
{
1000
BEHIND
1070
     0
1002
}
1002
{
1000
OTHER
1070
     0
1002
}
1002
{
1000
REACTOR
1002
}
1001
GENIUS_GENCEN_19
1002
{
1040
12.0
1002
}
  0
DIMENSION
  5
A5036
330
1F
100
AcDbEntity
  8
AM_5
100
AcDbDimension
  2
*D16
 10
661.4997022803036
 20
715.0000399739187
 30
0.0
 11
655.2997022803034
 21
679.5000399739189
 31
0.0
 70
    32
  1
Y
 71
     5
 42
71.0
  3
SYS$0
100
AcDbAlignedDimension
 13
640.7494229413619
 23
644.0000399739187
 33
0.0
 14
640.7494229413619
 24
715.0000399739187
 34
0.0
 50
90.0
100
AcDbRotatedDimension
1001
ACAD
1000
DSTYLE
1002
{
1070
    40
1040
2.0
1002
}
  0
DIMENSION
  5
A5037
330
1F
100
AcDbEntity
  8
AM_5
100
AcDbDimension
  2
*D17
 10
677.4997022803035
 20
726.9996750000005
 30
0.0
 11
671.2997022803034
 21
679.4998250000007
 31
0.0
 70
    32
  1
B
 71
     5
 42
94.99969999999985
  3
SYS$0
100
AcDbAlignedDimension
 13
629.4999022803031
 23
631.9999750000006
 33
0.0
 14
629.4999022803031
 24
726.9996750000005
 34
0.0
 50
90.0
100
AcDbRotatedDimension
1001
ACAD
1000
DSTYLE
1002
{
1070
    40
1040
2.0
1002
}
  0
DIMENSION
  5
A5038
330
1F
100
AcDbEntity
  8
AM_5
100
AcDbDimension
  2
*D18
 10
629.5000229413626
 20
742.9999750000006
 30
0.0
 11
594.0000229413626
 21
749.1999750000006
 31
0.0
 70
    32
  1
X
 71
     5
 42
71.0
  3
SYS$0
100
AcDbAlignedDimension
 13
558.5000229413626
 23
726.249437106243
 33
0.0
 14
629.5000229413626
 24
726.249437106243
 34
0.0
100
AcDbRotatedDimension
1001
ACAD
1000
DSTYLE
1002
{
1070
    40
1040
2.0
1002
}
  0
DIMENSION
  5
A5039
330
1F
100
AcDbEntity
  8
AM_5
100
AcDbDimension
  2
*D19
 10
641.4997022803031
 20
758.9999750000006
 30
0.0
 11
593.9996522803032
 21
765.1999750000006
 31
0.0
 70
    32
  1
A
 71
     5
 42
95.00009999999974
  3
SYS$0
100
AcDbAlignedDimension
 13
546.4996022803034
 23
714.9994750000005
 33
0.0
 14
641.4997022803031
 24
714.9998750000004
 34
0.0
100
AcDbRotatedDimension
1001
ACAD
1000
DSTYLE
1002
{
1070
    40
1040
2.0
1002
}
  0
DIMENSION
  5
A503A
330
1F
100
AcDbEntity
  8
AM_5
100
AcDbDimension
  2
*D15
 10
625.7881605976615
 20
711.2881267757776
 30
0.0
 11
654.1330356136377
 21
734.9999750000014
 31
0.0
 70
   163
  1
P
 71
     5
 42
10.4987999999995
  3
SYS$3
100
AcDbDiametricDimension
 15
633.2118852850635
 25
718.7119474367074
 35
0.0
 40
0.0
1001
ACAD
1000
DSTYLE
1002
{
1070
    40
1040
2.0
1070
    41
1040
1.0
1070
   172
1070
     1
1070
   173
1070
     1
1070
   342
1005
0
1070
   343
1005
6C4
1070
   344
1005
6C4
1002
}
  0
LWPOLYLINE
  5
A50A4
330
1F
100
AcDbEntity
  8
AM_0
100
AcDbPolyline
 90
        4
 70
     1
 43
0.0
 10
574.0001143066913
 20
378.999506315567
 10
614.0001143066913
 20
378.999506315567
 10
614.0001143066913
 20
366.9995063155671
 10
574.0001143066913
 20
366.9995063155671
1001
GENIUS_GENREC_14
1002
{
1000
PYDIR
1011
574.0001143066913
1021
366.9995063155671
1031
0.0
1002
}
1002
{
1000
PXDIR
1011
614.0001143066913
1021
378.999506315567
1031
0.0
1002
}
1002
{
1000
PORI
1011
574.0001143066913
1021
378.999506315567
1031
0.0
1002
}
1002
{
1000
PINS
1011
574.0001143066913
1021
378.999506315567
1031
0.0
1002
}
1002
{
1000
PINS2
1011
614.0001143066913
1021
366.9995063155671
1031
0.0
1002
}
1002
{
1000
C
1070
     1
1002
}
1001
GENIUS_GENODEF_13
1002
{
1000
HIER
1070
     0
1002
}
1002
{
1000
MANEDIT
1070
     0
1002
}
1002
{
1000
NOSEL
1070
     0
1002
}
1002
{
1000
BEHIND
1070
     0
1002
}
1002
{
1000
OTHER
1070
     0
1002
}
1002
{
1000
REACTOR
1002
}
1001
GENIUS_GENOBJ-N-REC_13
1002
{
1000
OWNER
1000
GEN
1002
}
  0
MTEXT
  5
A50A5
330
1F
100
AcDbEntity
  8
AM_6
100
AcDbMText
 10
594.0001143066913
 20
372.999506315567
 30
0.0
 40
6.4
 41
40.0
 71
     5
 72
     5
  1
SAJB
 73
     1
 44
1.0
1001
ACAD
1000
MTEXTBEGIN
1070
    73
1070
     1
1070
    44
1040
1.0
1070
    74
1070
     0
1000
MTEXTEND
  0
LINE
  5
A50A6
330
1F
100
AcDbEntity
  8
AM_7
370
     9
100
AcDbLine
 10
559.7804784530223
 20
488.9994593145488
 30
0.0
 11
559.7804788612541
 21
432.9994593145488
 31
0.0
  0
LINE
  5
A50A7
330
1F
100
AcDbEntity
  8
AM_7
370
     9
100
AcDbLine
 10
567.0845915806451
 20
424.9992030703956
 30
0.0
 11
567.0845915806451
 21
536.9992030703956
 31
0.0
1001
GENIUS_GENODEF_13
1002
{
1000
HIER
1070
     0
1002
}
1002
{
1000
MANEDIT
1070
     0
1002
}
1002
{
1000
NOSEL
1070
     0
1002
}
1002
{
1000
BEHIND
1070
     0
1002
}
1002
{
1000
OTHER
1070
     0
1002
}
1002
{
1000
REACTOR
1002
}
1001
GENIUS_GENOBJ-N-CEN_13
1002
{
1000
OWNER
1000
GEN
1002
}
1001
GENIUS_GENCEN_19
1002
{
1040
6.0
1002
}
  0
LINE
  5
A50A8
330
1F
100
AcDbEntity
  8
AM_7
370
     9
100
AcDbLine
 10
511.0842724530223
 20
480.9995063145484
 30
0.0
 11
623.0842724530223
 21
480.9995063145484
 31
0.0
1001
GENIUS_GENODEF_13
1002
{
1000
HIER
1070
     0
1002
}
1002
{
1000
MANEDIT
1070
     0
1002
}
1002
{
1000
NOSEL
1070
     0
1002
}
1002
{
1000
BEHIND
1070
     0
1002
}
1002
{
1000
OTHER
1070
     0
1002
}
1002
{
1000
REACTOR
1002
}
1001
GENIUS_GENOBJ-N-CEN_13
1002
{
1000
OWNER
1000
GEN
1002
}
1001
GENIUS_GENCEN_19
1002
{
1040
6.0
1002
}
  0
DIMENSION
  5
A50A9
330
1F
100
AcDbEntity
  8
AM_5
100
AcDbDimension
  2
*D22
 10
677.5006894530227
 20
583.9994593145483
 30
0.0
 11
671.3006894530225
 21
507.4994828150577
 31
0.0
 70
    32
  1
H1
 71
     5
 42
152.9999529989813
  3
SYS$0
100
AcDbAlignedDimension
 13
567.0845915806451
 23
430.999506315567
 33
0.0
 14
641.5006894530226
 24
583.9994593145483
 34
0.0
 50
90.0
100
AcDbRotatedDimension
1001
ACAD
1000
DSTYLE
1002
{
1070
    40
1040
2.0
1002
}
  0
DIMENSION
  5
A50AA
330
1F
100
AcDbEntity
  8
AM_5
100
AcDbDimension
  2
*D23
 10
661.5006894530226
 20
583.9994593145483
 30
0.0
 11
655.3006894530225
 21
511.4994591064867
 31
0.0
 70
    32
  1
H2
 71
     5
 42
145.0000004161234
  3
SYS$0
100
AcDbAlignedDimension
 13
559.780478817515
 23
438.999458898425
 33
0.0
 14
641.5006894530226
 24
583.9994593145483
 34
0.0
 50
90.0
100
AcDbRotatedDimension
1001
ACAD
1000
DSTYLE
1002
{
1070
    40
1040
2.0
1002
}
  0
DIMENSION
  5
A50AB
330
1F
100
AcDbEntity
  8
AM_5
100
AcDbDimension
  2
*D20
 10
593.9995894530222
 20
410.999506315567
 30
0.0
 11
580.5420905168337
 21
417.1995063155669
 31
0.0
 70
    32
  1
E1
 71
     5
 42
26.91499787237717
  3
SYS$0
100
AcDbAlignedDimension
 13
567.0845915806451
 23
424.999506315567
 33
0.0
 14
593.9995894530222
 24
480.9995063145484
 34
0.0
100
AcDbRotatedDimension
1001
ACAD
1000
DSTYLE
1002
{
1070
    40
1040
2.0
1002
}
  0
DIMENSION
  5
A50AC
330
1F
100
AcDbEntity
  8
AM_5
100
AcDbDimension
  2
*D21
 10
601.0546740298544
 20
517.6875400136838
 30
0.0
 11
512.4509391196887
 21
426.9995063202062
 31
0.0
 70
   163
  1
D
 71
     5
 42
100.0000000000025
  3
SYS$3
100
AcDbDiametricDimension
 15
533.1138708761904
 25
444.311472615413
 35
0.0
 40
0.0
1001
ACAD
1000
DSTYLE
1002
{
1070
    40
1040
2.0
1070
    41
1040
1.0
1070
   172
1070
     1
1070
   173
1070
     1
1070
   342
1005
0
1070
   343
1005
6C4
1070
   344
1005
6C4
1002
}
  0
LINE
  5
A5101
330
1F
100
AcDbEntity
  8
AM_7
370
     9
100
AcDbLine
 10
593.9994859569999
 20
590.0000140669753
 30
0.0
 11
593.9994859569999
 21
481.0000610669753
 31
0.0
1001
GENIUS_GENOBJ-N-CEN_13
1002
{
1000
OWNER
1000
GEN
1002
}
1001
GENIUS_GENODEF_13
1002
{
1000
HIER
1070
     0
1002
}
1002
{
1000
MANEDIT
1070
     0
1002
}
1002
{
1000
NOSEL
1070
     0
1002
}
1002
{
1000
BEHIND
1070
     0
1002
}
1002
{
1000
OTHER
1070
     0
1002
}
1002
{
1000
REACTOR
1002
}
1001
GENIUS_GENCEN_19
1002
{
1040
6.0
1002
}
  0
MTEXT
  5
A5127
330
1F
100
AcDbEntity
  8
AM_6
100
AcDbMText
 10
594.0001143066914
 20
360.999506315567
 30
0.0
 40
6.4
 41
40.0
 71
     5
 72
     5
  1
（ストッパー付）
 73
     1
 44
1.0
1001
ACAD
1000
MTEXTBEGIN
1070
    73
1070
     1
1070
    44
1040
1.0
1070
    74
1070
     0
1000
MTEXTEND
  0
ARC
  5
A55B7
330
1F
100
AcDbEntity
  8
AM_0
100
AcDbCircle
 10
883.8997022803033
 20
561.3619492920197
 30
0.0
 40
3.6004
100
AcDbArc
 50
0.0
 51
90.0
  0
ARC
  5
A55B8
330
1F
100
AcDbEntity
  8
AM_0
100
AcDbCircle
 10
821.4991022803033
 20
577.9998492920213
 30
0.0
 40
2.0003
100
AcDbArc
 50
0.0
 51
90.0
  0
LINE
  5
A55B9
330
1F
100
AcDbEntity
  8
AM_0
100
AcDbLine
 10
823.4994022803034
 20
577.9998492920213
 30
0.0
 11
823.4994022803034
 21
571.9617492920197
 31
0.0
  0
ARC
  5
A55BA
330
1F
100
AcDbEntity
  8
AM_0
100
AcDbCircle
 10
830.4996022803035
 20
571.9617492920197
 30
0.0
 40
7.0002
100
AcDbArc
 50
180.0
 51
270.0
  0
ARC
  5
A55BB
330
1F
100
AcDbEntity
  8
AM_0
100
AcDbCircle
 10
893.4984022803037
 20
577.9998492920213
 30
0.0
 40
2.0
100
AcDbArc
 50
90.0
 51
180.0
  0
LINE
  5
A55BC
330
1F
100
AcDbEntity
  8
AM_0
100
AcDbLine
 10
891.4986022803036
 20
577.9998492920213
 30
0.0
 11
891.4986022803036
 21
571.9616492920204
 31
0.0
  0
ARC
  5
A55BD
330
1F
100
AcDbEntity
  8
AM_0
100
AcDbCircle
 10
884.4987022803033
 20
571.9616492920204
 30
0.0
 40
6.9999
100
AcDbArc
 50
270.0
 51
0.0009999999964733
  0
LINE
  5
A55BE
330
1F
100
AcDbEntity
  8
AM_0
100
AcDbLine
 10
909.4995022803036
 20
583.9999492920205
 30
0.0
 11
805.4993022803037
 21
583.9999492920205
 31
0.0
  0
LINE
  5
A55BF
330
1F
100
AcDbEntity
  8
AM_0
100
AcDbLine
 10
909.4995022803036
 20
583.9999492920205
 30
0.0
 11
909.4995022803036
 21
579.9998492920212
 31
0.0
  0
LINE
  5
A55C0
330
1F
100
AcDbEntity
  8
AM_0
100
AcDbLine
 10
805.4993022803037
 20
579.9998492920212
 30
0.0
 11
805.4993022803037
 21
583.9999492920205
 31
0.0
  0
LINE
  5
A55C1
330
1F
100
AcDbEntity
  8
AM_0
100
AcDbLine
 10
805.4993022803037
 20
579.9998492920212
 30
0.0
 11
909.4995022803036
 21
579.9998492920212
 31
0.0
  0
LINE
  5
A55C2
330
1F
100
AcDbEntity
  8
AM_0
100
AcDbLine
 10
883.9654302803037
 20
564.9617492920197
 30
0.0
 11
828.0992022803033
 21
564.9617492920197
 31
0.0
  0
CIRCLE
  5
A55C3
330
1F
100
AcDbEntity
  8
AM_0
100
AcDbCircle
 10
853.4995022803036
 20
679.5001568755046
 30
0.0
 40
30.0002
  0
LINE
  5
A55C4
330
1F
100
AcDbEntity
  8
AM_0
100
AcDbLine
 10
851.4999022803035
 20
719.5001568755047
 30
0.0
 11
815.6338022803037
 21
713.8540568755029
 31
0.0
  0
LINE
  5
A55C5
330
1F
100
AcDbEntity
  8
AM_0
100
AcDbLine
 10
805.4997022803036
 20
702.0000568755035
 30
0.0
 11
805.4997022803036
 21
657.0001568755047
 31
0.0
  0
ARC
  5
A55C6
330
1F
100
AcDbEntity
  8
AM_0
100
AcDbCircle
 10
817.4998022803038
 20
702.0000568755035
 30
0.0
 40
12.0
100
AcDbArc
 50
98.9456999999998
 51
180.0
  0
CIRCLE
  5
A55C7
330
1F
100
AcDbEntity
  8
AM_0
100
AcDbCircle
 10
897.4999022803036
 20
702.0000568755035
 30
0.0
 40
5.499799999999999
  0
LINE
  5
A55C8
330
1F
100
AcDbEntity
  8
AM_0
100
AcDbLine
 10
863.4998022803038
 20
719.5001568755047
 30
0.0
 11
899.3659022803035
 21
713.8540568755029
 31
0.0
  0
LINE
  5
A55C9
330
1F
100
AcDbEntity
  8
AM_0
100
AcDbLine
 10
909.4998022803038
 20
702.0000568755035
 30
0.0
 11
909.4998022803038
 21
657.0001568755047
 31
0.0
  0
ARC
  5
A55CA
330
1F
100
AcDbEntity
  8
AM_0
100
AcDbCircle
 10
897.4998022803038
 20
702.0000568755035
 30
0.0
 40
12.0
100
AcDbArc
 50
0.0
 51
81.05360000000498
  0
LINE
  5
A55CB
330
1F
100
AcDbEntity
  8
AM_0
100
AcDbLine
 10
863.4998022803038
 20
719.5001568755047
 30
0.0
 11
851.4999022803035
 21
719.5001568755047
 31
0.0
  0
LINE
  5
A55CC
330
1F
100
AcDbEntity
  8
AM_0
100
AcDbLine
 10
851.4999022803035
 20
639.5000568755035
 30
0.0
 11
815.6338022803037
 21
645.1461568755035
 31
0.0
  0
ARC
  5
A55CD
330
1F
100
AcDbEntity
  8
AM_0
100
AcDbCircle
 10
817.4998022803038
 20
657.0001568755047
 30
0.0
 40
12.0001
100
AcDbArc
 50
180.0
 51
261.0543000000002
  0
LINE
  5
A55CE
330
1F
100
AcDbEntity
  8
AM_0
100
AcDbLine
 10
863.4998022803038
 20
639.5000568755035
 30
0.0
 11
899.3659022803035
 21
645.1461568755035
 31
0.0
  0
ARC
  5
A55CF
330
1F
100
AcDbEntity
  8
AM_0
100
AcDbCircle
 10
897.4998022803038
 20
657.0001568755047
 30
0.0
 40
12.0
100
AcDbArc
 50
278.946399999995
 51
0.0
  0
LINE
  5
A55D0
330
1F
100
AcDbEntity
  8
AM_0
100
AcDbLine
 10
863.4998022803038
 20
639.5000568755035
 30
0.0
 11
851.4999022803035
 21
639.5000568755035
 31
0.0
  0
CIRCLE
  5
A55D1
330
1F
100
AcDbEntity
  8
AM_0
100
AcDbCircle
 10
897.4999022803036
 20
656.9999568755043
 30
0.0
 40
5.499799999999999
  0
CIRCLE
  5
A55D2
330
1F
100
AcDbEntity
  8
AM_0
100
AcDbCircle
 10
817.4993022803036
 20
656.9999568755043
 30
0.0
 40
5.499699999999999
  0
CIRCLE
  5
A55D3
330
1F
100
AcDbEntity
  8
AM_0
100
AcDbCircle
 10
817.4993022803036
 20
702.0000568755035
 30
0.0
 40
5.499699999999999
  0
CIRCLE
  5
A55D4
330
1F
100
AcDbEntity
  8
AM_0
100
AcDbCircle
 10
849.4994022803034
 20
679.4999568755042
 30
0.0
 40
14.4001
  0
CIRCLE
  5
A55D5
330
1F
100
AcDbEntity
  8
AM_0
100
AcDbCircle
 10
849.4994022803034
 20
679.4999568755042
 30
0.0
 40
15.5001
  0
CIRCLE
  5
A55D6
330
1F
100
AcDbEntity
  8
AM_0
100
AcDbCircle
 10
849.4994022803034
 20
679.4999568755042
 30
0.0
 40
22.2502
  0
LINE
  5
A55D7
330
1F
100
AcDbEntity
  8
AM_7
370
     9
100
AcDbLine
 10
799.4997022803036
 20
679.5001068755041
 30
0.0
 11
915.499802286606
 21
679.4998318755033
 31
0.0
  0
LINE
  5
A55D8
330
1F
100
AcDbEntity
  8
AM_7
370
     9
100
AcDbLine
 10
857.4999022803035
 20
725.5001568755046
 30
0.0
 11
857.4999022803035
 21
633.5000568755035
 31
0.0
  0
LINE
  5
A55D9
330
1F
100
AcDbEntity
  8
AM_7
370
     9
100
AcDbLine
 10
853.4992022803034
 20
480.9999492920187
 30
0.0
 11
853.4992022803034
 21
589.9999492920206
 31
0.0
  0
LINE
  5
A55F3
330
1F
100
AcDbEntity
  8
AM_7
370
     9
100
AcDbLine
 10
853.4999022803035
 20
725.5001568755046
 30
0.0
 11
853.4999022803035
 21
633.5000568755035
 31
0.0
  0
ARC
  5
A55F4
330
1F
100
AcDbEntity
  8
AM_0
100
AcDbCircle
 10
828.0992022803033
 20
559.3617492920211
 30
0.0
 40
5.599999999999999
100
AcDbArc
 50
90.0
 51
180.6848199999778
  0
CIRCLE
  5
A55F5
330
1F
100
AcDbEntity
  8
AM_0
100
AcDbCircle
 10
826.5846792803035
 20
481.0002052920181
 30
0.0
 40
8.749599999999999
  0
ARC
  5
A55F6
330
1F
100
AcDbEntity
  8
AM_0
100
AcDbCircle
 10
663.8539552803035
 20
536.0741752920212
 30
0.0
 40
156.8272
100
AcDbArc
 50
341.6277149999947
 51
2.892715000014914
  0
ARC
  5
A55F7
330
1F
100
AcDbEntity
  8
AM_0
100
AcDbCircle
 10
722.6787112803036
 20
619.9538782920217
 30
0.0
 40
188.4807
100
AcDbArc
 50
307.0721150000137
 51
332.6262149999918
  0
ARC
  5
A55F8
330
1F
100
AcDbEntity
  8
AM_0
100
AcDbCircle
 10
826.5849002803033
 20
480.99951229202
 30
0.0
 40
14.9999
100
AcDbArc
 50
157.8958150000106
 51
310.3590149999739
  0
ARC
  5
A55F9
330
1F
100
AcDbEntity
  8
AM_0
100
AcDbCircle
 10
838.1512102803036
 20
502.0290552920205
 30
0.0
 40
10.0
100
AcDbArc
 50
168.9396150000134
 51
314.4019150000131
  0
ARC
  5
A55FA
330
1F
100
AcDbEntity
  8
AM_0
100
AcDbCircle
 10
722.6787112803036
 20
619.9538782920217
 30
0.0
 40
175.0458
100
AcDbArc
 50
314.3982149999812
 51
325.3194150000169
  0
LINE
  5
A55FB
330
1F
100
AcDbEntity
  8
AM_0
100
AcDbLine
 10
826.0624732803034
 20
515.5989052920204
 30
0.0
 11
819.1053982803031
 21
513.8992702920213
 31
0.0
  0
LINE
  5
A55FC
330
1F
100
AcDbEntity
  8
AM_0
100
AcDbLine
 10
868.9651572803036
 20
521.9627812920198
 30
0.0
 11
886.1682442803035
 21
526.1659752920214
 31
0.0
  0
ARC
  5
A55FD
330
1F
100
AcDbEntity
  8
AM_0
100
AcDbCircle
 10
663.8539552803035
 20
536.0741752920212
 30
0.0
 40
167.5911
100
AcDbArc
 50
348.9482150000109
 51
351.8215149999991
  0
ARC
  5
A55FE
330
1F
100
AcDbEntity
  8
AM_0
100
AcDbCircle
 10
826.7744482803037
 20
512.6846652920203
 30
0.0
 40
3.000399999999999
100
AcDbArc
 50
351.3456149999974
 51
103.7278149999816
  0
ARC
  5
A55FF
330
1F
100
AcDbEntity
  8
AM_0
100
AcDbCircle
 10
869.9145432803033
 20
518.0775642920207
 30
0.0
 40
3.9996
100
AcDbArc
 50
103.7323149999819
 51
145.3288149999807
  0
LINE
  5
A5600
330
1F
100
AcDbEntity
  8
AM_0
100
AcDbLine
 10
812.7492042803032
 20
541.8255652920207
 30
0.0
 11
812.8972242803039
 21
544.4216142920204
 31
0.0
  0
LINE
  5
A5601
330
1F
100
AcDbEntity
  8
AM_0
100
AcDbLine
 10
820.8305882803033
 20
543.9991462920197
 30
0.0
 11
846.4091132803032
 21
547.0164072920206
 31
0.0
  0
LINE
  5
A5602
330
1F
100
AcDbEntity
  8
AM_0
100
AcDbLine
 10
820.4813472803035
 20
543.9886022920209
 30
0.0
 11
812.8972242803039
 21
544.4216142920204
 31
0.0
  0
LINE
  5
A5603
330
1F
100
AcDbEntity
  8
AM_0
100
AcDbLine
 10
820.3333152803034
 20
541.3929522920198
 30
0.0
 11
812.7492042803032
 21
541.8255652920207
 31
0.0
  0
ARC
  5
A5604
330
1F
100
AcDbEntity
  8
AM_0
100
AcDbCircle
 10
820.5954622803037
 20
545.9845552920206
 30
0.0
 40
1.9991
100
AcDbArc
 50
266.7280149999886
 51
276.7535150000158
  0
ARC
  5
A5605
330
1F
100
AcDbEntity
  8
AM_0
100
AcDbCircle
 10
820.5954622803037
 20
545.9845552920206
 30
0.0
 40
4.599
100
AcDbArc
 50
266.7330149999959
 51
269.9467440000045
  0
ARC
  5
A5606
330
1F
100
AcDbEntity
  8
AM_0
100
AcDbCircle
 10
849.0370612803035
 20
530.064954292021
 30
0.0
 40
1.9999
100
AcDbArc
 50
165.3351149999784
 51
345.3434150000065
  0
LINE
  5
A5607
330
1F
100
AcDbEntity
  8
AM_0
100
AcDbLine
 10
825.0998022803033
 20
553.1382492920211
 30
0.0
 11
822.4997022803036
 21
553.1382492920211
 31
0.0
  0
LINE
  5
A5608
330
1F
100
AcDbEntity
  8
AM_0
100
AcDbLine
 10
822.4997022803036
 20
553.1382492920211
 30
0.0
 11
822.4997022803036
 21
559.4365812920195
 31
0.0
  0
LINE
  5
A5609
330
1F
100
AcDbEntity
  8
AM_0
100
AcDbLine
 10
886.6167712803035
 20
551.7605712920203
 30
0.0
 11
885.0521452803036
 21
551.5762942920201
 31
0.0
  0
LINE
  5
A560A
330
1F
100
AcDbEntity
  8
AM_0
100
AcDbLine
 10
886.9210062803036
 20
549.1782182920205
 30
0.0
 11
885.8543612803032
 21
549.0524352920211
 31
0.0
  0
LINE
  5
A560B
330
1F
100
AcDbEntity
  8
AM_0
100
AcDbLine
 10
850.9720092803036
 20
529.55889629202
 30
0.0
 11
854.6035702803036
 21
543.4381722920197
 31
0.0
  0
LINE
  5
A560C
330
1F
100
AcDbEntity
  8
AM_0
100
AcDbLine
 10
847.1022992803037
 20
530.5712942920208
 30
0.0
 11
850.9142282803036
 21
545.1408602920209
 31
0.0
  0
LINE
  5
A560D
330
1F
100
AcDbEntity
  8
AM_0
100
AcDbLine
 10
854.3985842803035
 20
542.6542352920196
 30
0.0
 11
854.3985782803037
 21
542.6542152920201
 31
0.0
  0
ARC
  5
A560E
330
1F
100
AcDbEntity
  8
AM_7
370
     9
100
AcDbCircle
 10
653.7269462803033
 20
589.7696062920195
 30
0.0
 40
204.2318
100
AcDbArc
 50
327.8201149999816
 51
347.6770149999909
  0
ARC
  5
A560F
330
1F
100
AcDbEntity
  8
AM_0
100
AcDbCircle
 10
826.5843862803034
 20
480.99999629202
 30
0.0
 40
50.0
100
AcDbArc
 50
96.88949099998453
 51
27.09831200002799
  0
ARC
  5
A5613
330
1F
100
AcDbEntity
  8
AM_0
100
AcDbCircle
 10
826.5843862803034
 20
480.99999629202
 30
0.0
 40
17.5
100
AcDbArc
 50
131.658433999977
 51
339.4213850000188
  0
ARC
  5
A5614
330
1F
100
AcDbEntity
  8
AM_7
370
     9
100
AcDbCircle
 10
881.4985022803034
 20
538.4695492920209
 30
0.0
 40
79.487796
100
AcDbArc
 50
218.4882890000175
 51
226.3028890000346
  0
CIRCLE
  5
A5615
330
1F
100
AcDbEntity
  8
AM_0
100
AcDbCircle
 10
881.4985022803034
 20
538.4695492920209
 30
0.0
 40
6.5
  0
LINE
  5
A5616
330
1F
100
AcDbEntity
  8
AM_0
100
AcDbLine
 10
874.9984022803037
 20
542.2224492920204
 30
0.0
 11
874.9984022803037
 21
534.7165492920203
 31
0.0
  0
LINE
  5
A5617
330
1F
100
AcDbEntity
  8
AM_0
100
AcDbLine
 10
874.9984022803037
 20
534.7165492920203
 30
0.0
 11
881.4985022803034
 21
530.9645492920199
 31
0.0
  0
LINE
  5
A5618
330
1F
100
AcDbEntity
  8
AM_0
100
AcDbLine
 10
881.4985022803034
 20
530.9645492920199
 30
0.0
 11
887.9985022803035
 21
534.7165492920203
 31
0.0
  0
LINE
  5
A5619
330
1F
100
AcDbEntity
  8
AM_0
100
AcDbLine
 10
887.9985022803035
 20
534.7165492920203
 30
0.0
 11
887.9985022803035
 21
542.2224492920204
 31
0.0
  0
LINE
  5
A561A
330
1F
100
AcDbEntity
  8
AM_0
100
AcDbLine
 10
887.9985022803035
 20
542.2224492920204
 30
0.0
 11
881.4985022803034
 21
545.975449292021
 31
0.0
  0
LINE
  5
A561B
330
1F
100
AcDbEntity
  8
AM_0
100
AcDbLine
 10
881.4985022803034
 20
545.975449292021
 30
0.0
 11
874.9984022803037
 21
542.2224492920204
 31
0.0
  0
ARC
  5
A561C
330
1F
100
AcDbEntity
  8
AM_0
100
AcDbCircle
 10
881.4985022803034
 20
538.4695492920209
 30
0.0
 40
10.0004
100
AcDbArc
 50
227.5823999999972
 51
327.0891440000302
  0
ARC
  5
A561D
330
1F
100
AcDbEntity
  8
AM_0
100
AcDbCircle
 10
803.3194022803035
 20
437.1652492920193
 30
0.0
 40
118.0
100
AcDbArc
 50
52.74459999997294
 51
79.36339999999269
  0
ARC
  5
A561E
330
1F
100
AcDbEntity
  8
AM_0
100
AcDbCircle
 10
881.4985022803034
 20
538.4695492920209
 30
0.0
 40
10.0004
100
AcDbArc
 50
327.0891440000302
 51
47.93114199999235
  0
ARC
  5
A561F
330
1F
100
AcDbEntity
  8
AM_0
100
AcDbCircle
 10
894.8994022803034
 20
553.3168492920204
 30
0.0
 40
9.9999
100
AcDbArc
 50
179.173185000012
 51
227.9312000000041
  0
LINE
  5
A5620
330
1F
100
AcDbEntity
  8
AM_0
100
AcDbLine
 10
887.4998022803039
 20
553.4611492920203
 30
0.0
 11
884.8995022803038
 21
553.4611492920203
 31
0.0
  0
LINE
  5
A5621
330
1F
100
AcDbEntity
  8
AM_0
100
AcDbLine
 10
887.4998022803039
 20
561.3620492920208
 30
0.0
 11
887.4998022803039
 21
552.7537072920213
 31
0.0
  0
LINE
  5
A5622
330
1F
100
AcDbEntity
  8
AM_0
100
AcDbLine
 10
893.0997022803035
 20
561.3620492920208
 30
0.0
 11
887.4998022803039
 21
561.3620492920208
 31
0.0
  0
LINE
  5
A5623
330
1F
100
AcDbEntity
  8
AM_0
100
AcDbLine
 10
890.0994022803033
 20
552.7534452920199
 30
0.0
 11
890.0994022803033
 21
561.3620492920208
 31
0.0
  0
LINE
  5
A5624
330
1F
100
AcDbEntity
  8
AM_0
100
AcDbLine
 10
893.0997022803035
 20
552.7534812920212
 30
0.0
 11
893.0997022803035
 21
561.3620492920208
 31
0.0
  0
ARC
  5
A5625
330
1F
100
AcDbEntity
  8
AM_0
100
AcDbCircle
 10
886.4998022803037
 20
552.7537072920213
 30
0.0
 40
1.0
100
AcDbArc
 50
276.7171919999974
 51
0.0
  0
ARC
  5
A5626
330
1F
100
AcDbEntity
  8
AM_0
100
AcDbCircle
 10
886.4994022803035
 20
552.7534452920199
 30
0.0
 40
3.6
100
AcDbArc
 50
276.7254719999976
 51
0.0
  0
ARC
  5
A5627
330
1F
100
AcDbEntity
  8
AM_0
100
AcDbCircle
 10
886.4997022803036
 20
552.7534812920212
 30
0.0
 40
6.599999999999999
100
AcDbArc
 50
281.3004769999912
 51
0.0
  0
LINE
  5
A5628
330
1F
100
AcDbEntity
  8
AM_7
370
     9
100
AcDbLine
 10
819.2805922803035
 20
488.9999492920187
 30
0.0
 11
819.2805922803035
 21
432.9999492920187
 31
0.0
  0
LINE
  5
A5629
330
1F
100
AcDbEntity
  8
AM_7
370
     9
100
AcDbLine
 10
897.4999522803031
 20
690.4997068755023
 30
0.0
 11
897.4999522803031
 21
713.4993068755025
 31
0.0
1001
GENIUS_GENODEF_13
1002
{
1000
HIER
1070
     0
1002
}
1002
{
1000
MANEDIT
1070
     0
1002
}
1002
{
1000
NOSEL
1070
     0
1002
}
1002
{
1000
BEHIND
1070
     0
1002
}
1002
{
1000
OTHER
1070
     0
1002
}
1002
{
1000
REACTOR
1002
}
1001
GENIUS_GENOBJ-N-CEN_13
1002
{
1000
OWNER
1000
GEN
1002
}
1001
GENIUS_GENCEN_19
1002
{
1040
12.0
1002
}
  0
LINE
  5
A562A
330
1F
100
AcDbEntity
  8
AM_7
370
     9
100
AcDbLine
 10
886.0001522803036
 20
701.999506875502
 30
0.0
 11
908.9997522803036
 21
701.999506875502
 31
0.0
1001
GENIUS_GENOBJ-N-CEN_13
1002
{
1000
OWNER
1000
GEN
1002
}
1001
GENIUS_GENODEF_13
1002
{
1000
HIER
1070
     0
1002
}
1002
{
1000
MANEDIT
1070
     0
1002
}
1002
{
1000
NOSEL
1070
     0
1002
}
1002
{
1000
BEHIND
1070
     0
1002
}
1002
{
1000
OTHER
1070
     0
1002
}
1002
{
1000
REACTOR
1002
}
1001
GENIUS_GENCEN_19
1002
{
1040
12.0
1002
}
  0
LINE
  5
A562B
330
1F
100
AcDbEntity
  8
AM_7
370
     9
100
AcDbLine
 10
897.4999522803031
 20
645.4996068755049
 30
0.0
 11
897.4999522803031
 21
668.499206875505
 31
0.0
1001
GENIUS_GENODEF_13
1002
{
1000
HIER
1070
     0
1002
}
1002
{
1000
MANEDIT
1070
     0
1002
}
1002
{
1000
NOSEL
1070
     0
1002
}
1002
{
1000
BEHIND
1070
     0
1002
}
1002
{
1000
OTHER
1070
     0
1002
}
1002
{
1000
REACTOR
1002
}
1001
GENIUS_GENOBJ-N-CEN_13
1002
{
1000
OWNER
1000
GEN
1002
}
1001
GENIUS_GENCEN_19
1002
{
1040
12.0
1002
}
  0
LINE
  5
A562C
330
1F
100
AcDbEntity
  8
AM_7
370
     9
100
AcDbLine
 10
886.0001522803036
 20
656.9994068755045
 30
0.0
 11
908.9997522803036
 21
656.9994068755045
 31
0.0
1001
GENIUS_GENOBJ-N-CEN_13
1002
{
1000
OWNER
1000
GEN
1002
}
1001
GENIUS_GENODEF_13
1002
{
1000
HIER
1070
     0
1002
}
1002
{
1000
MANEDIT
1070
     0
1002
}
1002
{
1000
NOSEL
1070
     0
1002
}
1002
{
1000
BEHIND
1070
     0
1002
}
1002
{
1000
OTHER
1070
     0
1002
}
1002
{
1000
REACTOR
1002
}
1001
GENIUS_GENCEN_19
1002
{
1040
12.0
1002
}
  0
LINE
  5
A562D
330
1F
100
AcDbEntity
  8
AM_7
370
     9
100
AcDbLine
 10
817.4998522803038
 20
645.4998068755035
 30
0.0
 11
817.4998522803038
 21
668.4994068755035
 31
0.0
1001
GENIUS_GENODEF_13
1002
{
1000
HIER
1070
     0
1002
}
1002
{
1000
MANEDIT
1070
     0
1002
}
1002
{
1000
NOSEL
1070
     0
1002
}
1002
{
1000
BEHIND
1070
     0
1002
}
1002
{
1000
OTHER
1070
     0
1002
}
1002
{
1000
REACTOR
1002
}
1001
GENIUS_GENOBJ-N-CEN_13
1002
{
1000
OWNER
1000
GEN
1002
}
1001
GENIUS_GENCEN_19
1002
{
1040
12.0
1002
}
  0
LINE
  5
A562E
330
1F
100
AcDbEntity
  8
AM_7
370
     9
100
AcDbLine
 10
806.0000522803033
 20
656.9996068755031
 30
0.0
 11
828.9996522803035
 21
656.9996068755031
 31
0.0
1001
GENIUS_GENOBJ-N-CEN_13
1002
{
1000
OWNER
1000
GEN
1002
}
1001
GENIUS_GENODEF_13
1002
{
1000
HIER
1070
     0
1002
}
1002
{
1000
MANEDIT
1070
     0
1002
}
1002
{
1000
NOSEL
1070
     0
1002
}
1002
{
1000
BEHIND
1070
     0
1002
}
1002
{
1000
OTHER
1070
     0
1002
}
1002
{
1000
REACTOR
1002
}
1001
GENIUS_GENCEN_19
1002
{
1040
12.0
1002
}
  0
LINE
  5
A562F
330
1F
100
AcDbEntity
  8
AM_7
370
     9
100
AcDbLine
 10
817.4993522803038
 20
690.4997068755023
 30
0.0
 11
817.4993522803038
 21
713.4993068755025
 31
0.0
1001
GENIUS_GENODEF_13
1002
{
1000
HIER
1070
     0
1002
}
1002
{
1000
MANEDIT
1070
     0
1002
}
1002
{
1000
NOSEL
1070
     0
1002
}
1002
{
1000
BEHIND
1070
     0
1002
}
1002
{
1000
OTHER
1070
     0
1002
}
1002
{
1000
REACTOR
1002
}
1001
GENIUS_GENOBJ-N-CEN_13
1002
{
1000
OWNER
1000
GEN
1002
}
1001
GENIUS_GENCEN_19
1002
{
1040
12.0
1002
}
  0
LINE
  5
A5630
330
1F
100
AcDbEntity
  8
AM_7
370
     9
100
AcDbLine
 10
805.9995522803033
 20
701.999506875502
 30
0.0
 11
828.9991522803033
 21
701.999506875502
 31
0.0
1001
GENIUS_GENOBJ-N-CEN_13
1002
{
1000
OWNER
1000
GEN
1002
}
1001
GENIUS_GENODEF_13
1002
{
1000
HIER
1070
     0
1002
}
1002
{
1000
MANEDIT
1070
     0
1002
}
1002
{
1000
NOSEL
1070
     0
1002
}
1002
{
1000
BEHIND
1070
     0
1002
}
1002
{
1000
OTHER
1070
     0
1002
}
1002
{
1000
REACTOR
1002
}
1001
GENIUS_GENCEN_19
1002
{
1040
12.0
1002
}
  0
CIRCLE
  5
A5631
330
1F
100
AcDbEntity
  8
AM_11
100
AcDbCircle
 10
819.2807995418387
 20
489.0005410392578
 30
0.0
 40
50.0
  0
ARC
  5
A5632
330
1F
100
AcDbEntity
  8
AM_3
370
     9
100
AcDbCircle
 10
826.5849126694615
 20
481.0002847951046
 30
0.0
 40
50.0
100
AcDbArc
 50
27.09867601806732
 51
96.88953304867549
  0
LINE
  5
A5633
330
1F
100
AcDbEntity
  8
AM_7
370
     9
100
AcDbLine
 10
770.5843607075067
 20
481.0000185587077
 30
0.0
 11
882.5843607075066
 21
481.0000185587077
 31
0.0
1001
GENIUS_GENODEF_13
1002
{
1000
HIER
1070
     0
1002
}
1002
{
1000
MANEDIT
1070
     0
1002
}
1002
{
1000
NOSEL
1070
     0
1002
}
1002
{
1000
BEHIND
1070
     0
1002
}
1002
{
1000
OTHER
1070
     0
1002
}
1002
{
1000
REACTOR
1002
}
1001
GENIUS_GENOBJ-N-CEN_13
1002
{
1000
OWNER
1000
GEN
1002
}
1001
GENIUS_GENCEN_19
1002
{
1040
6.0
1002
}
  0
DIMENSION
  5
A56F1
330
1F
100
AcDbEntity
  8
AM_5
100
AcDbDimension
  2
*D24
 10
929.4998022803039
 20
701.999506875502
 30
0.0
 11
923.2998022803036
 21
679.4994568755035
 31
0.0
 70
    32
  1
Y
 71
     5
 42
45.00009999999747
  3
SYS$0
100
AcDbAlignedDimension
 13
908.9997522803036
 23
656.9994068755045
 33
0.0
 14
908.9997522803036
 24
701.999506875502
 34
0.0
 50
90.0
100
AcDbRotatedDimension
1001
ACAD
1000
DSTYLE
1002
{
1070
    40
1040
2.0
1002
}
  0
DIMENSION
  5
A56F2
330
1F
100
AcDbEntity
  8
AM_5
100
AcDbDimension
  2
*D25
 10
945.4998022803037
 20
719.5001568755047
 30
0.0
 11
939.2998022803036
 21
679.5001068755042
 31
0.0
 70
    32
  1
B
 71
     5
 42
80.00010000000111
  3
SYS$0
100
AcDbAlignedDimension
 13
863.4998022803038
 23
639.5000568755035
 33
0.0
 14
863.4998022803038
 24
719.5001568755047
 34
0.0
 50
90.0
100
AcDbRotatedDimension
1001
ACAD
1000
DSTYLE
1002
{
1070
    40
1040
2.0
1002
}
  0
DIMENSION
  5
A5741
330
1F
100
AcDbEntity
  8
AM_5
100
AcDbDimension
  2
*D26
 10
897.4999522803031
 20
735.5001568755064
 30
0.0
 11
857.4996522803035
 21
741.7001568755065
 31
0.0
 70
    32
  1
X
 71
     5
 42
80.00059999999939
  3
SYS$0
100
AcDbAlignedDimension
 13
817.4993522803038
 23
713.4993068755025
 33
0.0
 14
897.4999522803031
 24
713.4993068755025
 34
0.0
100
AcDbRotatedDimension
1001
ACAD
1000
DSTYLE
1002
{
1070
    40
1040
2.0
1002
}
  0
DIMENSION
  5
A5742
330
1F
100
AcDbEntity
  8
AM_5
100
AcDbDimension
  2
*D27
 10
909.4998022803038
 20
751.5001568755065
 30
0.0
 11
857.4998022803038
 21
757.7001568755065
 31
0.0
 70
    32
  1
A
 71
     5
 42
104.0
  3
SYS$0
100
AcDbAlignedDimension
 13
805.4998022803038
 23
702.0000568755035
 33
0.0
 14
909.4998022803038
 24
702.0000568755035
 34
0.0
100
AcDbRotatedDimension
1001
ACAD
1000
DSTYLE
1002
{
1070
    40
1040
2.0
1002
}
  0
DIMENSION
  5
A5791
330
1F
100
AcDbEntity
  8
AM_5
100
AcDbDimension
  2
*D28
 10
945.4995028351365
 20
583.9994593145483
 30
0.0
 11
939.2995028351364
 21
507.4997278032844
 31
0.0
 70
    32
  1
H1
 71
     5
 42
152.9994630225283
  3
SYS$0
100
AcDbAlignedDimension
 13
826.5843862803034
 23
430.99999629202
 33
0.0
 14
909.4995028351366
 24
583.9994593145483
 34
0.0
 50
90.0
100
AcDbRotatedDimension
1001
ACAD
1000
DSTYLE
1002
{
1070
    40
1040
2.0
1002
}
  0
DIMENSION
  5
A5792
330
1F
100
AcDbEntity
  8
AM_5
100
AcDbDimension
  2
*D29
 10
929.4995028351365
 20
583.9994593145483
 30
0.0
 11
923.2995028351364
 21
511.4994591064869
 31
0.0
 70
    32
  1
H2
 71
     5
 42
145.0000004161234
  3
SYS$0
100
AcDbAlignedDimension
 13
819.2805922803035
 23
438.999458898425
 33
0.0
 14
909.4995028351366
 24
583.9994593145483
 34
0.0
 50
90.0
100
AcDbRotatedDimension
1001
ACAD
1000
DSTYLE
1002
{
1070
    40
1040
2.0
1002
}
  0
DIMENSION
  5
A5793
330
1F
100
AcDbEntity
  8
AM_5
100
AcDbDimension
  2
*D30
 10
853.4992022803034
 20
410.999506315567
 30
0.0
 11
840.0419410577192
 21
417.1995063155669
 31
0.0
 70
    32
  1
E1
 71
     5
 42
26.91452244516859
  3
SYS$0
100
AcDbAlignedDimension
 13
826.5846798351349
 23
424.999506315567
 33
0.0
 14
853.4992022803034
 24
480.9995063145484
 34
0.0
100
AcDbRotatedDimension
1001
ACAD
1000
DSTYLE
1002
{
1070
    40
1040
2.0
1002
}
  0
LINE
  5
A57FB
330
1F
100
AcDbEntity
  8
AM_7
370
     9
100
AcDbLine
 10
826.5846798351349
 20
424.9997153145495
 30
0.0
 11
826.5846798351349
 21
536.9997153145495
 31
0.0
1001
GENIUS_GENODEF_13
1002
{
1000
HIER
1070
     0
1002
}
1002
{
1000
MANEDIT
1070
     0
1002
}
1002
{
1000
NOSEL
1070
     0
1002
}
1002
{
1000
BEHIND
1070
     0
1002
}
1002
{
1000
OTHER
1070
     0
1002
}
1002
{
1000
REACTOR
1002
}
1001
GENIUS_GENOBJ-N-CEN_13
1002
{
1000
OWNER
1000
GEN
1002
}
1001
GENIUS_GENCEN_19
1002
{
1040
6.0
1002
}
  0
DIMENSION
  5
A57FC
330
1F
100
AcDbEntity
  8
AM_5
100
AcDbDimension
  2
*D31
 10
860.5547622843442
 20
517.6880522578374
 30
0.0
 11
771.9510273741789
 21
427.0000185643612
 31
0.0
 70
   163
  1
D
 71
     5
 42
100.0000000000018
  3
SYS$3
100
AcDbDiametricDimension
 15
792.61395913068
 25
444.3119848595679
 35
0.0
 40
0.0
1001
ACAD
1000
DSTYLE
1002
{
1070
    40
1040
2.0
1070
    41
1040
1.0
1070
   172
1070
     1
1070
   173
1070
     1
1070
   342
1005
0
1070
   343
1005
6C4
1070
   344
1005
6C4
1002
}
  0
DIMENSION
  5
A581B
330
1F
100
AcDbEntity
  8
AM_5
100
AcDbDimension
  2
*D32
 10
318.9996888973383
 20
394.9999962930392
 30
0.0
 11
301.8901336014542
 21
401.1999962930391
 31
0.0
 70
    32
  1
E2
 71
     5
 42
34.21911059176819
  3
SYS$0
100
AcDbAlignedDimension
 13
284.7805783055701
 23
432.999949292021
 33
0.0
 14
318.9996888973383
 24
480.9999962920206
 34
0.0
100
AcDbRotatedDimension
1001
ACAD
1000
DSTYLE
1002
{
1070
    40
1040
2.0
1002
}
  0
DIMENSION
  5
A585E
330
1F
100
AcDbEntity
  8
AM_5
100
AcDbDimension
  2
*D33
 10
593.9995894530222
 20
394.999506315567
 30
0.0
 11
576.8900341571382
 21
401.199506315567
 31
0.0
 70
    32
  1
E2
 71
     5
 42
34.21911059176819
  3
SYS$0
100
AcDbAlignedDimension
 13
559.7804788612541
 23
432.9994593145488
 33
0.0
 14
593.9995894530222
 24
480.9995063145484
 34
0.0
100
AcDbRotatedDimension
1001
ACAD
1000
DSTYLE
1002
{
1070
    40
1040
2.0
1002
}
  0
DIMENSION
  5
A588F
330
1F
100
AcDbEntity
  8
AM_5
100
AcDbDimension
  2
*D34
 10
853.4992022803034
 20
394.999506315567
 30
0.0
 11
836.3898972803035
 21
401.199506315567
 31
0.0
 70
    32
  1
E2
 71
     5
 42
34.2186099999999
  3
SYS$0
100
AcDbAlignedDimension
 13
819.2805922803035
 23
432.9999492920187
 33
0.0
 14
853.4992022803034
 24
480.9999492920187
 34
0.0
100
AcDbRotatedDimension
1001
ACAD
1000
DSTYLE
1002
{
1070
    40
1040
2.0
1002
}
  0
LWPOLYLINE
  5
A58EB
330
1F
100
AcDbEntity
  8
AM_0
100
AcDbPolyline
 90
        4
 70
     1
 43
0.0
 10
833.4992022803035
 20
378.9999962930392
 10
873.4992022803035
 20
378.9999962930392
 10
873.4992022803035
 20
366.9999962930392
 10
833.4992022803035
 20
366.9999962930392
1001
GENIUS_GENREC_14
1002
{
1000
PYDIR
1011
833.4992022803035
1021
366.9999962930392
1031
0.0
1002
}
1002
{
1000
PXDIR
1011
873.4992022803035
1021
378.9999962930392
1031
0.0
1002
}
1002
{
1000
PORI
1011
833.4992022803035
1021
378.9999962930392
1031
0.0
1002
}
1002
{
1000
PINS
1011
833.4992022803035
1021
378.9999962930392
1031
0.0
1002
}
1002
{
1000
PINS2
1011
873.4992022803035
1021
366.9999962930392
1031
0.0
1002
}
1002
{
1000
C
1070
     1
1002
}
1001
GENIUS_GENODEF_13
1002
{
1000
HIER
1070
     0
1002
}
1002
{
1000
MANEDIT
1070
     0
1002
}
1002
{
1000
NOSEL
1070
     0
1002
}
1002
{
1000
BEHIND
1070
     0
1002
}
1002
{
1000
OTHER
1070
     0
1002
}
1002
{
1000
REACTOR
1002
}
1001
GENIUS_GENOBJ-N-REC_13
1002
{
1000
OWNER
1000
GEN
1002
}
  0
MTEXT
  5
A58EC
330
1F
100
AcDbEntity
  8
AM_6
100
AcDbMText
 10
853.4992022803034
 20
372.9999962930392
 30
0.0
 40
6.4
 41
40.0
 71
     5
 72
     5
  1
SAK
 73
     1
 44
1.0
1001
ACAD
1000
MTEXTBEGIN
1070
    73
1070
     1
1070
    44
1040
1.0
1070
    74
1070
     0
1000
MTEXTEND
  0
LINE
  5
A9BA3
330
1F
100
AcDbEntity
  8
AM_5
100
AcDbLine
 10
22.99999999999795
 20
727.0
 30
0.0
 11
202.9999999999979
 21
727.0
 31
0.0
  0
MTEXT
  5
A9BA4
330
1F
100
AcDbEntity
  8
AM_6
100
AcDbMText
 10
42.99999999999795
 20
719.0
 30
0.0
 40
6.4
 41
40.0
 71
     5
 72
     5
  1
備　考
 73
     1
 44
1.0
1001
ACAD
1000
MTEXTBEGIN
1070
    73
1070
     1
1070
    44
1040
1.0
1070
    74
1070
     0
1000
MTEXTEND
  0
LINE
  5
A9D2F
330
1F
100
AcDbEntity
  8
AM_5
100
AcDbLine
 10
62.99999999999795
 20
710.9999999999995
 30
0.0
 11
203.0000000000016
 21
711.0
 31
0.0
  0
MTEXT
  5
A9D30
330
1F
100
AcDbEntity
  8
AM_6
100
AcDbMText
 10
62.99999999999704
 20
719.0
 30
0.0
 40
6.4
 41
140.0
 71
     4
 72
     5
  1
　低速 4km/h 以下
 73
     1
 44
1.0
1001
ACAD
1000
MTEXTBEGIN
1070
    73
1070
     1
1070
    44
1040
1.0
1070
    74
1070
     0
1000
MTEXTEND
  0
LINE
  5
A9D31
330
1F
100
AcDbEntity
  8
AM_0
100
AcDbLine
 10
23.00000000000728
 20
695.0
 30
0.0
 11
203.0000000000018
 21
695.0
 31
0.0
  0
MTEXT
  5
A9D32
330
1F
100
AcDbEntity
  8
AM_6
100
AcDbMText
 10
62.99999999999727
 20
703.0
 30
0.0
 40
6.4
 41
140.0
 71
     4
 72
     5
  1
　けん引 10km/h 以下
 73
     1
 44
1.0
1001
ACAD
1000
MTEXTBEGIN
1070
    73
1070
     1
1070
    44
1040
1.0
1070
    74
1070
     0
1000
MTEXTEND
  0
MTEXT
  5
AB219
330
1F
100
AcDbEntity
  8
AM_6
100
AcDbMText
 10
127.0000000000324
 20
192.9999999999849
 30
0.0
 40
6.4
 41
48.0
 71
     5
 72
     5
  1
ウレタン車
 73
     1
 44
1.0
1001
ACAD
1000
MTEXTBEGIN
1070
    73
1070
     1
1070
    44
1040
1.0
1070
    74
1070
     0
1000
MTEXTEND
  0
MTEXT
  5
AB21A
330
1F
100
AcDbEntity
  8
AM_6
100
AcDbMText
 10
127.0000000000822
 20
224.9999999999845
 30
0.0
 40
6.4
 41
48.0
 71
     5
 72
     5
  1
ゴム車
 73
     1
 44
1.0
1001
ACAD
1000
MTEXTBEGIN
1070
    73
1070
     1
1070
    44
1040
1.0
1070
    74
1070
     0
1000
MTEXTEND
  0
MTEXT
  5
AB21B
330
1F
100
AcDbEntity
  8
AM_6
100
AcDbMText
 10
127.0000000000968
 20
129.0000000000044
 30
0.0
 40
6.4
 41
48.0
 71
     5
 72
     5
  1
ウレタン車
 73
     1
 44
1.0
1001
ACAD
1000
MTEXTBEGIN
1070
    73
1070
     1
1070
    44
1040
1.0
1070
    74
1070
     0
1000
MTEXTEND
  0
MTEXT
  5
AB21C
330
1F
100
AcDbEntity
  8
AM_6
100
AcDbMText
 10
127.0000000001466
 20
161.000000000004
 30
0.0
 40
6.4
 41
48.0
 71
     5
 72
     5
  1
ゴム車
 73
     1
 44
1.0
1001
ACAD
1000
MTEXTBEGIN
1070
    73
1070
     1
1070
    44
1040
1.0
1070
    74
1070
     0
1000
MTEXTEND
  0
MTEXT
  5
AB21D
330
1F
100
AcDbEntity
  8
AM_6
100
AcDbMText
 10
127.0000000001591
 20
73.0
 30
0.0
 40
6.4
 41
48.0
 71
     5
 72
     5
  1
ゴム車
 73
     1
 44
1.0
1001
ACAD
1000
MTEXTBEGIN
1070
    73
1070
     1
1070
    44
1040
1.0
1070
    74
1070
     0
1000
MTEXTEND
  0
MTEXT
  5
AB21E
330
1F
100
AcDbEntity
  8
AM_6
100
AcDbMText
 10
127.0000000001093
 20
57.0
 30
0.0
 40
6.4
 41
48.0
 71
     5
 72
     5
  1
ウレタン車
 73
     1
 44
1.0
1001
ACAD
1000
MTEXTBEGIN
1070
    73
1070
     1
1070
    44
1040
1.0
1070
    74
1070
     0
1000
MTEXTEND
  0
MTEXT
  5
AB21F
330
1F
100
AcDbEntity
  8
AM_6
100
AcDbMText
 10
127.0000000002049
 20
41.00000000000455
 30
0.0
 40
6.4
 41
48.0
 71
     5
 72
     5
  1
ゴム車
 73
     1
 44
1.0
1001
ACAD
1000
MTEXTBEGIN
1070
    73
1070
     1
1070
    44
1040
1.0
1070
    74
1070
     0
1000
MTEXTEND
  0
MTEXT
  5
AB220
330
1F
100
AcDbEntity
  8
AM_6
100
AcDbMText
 10
127.0000000001551
 20
25.00000000000455
 30
0.0
 40
6.4
 41
48.0
 71
     5
 72
     5
  1
ウレタン車
 73
     1
 44
1.0
1001
ACAD
1000
MTEXTBEGIN
1070
    73
1070
     1
1070
    44
1040
1.0
1070
    74
1070
     0
1000
MTEXTEND
  0
ENDSEC
  0
SECTION
  2
OBJECTS
  0
DICTIONARY
  5
C
330
0
100
AcDbDictionary
281
     1
  3
ACAD_2007HEADERVARS_RT
350
AB241
  3
ACAD_BGPLOT_KEY
350
AB06
  3
ACAD_COLOR
350
A91D
  3
ACAD_GROUP
350
D
  3
ACAD_LAYOUT
350
1A
  3
ACAD_MATERIAL
350
A91C
  3
ACAD_MLINESTYLE
350
17
  3
ACAD_PLOTSETTINGS
350
19
  3
ACAD_PLOTSTYLENAME
350
E
  3
ACAD_TABLESTYLE
350
AAB9
  3
ACAD_VISUALSTYLE
350
B0F1
  3
AcAsAppObject
350
3DA1
  3
ACASGREF_MASTER
350
3DE9
  3
AcDbVariableDictionary
350
34
  3
AcmDictionary
350
47
  3
AD_GREF_MODULE
350
3DEA
  3
AD_MAPI_MODULE
350
3E06
  3
AMG
350
2B
  3
AMGSNAPSETTINGS
350
7D
  3
ASE_INDEX_DICTIONARY
350
AA8D8
  3
DWGPROPS
350
AB240
  3
MAPISURF_MODULE
350
3DEB
  0
DICTIONARY
  5
3F95
330
2
100
AcDbDictionary
280
     1
281
     1
  3
ACAD_LAYERFILTERS
360
B466
  3
ACAD_LAYERSTATES
360
3F96
  3
ACLYDICTIONARY
360
B465
  3
AMLAYER_GROUPCOLORS
360
AAB4
  0
DICTIONARY
  5
8A
330
1F
100
AcDbDictionary
280
     1
281
     1
  3
ACAD_SORTENTS
360
B1BA
  0
DICTIONARY
  5
AB241
102
{ACAD_REACTORS
330
C
102
}
330
C
100
AcDbDictionary
281
     1
  3
DIMARCSYM
350
AB242
  0
DICTIONARY
  5
AB06
102
{ACAD_REACTORS
330
C
102
}
330
C
100
AcDbDictionary
280
     1
281
     1
  0
DICTIONARY
  5
A91D
102
{ACAD_REACTORS
330
C
102
}
330
C
100
AcDbDictionary
281
     1
  0
DICTIONARY
  5
D
102
{ACAD_REACTORS
330
C
102
}
330
C
100
AcDbDictionary
281
     1
  0
DICTIONARY
  5
1A
102
{ACAD_REACTORS
330
C
102
}
330
C
100
AcDbDictionary
281
     1
  3
Model
350
22
  3
ﾚｲｱｳﾄ1
350
1E
  3
ﾚｲｱｳﾄ2
350
26
  0
DICTIONARY
  5
A91C
102
{ACAD_REACTORS
330
C
102
}
330
C
100
AcDbDictionary
281
     1
  3
ByBlock
350
B0EF
  3
ByLayer
350
B0EE
  3
Global
350
B0F0
  0
DICTIONARY
  5
17
102
{ACAD_REACTORS
330
C
102
}
330
C
100
AcDbDictionary
281
     1
  3
Standard
350
18
  0
DICTIONARY
  5
19
102
{ACAD_REACTORS
330
C
102
}
330
C
100
AcDbDictionary
281
     1
  0
ACDBDICTIONARYWDFLT
  5
E
102
{ACAD_REACTORS
330
C
102
}
330
C
100
AcDbDictionary
281
     1
  3
Normal
350
F
100
AcDbDictionaryWithDefault
340
F
  0
DICTIONARY
  5
AAB9
102
{ACAD_REACTORS
330
C
102
}
330
C
100
AcDbDictionary
281
     1
  3
Standard
350
AABA
  0
DICTIONARY
  5
B0F1
102
{ACAD_REACTORS
330
C
102
}
330
C
100
AcDbDictionary
281
     1
  3
2dWireframe
350
B0F7
  3
3D Hidden
350
B0F9
  3
3dWireframe
350
B0F8
  3
Basic
350
B0F6
  3
Brighten
350
B0FD
  3
ColorChange
350
B101
  3
Conceptual
350
B0FA
  3
Dim
350
B0FC
  3
Facepattern
350
B100
  3
Flat
350
B0F2
  3
FlatWithEdges
350
B0F3
  3
Gouraud
350
B0F4
  3
GouraudWithEdges
350
B0F5
  3
Linepattern
350
B0FF
  3
Realistic
350
B0FB
  3
Thicken
350
B0FE
  0
ACAD_PROXY_OBJECT
  5
3DA1
102
{ACAD_REACTORS
330
C
102
}
330
C
100
AcDbProxyObject
 90
      499
 91
      576
 95
   917527
 70
     0
 93
       10
310
407F
 94
        0
1001
ACAD
1000
AcRTDxfName
1000
ASAPP
  0
ACAD_PROXY_OBJECT
  5
3DE9
102
{ACAD_REACTORS
330
C
102
}
330
C
100
AcDbProxyObject
 90
      499
 91
      581
 95
   917527
 70
     0
 93
       34
310
010000407F
 94
        0
1001
ACAD
1000
AcRTDxfName
1000
ACASGREFMASTER
  0
DICTIONARY
  5
34
102
{ACAD_REACTORS
330
C
102
}
330
C
100
AcDbDictionary
281
     1
  3
CTABLESTYLE
350
AAF3
  3
DIMASSOC
350
A10C
  3
FIELDEVAL
350
AB07
  3
INDEXCTL
350
35
  3
SORTENTS
350
194C
  0
DICTIONARY
  5
47
102
{ACAD_REACTORS
330
C
102
}
330
C
100
AcDbDictionary
281
     1
  3
AcmBOM
350
7E8
  3
AcmStdDictionary
350
4C
  3
AMDTSECTSYM_ARROWCOLOR
350
A929
  0
ACAD_PROXY_OBJECT
  5
3DEA
102
{ACAD_REACTORS
330
C
102
}
330
C
100
AcDbProxyObject
 90
      499
 91
      582
 95
   917527
 70
     0
 93
      114
310
00000043800000000000000000003F
 94
        0
1001
ACAD
1000
AcRTDxfName
1000
ACADGREFMODULE
  0
ACAD_PROXY_OBJECT
  5
3E06
102
{ACAD_REACTORS
330
C
102
}
330
C
100
AcDbProxyObject
 90
      499
 91
      594
 95
   917527
 70
     0
 93
       34
310
05000044FF
 94
        0
1001
ACAD
1000
AcRTDxfName
1000
MAPIADMODULE
  0
DICTIONARY
  5
2B
102
{ACAD_REACTORS
330
C
102
}
330
C
100
AcDbDictionary
281
     1
  0
DICTIONARY
  5
7D
102
{ACAD_REACTORS
330
C
102
}
330
C
100
AcDbDictionary
281
     1
  0
DICTIONARY
  5
AA8D8
102
{ACAD_REACTORS
330
C
102
}
330
C
100
AcDbDictionary
281
     1
  3
ASEBlockHierarchyIndexRecord
350
AA8D9
1001
DCO15
1040
1749812023.093
  0
XRECORD
  5
AB240
102
{ACAD_REACTORS
330
C
102
}
330
C
100
AcDbXrecord
280
     1
  1
DWGPROPS COOKIE
  2

  3

  4

  6

  7

  8
Administrator
  9

300
AmdtFileType=84
301
=
302
=
303
=
304
=
305
=
306
=
307
=
308
=
309
=
 40
3.165117939814814
 41
2455567.561054317
 42
2456267.577425128
  1

 90
        1
  0
ACAD_PROXY_OBJECT
  5
3DEB
102
{ACAD_REACTORS
330
C
102
}
330
C
100
AcDbProxyObject
 90
      499
 91
      583
 95
   917527
 70
     0
 93
        8
310
047E
 94
        0
1001
ACAD
1000
AcRTDxfName
1000
AMDTMAPISURFMOUDULE
  0
DICTIONARY
  5
B466
102
{ACAD_REACTORS
330
3F95
102
}
330
3F95
100
AcDbDictionary
281
     1
  0
DICTIONARY
  5
3F96
102
{ACAD_REACTORS
330
3F95
102
}
330
3F95
100
AcDbDictionary
281
     1
  3
20011210
350
3FB7
  0
DICTIONARY
  5
B465
102
{ACAD_REACTORS
330
3F95
102
}
330
3F95
100
AcDbDictionary
281
     1
1001
ACAD
1000
<All
  0
DICTIONARY
  5
AAB4
102
{ACAD_REACTORS
330
3F95
102
}
330
3F95
100
AcDbDictionary
280
     1
281
     1
  0
SORTENTSTABLE
  5
B1BA
102
{ACAD_REACTORS
330
8A
102
}
330
8A
100
AcDbSortentsTable
330
1F
331
A4C8B
  5
A4C8B
331
A4A9E
  5
A4A9E
331
A4ADD
  5
A4ADD
331
A4CC2
  5
A4CC2
331
A4AA6
  5
A4AA6
331
A4AE5
  5
A4AE5
331
A4C93
  5
A4C93
331
A4CCA
  5
A4CCA
331
A4C9B
  5
A4C9B
331
A4AED
  5
A4AED
331
A4AAE
  5
A4AAE
331
A4B24
  5
A4B24
331
A4CD2
  5
A4CD2
331
A4CDA
  5
A4CDA
331
A4B2C
  5
A4B2C
331
A4AB6
  5
A4AB6
331
A4FE0
  5
A4FE0
331
A4F2B
  5
A4F2B
331
A4F6A
  5
A4F6A
331
A4FE8
  5
A4FE8
331
A4F72
  5
A4F72
331
A4F33
  5
A4F33
331
A4FA9
  5
A4FA9
331
A4FB1
  5
A4FB1
331
A4F04
  5
A4F04
331
A4F3B
  5
A4F3B
331
A4F7A
  5
A4F7A
331
A4FF8
  5
A4FF8
331
A4F82
  5
A4F82
331
A4F0C
  5
A4F0C
331
A4F43
  5
A4F43
331
A4FB9
  5
A4FB9
331
A5631
  5
A5631
331
A55FA
  5
A55FA
331
A5602
  5
A5602
331
A56F1
  5
A56F1
331
A55BB
  5
A55BB
331
A560A
  5
A560A
331
A55C3
  5
A55C3
331
A4CA3
  5
A4CA3
331
A4ABE
  5
A4ABE
331
A4A7F
  5
A4A7F
331
A4AF5
  5
A4AF5
331
A4CAB
  5
A4CAB
331
A4A87
  5
A4A87
331
A4AC6
  5
A4AC6
331
A4AFD
  5
A4AFD
331
A4C7C
  5
A4C7C
331
A4ACE
  5
A4ACE
331
A4A8F
  5
A4A8F
331
A4B05
  5
A4B05
331
62525
  5
62AAD
331
A4B0D
  5
A4B0D
331
A4A97
  5
A4A97
331
A4AD6
  5
A4AD6
331
A4C84
  5
A4C84
331
A4CBB
  5
A4CBB
331
A4FC1
  5
A4FC1
331
A4F4B
  5
A4F4B
331
A4F14
  5
A4F14
331
A4F8A
  5
A4F8A
331
A4F92
  5
A4F92
331
A4F1C
  5
A4F1C
331
A4F53
  5
A4F53
331
A4FC9
  5
A4FC9
331
A4FD1
  5
A4FD1
331
A4F5B
  5
A4F5B
331
A4E65
  5
A4E65
331
A4F24
  5
A4F24
331
A4F9A
  5
A4F9A
331
A50A7
  5
A50A7
331
A4FD9
  5
A4FD9
331
A4F63
  5
A4F63
331
A5741
  5
A5741
331
A561A
  5
A561A
331
A55CB
  5
A55CB
331
A55D3
  5
A55D3
331
A5622
  5
A5622
331
A562A
  5
A562A
331
A588F
  5
A588F
331
A5791
  5
A5791
331
A55F3
  5
A55F3
331
A4CC3
  5
A4CC3
331
A4B15
  5
A4B15
331
A4A9F
  5
A4A9F
331
A4ADE
  5
A4ADE
331
A4C8C
  5
A4C8C
331
A4C94
  5
A4C94
331
A4AE6
  5
A4AE6
331
A4AA7
  5
A4AA7
331
A4CCB
  5
A4CCB
331
A4CD3
  5
A4CD3
331
A4B25
  5
A4B25
331
A4AAF
  5
A4AAF
331
A4AEE
  5
A4AEE
331
A4C9C
  5
A4C9C
331
A4CDB
  5
A4CDB
331
A4AB7
  5
A4AB7
331
A5038
  5
A5038
331
A4FA2
  5
A4FA2
331
A4F2C
  5
A4F2C
331
A4F6B
  5
A4F6B
331
A4FE1
  5
A4FE1
331
A4F73
  5
A4F73
331
A4F34
  5
A4F34
331
A4FAA
  5
A4FAA
331
A4FE9
  5
A4FE9
331
A4FB2
  5
A4FB2
331
A4F3C
  5
A4F3C
331
A4F05
  5
A4F05
331
A4F7B
  5
A4F7B
331
A4FF1
  5
A4FF1
331
A4F83
  5
A4F83
331
A4F0D
  5
A4F0D
331
A4F44
  5
A4F44
331
A4FBA
  5
A4FBA
331
A55FB
  5
A55FB
331
A5632
  5
A5632
331
A56F2
  5
A56F2
331
A5603
  5
A5603
331
A560B
  5
A560B
331
A55BC
  5
A55BC
331
A55C4
  5
A55C4
331
A5613
  5
A5613
331
A4CA4
  5
A4CA4
331
A4AF6
  5
A4AF6
331
A4A80
  5
A4A80
331
A4ABF
  5
A4ABF
331
A4D0B
  5
A4D0B
331
A4CAC
  5
A4CAC
331
A4AC7
  5
A4AC7
331
A4A88
  5
A4A88
331
A4AFE
  5
A4AFE
331
A4B06
  5
A4B06
331
A4A90
  5
A4A90
331
A4ACF
  5
A4ACF
331
A4C7D
  5
A4C7D
331
A4C85
  5
A4C85
331
A4AD7
  5
A4AD7
331
A4B0E
  5
A4B0E
331
A4CBC
  5
A4CBC
331
A4FC2
  5
A4FC2
331
A4F4C
  5
A4F4C
331
A4F15
  5
A4F15
331
A4F8B
  5
A4F8B
331
A4FCA
  5
A4FCA
331
A4F1D
  5
A4F1D
331
A4F54
  5
A4F54
331
A4F93
  5
A4F93
331
A4F9B
  5
A4F9B
331
A4F25
  5
A4F25
331
A4F5C
  5
A4F5C
331
A4FD2
  5
A4FD2
331
A50A8
  5
A50A8
331
A4FDA
  5
A4FDA
331
A4F64
  5
A4F64
331
A561B
  5
A561B
331
A55CC
  5
A55CC
331
A5742
  5
A5742
331
A55D4
  5
A55D4
331
A5623
  5
A5623
331
A562B
  5
A562B
331
A5792
  5
A5792
331
A55F4
  5
A55F4
331
A4A98
  5
A4A98
331
A4CC4
  5
A4CC4
331
A4B16
  5
A4B16
331
A4AA0
  5
A4AA0
331
A4ADF
  5
A4ADF
331
A4C8D
  5
A4C8D
331
A4CCC
  5
A4CCC
331
A4AE7
  5
A4AE7
331
A4AA8
  5
A4AA8
331
A4B1E
  5
A4B1E
331
A4C95
  5
A4C95
331
A4D5B
  5
A4D5B
331
A4B26
  5
A4B26
331
A4AB0
  5
A4AB0
331
A4AEF
  5
A4AEF
331
A4C9D
  5
A4C9D
331
A4CD4
  5
A4CD4
331
A4CDC
  5
A4CDC
331
A4B2E
  5
A4B2E
331
A4FA3
  5
A4FA3
331
A4F2D
  5
A4F2D
331
A4E86
  5
A4E86
331
A4F6C
  5
A4F6C
331
A4FE2
  5
A4FE2
331
A5039
  5
A5039
331
A4F35
  5
A4F35
331
A4F74
  5
A4F74
331
A4FAB
  5
A4FAB
331
A4FEA
  5
A4FEA
331
A4FF2
  5
A4FF2
331
A4F7C
  5
A4F7C
331
A4F06
  5
A4F06
331
A4F3D
  5
A4F3D
331
A4FB3
  5
A4FB3
331
A4FBB
  5
A4FBB
331
A4F45
  5
A4F45
331
A4F0E
  5
A4F0E
331
A4F84
  5
A4F84
331
A5633
  5
A5633
331
A55FC
  5
A55FC
331
A5604
  5
A5604
331
A560C
  5
A560C
331
A55BD
  5
A55BD
331
A55C5
  5
A55C5
331
A5614
  5
A5614
331
A4AB8
  5
A4AB8
331
A4CA5
  5
A4CA5
331
A4AF7
  5
A4AF7
331
A4AC0
  5
A4AC0
331
A4A81
  5
A4A81
331
A4CF4
  5
A4CF4
331
A4CAD
  5
A4CAD
331
A4AFF
  5
A4AFF
331
A4A89
  5
A4A89
331
A4AC8
  5
A4AC8
331
A4D0C
  5
A4D0C
331
A4C7E
  5
A4C7E
331
A4A91
  5
A4A91
331
A4AD0
  5
A4AD0
331
A4B07
  5
A4B07
331
A4CB5
  5
A4CB5
331
A4CBD
  5
A4CBD
331
A4B0F
  5
A4B0F
331
A4C86
  5
A4C86
331
A4F8C
  5
A4F8C
331
A4F16
  5
A4F16
331
A4F4D
  5
A4F4D
331
A4FC3
  5
A4FC3
331
A4F55
  5
A4F55
331
A4F1E
  5
A4F1E
331
A4F94
  5
A4F94
331
A4FCB
  5
A4FCB
331
A4F9C
  5
A4F9C
331
A4F26
  5
A4F26
331
A4F5D
  5
A4F5D
331
A4FD3
  5
A4FD3
331
A4FDB
  5
A4FDB
331
A4F65
  5
A4F65
331
A50A9
  5
A50A9
331
A561C
  5
A561C
331
A55CD
  5
A55CD
331
A5624
  5
A5624
331
A55D5
  5
A55D5
331
A562C
  5
A562C
331
A55F5
  5
A55F5
331
A5793
  5
A5793
331
A4A99
  5
A4A99
331
A4AD8
  5
A4AD8
331
A4B17
  5
A4B17
331
A4AE0
  5
A4AE0
331
A4AA1
  5
A4AA1
331
A4C8E
  5
A4C8E
331
A4CC5
  5
A4CC5
331
A4CCD
  5
A4CCD
331
A4B1F
  5
A4B1F
331
A4AA9
  5
A4AA9
331
A4AE8
  5
A4AE8
331
A4C96
  5
A4C96
331
A4D5C
  5
A4D5C
331
A4C9E
  5
A4C9E
331
A4B27
  5
A4B27
331
A4AB1
  5
A4AB1
331
A4CD5
  5
A4CD5
331
A4CDD
  5
A4CDD
331
A4B2F
  5
A4B2F
331
A503A
  5
A503A
331
A4FA4
  5
A4FA4
331
A4F2E
  5
A4F2E
331
A4F6D
  5
A4F6D
331
A4FE3
  5
A4FE3
331
A4FEB
  5
A4FEB
331
A4F75
  5
A4F75
331
A4F36
  5
A4F36
331
A4FAC
  5
A4FAC
331
A4F7D
  5
A4F7D
331
A4F07
  5
A4F07
331
A4F3E
  5
A4F3E
331
A4FB4
  5
A4FB4
331
A4FF3
  5
A4FF3
331
A4F46
  5
A4F46
331
A4F0F
  5
A4F0F
331
A4F85
  5
A4F85
331
A4FBC
  5
A4FBC
331
A55FD
  5
A55FD
331
A5605
  5
A5605
331
A55BE
  5
A55BE
331
A560D
  5
A560D
331
A5615
  5
A5615
331
A55C6
  5
A55C6
331
A4AF0
  5
A4AF0
331
A4AB9
  5
A4AB9
331
A4AC1
  5
A4AC1
331
A4A82
  5
A4A82
331
A4AF8
  5
A4AF8
331
A4CA6
  5
A4CA6
331
A4B00
  5
A4B00
331
A4A8A
  5
A4A8A
331
A4AC9
  5
A4AC9
331
A4CAE
  5
A4CAE
331
A4C7F
  5
A4C7F
331
A4AD1
  5
A4AD1
331
A4A92
  5
A4A92
331
A4B08
  5
A4B08
331
A4CB6
  5
A4CB6
331
A4CBE
  5
A4CBE
331
A4C87
  5
A4C87
331
A4FC4
  5
A4FC4
331
A4F4E
  5
A4F4E
331
A4F17
  5
A4F17
331
A4F8D
  5
A4F8D
331
A4F95
  5
A4F95
331
A4F1F
  5
A4F1F
331
A4F56
  5
A4F56
331
A4FCC
  5
A4FCC
331
A4FD4
  5
A4FD4
331
A4F5E
  5
A4F5E
331
A4F27
  5
A4F27
331
A4F9D
  5
A4F9D
331
A5101
  5
A5101
331
A50AA
  5
A50AA
331
A4FDC
  5
A4FDC
331
A4F66
  5
A4F66
331
A561D
  5
A561D
331
A55CE
  5
A55CE
331
A55D6
  5
A55D6
331
A5625
  5
A5625
331
A57FB
  5
A57FB
331
A562D
  5
A562D
331
A55F6
  5
A55F6
331
A4B10
  5
A4B10
331
A4A9A
  5
A4A9A
331
A4AD9
  5
A4AD9
331
A4CC6
  5
A4CC6
331
A4B18
  5
A4B18
331
A4AA2
  5
A4AA2
331
A4AE1
  5
A4AE1
331
A4C8F
  5
A4C8F
331
A4C97
  5
A4C97
331
A4AE9
  5
A4AE9
331
A4AAA
  5
A4AAA
331
A4B20
  5
A4B20
331
A4CCE
  5
A4CCE
331
A4CD6
  5
A4CD6
331
A4B28
  5
A4B28
331
A4AB2
  5
A4AB2
331
A4C9F
  5
A4C9F
331
A4FA5
  5
A4FA5
331
A4F2F
  5
A4F2F
331
A4F6E
  5
A4F6E
331
A4FE4
  5
A4FE4
331
A4F76
  5
A4F76
331
A4F00
  5
A4F00
331
A4F37
  5
A4F37
331
A4FAD
  5
A4FAD
331
A4FB5
  5
A4FB5
331
A4F3F
  5
A4F3F
331
A4F08
  5
A4F08
331
A4F7E
  5
A4F7E
331
A4FF4
  5
A4FF4
331
A4F86
  5
A4F86
331
A4F47
  5
A4F47
331
A4FBD
  5
A4FBD
331
A55FE
  5
A55FE
331
A5127
  5
A5127
331
A581B
  5
A581B
331
A55B7
  5
A55B7
331
A5606
  5
A5606
331
A55BF
  5
A55BF
331
A560E
  5
A560E
331
A55C7
  5
A55C7
331
A5616
  5
A5616
331
A4AF1
  5
A4AF1
331
A4ABA
  5
A4ABA
331
A4B30
  5
A4B30
331
A4AF9
  5
A4AF9
331
A4A83
  5
A4A83
331
A4AC2
  5
A4AC2
331
A4CA7
  5
A4CA7
331
A4CAF
  5
A4CAF
331
A4ACA
  5
A4ACA
331
A4A8B
  5
A4A8B
331
A4B01
  5
A4B01
331
A4CB7
  5
A4CB7
331
A4B09
  5
A4B09
331
A4A93
  5
A4A93
331
A4AD2
  5
A4AD2
331
A4C80
  5
A4C80
331
A4CBF
  5
A4CBF
331
A4F10
  5
A4F10
331
A4FC5
  5
A4FC5
331
A4F4F
  5
A4F4F
331
A4F18
  5
A4F18
331
A4F8E
  5
A4F8E
331
A5014
  5
A5014
331
A4FCD
  5
A4FCD
331
A4F20
  5
A4F20
331
A4F57
  5
A4F57
331
A4F96
  5
A4F96
331
A5034
  5
A5034
331
A4F5F
  5
A4F5F
331
A4F9E
  5
A4F9E
331
A4FD5
  5
A4FD5
331
A50AB
  5
A50AB
331
A4FDD
  5
A4FDD
331
A4F67
  5
A4F67
331
A561E
  5
A561E
331
A55CF
  5
A55CF
331
A55D7
  5
A55D7
331
A5626
  5
A5626
331
A57FC
  5
A57FC
331
A562E
  5
A562E
331
A55F7
  5
A55F7
331
A4ADA
  5
A4ADA
331
A4A9B
  5
A4A9B
331
A4C88
  5
A4C88
331
A4CC7
  5
A4CC7
331
A4B19
  5
A4B19
331
A4AA3
  5
A4AA3
331
A4AE2
  5
A4AE2
331
A4C90
  5
A4C90
331
A4C98
  5
A4C98
331
A4AEA
  5
A4AEA
331
A4AAB
  5
A4AAB
331
A4B21
  5
A4B21
331
A4CCF
  5
A4CCF
331
A4CD7
  5
A4CD7
331
A4B29
  5
A4B29
331
A4AB3
  5
A4AB3
331
A4F28
  5
A4F28
331
A4FA6
  5
A4FA6
331
A4F6F
  5
A4F6F
331
A4F30
  5
A4F30
331
A4FE5
  5
A4FE5
331
A4FAE
  5
A4FAE
331
A4F38
  5
A4F38
331
A4F01
  5
A4F01
331
A4F77
  5
A4F77
331
A4FF5
  5
A4FF5
331
A4F7F
  5
A4F7F
331
A4F09
  5
A4F09
331
A4F40
  5
A4F40
331
A4FB6
  5
A4FB6
331
A4FBE
  5
A4FBE
331
A55FF
  5
A55FF
331
A58EB
  5
A58EB
331
A55B8
  5
A55B8
331
A5607
  5
A5607
331
A560F
  5
A560F
331
A55C0
  5
A55C0
331
A5617
  5
A5617
331
A4CA0
  5
A4CA0
331
A4AF2
  5
A4AF2
331
A4ABB
  5
A4ABB
331
A4CA8
  5
A4CA8
331
A4A84
  5
A4A84
331
A4AC3
  5
A4AC3
331
A4AFA
  5
A4AFA
331
A4CB0
  5
A4CB0
331
A4ACB
  5
A4ACB
331
A4A8C
  5
A4A8C
331
A4B02
  5
A4B02
331
A4C79
  5
A4C79
331
A4C81
  5
A4C81
331
A4A94
  5
A4A94
331
A4AD3
  5
A4AD3
331
A4B0A
  5
A4B0A
331
A4CB8
  5
A4CB8
331
A4F48
  5
A4F48
331
A4F11
  5
A4F11
331
A4F8F
  5
A4F8F
331
A4F19
  5
A4F19
331
A4F50
  5
A4F50
331
A4FC6
  5
A4FC6
331
A4FCE
  5
A4FCE
331
A4F58
  5
A4F58
331
A4F21
  5
A4F21
331
A4F97
  5
A4F97
331
A5035
  5
A5035
331
A4F9F
  5
A4F9F
331
A4F60
  5
A4F60
331
A4FD6
  5
A4FD6
331
A50A4
  5
A50A4
331
A50AC
  5
A50AC
331
A4FDE
  5
A4FDE
331
A55C8
  5
A55C8
331
A55D0
  5
A55D0
331
A561F
  5
A561F
331
A5627
  5
A5627
331
A55D8
  5
A55D8
331
A562F
  5
A562F
331
A4CC0
  5
A4CC0
331
A4A9C
  5
A4A9C
331
A4ADB
  5
A4ADB
331
A4C89
  5
A4C89
331
A4C91
  5
A4C91
331
A4AE3
  5
A4AE3
331
A4AA4
  5
A4AA4
331
A4CC8
  5
A4CC8
331
A4CD0
  5
A4CD0
331
A4B22
  5
A4B22
331
A4AAC
  5
A4AAC
331
A4AEB
  5
A4AEB
331
A4C99
  5
A4C99
331
A4CD8
  5
A4CD8
331
A4B2A
  5
A4B2A
331
A4AB4
  5
A4AB4
331
A4F29
  5
A4F29
331
A4F68
  5
A4F68
331
A4FA7
  5
A4FA7
331
A4F31
  5
A4F31
331
A4F70
  5
A4F70
331
A4FE6
  5
A4FE6
331
A4F39
  5
A4F39
331
A4E03
  5
A4E03
331
A4F02
  5
A4F02
331
A4F78
  5
A4F78
331
A4FAF
  5
A4FAF
331
A4F80
  5
A4F80
331
A4F0A
  5
A4F0A
331
A4F41
  5
A4F41
331
A4FB7
  5
A4FB7
331
A4FF6
  5
A4FF6
331
A4FBF
  5
A4FBF
331
A55F8
  5
A55F8
331
A5600
  5
A5600
331
A58EC
  5
A58EC
331
A5608
  5
A5608
331
A55B9
  5
A55B9
331
A55C1
  5
A55C1
331
7AC05
  5
7BAAD
331
A4CA1
  5
A4CA1
331
A4AF3
  5
A4AF3
331
A4A7D
  5
A4A7D
331
A4ABC
  5
A4ABC
331
A4BA2
  5
A4BA2
331
A4AC4
  5
A4AC4
331
A4A85
  5
A4A85
331
A4AFB
  5
A4AFB
331
A4CA9
  5
A4CA9
331
A4CB1
  5
A4CB1
331
A4B03
  5
A4B03
331
A4A8D
  5
A4A8D
331
A4ACC
  5
A4ACC
331
A4C7A
  5
A4C7A
331
A4C82
  5
A4C82
331
A4AD4
  5
A4AD4
331
A4A95
  5
A4A95
331
A4B0B
  5
A4B0B
331
A4CB9
  5
A4CB9
331
A4E2B
  5
A4E2B
331
A4F12
  5
A4F12
331
A4F49
  5
A4F49
331
A4FC7
  5
A4FC7
331
A4F51
  5
A4F51
331
A4F1A
  5
A4F1A
331
A4F90
  5
A4F90
331
A4F98
  5
A4F98
331
A4F22
  5
A4F22
331
A4F59
  5
A4F59
331
A4FCF
  5
A4FCF
331
A50A5
  5
A50A5
331
A4FD7
  5
A4FD7
331
A4F61
  5
A4F61
331
A5036
  5
A5036
331
A4FDF
  5
A4FDF
331
A5618
  5
A5618
331
A55C9
  5
A55C9
331
A55D1
  5
A55D1
331
A5620
  5
A5620
331
A5628
  5
A5628
331
A55D9
  5
A55D9
331
A4CC1
  5
A4CC1
331
A4A9D
  5
A4A9D
331
A4ADC
  5
A4ADC
331
A4C8A
  5
A4C8A
331
A4CC9
  5
A4CC9
331
A4AE4
  5
A4AE4
331
A4AA5
  5
A4AA5
331
A4C92
  5
A4C92
331
A4C9A
  5
A4C9A
331
A4AAD
  5
A4AAD
331
A4AEC
  5
A4AEC
331
A4B23
  5
A4B23
331
A4CD1
  5
A4CD1
331
A4CD9
  5
A4CD9
331
A4B2B
  5
A4B2B
331
A4AB5
  5
A4AB5
331
A4F2A
  5
A4F2A
331
A4F69
  5
A4F69
331
A4FA0
  5
A4FA0
331
A4FA8
  5
A4FA8
331
A4F32
  5
A4F32
331
A4F71
  5
A4F71
331
A4FE7
  5
A4FE7
331
A4FEF
  5
A4FEF
331
A4F79
  5
A4F79
331
A4F03
  5
A4F03
331
A4F3A
  5
A4F3A
331
A4FB0
  5
A4FB0
331
A4FB8
  5
A4FB8
331
A4F42
  5
A4F42
331
A4F0B
  5
A4F0B
331
A4F81
  5
A4F81
331
A4FF7
  5
A4FF7
331
A5630
  5
A5630
331
A55F9
  5
A55F9
331
A5601
  5
A5601
331
A55BA
  5
A55BA
331
A5609
  5
A5609
331
A55C2
  5
A55C2
331
A585E
  5
A585E
331
7AC06
  5
7BAAE
331
A4CA2
  5
A4CA2
331
A4AF4
  5
A4AF4
331
A4ABD
  5
A4ABD
331
A4CAA
  5
A4CAA
331
A4AFC
  5
A4AFC
331
A4A86
  5
A4A86
331
A4AC5
  5
A4AC5
331
A4BA3
  5
A4BA3
331
A4C7B
  5
A4C7B
331
A4ACD
  5
A4ACD
331
A4A8E
  5
A4A8E
331
A4B04
  5
A4B04
331
62524
  5
626B6
331
A4CBA
  5
A4CBA
331
A4B0C
  5
A4B0C
331
A4A96
  5
A4A96
331
A4AD5
  5
A4AD5
331
A4C83
  5
A4C83
331
A4FC0
  5
A4FC0
331
A4F13
  5
A4F13
331
A4F4A
  5
A4F4A
331
A4F52
  5
A4F52
331
A4F1B
  5
A4F1B
331
A4F91
  5
A4F91
331
A4FC8
  5
A4FC8
331
A4F99
  5
A4F99
331
A4F23
  5
A4F23
331
A4F5A
  5
A4F5A
331
A4FD0
  5
A4FD0
331
A4FD8
  5
A4FD8
331
A4F62
  5
A4F62
331
A5037
  5
A5037
331
A50A6
  5
A50A6
331
A5619
  5
A5619
331
A55CA
  5
A55CA
331
A5621
  5
A5621
331
A55D2
  5
A55D2
331
A5629
  5
A5629
  0
XRECORD
  5
AB242
102
{ACAD_REACTORS
330
AB241
102
}
330
AB241
100
AcDbXrecord
280
     1
 70
     1
  0
LAYOUT
  5
22
102
{ACAD_XDICTIONARY
360
AB245
102
}
102
{ACAD_REACTORS
330
1A
102
}
330
1A
100
AcDbPlotSettings
  1

  2
Adobe PDF
  4
User66
  6

 40
3.174999952316284
 41
3.174999952316284
 42
3.17498779296875
 43
3.17498779296875
 44
420.0
 45
594.0
 46
-3.174993872642517
 47
-3.174993872642517
 48
0.0
 49
0.0
140
1188.0
141
840.0
142
1.0
143
2.0
 70
  3748
 72
     1
 73
     1
 74
     4
  7
monochrome.ctb
 75
     0
147
0.4848174396015349
148
0.0
149
0.0
100
AcDbLayout
  1
Model
 70
     1
 71
     0
 10
0.0
 20
0.0
 11
12.0
 21
9.0
 12
0.0
 22
0.0
 32
0.0
 14
0.0
 24
0.0
 34
0.0
 15
0.0
 25
0.0
 35
0.0
146
0.0
 13
0.0
 23
0.0
 33
0.0
 16
1.0
 26
0.0
 36
0.0
 17
0.0
 27
1.0
 37
0.0
 76
     0
330
1F
331
B0EC
1001
ACAD_PSEXT
1000
Adobe PDF
1000
Adobe PDF Converter
1000
My Documents\*.pdf
1000

1070
     0
  0
LAYOUT
  5
1E
102
{ACAD_XDICTIONARY
360
AB243
102
}
102
{ACAD_REACTORS
330
1A
102
}
330
1A
100
AcDbPlotSettings
  1

  2
\\ML370\XEROX
  4
A4
  6

 40
3.174999952316284
 41
3.174999952316284
 42
3.175003051757812
 43
3.17498779296875
 44
209.8674926757813
 45
296.6719970703125
 46
0.0
 47
0.0
 48
0.0
 49
0.0
140
0.0
141
0.0
142
1.0
143
1.0
 70
   688
 72
     1
 73
     1
 74
     5
  7
monochrome.ctb
 75
    16
147
1.0
148
0.0
149
0.0
100
AcDbLayout
  1
ﾚｲｱｳﾄ1
 70
     1
 71
     1
 10
-3.17498779296875
 20
-3.174999952316284
 11
293.4970092773438
 21
206.692492723465
 12
0.0
 22
0.0
 32
0.0
 14
1.000000000000000E+20
 24
1.000000000000000E+20
 34
1.000000000000000E+20
 15
-1.000000000000000E+20
 25
-1.000000000000000E+20
 35
-1.000000000000000E+20
146
0.0
 13
0.0
 23
0.0
 33
0.0
 16
1.0
 26
0.0
 36
0.0
 17
0.0
 27
1.0
 37
0.0
 76
     0
330
1B
  0
LAYOUT
  5
26
102
{ACAD_XDICTIONARY
360
AB247
102
}
102
{ACAD_REACTORS
330
1A
102
}
330
1A
100
AcDbPlotSettings
  1

  2
\\ML370\XEROX
  4

  6

 40
0.0
 41
0.0
 42
0.0
 43
0.0
 44
0.0
 45
0.0
 46
0.0
 47
0.0
 48
0.0
 49
0.0
140
0.0
141
0.0
142
1.0
143
1.0
 70
   688
 72
     0
 73
     0
 74
     5
  7
monochrome.ctb
 75
    16
147
1.0
148
0.0
149
0.0
100
AcDbLayout
  1
ﾚｲｱｳﾄ2
 70
     1
 71
     2
 10
0.0
 20
0.0
 11
12.0
 21
9.0
 12
0.0
 22
0.0
 32
0.0
 14
0.0
 24
0.0
 34
0.0
 15
0.0
 25
0.0
 35
0.0
146
0.0
 13
0.0
 23
0.0
 33
0.0
 16
1.0
 26
0.0
 36
0.0
 17
0.0
 27
1.0
 37
0.0
 76
     0
330
23
  0
MATERIAL
  5
B0EF
102
{ACAD_XDICTIONARY
360
AB24D
102
}
102
{ACAD_REACTORS
330
A91C
102
}
330
A91C
100
AcDbMaterial
  1
ByBlock
  0
MATERIAL
  5
B0EE
102
{ACAD_XDICTIONARY
360
AB24B
102
}
102
{ACAD_REACTORS
330
A91C
102
}
330
A91C
100
AcDbMaterial
  1
ByLayer
  0
MATERIAL
  5
B0F0
102
{ACAD_XDICTIONARY
360
AB24F
102
}
102
{ACAD_REACTORS
330
A91C
102
}
330
A91C
100
AcDbMaterial
  1
Global
  0
MLINESTYLE
  5
18
102
{ACAD_REACTORS
330
17
102
}
330
17
100
AcDbMlineStyle
  2
STANDARD
 70
     0
  3

 62
   256
 51
90.0
 52
90.0
 71
     2
 49
0.5
 62
   256
  6
BYLAYER
 49
-0.5
 62
   256
  6
BYLAYER
  0
ACDBPLACEHOLDER
  5
F
102
{ACAD_REACTORS
330
E
102
}
330
E
  0
TABLESTYLE
  5
AABA
102
{ACAD_XDICTIONARY
360
AB249
102
}
102
{ACAD_REACTORS
330
AAB9
102
}
330
AAB9
100
AcDbTableStyle
  3
Standard
 70
     0
 71
     0
 40
1.5
 41
1.5
280
     0
281
     0
  7
STANDARD
140
4.5
170
     2
 62
     0
 63
     7
283
     0
274
    -2
284
     1
 64
     0
275
    -2
285
     1
 65
     0
276
    -2
286
     1
 66
     0
277
    -2
287
     1
 67
     0
278
    -2
288
     1
 68
     0
279
    -2
289
     1
 69
     0
  7
STANDARD
140
6.0
170
     5
 62
     0
 63
     7
283
     0
274
    -2
284
     1
 64
     0
275
    -2
285
     1
 65
     0
276
    -2
286
     1
 66
     0
277
    -2
287
     1
 67
     0
278
    -2
288
     1
 68
     0
279
    -2
289
     1
 69
     0
  7
STANDARD
140
4.5
170
     5
 62
     0
 63
     7
283
     0
274
    -2
284
     1
 64
     0
275
    -2
285
     1
 65
     0
276
    -2
286
     1
 66
     0
277
    -2
287
     1
 67
     0
278
    -2
288
     1
 68
     0
279
    -2
289
     1
 69
     0
  0
VISUALSTYLE
  5
B0F7
102
{ACAD_REACTORS
330
B0F1
102
}
330
B0F1
100
AcDbVisualStyle
  2
2dWireframe
 70
     4
 71
     0
 72
     2
 73
     0
 90
        0
 40
-0.6
 41
-30.0
 62
     5
 63
     7
 74
     1
 91
        4
 64
     7
 65
   257
 75
     1
175
     1
 42
1.0
 92
        0
 66
   257
 43
1.0
 76
     1
 77
     6
 78
     2
 67
     7
 79
     5
170
     0
171
     0
290
     0
174
     0
 93
        1
 44
0.0
173
     0
291
     0
 45
0.0
1001
ACAD
1000
AcDbSavedByObjectVersion
1070
     0
  0
VISUALSTYLE
  5
B0F9
102
{ACAD_REACTORS
330
B0F1
102
}
330
B0F1
100
AcDbVisualStyle
  2
3D Hidden
 70
     6
 71
     1
 72
     2
 73
     2
 90
        0
 40
-0.6
 41
-30.0
 62
     5
 63
     7
 74
     2
 91
        2
 64
     7
 65
   257
 75
     2
175
     1
 42
40.0
 92
        0
 66
   257
 43
1.0
 76
     1
 77
     6
 78
     2
 67
     7
 79
     3
170
     0
171
     0
290
     0
174
     0
 93
        1
 44
0.0
173
     0
291
     0
 45
0.0
1001
ACAD
1000
AcDbSavedByObjectVersion
1070
     0
  0
VISUALSTYLE
  5
B0F8
102
{ACAD_REACTORS
330
B0F1
102
}
330
B0F1
100
AcDbVisualStyle
  2
3dWireframe
 70
     5
 71
     0
 72
     2
 73
     0
 90
        0
 40
-0.6
 41
-30.0
 62
     5
 63
     7
 74
     1
 91
        4
 64
     7
 65
   257
 75
     1
175
     1
 42
1.0
 92
        0
 66
   257
 43
1.0
 76
     1
 77
     6
 78
     2
 67
     7
 79
     5
170
     0
171
     0
290
     0
174
     0
 93
        1
 44
0.0
173
     0
291
     0
 45
0.0
1001
ACAD
1000
AcDbSavedByObjectVersion
1070
     0
  0
VISUALSTYLE
  5
B0F6
102
{ACAD_REACTORS
330
B0F1
102
}
330
B0F1
100
AcDbVisualStyle
  2
Basic
 70
     7
 71
     1
 72
     0
 73
     1
 90
        0
 40
-0.6
 41
-30.0
 62
     5
 63
     7
 74
     0
 91
        4
 64
     7
 65
   257
 75
     1
175
     1
 42
1.0
 92
        8
 66
     7
 43
1.0
 76
     1
 77
     6
 78
     2
 67
     7
 79
     5
170
     0
171
     0
290
     0
174
     0
 93
        1
 44
0.0
173
     0
291
     1
 45
0.0
1001
ACAD
1000
AcDbSavedByObjectVersion
1070
     0
  0
VISUALSTYLE
  5
B0FD
102
{ACAD_REACTORS
330
B0F1
102
}
330
B0F1
100
AcDbVisualStyle
  2
Brighten
 70
    12
 71
     2
 72
     2
 73
     0
 90
        0
 40
-0.6
 41
-30.0
 62
     5
 63
     7
 74
     1
 91
        4
 64
     7
 65
   257
 75
     1
175
     1
 42
1.0
 92
        8
 66
     7
 43
1.0
 76
     1
 77
     6
 78
     2
 67
     7
 79
     5
170
     0
171
     0
290
     0
174
     0
 93
        1
 44
50.0
173
     0
291
     1
 45
0.0
1001
ACAD
1000
AcDbSavedByObjectVersion
1070
     0
  0
VISUALSTYLE
  5
B101
102
{ACAD_REACTORS
330
B0F1
102
}
330
B0F1
100
AcDbVisualStyle
  2
ColorChange
 70
    16
 71
     2
 72
     2
 73
     3
 90
        0
 40
-0.6
 41
-30.0
 62
     5
 63
     8
 74
     1
 91
        4
 64
     7
 65
   257
 75
     1
175
     1
 42
1.0
 92
        8
 66
     8
 43
1.0
 76
     1
 77
     6
 78
     2
 67
     7
 79
     5
170
     0
171
     0
290
     0
174
     0
 93
        1
 44
0.0
173
     0
291
     1
 45
0.0
1001
ACAD
1000
AcDbSavedByObjectVersion
1070
     0
  0
VISUALSTYLE
  5
B0FA
102
{ACAD_REACTORS
330
B0F1
102
}
330
B0F1
100
AcDbVisualStyle
  2
Conceptual
 70
     9
 71
     3
 72
     2
 73
     0
 90
        0
 40
-0.6
 41
-30.0
 62
     5
 63
     7
 74
     2
 91
        2
 64
     7
 65
   257
 75
     1
175
     1
 42
40.0
 92
        8
 66
     7
 43
1.0
 76
     1
 77
     6
 78
     2
 67
     7
 79
     3
170
     0
171
     0
290
     0
174
     0
 93
        1
 44
0.0
173
     0
291
     0
 45
0.0
1001
ACAD
1000
AcDbSavedByObjectVersion
1070
     0
  0
VISUALSTYLE
  5
B0FC
102
{ACAD_REACTORS
330
B0F1
102
}
330
B0F1
100
AcDbVisualStyle
  2
Dim
 70
    11
 71
     2
 72
     2
 73
     0
 90
        0
 40
-0.6
 41
-30.0
 62
     5
 63
     7
 74
     1
 91
        4
 64
     7
 65
   257
 75
     1
175
     1
 42
1.0
 92
        8
 66
     7
 43
1.0
 76
     1
 77
     6
 78
     2
 67
     7
 79
     5
170
     0
171
     0
290
     0
174
     0
 93
        1
 44
-50.0
173
     0
291
     1
 45
0.0
1001
ACAD
1000
AcDbSavedByObjectVersion
1070
     0
  0
VISUALSTYLE
  5
B100
102
{ACAD_REACTORS
330
B0F1
102
}
330
B0F1
100
AcDbVisualStyle
  2
Facepattern
 70
    15
 71
     2
 72
     2
 73
     0
 90
        0
 40
-0.6
 41
-30.0
 62
     5
 63
     7
 74
     1
 91
        4
 64
     7
 65
   257
 75
     1
175
     1
 42
1.0
 92
        8
 66
     7
 43
1.0
 76
     1
 77
     6
 78
     2
 67
     7
 79
     5
170
     0
171
     0
290
     0
174
     0
 93
        1
 44
0.0
173
     0
291
     1
 45
0.0
1001
ACAD
1000
AcDbSavedByObjectVersion
1070
     0
  0
VISUALSTYLE
  5
B0F2
102
{ACAD_REACTORS
330
B0F1
102
}
330
B0F1
100
AcDbVisualStyle
  2
Flat
 70
     0
 71
     2
 72
     1
 73
     1
 90
        2
 40
-0.6
 41
30.0
 62
     5
 63
     7
 74
     0
 91
        4
 64
     7
 65
   257
 75
     1
175
     1
 42
1.0
 92
        8
 66
     7
 43
1.0
 76
     1
 77
     6
 78
     2
 67
     7
 79
     5
170
     0
171
     0
290
     0
174
     0
 93
       13
 44
0.0
173
     0
291
     1
 45
0.0
1001
ACAD
1000
AcDbSavedByObjectVersion
1070
     0
  0
VISUALSTYLE
  5
B0F3
102
{ACAD_REACTORS
330
B0F1
102
}
330
B0F1
100
AcDbVisualStyle
  2
FlatWithEdges
 70
     1
 71
     2
 72
     1
 73
     1
 90
        2
 40
-0.6
 41
30.0
 62
     5
 63
     7
 74
     1
 91
        4
 64
     7
 65
   257
 75
     1
175
     1
 42
1.0
 92
        0
 66
   257
 43
1.0
 76
     1
 77
     6
 78
     2
 67
     7
 79
     5
170
     0
171
     0
290
     0
174
     0
 93
       13
 44
0.0
173
     0
291
     1
 45
0.0
1001
ACAD
1000
AcDbSavedByObjectVersion
1070
     0
  0
VISUALSTYLE
  5
B0F4
102
{ACAD_REACTORS
330
B0F1
102
}
330
B0F1
100
AcDbVisualStyle
  2
Gouraud
 70
     2
 71
     2
 72
     2
 73
     1
 90
        2
 40
-0.6
 41
30.0
 62
     5
 63
     7
 74
     0
 91
        4
 64
     7
 65
   257
 75
     1
175
     1
 42
1.0
 92
        0
 66
     7
 43
1.0
 76
     1
 77
     6
 78
     2
 67
     7
 79
     5
170
     0
171
     0
290
     0
174
     0
 93
       13
 44
0.0
173
     0
291
     1
 45
0.0
1001
ACAD
1000
AcDbSavedByObjectVersion
1070
     0
  0
VISUALSTYLE
  5
B0F5
102
{ACAD_REACTORS
330
B0F1
102
}
330
B0F1
100
AcDbVisualStyle
  2
GouraudWithEdges
 70
     3
 71
     2
 72
     2
 73
     1
 90
        2
 40
-0.6
 41
30.0
 62
     5
 63
     7
 74
     1
 91
        4
 64
     7
 65
   257
 75
     1
175
     1
 42
1.0
 92
        0
 66
   257
 43
1.0
 76
     1
 77
     6
 78
     2
 67
     7
 79
     5
170
     0
171
     0
290
     0
174
     0
 93
       13
 44
0.0
173
     0
291
     1
 45
0.0
1001
ACAD
1000
AcDbSavedByObjectVersion
1070
     0
  0
VISUALSTYLE
  5
B0FF
102
{ACAD_REACTORS
330
B0F1
102
}
330
B0F1
100
AcDbVisualStyle
  2
Linepattern
 70
    14
 71
     2
 72
     2
 73
     0
 90
        0
 40
-0.6
 41
-30.0
 62
     5
 63
     7
 74
     1
 91
        4
 64
     7
 65
   257
 75
     7
175
     7
 42
1.0
 92
        8
 66
     7
 43
1.0
 76
     1
 77
     6
 78
     2
 67
     7
 79
     5
170
     0
171
     0
290
     0
174
     0
 93
        1
 44
0.0
173
     0
291
     1
 45
0.0
1001
ACAD
1000
AcDbSavedByObjectVersion
1070
     0
  0
VISUALSTYLE
  5
B0FB
102
{ACAD_REACTORS
330
B0F1
102
}
330
B0F1
100
AcDbVisualStyle
  2
Realistic
 70
     8
 71
     2
 72
     2
 73
     0
 90
        0
 40
-0.6
 41
-30.0
 62
     5
 63
     7
 74
     1
 91
        0
 64
     7
 65
   257
 75
     1
175
     1
 42
1.0
 92
        8
 66
     8
 43
1.0
 76
     1
 77
     6
 78
     2
 67
     7
 79
     5
170
     0
171
     0
290
     0
174
     0
 93
       13
 44
0.0
173
     0
291
     0
 45
0.0
1001
ACAD
1000
AcDbSavedByObjectVersion
1070
     0
  0
VISUALSTYLE
  5
B0FE
102
{ACAD_REACTORS
330
B0F1
102
}
330
B0F1
100
AcDbVisualStyle
  2
Thicken
 70
    13
 71
     2
 72
     2
 73
     0
 90
        0
 40
-0.6
 41
-30.0
 62
     5
 63
     7
 74
     1
 91
        4
 64
     7
 65
   257
 75
     1
175
     1
 42
1.0
 92
       12
 66
     7
 43
1.0
 76
     1
 77
     6
 78
     2
 67
     7
 79
     5
170
     0
171
     0
290
     0
174
     0
 93
        1
 44
0.0
173
     0
291
     1
 45
0.0
1001
ACAD
1000
AcDbSavedByObjectVersion
1070
     0
  0
DICTIONARYVAR
  5
AAF3
102
{ACAD_REACTORS
330
34
102
}
330
34
100
DictionaryVariables
280
     0
  1
STANDARD
  0
DICTIONARYVAR
  5
A10C
102
{ACAD_REACTORS
330
34
102
}
330
34
100
DictionaryVariables
280
     0
  1
1
  0
DICTIONARYVAR
  5
AB07
102
{ACAD_REACTORS
330
34
102
}
330
34
100
DictionaryVariables
280
     0
  1
4
  0
DICTIONARYVAR
  5
35
102
{ACAD_REACTORS
330
34
102
}
330
34
100
DictionaryVariables
280
     0
  1
0
  0
DICTIONARYVAR
  5
194C
102
{ACAD_REACTORS
330
34
102
}
330
34
100
DictionaryVariables
280
     0
  1
96
  0
DICTIONARY
  5
7E8
102
{ACAD_REACTORS
330
47
102
}
330
47
100
AcDbDictionary
281
     1
  0
DICTIONARY
  5
4C
102
{ACAD_REACTORS
330
47
102
}
330
47
100
AcDbDictionary
281
     1
  0
XRECORD
  5
A929
102
{ACAD_REACTORS
330
47
102
}
330
47
100
AcDbXrecord
280
     1
 90
-1023410169
  0
XRECORD
  5
AA8D9
102
{ACAD_REACTORS
330
AA8D8
102
}
330
AA8D8
100
AcDbXrecord
280
     1
330
0
330
0
330
0
330
0
330
0
330
0
330
0
330
0
330
0
330
0
330
0
330
0
330
0
330
0
330
0
330
0
330
0
330
0
330
0
330
0
330
0
330
0
330
0
330
0
330
0
330
0
330
0
330
0
330
0
330
0
330
0
330
0
330
0
330
0
330
0
330
0
330
0
330
0
330
0
330
0
330
0
330
0
330
0
330
0
330
0
330
0
330
0
330
0
330
0
330
0
330
0
330
0
330
0
330
0
330
0
330
0
330
0
330
0
330
0
330
0
330
0
330
0
330
0
330
0
330
0
330
0
330
0
330
0
330
0
330
0
330
0
330
0
330
0
330
0
330
0
330
0
330
0
330
0
330
0
330
0
330
0
330
0
330
0
330
0
330
0
330
0
330
0
330
0
330
0
330
0
330
0
330
0
330
0
330
0
330
0
330
0
330
0
330
0
330
0
330
0
330
0
330
0
330
0
330
0
330
0
330
0
330
0
330
0
330
0
330
0
330
0
330
0
330
0
330
0
330
0
330
0
330
0
330
0
330
0
330
0
330
0
330
0
330
0
330
0
330
0
330
0
330
0
330
0
330
0
330
0
330
0
330
0
330
0
330
0
330
0
330
0
330
0
330
0
330
0
330
0
330
0
330
0
330
0
330
0
330
0
330
0
330
0
330
0
330
0
330
0
330
0
330
0
330
0
330
0
330
0
330
0
330
0
330
0
330
0
330
0
330
0
330
0
330
0
330
0
330
0
330
0
330
0
330
0
330
0
330
0
330
0
330
0
330
0
330
0
330
0
330
0
330
0
330
0
330
0
330
0
330
0
330
0
330
0
330
0
330
0
330
0
330
0
330
0
330
0
330
0
330
0
330
0
330
0
330
0
330
0
330
0
330
0
330
0
330
0
330
0
330
0
330
0
330
0
330
0
330
0
330
0
330
0
330
0
330
0
330
0
330
0
330
0
330
0
330
0
330
0
330
0
330
0
330
0
330
0
330
0
330
0
330
0
330
0
330
0
330
0
330
0
330
0
330
0
330
0
330
0
330
0
330
0
330
0
330
0
330
0
330
0
330
0
330
0
330
0
330
0
330
0
330
0
330
0
330
0
330
0
330
0
330
0
330
0
330
0
330
0
330
0
330
0
330
0
330
0
330
0
330
0
330
0
330
0
330
0
330
0
330
0
330
0
330
0
330
0
330
0
330
0
330
0
330
0
330
0
330
0
330
0
330
0
330
0
330
0
330
0
330
0
330
0
330
0
330
0
330
0
330
0
330
0
330
0
330
0
330
0
330
0
330
0
330
0
330
0
330
0
330
0
330
0
330
0
330
0
330
0
330
0
330
0
330
0
330
0
330
0
330
0
330
0
330
0
330
0
330
0
330
0
330
0
330
0
330
0
330
0
330
0
330
0
330
0
330
0
330
0
330
0
330
0
330
0
330
0
330
0
330
0
330
0
330
0
330
0
330
0
330
0
330
0
330
0
330
0
330
0
330
0
330
0
330
0
330
0
330
0
330
0
330
0
330
0
330
0
330
0
330
0
330
0
330
0
330
0
330
0
330
0
330
0
330
0
330
0
330
0
330
0
330
0
330
0
330
0
330
0
330
0
330
0
330
0
330
0
330
0
330
0
330
0
330
0
330
0
330
0
330
0
330
0
330
0
330
0
330
0
330
0
330
0
330
0
330
0
330
0
330
0
330
0
330
0
330
0
330
0
330
0
330
0
330
0
330
0
330
0
330
0
330
0
330
0
330
0
330
0
330
0
330
0
330
0
330
0
330
0
330
0
330
0
330
0
330
0
330
0
330
0
330
0
330
0
330
0
330
0
330
0
330
0
330
0
330
0
330
0
330
0
330
0
330
0
330
0
330
0
330
0
330
0
330
0
330
0
330
0
330
0
330
0
330
0
330
0
330
0
330
0
330
0
330
0
330
0
330
0
330
0
330
0
330
0
330
0
330
0
330
0
330
0
330
0
330
0
330
0
330
0
330
0
330
0
330
0
330
0
330
0
330
0
330
0
330
0
330
0
330
0
330
0
330
0
330
0
330
0
330
0
330
0
330
0
330
0
330
0
330
0
330
0
330
0
330
0
330
0
330
0
330
0
330
0
330
0
330
0
330
0
330
0
330
0
330
0
330
0
330
0
330
0
330
0
330
0
330
0
330
0
330
0
330
0
330
0
330
0
330
0
330
0
330
0
330
0
330
0
330
0
330
0
330
0
330
0
330
0
330
0
  0
XRECORD
  5
3FB7
102
{ACAD_REACTORS
330
3F96
102
}
330
3F96
100
AcDbXrecord
280
     1
 91
        3
330
0
 90
        8
 62
     7
370
    40
331
16
  1
Color_7
330
0
 90
        0
 62
    14
370
    -3
331
16
  1
Color_14
330
0
 90
        8
 62
     7
370
    20
331
16
  1
Color_7
330
6D1
 90
        0
 62
     7
370
    -3
331
16
  1
Color_7
330
0
 90
        8
 62
     7
370
    50
331
16
  1
Color_7
330
0
 90
        8
 62
     2
370
    35
331
16
  1
Color_2
330
0
 90
        8
 62
     7
370
    -3
331
16
  1
Color_7
330
10
 90
        8
 62
     7
370
    -3
331
16
  1
Color_7
  0
DICTIONARY
  5
AB245
330
22
100
AcDbDictionary
280
     1
281
     1
  3
ACAD_XREC_ROUNDTRIP
360
AB246
  0
DICTIONARY
  5
AB243
330
1E
100
AcDbDictionary
280
     1
281
     1
  3
ACAD_XREC_ROUNDTRIP
360
AB244
  0
DICTIONARY
  5
AB247
330
26
100
AcDbDictionary
280
     1
281
     1
  3
ACAD_XREC_ROUNDTRIP
360
AB248
  0
DICTIONARY
  5
AB24D
330
B0EF
100
AcDbDictionary
280
     1
281
     1
  3
ACAD_XREC_ROUNDTRIP
360
AB24E
  0
DICTIONARY
  5
AB24B
330
B0EE
100
AcDbDictionary
280
     1
281
     1
  3
ACAD_XREC_ROUNDTRIP
360
AB24C
  0
DICTIONARY
  5
AB24F
330
B0F0
100
AcDbDictionary
280
     1
281
     1
  3
ACAD_XREC_ROUNDTRIP
360
AB250
  0
DICTIONARY
  5
AB249
330
AABA
100
AcDbDictionary
280
     1
281
     1
  3
ACAD_XREC_ROUNDTRIP
360
AB24A
  0
XRECORD
  5
AB246
102
{ACAD_REACTORS
330
AB245
102
}
330
AB245
100
AcDbXrecord
280
     1
102
SHADEPLOT
 70
     1
102
SHADEPLOTRESLEVEL
 70
     2
102
SHADEPLOTCUSTOMDPI
 70
   300
  0
XRECORD
  5
AB244
102
{ACAD_REACTORS
330
AB243
102
}
330
AB243
100
AcDbXrecord
280
     1
102
SHADEPLOT
 70
     0
102
SHADEPLOTRESLEVEL
 70
     2
102
SHADEPLOTCUSTOMDPI
 70
   300
  0
XRECORD
  5
AB248
102
{ACAD_REACTORS
330
AB247
102
}
330
AB247
100
AcDbXrecord
280
     1
102
SHADEPLOT
 70
     0
102
SHADEPLOTRESLEVEL
 70
     2
102
SHADEPLOTCUSTOMDPI
 70
   300
  0
XRECORD
  5
AB24E
102
{ACAD_REACTORS
330
AB24D
102
}
330
AB24D
100
AcDbXrecord
280
     1
102
MATERIAL
148
0.0
149
0.0
149
0.0
 93
        0
 94
       63
282
     0
 72
     1
 77
     1
171
     1
175
     1
179
     1
273
     0
  0
XRECORD
  5
AB24C
102
{ACAD_REACTORS
330
AB24B
102
}
330
AB24B
100
AcDbXrecord
280
     1
102
MATERIAL
148
0.0
149
0.0
149
0.0
 93
        0
 94
       63
282
     0
 72
     1
 77
     1
171
     1
175
     1
179
     1
273
     0
  0
XRECORD
  5
AB250
102
{ACAD_REACTORS
330
AB24F
102
}
330
AB24F
100
AcDbXrecord
280
     1
102
MATERIAL
148
0.0
149
0.0
149
0.0
 93
        0
 94
       63
282
     0
 72
     1
 77
     1
171
     1
175
     1
179
     1
273
     0
  0
XRECORD
  5
AB24A
102
{ACAD_REACTORS
330
AB249
102
}
330
AB249
100
AcDbXrecord
280
     1
102
ACAD_ROUNDTRIP_PRE2007_TABLESTYLE
 90
        4
 91
        0
  1

 92
        4
 93
        0
  2

 94
        4
 95
        0
  3

  0
ENDSEC
  0
EOF
