  0
SECTION
  2
HEADER
  9
$ACADVER
  1
AC1015
  9
$ACADMAINTVER
 70
    20
  9
$DWGCODEPAGE
  3
ANSI_932
  9
$INSBASE
 10
0.0
 20
0.0
 30
0.0
  9
$EXTMIN
 10
3295.618691090298
 20
-668.3021937858386
 30
-0.0000000000000058
  9
$EXTMAX
 10
3593.005456053993
 20
-458.2349523585071
 30
0.0000000000000104
  9
$LIMMIN
 10
0.0
 20
0.0
  9
$LIMMAX
 10
297.0
 20
210.0
  9
$ORTHOMODE
 70
     0
  9
$REGENMODE
 70
     1
  9
$FILLMODE
 70
     1
  9
$QTEXTMODE
 70
     0
  9
$MIRRTEXT
 70
     0
  9
$LTSCALE
 40
1.0
  9
$ATTMODE
 70
     1
  9
$TEXTSIZE
 40
3.2
  9
$TRACEWID
 40
1.0
  9
$TEXTSTYLE
  7
STANDARD
  9
$CLAYER
  8
AM_0
  9
$CELTYPE
  6
ByLayer
  9
$CECOLOR
 62
   256
  9
$CELTSCALE
 40
1.0
  9
$DISPSILH
 70
     0
  9
$DIMSCALE
 40
1.0
  9
$DIMASZ
 40
2.5
  9
$DIMEXO
 40
1.0
  9
$DIMDLI
 40
10.0
  9
$DIMRND
 40
0.0
  9
$DIMDLE
 40
0.0
  9
$DIMEXE
 40
1.0
  9
$DIMTP
 40
0.2
  9
$DIMTM
 40
0.2
  9
$DIMTXT
 40
3.5
  9
$DIMCEN
 40
0.0
  9
$DIMTSZ
 40
0.0
  9
$DIMTOL
 70
     0
  9
$DIMLIM
 70
     0
  9
$DIMTIH
 70
     0
  9
$DIMTOH
 70
     0
  9
$DIMSE1
 70
     0
  9
$DIMSE2
 70
     0
  9
$DIMTAD
 70
     1
  9
$DIMZIN
 70
     8
  9
$DIMBLK
  1

  9
$DIMASO
 70
     1
  9
$DIMSHO
 70
     1
  9
$DIMPOST
  1

  9
$DIMAPOST
  1
"
  9
$DIMALT
 70
     0
  9
$DIMALTD
 70
     2
  9
$DIMALTF
 40
0.0393701
  9
$DIMLFAC
 40
1.0
  9
$DIMTOFL
 70
     1
  9
$DIMTVP
 40
0.0
  9
$DIMTIX
 70
     0
  9
$DIMSOXD
 70
     0
  9
$DIMSAH
 70
     0
  9
$DIMBLK1
  1

  9
$DIMBLK2
  1

  9
$DIMSTYLE
  2
SYS
  9
$DIMCLRD
 70
   256
  9
$DIMCLRE
 70
   256
  9
$DIMCLRT
 70
     7
  9
$DIMTFAC
 40
0.71
  9
$DIMGAP
 40
1.5
  9
$DIMJUST
 70
     0
  9
$DIMSD1
 70
     0
  9
$DIMSD2
 70
     0
  9
$DIMTOLJ
 70
     0
  9
$DIMTZIN
 70
     8
  9
$DIMALTZ
 70
     0
  9
$DIMALTTZ
 70
     0
  9
$DIMUPT
 70
     0
  9
$DIMDEC
 70
     1
  9
$DIMTDEC
 70
     3
  9
$DIMALTU
 70
     2
  9
$DIMALTTD
 70
     4
  9
$DIMTXSTY
  7
STANDARD
  9
$DIMAUNIT
 70
     0
  9
$DIMADEC
 70
     0
  9
$DIMALTRND
 40
0.0
  9
$DIMAZIN
 70
     2
  9
$DIMDSEP
 70
    46
  9
$DIMATFIT
 70
     3
  9
$DIMFRAC
 70
     0
  9
$DIMLDRBLK
  1

  9
$DIMLUNIT
 70
     2
  9
$DIMLWD
 70
    -1
  9
$DIMLWE
 70
    -1
  9
$DIMTMOVE
 70
     0
  9
$LUNITS
 70
     2
  9
$LUPREC
 70
     2
  9
$SKETCHINC
 40
1.0
  9
$FILLETRAD
 40
1.0
  9
$AUNITS
 70
     0
  9
$AUPREC
 70
     0
  9
$MENU
  1
.
  9
$ELEVATION
 40
0.0
  9
$PELEVATION
 40
0.0
  9
$THICKNESS
 40
0.0
  9
$LIMCHECK
 70
     0
  9
$CHAMFERA
 40
0.0
  9
$CHAMFERB
 40
0.0
  9
$CHAMFERC
 40
20.0
  9
$CHAMFERD
 40
0.0
  9
$SKPOLY
 70
     0
  9
$TDCREATE
 40
2452002.615067627
  9
$TDUCREATE
 40
2452002.240067627
  9
$TDUPDATE
 40
2455268.603251586
  9
$TDUUPDATE
 40
2455268.228251586
  9
$TDINDWG
 40
4.4531179745
  9
$TDUSRTIMER
 40
4.4531179745
  9
$USRTIMER
 70
     1
  9
$ANGBASE
 50
0.0
  9
$ANGDIR
 70
     0
  9
$PDMODE
 70
     0
  9
$PDSIZE
 40
0.0
  9
$PLINEWID
 40
0.0
  9
$SPLFRAME
 70
     0
  9
$SPLINETYPE
 70
     6
  9
$SPLINESEGS
 70
     8
  9
$HANDSEED
  5
11B15
  9
$SURFTAB1
 70
     6
  9
$SURFTAB2
 70
     6
  9
$SURFTYPE
 70
     6
  9
$SURFU
 70
     6
  9
$SURFV
 70
     6
  9
$UCSBASE
  2

  9
$UCSNAME
  2

  9
$UCSORG
 10
0.0
 20
0.0
 30
0.0
  9
$UCSXDIR
 10
1.0
 20
0.0
 30
0.0
  9
$UCSYDIR
 10
0.0
 20
1.0
 30
0.0
  9
$UCSORTHOREF
  2

  9
$UCSORTHOVIEW
 70
     0
  9
$UCSORGTOP
 10
0.0
 20
0.0
 30
0.0
  9
$UCSORGBOTTOM
 10
0.0
 20
0.0
 30
0.0
  9
$UCSORGLEFT
 10
0.0
 20
0.0
 30
0.0
  9
$UCSORGRIGHT
 10
0.0
 20
0.0
 30
0.0
  9
$UCSORGFRONT
 10
0.0
 20
0.0
 30
0.0
  9
$UCSORGBACK
 10
0.0
 20
0.0
 30
0.0
  9
$PUCSBASE
  2

  9
$PUCSNAME
  2

  9
$PUCSORG
 10
0.0
 20
0.0
 30
0.0
  9
$PUCSXDIR
 10
1.0
 20
0.0
 30
0.0
  9
$PUCSYDIR
 10
0.0
 20
1.0
 30
0.0
  9
$PUCSORTHOREF
  2

  9
$PUCSORTHOVIEW
 70
     0
  9
$PUCSORGTOP
 10
0.0
 20
0.0
 30
0.0
  9
$PUCSORGBOTTOM
 10
0.0
 20
0.0
 30
0.0
  9
$PUCSORGLEFT
 10
0.0
 20
0.0
 30
0.0
  9
$PUCSORGRIGHT
 10
0.0
 20
0.0
 30
0.0
  9
$PUCSORGFRONT
 10
0.0
 20
0.0
 30
0.0
  9
$PUCSORGBACK
 10
0.0
 20
0.0
 30
0.0
  9
$USERI1
 70
     0
  9
$USERI2
 70
     0
  9
$USERI3
 70
     0
  9
$USERI4
 70
     0
  9
$USERI5
 70
     0
  9
$USERR1
 40
0.0
  9
$USERR2
 40
0.0
  9
$USERR3
 40
0.0
  9
$USERR4
 40
0.0
  9
$USERR5
 40
0.0
  9
$WORLDVIEW
 70
     1
  9
$SHADEDGE
 70
     3
  9
$SHADEDIF
 70
    70
  9
$TILEMODE
 70
     1
  9
$MAXACTVP
 70
    64
  9
$PINSBASE
 10
0.0
 20
0.0
 30
0.0
  9
$PLIMCHECK
 70
     0
  9
$PEXTMIN
 10
1.000000000000000E+20
 20
1.000000000000000E+20
 30
1.000000000000000E+20
  9
$PEXTMAX
 10
-1.000000000000000E+20
 20
-1.000000000000000E+20
 30
-1.000000000000000E+20
  9
$PLIMMIN
 10
-3.17498779296875
 20
-3.174999952316284
  9
$PLIMMAX
 10
293.4970092773438
 20
206.692492723465
  9
$UNITMODE
 70
     0
  9
$VISRETAIN
 70
     1
  9
$PLINEGEN
 70
     0
  9
$PSLTSCALE
 70
     1
  9
$TREEDEPTH
 70
  3020
  9
$CMLSTYLE
  2
Standard
  9
$CMLJUST
 70
     0
  9
$CMLSCALE
 40
20.0
  9
$PROXYGRAPHICS
 70
     1
  9
$MEASUREMENT
 70
     1
  9
$CELWEIGHT
370
    -1
  9
$ENDCAPS
280
     0
  9
$JOINSTYLE
280
     0
  9
$LWDISPLAY
290
     0
  9
$INSUNITS
 70
     4
  9
$HYPERLINKBASE
  1

  9
$STYLESHEET
  1
monochrome.ctb
  9
$XEDIT
290
     1
  9
$CEPSNTYPE
380
     0
  9
$PSTYLEMODE
290
     1
  9
$FINGERPRINTGUID
  2
{83FB3AA1-FF18-4BFE-AFE0-611B71DE056D}
  9
$VERSIONGUID
  2
{DD2C3980-FFD9-4F74-99DB-62F604E4703E}
  9
$EXTNAMES
290
     1
  9
$PSVPSCALE
 40
0.0
  9
$OLESTARTUP
290
     0
  0
ENDSEC
  0
SECTION
  2
CLASSES
  0
CLASS
  1
ACDBDICTIONARYWDFLT
  2
AcDbDictionaryWithDefault
  3
ObjectDBX Classes
 90
        0
280
     0
281
     0
  0
CLASS
  1
ACDBPLACEHOLDER
  2
AcDbPlaceHolder
  3
ObjectDBX Classes
 90
        0
280
     0
281
     0
  0
CLASS
  1
LAYOUT
  2
AcDbLayout
  3
ObjectDBX Classes
 90
        0
280
     0
281
     0
  0
CLASS
  1
AMGSETTINGSOBJ
  2
AmgSettingsObj
  3
"AcadM|Product Description: AutoCAD Mechanical|Company: Autodesk, Inc."
 90
     1024
280
     0
281
     0
  0
CLASS
  1
ACME_DOCUMENT
  2
AcMeDbDoc
  3
AcMeServices
 90
     1024
280
     0
281
     0
  0
CLASS
  1
ACMESCOPE
  2
AcMeScope
  3
AcMeServices
 90
     1024
280
     0
281
     0
  0
CLASS
  1
ACMECOMMANDHISTORY
  2
AcMeCommandHistory
  3
AcMeServices
 90
     1024
280
     0
281
     0
  0
CLASS
  1
DICTIONARYVAR
  2
AcDbDictionaryVar
  3
ObjectDBX Classes
 90
        0
280
     0
281
     0
  0
CLASS
  1
ACIMSYSVARMAN
  2
AcImSysVarManager
  3
AcMeServices
 90
     1024
280
     0
281
     0
  0
CLASS
  1
ACIMREALSYSVAR
  2
AcImRealSysVar
  3
AcMeServices
 90
     1024
280
     0
281
     0
  0
CLASS
  1
ACIMINTSYSVAR
  2
AcImIntSysVar
  3
AcMeServices
 90
     1024
280
     0
281
     0
  0
CLASS
  1
ACMEDRAWINGMAN
  2
AcMeDrawingMan
  3
AcMeServices
 90
     1024
280
     0
281
     0
  0
CLASS
  1
ACMEVIEW
  2
AcMeView
  3
AcMeServices
 90
     1024
280
     0
281
     0
  0
CLASS
  1
ACDBENTITYCACHE
  2
AcMeEntityCache
  3
AcMeServices
 90
     1024
280
     0
281
     0
  0
CLASS
  1
GSMANAGER
  2
AcMeGSManager
  3
AcMeServices
 90
     1024
280
     0
281
     0
  0
CLASS
  1
AMDTINTERNALREACTOR
  2
AmdtInternalReactor
  3
AcMeServices
 90
     1024
280
     0
281
     0
  0
CLASS
  1
ACMESTATEMGR
  2
AcMeStateMgr
  3
AcMeServices
 90
     1024
280
     0
281
     0
  0
CLASS
  1
ACGREFMASTER
  2
AcGrefMaster
  3
AcAttribServices
 90
     1024
280
     0
281
     0
  0
CLASS
  1
ACME_DATABASE
  2
AcMeDbDatabase
  3
AcMeServices
 90
     1024
280
     0
281
     0
  0
CLASS
  1
ACRFINSADJUSTERMGR
  2
AcRfInsAdjusterMgr
  3
AcMeServices
 90
     1024
280
     0
281
     0
  0
CLASS
  1
ACGREFACADMASTER
  2
AcGrefacadMaster
  3
AcGrefServices
 90
     1024
280
     0
281
     0
  0
CLASS
  1
AMIMASTER
  2
AmiMaster
  3
AmiServices
 90
     1024
280
     0
281
     0
  0
CLASS
  1
ACMDATADICTIONARY
  2
AcmDataDictionary
  3
"AcmSymBB|Product Description: AutoCAD Mechanical|Company: Autodesk, Inc."
 90
     1024
280
     0
281
     0
  0
CLASS
  1
ACMDATAENTRYBLOCK
  2
AcmDataEntryBlock
  3
AcmSymBB|Product Description: AutoCAD Mechanical|Company: Autodesk, Inc.
 90
     1024
280
     0
281
     0
  0
CLASS
  1
ACIMSTRSYSVAR
  2
AcImStrSysVar
  3
AcMeServices
 90
     1024
280
     0
281
     0
  0
CLASS
  1
ACMSTANDARDISO
  2
AcmStandardISO
  3
"Amdt_StdImp|Product Description: AutoCAD Mechanical|Company: Autodesk, Inc."
 90
     1024
280
     0
281
     0
  0
CLASS
  1
AMGOBJPROPCFG
  2
AmgObjPropCfg
  3
"AmgLay|Product Description: AutoCAD Mechanical|Company: Autodesk, Inc."
 90
     1025
280
     0
281
     0
  0
CLASS
  1
AMDTEDGESTANDARDISO
  2
AmdtEdgeStdISO
  3
"Amdt_StdImp|Product Description: AutoCAD Mechanical|Company: Autodesk, Inc."
 90
     1024
280
     0
281
     0
  0
CLASS
  1
ACMSURFSTANDARDISO
  2
AcmSurfTextStdISO
  3
"Amdt_StdImp|Product Description: AutoCAD Mechanical|Company: Autodesk, Inc."
 90
     1024
280
     0
281
     0
  0
CLASS
  1
ACMFCFSTANDARDISO
  2
AcmFCFStdISO
  3
"Amdt_StdImp|Product Description: AutoCAD Mechanical|Company: Autodesk, Inc."
 90
     1024
280
     0
281
     0
  0
CLASS
  1
ACMWELDSTANDARDISO
  2
AcmWeldingStdISO
  3
"Amdt_StdImp|Product Description: AutoCAD Mechanical|Company: Autodesk, Inc."
 90
     1024
280
     0
281
     0
  0
CLASS
  1
ACMIDSTANDARDISO
  2
AcmIdStdISO
  3
"Amdt_StdImp|Product Description: AutoCAD Mechanical|Company: Autodesk, Inc."
 90
     1024
280
     0
281
     0
  0
CLASS
  1
ACMDATUMSTANDARDISO
  2
AcmDatumStdISO
  3
"Amdt_StdImp|Product Description: AutoCAD Mechanical|Company: Autodesk, Inc."
 90
     1024
280
     0
281
     0
  0
CLASS
  1
ACMBOMSTANDARDISO
  2
AcmBOMStdISO
  3
"Amdt_StdImp|Product Description: AutoCAD Mechanical|Company: Autodesk, Inc."
 90
     1024
280
     0
281
     0
  0
CLASS
  1
ACMDETAILSTANDARDISO
  2
AmdtDetailSymStdISO
  3
"Amdt_StdImp|Product Description: AutoCAD Mechanical|Company: Autodesk, Inc."
 90
     1024
280
     0
281
     0
  0
CLASS
  1
ACMSECTIONSTANDARDISO
  2
AmdtSectionSymStdISO
  3
"Amdt_StdImp|Product Description: AutoCAD Mechanical|Company: Autodesk, Inc."
 90
     1024
280
     0
281
     0
  0
CLASS
  1
ACMCENTERLINESTANDARDISO
  2
AmdtCenterLineStdISO
  3
"Amdt_StdImp|Product Description: AutoCAD Mechanical|Company: Autodesk, Inc."
 90
     1024
280
     0
281
     0
  0
CLASS
  1
ACAMGLAYSTD
  2
AcAmgLayStd
  3
"AmgLay|Product Description: AutoCAD Mechanical|Company: Autodesk, Inc."
 90
     1024
280
     0
281
     0
  0
CLASS
  1
ACAMGDIMSTD
  2
AcAmgDimStd
  3
"AmgDim|Product Description: AutoCAD Mechanical|Company: Autodesk, Inc."
 90
     1024
280
     0
281
     0
  0
CLASS
  1
ACAMGTITLESTD
  2
AcAmgTitleStd
  3
"AmgTitle|Product Description: AutoCAD Mechanical|Company: Autodesk, Inc."
 90
     4095
280
     0
281
     0
  0
CLASS
  1
ACAMGFILTERDAT
  2
AcAmgFilterDat
  3
"AcadM|Product Description: AutoCAD Mechanical|Company: Autodesk, Inc."
 90
     1024
280
     0
281
     0
  0
CLASS
  1
LAYER_INDEX
  2
AcDbLayerIndex
  3
ObjectDBX Classes
 90
    32768
280
     0
281
     0
  0
CLASS
  1
IDBUFFER
  2
AcDbIdBuffer
  3
ObjectDBX Classes
 90
    32768
280
     0
281
     0
  0
CLASS
  1
PLOTSETTINGS
  2
AcDbPlotSettings
  3
ObjectDBX Classes
 90
        0
280
     0
281
     0
  0
CLASS
  1
AMDTFORMULAUPDATEDISPATCHER
  2
AmdtFormulaUpdateDispatcher
  3
AcMeServices
 90
     1024
280
     0
281
     0
  0
CLASS
  1
ACMSTANDARDANSI
  2
AcmStandardANSI
  3
"Amdt_StdImp|Product Description: AutoCAD Mechanical|Company: Autodesk, Inc."
 90
     1024
280
     0
281
     0
  0
CLASS
  1
ACMSURFSTANDARDANSI
  2
AcmSurfTextStdANSI
  3
"Amdt_StdImp|Product Description: AutoCAD Mechanical|Company: Autodesk, Inc."
 90
     1024
280
     0
281
     0
  0
CLASS
  1
ACMFCFSTANDARDANSI
  2
AcmFCFStdANSI
  3
"Amdt_StdImp|Product Description: AutoCAD Mechanical|Company: Autodesk, Inc."
 90
     1024
280
     0
281
     0
  0
CLASS
  1
ACMWELDSTANDARDANSI
  2
AcmWeldingStdANSI
  3
"Amdt_StdImp|Product Description: AutoCAD Mechanical|Company: Autodesk, Inc."
 90
     1024
280
     0
281
     0
  0
CLASS
  1
ACMIDSTANDARDANSI
  2
AcmIdStdANSI
  3
"Amdt_StdImp|Product Description: AutoCAD Mechanical|Company: Autodesk, Inc."
 90
     1024
280
     0
281
     0
  0
CLASS
  1
ACMDATUMSTANDARDANSI
  2
AcmDatumStdANSI
  3
"Amdt_StdImp|Product Description: AutoCAD Mechanical|Company: Autodesk, Inc."
 90
     1024
280
     0
281
     0
  0
CLASS
  1
ACMBOMSTANDARDANSI
  2
AcmBOMStdANSI
  3
"Amdt_StdImp|Product Description: AutoCAD Mechanical|Company: Autodesk, Inc."
 90
     1024
280
     0
281
     0
  0
CLASS
  1
ACMDETAILSTANDARDANSI
  2
AmdtDetailSymStdANSI
  3
"Amdt_StdImp|Product Description: AutoCAD Mechanical|Company: Autodesk, Inc."
 90
     1024
280
     0
281
     0
  0
CLASS
  1
ACMSECTIONSTANDARDANSI
  2
AmdtSectionSymStdANSI
  3
"Amdt_StdImp|Product Description: AutoCAD Mechanical|Company: Autodesk, Inc."
 90
     1024
280
     0
281
     0
  0
CLASS
  1
ACMCENTERLINESTANDARDANSI
  2
AmdtCenterLineStdANSI
  3
"Amdt_StdImp|Product Description: AutoCAD Mechanical|Company: Autodesk, Inc."
 90
     1024
280
     0
281
     0
  0
CLASS
  1
ACMBOM
  2
AcmBom
  3
"AcmSymBB|Product Description: AutoCAD Mechanical|Company: Autodesk, Inc."
 90
     1024
280
     0
281
     0
  0
CLASS
  1
ACMDATAENTRYPART
  2
AcmDataEntryPart
  3
AcmSymBB|Product Description: AutoCAD Mechanical|Company: Autodesk, Inc.
 90
    33792
280
     0
281
     0
  0
CLASS
  1
ACMPARTREF
  2
AcmPartRef
  3
"AcmSymBB|Product Description: AutoCAD Mechanical|Company: Autodesk, Inc."
 90
    36863
280
     0
281
     1
  0
CLASS
  1
ACDBCIRCARCRES
  2
AcDbCircArcRes
  3
AcGrefServices
 90
    33792
280
     0
281
     0
  0
CLASS
  1
ACMBOMROW
  2
AcmBomRow
  3
"AcmSymBB|Product Description: AutoCAD Mechanical|Company: Autodesk, Inc."
 90
    33792
280
     0
281
     0
  0
CLASS
  1
ACMBALLOON
  2
AcmBalloon
  3
"AcmSymBB|Product Description: AutoCAD Mechanical|Company: Autodesk, Inc."
 90
    36863
280
     0
281
     1
  0
CLASS
  1
AMDTNOTE
  2
AmdtNote
  3
"AcmSymBB|Product Description: AutoCAD Mechanical|Company: Autodesk, Inc."
 90
     4095
280
     0
281
     1
  0
CLASS
  1
STDPART2D
  2
AmgStdPart
  3
AmgStdPart|Product Description: AutoCAD Mechanical|Company: Autodesk, Inc.
 90
    36863
280
     0
281
     1
  0
CLASS
  1
ACDBSTDPARTRES_LINE
  2
AcDbStdPartRes_Line
  3
AmgStdPart|Product Description: AutoCAD Mechanical|Company: Autodesk, Inc.
 90
    33792
280
     0
281
     0
  0
CLASS
  1
ACMDATAENTRY
  2
AcmDataEntry
  3
AcmSymBB|Product Description: AutoCAD Mechanical|Company: Autodesk, Inc.
 90
     1024
280
     0
281
     0
  0
CLASS
  1
ACDBOPPOLYLINERES
  2
AcDbOpPolylineRes
  3
AcGrefServices
 90
    33792
280
     0
281
     0
  0
CLASS
  1
ACMPARTLIST
  2
AcmPartList
  3
"AcmSymBB|Product Description: AutoCAD Mechanical|Company: Autodesk, Inc."
 90
    36863
280
     0
281
     1
  0
CLASS
  1
ACDBLINERES
  2
AcDbLineRes
  3
AcGrefServices
 90
    33792
280
     0
281
     0
  0
CLASS
  1
ACRFINSADJ
  2
AcRfInsAdjuster
  3
AcMeServices
 90
    33792
280
     0
281
     0
  0
CLASS
  1
AM_DRAWING_MGR
  2
AcDmDwgMgr
  3
AcMechDwgViewMgmt
 90
     1024
280
     0
281
     0
  0
CLASS
  1
AM_DWG_DOCUMENT
  2
AcDmDwgDocument
  3
AcMechDwgViewMgmt
 90
     1024
280
     0
281
     0
  0
CLASS
  1
AM_DWG_SHEET
  2
AcDmSheet
  3
AcMechDwgViewMgmt
 90
     1024
280
     0
281
     0
  0
CLASS
  1
AM_VIEWDIMPARMAP
  2
AcDmViewDimParMap
  3
AcMechDwgViewMgmt
 90
     1024
280
     0
281
     0
  0
CLASS
  1
AM_DWGMGR_NAME
  2
AcDmDwgMgrName
  3
AcMechDwgViewMgmt
 90
     1024
280
     0
281
     0
  0
CLASS
  1
AMDTMENUSTATEMGR
  2
AmdtMenuStateMgr
  3
McadcomServices
 90
     1024
280
     0
281
     0
  0
CLASS
  1
AMDTMCOMMENUSTATE
  2
AmdtMcomMenuState
  3
McadcomServices
 90
     1024
280
     0
281
     0
  0
CLASS
  1
ASAPP
  2
AcAsAppObject
  3
AutoSurfServices
 90
        0
280
     0
281
     0
  0
CLASS
  1
IM_STATIC_MAN
  2
AcImStaticVarManager
  3
AcMeServices
 90
     1024
280
     0
281
     0
  0
CLASS
  1
ACIMDBLSTATICVAR
  2
AcImDblStaticVar
  3
AcMeServices
 90
     1024
280
     0
281
     0
  0
CLASS
  1
ACIMSTRSTATICVAR
  2
AcImStrStaticVar
  3
AcMeServices
 90
     1024
280
     0
281
     0
  0
CLASS
  1
ACIMINTSTATICVAR
  2
AcImIntStaticVar
  3
AcMeServices
 90
     1024
280
     0
281
     0
  0
CLASS
  1
ACASGREFMASTER
  2
AcAsGrefMaster
  3
AutoSurfResolverServices
 90
        0
280
     0
281
     0
  0
CLASS
  1
ACADGREFMODULE
  2
AcAdGrefModule
  3
AdGrefServices
 90
        0
280
     0
281
     0
  0
CLASS
  1
AMDTMAPISURFMOUDULE
  2
AmdtMApiSurfModule
  3
MApiSurfServices
 90
        0
280
     0
281
     0
  0
CLASS
  1
MAPIAMMOUDLE
  2
MApiAmModule
  3
MApiAmServices
 90
     1024
280
     0
281
     0
  0
CLASS
  1
AMDTADMENUSTATE
  2
AmdtAdMenuState
  3
DesignerServices
 90
     1024
280
     0
281
     0
  0
CLASS
  1
ADAPPL
  2
AcAdAppl
  3
DesignerServices
 90
     1024
280
     0
281
     0
  0
CLASS
  1
DEPMGR
  2
AcAdDepMgr
  3
DesignerServices
 90
     1024
280
     0
281
     0
  0
CLASS
  1
PARAMMGR
  2
AcAdParamMgr
  3
DesignerServices
 90
     1024
280
     0
281
     0
  0
CLASS
  1
PARAMSCOPE
  2
AcAdParamScope
  3
DesignerServices
 90
     1024
280
     0
281
     0
  0
CLASS
  1
NAMEDAPPL
  2
AcAdNamedAppl
  3
DesignerServices
 90
     1024
280
     0
281
     0
  0
CLASS
  1
ADHNTMPLT
  2
AdHoleNoteTemplateMgr
  3
DesignerServices
 90
    33792
280
     0
281
     0
  0
CLASS
  1
AM_HNTEMPLATE_MGR_NAME
  2
AdHoleNoteTemplateMgrName
  3
DesignerServices
 90
    33792
280
     0
281
     0
  0
CLASS
  1
AMDTDMMENUSTATE
  2
AmdtDmMenuState
  3
AcMechDwgViewMgmt
 90
     1024
280
     0
281
     0
  0
CLASS
  1
MAPIADMODULE
  2
MApiAdModule
  3
MApiAdServices
 90
        0
280
     0
281
     0
  0
CLASS
  1
AMDTAMMENUSTATE
  2
AmdtAmMenuState
  3
DesignerAssemblies
 90
     1024
280
     0
281
     0
  0
CLASS
  1
ACAMPROJECT
  2
AcAmProject
  3
DesignerAssemblies
 90
     1024
280
     0
281
     0
  0
CLASS
  1
ACAMGRCOMPDEF
  2
AcAmGrCompDef
  3
DesignerAssemblies
 90
     1024
280
     0
281
     0
  0
CLASS
  1
ACCMCONTEXT
  2
AcCmContext
  3
DesignerAssemblies
 90
     1024
280
     0
281
     0
  0
CLASS
  1
ACAMCOMPDEF
  2
AcAmCompDef
  3
DesignerAssemblies
 90
     1024
280
     0
281
     0
  0
CLASS
  1
ACAMCOMPDEFMGR
  2
AcAmCompDefMgr
  3
DesignerAssemblies
 90
     1024
280
     0
281
     0
  0
CLASS
  1
AMCONTEXTMGR
  2
AcAmContextMgr
  3
DesignerAssemblies
 90
     1024
280
     0
281
     0
  0
CLASS
  1
ACAMCONTEXTMODELER
  2
AcAmContextModeler
  3
DesignerAssemblies
 90
     1024
280
     0
281
     0
  0
CLASS
  1
CATALOGSTATE
  2
AcAmCatalogState
  3
DesignerAssemblies
 90
     1024
280
     0
281
     0
  0
CLASS
  1
ACAMGRCOMPDEFSET
  2
AcAmGrCompDefSet
  3
DesignerAssemblies
 90
     1024
280
     0
281
     0
  0
CLASS
  1
AMDTBROWSERDBTAB
  2
AmdtBrowserDbTab
  3
McadcomServices
 90
     1024
280
     0
281
     0
  0
CLASS
  1
CBROWSERAPPOBJECT
  2
CBrowserAppObject
  3
McadcomServices
 90
     1024
280
     0
281
     0
  0
CLASS
  1
DM_PLACEHOLDER
  2
AcDmSelsetPlaceholder
  3
AcMechDwgViewMgmt
 90
     1024
280
     0
281
     0
  0
CLASS
  1
ACMPICKOBJ
  2
AcmPickEnt
  3
"AcmSymBB|Product Description: AutoCAD Mechanical|Company: Autodesk, Inc."
 90
    33792
280
     0
281
     1
  0
CLASS
  1
MATERIAL
  2
AcDbMaterial
  3
ObjectDBX Classes
 90
     1153
280
     0
281
     0
  0
CLASS
  1
VISUALSTYLE
  2
AcDbVisualStyle
  3
ObjectDBX Classes
 90
     4095
280
     0
281
     0
  0
CLASS
  1
TABLESTYLE
  2
AcDbTableStyle
  3
ObjectDBX Classes
 90
     4095
280
     0
281
     0
  0
CLASS
  1
ACRFATTGENMGR
  2
AcRfAttGeneralMgr
  3
AcAttribServices
 90
     1024
280
     0
281
     0
  0
CLASS
  1
ACRFOBJATTMGR
  2
AcRfObjAttGroupMgr
  3
AcAttribServices
 90
     1024
280
     0
281
     0
  0
CLASS
  1
ACRFMCADAPIATTHOLDER
  2
AcRfMCADAPIAttHolder
  3
AcAttribServices
 90
     1024
280
     0
281
     0
  0
CLASS
  1
AMDTSYSATTR
  2
AmdtSystemAttribute
  3
AcAttribServices
 90
     1024
280
     0
281
     0
  0
CLASS
  1
ACMTHREADLINESTANDARDISO
  2
AmdtThreadLineStdISO
  3
"Amdt_StdImp|Product Description: AutoCAD Mechanical|Company: Autodesk, Inc."
 90
     1024
280
     0
281
     0
  0
CLASS
  1
ACMNOTESTANDARDISO
  2
AmdtNoteStdISO
  3
"Amdt_StdImp|Product Description: AutoCAD Mechanical|Company: Autodesk, Inc."
 90
     1024
280
     0
281
     0
  0
CLASS
  1
AMDTNOTETEMPLATEDB
  2
AmdtNoteTemplateDB
  3
AcmSymBB|Product Description: AutoCAD Mechanical|Company: Autodesk, Inc.
 90
     1024
280
     0
281
     0
  0
CLASS
  1
ACMTAPERSTANDARDISO
  2
AcmTaperStdISO
  3
"Amdt_StdImp|Product Description: AutoCAD Mechanical|Company: Autodesk, Inc."
 90
     1024
280
     0
281
     0
  0
CLASS
  1
ACMTHREADLINESTANDARDANSI
  2
AmdtThreadLineStdANSI
  3
"Amdt_StdImp|Product Description: AutoCAD Mechanical|Company: Autodesk, Inc."
 90
     1024
280
     0
281
     0
  0
CLASS
  1
ACMNOTESTANDARDANSI
  2
AmdtNoteStdANSI
  3
"Amdt_StdImp|Product Description: AutoCAD Mechanical|Company: Autodesk, Inc."
 90
     1024
280
     0
281
     0
  0
CLASS
  1
ACMTAPERSTANDARDANSI
  2
AcmTaperStdANSI
  3
"Amdt_StdImp|Product Description: AutoCAD Mechanical|Company: Autodesk, Inc."
 90
     1024
280
     0
281
     0
  0
CLASS
  1
CAMSSTRUCTBTNSTATE
  2
StructBtnState
  3
DesignerAssemblies
 90
     1024
280
     0
281
     0
  0
CLASS
  1
SORTENTSTABLE
  2
AcDbSortentsTable
  3
ObjectDBX Classes
 90
        0
280
     0
281
     0
  0
CLASS
  1
DIMASSOC
  2
AcDbDimAssoc
  3
"AcDbDimAssoc|Product Desc:     AcDim ARX App For Dimension|Company:          Autodesk, Inc.|WEB Address:      www.autodesk.com"
 90
        0
280
     0
281
     0
  0
CLASS
  1
SCALE
  2
AcDbScale
  3
ObjectDBX Classes
 90
     1153
280
     0
281
     0
  0
CLASS
  1
MLEADERSTYLE
  2
AcDbMLeaderStyle
  3
ACDB_MLEADERSTYLE_CLASS
 90
     4095
280
     0
281
     0
  0
CLASS
  1
ACMANOOTATIONVIEWSTANDARDISO
  2
AmdtAnViewStdISO
  3
"Amdt_StdImp|Product Description: AutoCAD Mechanical|Company: Autodesk, Inc."
 90
     1024
280
     0
281
     0
  0
CLASS
  1
ACMANOOTATIONVIEWSTANDARDANSI
  2
AmdtAnViewStdANSI
  3
"Amdt_StdImp|Product Description: AutoCAD Mechanical|Company: Autodesk, Inc."
 90
     1024
280
     0
281
     0
  0
CLASS
  1
CELLSTYLEMAP
  2
AcDbCellStyleMap
  3
ObjectDBX Classes
 90
     1152
280
     0
281
     0
  0
CLASS
  1
ACMSTANDARDJIS
  2
AcmStandardJIS
  3
"Amdt_StdImp|Product Description: AutoCAD Mechanical|Company: Autodesk, Inc."
 90
     1024
280
     0
281
     0
  0
CLASS
  1
ACMSURFSTANDARDJIS2003
  2
AcmSurfTextStdJIS2003
  3
"Amdt_StdImp|Product Description: AutoCAD Mechanical|Company: Autodesk, Inc."
 90
     1024
280
     0
281
     0
  0
CLASS
  1
ACMFCFSTANDARDJIS98
  2
AcmFCFStdJIS98
  3
"Amdt_StdImp|Product Description: AutoCAD Mechanical|Company: Autodesk, Inc."
 90
     1024
280
     0
281
     0
  0
CLASS
  1
ACMWELDSTANDARDJIS
  2
AcmWeldingStdJIS
  3
"Amdt_StdImp|Product Description: AutoCAD Mechanical|Company: Autodesk, Inc."
 90
     1024
280
     0
281
     0
  0
CLASS
  1
ACMIDSTANDARDJIS
  2
AcmIdStdJIS
  3
"Amdt_StdImp|Product Description: AutoCAD Mechanical|Company: Autodesk, Inc."
 90
     1024
280
     0
281
     0
  0
CLASS
  1
ACMDATUMSTANDARDJIS
  2
AcmDatumStdJIS
  3
"Amdt_StdImp|Product Description: AutoCAD Mechanical|Company: Autodesk, Inc."
 90
     1024
280
     0
281
     0
  0
CLASS
  1
ACMBOMSTANDARDJIS
  2
AcmBOMStdJIS
  3
"Amdt_StdImp|Product Description: AutoCAD Mechanical|Company: Autodesk, Inc."
 90
     1024
280
     0
281
     0
  0
CLASS
  1
ACMDETAILSTANDARDJIS
  2
AmdtDetailSymStdJIS
  3
"Amdt_StdImp|Product Description: AutoCAD Mechanical|Company: Autodesk, Inc."
 90
     1024
280
     0
281
     0
  0
CLASS
  1
ACMSECTIONSTANDARDJIS
  2
AmdtSectionSymStdJIS
  3
"Amdt_StdImp|Product Description: AutoCAD Mechanical|Company: Autodesk, Inc."
 90
     1024
280
     0
281
     0
  0
CLASS
  1
ACMCENTERLINESTANDARDJIS
  2
AmdtCenterLineStdJIS
  3
"Amdt_StdImp|Product Description: AutoCAD Mechanical|Company: Autodesk, Inc."
 90
     1024
280
     0
281
     0
  0
CLASS
  1
ACMTHREADLINESTANDARDJIS
  2
AmdtThreadLineStdJIS
  3
"Amdt_StdImp|Product Description: AutoCAD Mechanical|Company: Autodesk, Inc."
 90
     1024
280
     0
281
     0
  0
CLASS
  1
ACMNOTESTANDARDJIS
  2
AmdtNoteStdJIS
  3
"Amdt_StdImp|Product Description: AutoCAD Mechanical|Company: Autodesk, Inc."
 90
     1024
280
     0
281
     0
  0
CLASS
  1
ACMTAPERSTANDARDJIS
  2
AcmTaperStdJIS
  3
"Amdt_StdImp|Product Description: AutoCAD Mechanical|Company: Autodesk, Inc."
 90
     1024
280
     0
281
     0
  0
CLASS
  1
ACMANOOTATIONVIEWSTANDARDJIS
  2
AmdtAnViewStdJIS
  3
"Amdt_StdImp|Product Description: AutoCAD Mechanical|Company: Autodesk, Inc."
 90
     1024
280
     0
281
     0
  0
CLASS
  1
ACAMGHOLECHARTSTDJIS
  2
AcAmgHoleChartStdJIS
  3
AmgDim|Product Description: AutoCAD Mechanical|Company: Autodesk, Inc.
 90
     1024
280
     0
281
     0
  0
ENDSEC
  0
SECTION
  2
TABLES
  0
TABLE
  2
VPORT
  5
8
330
0
100
AcDbSymbolTable
 70
     1
  0
VPORT
  5
C444
330
8
100
AcDbSymbolTableRecord
100
AcDbViewportTableRecord
  2
*Active
 70
     0
 10
0.0
 20
0.0
 11
1.0
 21
1.0
 12
3444.312073572145
 22
-563.2685730721728
 13
0.0
 23
0.0
 14
2.5
 24
2.5
 15
10.0
 25
10.0
 16
0.0
 26
0.0
 36
1.0
 17
0.0
 27
0.0
 37
0.0
 40
211.6998883814299
 41
1.891050583657587
 42
50.0
 43
-1370.695619172058
 44
-1370.695619172058
 50
0.0
 51
0.0
 71
    16
 72
   100
 73
     1
 74
     3
 75
     0
 76
     0
 77
     0
 78
     0
281
     0
 65
     0
110
0.0
120
0.0
130
0.0
111
1.0
121
0.0
131
0.0
112
0.0
122
1.0
132
0.0
 79
     0
146
0.0
  0
ENDTAB
  0
TABLE
  2
LTYPE
  5
5
330
0
100
AcDbSymbolTable
 70
    31
  0
LTYPE
  5
14
330
5
100
AcDbSymbolTableRecord
100
AcDbLinetypeTableRecord
  2
ByBlock
 70
     0
  3

 72
    65
 73
     0
 40
0.0
  0
LTYPE
  5
15
330
5
100
AcDbSymbolTableRecord
100
AcDbLinetypeTableRecord
  2
ByLayer
 70
     0
  3

 72
    65
 73
     0
 40
0.0
  0
LTYPE
  5
16
330
5
100
AcDbSymbolTableRecord
100
AcDbLinetypeTableRecord
  2
Continuous
 70
     0
  3
Solid line
 72
    65
 73
     0
 40
0.0
  0
LTYPE
  5
4F
330
5
100
AcDbSymbolTableRecord
100
AcDbLinetypeTableRecord
  2
AM_ISO02W050
 70
     0
  3
__ __ __ __ __ __ __ __ __ __ __ __ __ __ __
 72
    65
 73
     2
 40
7.5
 49
6.0
 74
     0
 49
-1.5
 74
     0
  0
LTYPE
  5
52
330
5
100
AcDbSymbolTableRecord
100
AcDbLinetypeTableRecord
  2
Amconstr
 70
     0
  3
_______________________
 72
    65
 73
     2
 40
9999.0
 49
9999.0
 74
     0
 49
0.0
 74
     0
  0
LTYPE
  5
64
330
5
100
AcDbSymbolTableRecord
100
AcDbLinetypeTableRecord
  2
ACISOWELD
 70
     0
  3
_ _ _ _ _
 72
    65
 73
     2
 40
2.0
 49
2.0
 74
     0
 49
-1.0
 74
     0
  0
LTYPE
  5
65
330
5
100
AcDbSymbolTableRecord
100
AcDbLinetypeTableRecord
  2
ACISOTGB
 70
     0
  3
__ . . __ . .
 72
    65
 73
     6
 40
9.0
 49
4.0
 74
     0
 49
-1.0
 74
     0
 49
1.0
 74
     0
 49
-1.0
 74
     0
 49
1.0
 74
     0
 49
-1.0
 74
     0
  0
LTYPE
  5
66
330
5
100
AcDbSymbolTableRecord
100
AcDbLinetypeTableRecord
  2
ACISOTGL
 70
     0
  3
_ _ _ _ _
 72
    65
 73
     2
 40
3.0
 49
2.0
 74
     0
 49
-1.0
 74
     0
  0
LTYPE
  5
69
330
5
100
AcDbSymbolTableRecord
100
AcDbLinetypeTableRecord
  2
CENTER
 70
     0
  3
__ . __
 72
    65
 73
     4
 40
7.0
 49
4.0
 74
     0
 49
-1.0
 74
     0
 49
1.0
 74
     0
 49
-1.0
 74
     0
  0
LTYPE
  5
A6E
330
5
100
AcDbSymbolTableRecord
100
AcDbLinetypeTableRecord
  2
PHANTOM2
 70
     0
  3
Phantom (.5x) ___ _ _ ___ _ _ ___ _ _ ___ _ _
 72
    65
 73
     6
 40
31.75
 49
15.875
 74
     0
 49
-3.174999999999999
 74
     0
 49
3.174999999999999
 74
     0
 49
-3.174999999999999
 74
     0
 49
3.174999999999999
 74
     0
 49
-3.174999999999999
 74
     0
  0
LTYPE
  5
FA3
330
5
100
AcDbSymbolTableRecord
100
AcDbLinetypeTableRecord
  2
ACANSTGB
 70
     0
  3
__ . . __ . .
 72
    65
 73
     6
 40
0.35433070866
 49
0.15748031496
 74
     0
 49
-0.03937007874
 74
     0
 49
0.03937007874
 74
     0
 49
-0.03937007874
 74
     0
 49
0.03937007874
 74
     0
 49
-0.03937007874
 74
     0
  0
LTYPE
  5
FA4
330
5
100
AcDbSymbolTableRecord
100
AcDbLinetypeTableRecord
  2
ACANSTGL
 70
     0
  3
_ _ _ _ _
 72
    65
 73
     2
 40
0.11811023622
 49
0.07874015748
 74
     0
 49
-0.03937007874
 74
     0
  0
LTYPE
  5
4DED
330
5
100
AcDbSymbolTableRecord
100
AcDbLinetypeTableRecord
  2
中線
 70
     0
  3
___________________
 72
    65
 73
     2
 40
2.0
 49
1.0
 74
     0
 49
1.0
 74
     0
  0
LTYPE
  5
4DF6
330
5
100
AcDbSymbolTableRecord
100
AcDbLinetypeTableRecord
  2
細線
 70
     0
  3
___________________
 72
    65
 73
     2
 40
2.0
 49
1.0
 74
     0
 49
1.0
 74
     0
  0
LTYPE
  5
4DF7
330
5
100
AcDbSymbolTableRecord
100
AcDbLinetypeTableRecord
  2
太線
 70
     0
  3
___________________
 72
    65
 73
     2
 40
2.0
 49
1.0
 74
     0
 49
1.0
 74
     0
  0
LTYPE
  5
4EA7
330
5
100
AcDbSymbolTableRecord
100
AcDbLinetypeTableRecord
  2
文字
 70
     0
  3
_________________
 72
    65
 73
     2
 40
2.0
 49
1.0
 74
     0
 49
1.0
 74
     0
  0
LTYPE
  5
4EA9
330
5
100
AcDbSymbolTableRecord
100
AcDbLinetypeTableRecord
  2
寸法線
 70
     0
  3
________________
 72
    65
 73
     2
 40
2.0
 49
1.0
 74
     0
 49
1.0
 74
     0
  0
LTYPE
  5
4F12
330
5
100
AcDbSymbolTableRecord
100
AcDbLinetypeTableRecord
  2
ハッチング
 70
     0
  3
_________________
 72
    65
 73
     2
 40
2.0
 49
1.0
 74
     0
 49
1.0
 74
     0
  0
LTYPE
  5
5180
330
5
100
AcDbSymbolTableRecord
100
AcDbLinetypeTableRecord
  2
陰線1
 70
     0
  3
__ __ __ __
 72
    65
 73
     2
 40
4.0
 49
2.2
 74
     0
 49
-1.8
 74
     0
  0
LTYPE
  5
5182
330
5
100
AcDbSymbolTableRecord
100
AcDbLinetypeTableRecord
  2
切断線
 70
     0
  3
/\/-/\/-/\/-/\/-/\/-/\/
 72
    65
 73
     2
 40
11.0001
 49
0.0001
 74
     4
 75
   135
340
56
 46
0.04
 50
0.0
 44
0.0
 45
0.0
 49
-11.0
 74
     0
  0
LTYPE
  5
5183
330
5
100
AcDbSymbolTableRecord
100
AcDbLinetypeTableRecord
  2
想像線1
 70
     0
  3
__ __ __ _____ __ __ ____
 72
    65
 73
     6
 40
14.5
 49
6.0
 74
     0
 49
-1.5
 74
     0
 49
2.0
 74
     0
 49
-1.5
 74
     0
 49
2.0
 74
     0
 49
-1.5
 74
     0
  0
LTYPE
  5
5185
330
5
100
AcDbSymbolTableRecord
100
AcDbLinetypeTableRecord
  2
中心線1
 70
     0
  3
___ _ ___ _ ___
 72
    65
 73
     4
 40
18.0
 49
12.0
 74
     0
 49
-2.0
 74
     0
 49
2.0
 74
     0
 49
-2.0
 74
     0
  0
LTYPE
  5
5188
330
5
100
AcDbSymbolTableRecord
100
AcDbLinetypeTableRecord
  2
補助線
 70
     0
  3
______________
 72
    65
 73
     2
 40
2.0
 49
1.0
 74
     0
 49
1.0
 74
     0
  0
LTYPE
  5
C49C
330
5
100
AcDbSymbolTableRecord
100
AcDbLinetypeTableRecord
  2
HIDDEN
 70
     0
  3
Hidden __ __ __ __ __ __ __ __ __ __ __ __ __ _
 72
    65
 73
     2
 40
9.524999999999998
 49
6.349999999999999
 74
     0
 49
-3.174999999999999
 74
     0
  0
LTYPE
  5
DD68
330
5
100
AcDbSymbolTableRecord
100
AcDbLinetypeTableRecord
  2
ACJISWELD
 70
     0
  3
_ _ _ _ _
 72
    65
 73
     2
 40
2.0
 49
2.0
 74
     0
 49
-1.0
 74
     0
  0
LTYPE
  5
DD69
330
5
100
AcDbSymbolTableRecord
100
AcDbLinetypeTableRecord
  2
ACJISTGB
 70
     0
  3
__ . . __ . .
 72
    65
 73
     6
 40
9.0
 49
4.0
 74
     0
 49
-1.0
 74
     0
 49
1.0
 74
     0
 49
-1.0
 74
     0
 49
1.0
 74
     0
 49
-1.0
 74
     0
  0
LTYPE
  5
DD6A
330
5
100
AcDbSymbolTableRecord
100
AcDbLinetypeTableRecord
  2
ACJISTGL
 70
     0
  3
_ _ _ _ _
 72
    65
 73
     2
 40
3.0
 49
2.0
 74
     0
 49
-1.0
 74
     0
  0
ENDTAB
  0
TABLE
  2
LAYER
  5
2
102
{ACAD_XDICTIONARY
360
3F95
102
}
330
0
100
AcDbSymbolTable
 70
    26
  0
LAYER
  5
10
102
{ACAD_XDICTIONARY
360
DB24
102
}
330
2
100
AcDbSymbolTableRecord
100
AcDbLayerTableRecord
  2
0
 70
     0
 62
     7
  6
Continuous
370
    -3
390
F
  0
LAYER
  5
6D1
330
2
100
AcDbSymbolTableRecord
100
AcDbLayerTableRecord
  2
Defpoints
 70
     0
 62
     7
  6
Continuous
290
     0
370
    -3
390
F
  0
LAYER
  5
A46
102
{ACAD_XDICTIONARY
360
DB26
102
}
330
2
100
AcDbSymbolTableRecord
100
AcDbLayerTableRecord
  2
size
 70
     0
 62
     5
  6
Continuous
290
     0
370
    30
390
F
  0
LAYER
  5
A47
102
{ACAD_XDICTIONARY
360
DB28
102
}
330
2
100
AcDbSymbolTableRecord
100
AcDbLayerTableRecord
  2
waku
 70
     0
 62
     7
  6
Continuous
370
    40
390
F
  0
LAYER
  5
A48
102
{ACAD_XDICTIONARY
360
DB2A
102
}
330
2
100
AcDbSymbolTableRecord
100
AcDbLayerTableRecord
  2
AM_6
 70
     0
 62
     2
  6
文字
370
    20
390
F
  0
LAYER
  5
5F85
102
{ACAD_XDICTIONARY
360
DB34
102
}
330
2
100
AcDbSymbolTableRecord
100
AcDbLayerTableRecord
  2
AM_0
 70
     0
 62
     7
  6
中線
370
    30
390
F
  0
LAYER
  5
BFAA
102
{ACAD_XDICTIONARY
360
DB40
102
}
330
2
100
AcDbSymbolTableRecord
100
AcDbLayerTableRecord
  2
AM_2
 70
     0
 62
     1
  6
細線
370
    20
390
F
  0
LAYER
  5
BFAB
102
{ACAD_XDICTIONARY
360
DB42
102
}
330
2
100
AcDbSymbolTableRecord
100
AcDbLayerTableRecord
  2
AM_5
 70
     0
 62
     3
  6
寸法線
370
    18
390
F
  0
LAYER
  5
BFAC
102
{ACAD_XDICTIONARY
360
DB44
102
}
330
2
100
AcDbSymbolTableRecord
100
AcDbLayerTableRecord
  2
AM_7
 70
     0
 62
     4
  6
中心線1
370
    15
390
F
  0
LAYER
  5
C7E9
102
{ACAD_XDICTIONARY
360
DB4A
102
}
330
2
100
AcDbSymbolTableRecord
100
AcDbLayerTableRecord
  2
AM_11
 70
     0
 62
     2
  6
想像線1
370
    20
390
F
  0
ENDTAB
  0
TABLE
  2
STYLE
  5
3
330
0
100
AcDbSymbolTable
 70
    11
  0
STYLE
  5
11
330
3
100
AcDbSymbolTableRecord
100
AcDbTextStyleTableRecord
  2
STANDARD
 70
     0
 40
0.0
 41
0.7
 50
0.0
 71
     0
 42
3.2
  3
romans.shx
  4
extfont.shx
  0
STYLE
  5
56
330
3
100
AcDbSymbolTableRecord
100
AcDbTextStyleTableRecord
  2

 70
     1
 40
0.0
 41
1.0
 50
0.0
 71
     0
 42
2.5
  3
ltypeshp.shx
  4

  0
STYLE
  5
58
330
3
100
AcDbSymbolTableRecord
100
AcDbTextStyleTableRecord
  2
ACISOTS
 70
     0
 40
1.0
 41
1.0
 50
0.0
 71
     0
 42
2.5
  3
isocp.shx
  4
extfont.shx
  0
STYLE
  5
63
330
3
100
AcDbSymbolTableRecord
100
AcDbTextStyleTableRecord
  2
ACISOGDT
 70
     0
 40
0.0
 41
1.0
 50
0.0
 71
     0
 42
2.5
  3
amgdt.shx
  4

  0
STYLE
  5
A74
330
3
100
AcDbSymbolTableRecord
100
AcDbTextStyleTableRecord
  2
DIM
 70
     0
 40
0.0
 41
1.0
 50
0.0
 71
     0
 42
2.5
  3
monotxt.shx
  4
extfont.shx
  0
STYLE
  5
FA7
330
3
100
AcDbSymbolTableRecord
100
AcDbTextStyleTableRecord
  2
ACANSTS
 70
     0
 40
1.0
 41
1.0
 50
0.0
 71
     0
 42
0.2
  3
romans.shx
  4
extfont.shx
  0
STYLE
  5
FA8
330
3
100
AcDbSymbolTableRecord
100
AcDbTextStyleTableRecord
  2
ACANSGDT
 70
     0
 40
0.0
 41
1.0
 50
0.0
 71
     0
 42
0.2
  3
amgdtans.shx
  4

  0
STYLE
  5
DD6B
330
3
100
AcDbSymbolTableRecord
100
AcDbTextStyleTableRecord
  2
ACJISTS
 70
     0
 40
1.0
 41
1.0
 50
0.0
 71
     0
 42
3.2
  3
isocp.shx
  4
extfont.shx
  0
STYLE
  5
DD6C
330
3
100
AcDbSymbolTableRecord
100
AcDbTextStyleTableRecord
  2
ACJISGDT
 70
     0
 40
0.0
 41
1.0
 50
0.0
 71
     0
 42
3.2
  3
amgdt.shx
  4

  0
ENDTAB
  0
TABLE
  2
VIEW
  5
6
330
0
100
AcDbSymbolTable
 70
     6
  0
VIEW
  5
AE1
330
6
100
AcDbSymbolTableRecord
100
AcDbViewTableRecord
  2
AM_VIEW1
 70
     0
 40
105.0
 10
90.503120124805
 20
157.5
 41
181.00624024961
 11
0.0
 21
0.0
 31
1.0
 12
0.0
 22
0.0
 32
0.0
 42
50.0
 43
-1370.695619172058
 44
-1370.695619172058
 50
0.0
 71
    16
281
     0
 72
     0
  0
VIEW
  5
AE2
330
6
100
AcDbSymbolTableRecord
100
AcDbViewTableRecord
  2
AM_VIEW2
 70
     0
 40
105.0
 10
206.496879875195
 20
157.5
 41
181.00624024961
 11
0.0
 21
0.0
 31
1.0
 12
0.0
 22
0.0
 32
0.0
 42
50.0
 43
-1370.695619172058
 44
-1370.695619172058
 50
0.0
 71
    16
281
     0
 72
     0
  0
VIEW
  5
AE3
330
6
100
AcDbSymbolTableRecord
100
AcDbViewTableRecord
  2
AM_VIEW3
 70
     0
 40
105.0
 10
90.503120124805
 20
52.5
 41
181.00624024961
 11
0.0
 21
0.0
 31
1.0
 12
0.0
 22
0.0
 32
0.0
 42
50.0
 43
-1370.695619172058
 44
-1370.695619172058
 50
0.0
 71
    16
281
     0
 72
     0
  0
VIEW
  5
AE4
330
6
100
AcDbSymbolTableRecord
100
AcDbViewTableRecord
  2
AM_VIEW4
 70
     0
 40
105.0
 10
206.496879875195
 20
52.5
 41
181.00624024961
 11
0.0
 21
0.0
 31
1.0
 12
0.0
 22
0.0
 32
0.0
 42
50.0
 43
-1370.695619172058
 44
-1370.695619172058
 50
0.0
 71
    16
281
     0
 72
     0
  0
VIEW
  5
AE5
330
6
100
AcDbSymbolTableRecord
100
AcDbViewTableRecord
  2
AM_VIEW5
 70
     0
 40
105.0
 10
148.5
 20
105.0
 41
181.0062402496099
 11
0.0
 21
0.0
 31
1.0
 12
0.0
 22
0.0
 32
0.0
 42
50.0
 43
-1370.695619172058
 44
-1370.695619172058
 50
0.0
 71
    16
281
     0
 72
     0
  0
VIEW
  5
AE6
330
6
100
AcDbSymbolTableRecord
100
AcDbViewTableRecord
  2
AM_VIEW6
 70
     0
 40
209.9979
 10
148.5
 20
105.0
 41
362.008860374415
 11
0.0
 21
0.0
 31
1.0
 12
0.0
 22
0.0
 32
0.0
 42
50.0
 43
-1370.695619172058
 44
-1370.695619172058
 50
0.0
 71
    16
281
     0
 72
     0
  0
ENDTAB
  0
TABLE
  2
UCS
  5
7
330
0
100
AcDbSymbolTable
 70
     0
  0
ENDTAB
  0
TABLE
  2
APPID
  5
9
330
0
100
AcDbSymbolTable
 70
    58
  0
APPID
  5
12
330
9
100
AcDbSymbolTableRecord
100
AcDbRegAppTableRecord
  2
ACAD
 70
     0
  0
APPID
  5
30
330
9
100
AcDbSymbolTableRecord
100
AcDbRegAppTableRecord
  2
MCAD_NO_VIS
 70
     0
  0
APPID
  5
31
330
9
100
AcDbSymbolTableRecord
100
AcDbRegAppTableRecord
  2
ACAD_TEMP_GRAPHIC
 70
     0
  0
APPID
  5
44
330
9
100
AcDbSymbolTableRecord
100
AcDbRegAppTableRecord
  2
ACATTRIBSERVICES
 70
     0
  0
APPID
  5
7A1
330
9
100
AcDbSymbolTableRecord
100
AcDbRegAppTableRecord
  2
GENIUS_GENDIMSH_14
 70
     0
  0
APPID
  5
A49
330
9
100
AcDbSymbolTableRecord
100
AcDbRegAppTableRecord
  2
GENIUS_GENREC_14
 70
     0
  0
APPID
  5
A4A
330
9
100
AcDbSymbolTableRecord
100
AcDbRegAppTableRecord
  2
GENIUS_GENOBJ-N-REC_13
 70
     0
  0
APPID
  5
A4B
330
9
100
AcDbSymbolTableRecord
100
AcDbRegAppTableRecord
  2
GENIUS_GENODEF_13
 70
     0
  0
APPID
  5
A4C
330
9
100
AcDbSymbolTableRecord
100
AcDbRegAppTableRecord
  2
DCO15
 70
     0
  0
APPID
  5
ADC
330
9
100
AcDbSymbolTableRecord
100
AcDbRegAppTableRecord
  2
GENIUS_GENOLIS_13
 70
     0
  0
APPID
  5
ADD
330
9
100
AcDbSymbolTableRecord
100
AcDbRegAppTableRecord
  2
GENIUS_GENOENT_13
 70
     0
  0
APPID
  5
ADE
330
9
100
AcDbSymbolTableRecord
100
AcDbRegAppTableRecord
  2
GENIUS_GENOBJ-N-TIT_13
 70
     0
  0
APPID
  5
ADF
330
9
100
AcDbSymbolTableRecord
100
AcDbRegAppTableRecord
  2
GENIUS_GENTITLE_13
 70
     0
  0
APPID
  5
AE0
330
9
100
AcDbSymbolTableRecord
100
AcDbRegAppTableRecord
  2
GENIUS_GENOREF_13
 70
     0
  0
APPID
  5
AE7
330
9
100
AcDbSymbolTableRecord
100
AcDbRegAppTableRecord
  2
GENIUS_GENSCREG_15
 70
     0
  0
APPID
  5
AE8
330
9
100
AcDbSymbolTableRecord
100
AcDbRegAppTableRecord
  2
GENIUS_GENOBJ-N-SDF_13
 70
     0
  0
APPID
  5
FAF
330
9
100
AcDbSymbolTableRecord
100
AcDbRegAppTableRecord
  2
GENIUS_GENBLLY_14
 70
     0
  0
APPID
  5
FB0
330
9
100
AcDbSymbolTableRecord
100
AcDbRegAppTableRecord
  2
GENIUS_GENTRA_14
 70
     0
  0
APPID
  5
1285
330
9
100
AcDbSymbolTableRecord
100
AcDbRegAppTableRecord
  2
GENIUS_GENDTOL_13
 70
     0
  0
APPID
  5
142D
330
9
100
AcDbSymbolTableRecord
100
AcDbRegAppTableRecord
  2
GENIUS_GENOBJ-N-CEN_13
 70
     0
  0
APPID
  5
1AB5
330
9
100
AcDbSymbolTableRecord
100
AcDbRegAppTableRecord
  2
GENIUS_GENOBJ-N-CRS_13
 70
     0
  0
APPID
  5
1B36
330
9
100
AcDbSymbolTableRecord
100
AcDbRegAppTableRecord
  2
GENIUS_GENOBJ-N-HTC_13
 70
     0
  0
APPID
  5
1B37
330
9
100
AcDbSymbolTableRecord
100
AcDbRegAppTableRecord
  2
GENIUS_GENHATCH_13
 70
     0
  0
APPID
  5
216D
330
9
100
AcDbSymbolTableRecord
100
AcDbRegAppTableRecord
  2
GENIUS_GENOBJ-N-FIL_13
 70
     0
  0
APPID
  5
2356
330
9
100
AcDbSymbolTableRecord
100
AcDbRegAppTableRecord
  2
GEVID990412420
 70
     0
  0
APPID
  5
2357
330
9
100
AcDbSymbolTableRecord
100
AcDbRegAppTableRecord
  2
GEVDC
 70
     0
  0
APPID
  5
2358
330
9
100
AcDbSymbolTableRecord
100
AcDbRegAppTableRecord
  2
GEVCON
 70
     0
  0
APPID
  5
235B
330
9
100
AcDbSymbolTableRecord
100
AcDbRegAppTableRecord
  2
GEVRADREF
 70
     0
  0
APPID
  5
2360
330
9
100
AcDbSymbolTableRecord
100
AcDbRegAppTableRecord
  2
GENIUS_GENBH_13
 70
     0
  0
APPID
  5
2362
330
9
100
AcDbSymbolTableRecord
100
AcDbRegAppTableRecord
  2
GENIUS_GENOBJ-NBEHI-BHF_13
 70
     0
  0
APPID
  5
2364
330
9
100
AcDbSymbolTableRecord
100
AcDbRegAppTableRecord
  2
GENIUS_GENOBJ-NBEHI-BHB_13
 70
     0
  0
APPID
  5
2379
330
9
100
AcDbSymbolTableRecord
100
AcDbRegAppTableRecord
  2
GENIUS_GENOBJ-F-SCPASSM_13
 70
     0
  0
APPID
  5
3D74
330
9
100
AcDbSymbolTableRecord
100
AcDbRegAppTableRecord
  2
GENIUS_GENDIM_13
 70
     0
  0
APPID
  5
3D76
330
9
100
AcDbSymbolTableRecord
100
AcDbRegAppTableRecord
  2
GENIUS_GE3DTOL_13
 70
     0
  0
APPID
  5
3D9C
330
9
100
AcDbSymbolTableRecord
100
AcDbRegAppTableRecord
  2
AD_DRAW
 70
     0
  0
APPID
  5
3DE8
330
9
100
AcDbSymbolTableRecord
100
AcDbRegAppTableRecord
  2
ASURF_PCURVE_APPNAME
 70
     0
  0
APPID
  5
3DED
330
9
100
AcDbSymbolTableRecord
100
AcDbRegAppTableRecord
  2
AMG_3D2D_5.0
 70
     0
  0
APPID
  5
3E1B
330
9
100
AcDbSymbolTableRecord
100
AcDbRegAppTableRecord
  2
DESIGNERASSEMBLIES
 70
     0
  0
APPID
  5
3E20
330
9
100
AcDbSymbolTableRecord
100
AcDbRegAppTableRecord
  2
ACADM_DIM_EDIT
 70
     0
  0
APPID
  5
3E21
330
9
100
AcDbSymbolTableRecord
100
AcDbRegAppTableRecord
  2
AMDT_DM_ADJ
 70
     0
  0
APPID
  5
4143
330
9
100
AcDbSymbolTableRecord
100
AcDbRegAppTableRecord
  2
GENIUS_GENFIL_13
 70
     0
  0
APPID
  5
4144
330
9
100
AcDbSymbolTableRecord
100
AcDbRegAppTableRecord
  2
GENIUS_GENOBJ-N-CHA_13
 70
     0
  0
APPID
  5
4E17
330
9
100
AcDbSymbolTableRecord
100
AcDbRegAppTableRecord
  2
GEVID1008153417
 70
     0
  0
APPID
  5
4E58
330
9
100
AcDbSymbolTableRecord
100
AcDbRegAppTableRecord
  2
GEVID1008153418
 70
     0
  0
APPID
  5
4E5E
330
9
100
AcDbSymbolTableRecord
100
AcDbRegAppTableRecord
  2
GEVID1008153419
 70
     0
  0
APPID
  5
4E64
330
9
100
AcDbSymbolTableRecord
100
AcDbRegAppTableRecord
  2
GEVID1008153420
 70
     0
  0
APPID
  5
4E75
330
9
100
AcDbSymbolTableRecord
100
AcDbRegAppTableRecord
  2
GEVID1008153421
 70
     0
  0
APPID
  5
4EB7
330
9
100
AcDbSymbolTableRecord
100
AcDbRegAppTableRecord
  2
GENIUS_AMGTXT_16
 70
     0
  0
APPID
  5
7645
330
9
100
AcDbSymbolTableRecord
100
AcDbRegAppTableRecord
  2
GENIUS_GENOBJ-N-DIM_13
 70
     0
  0
APPID
  5
C5F0
330
9
100
AcDbSymbolTableRecord
100
AcDbRegAppTableRecord
  2
GENIUS_GENCEN_19
 70
     0
  0
APPID
  5
C5FB
330
9
100
AcDbSymbolTableRecord
100
AcDbRegAppTableRecord
  2
ACAD_DSTYLE_DIMJOGGED_JOGANGLE_SYMBOL
 70
     0
  0
APPID
  5
C5FC
330
9
100
AcDbSymbolTableRecord
100
AcDbRegAppTableRecord
  2
ACAD_PSEXT
 70
     0
  0
APPID
  5
CA37
330
9
100
AcDbSymbolTableRecord
100
AcDbRegAppTableRecord
  2
AcAecLayerStandard
 70
     0
  0
APPID
  5
CB0C
330
9
100
AcDbSymbolTableRecord
100
AcDbRegAppTableRecord
  2
ACAD_MLEADERVER
 70
     0
  0
APPID
  5
CB6B
330
9
100
AcDbSymbolTableRecord
100
AcDbRegAppTableRecord
  2
ACAD_DSTYLE_DIMINSPECT
 70
     0
  0
APPID
  5
FEE5
330
9
100
AcDbSymbolTableRecord
100
AcDbRegAppTableRecord
  2
ACAD_DSTYLE_DIMRADIAL_EXTENSION
 70
     0
  0
APPID
  5
FF92
330
9
100
AcDbSymbolTableRecord
100
AcDbRegAppTableRecord
  2
ACAD_EXEMPT_FROM_CAD_STANDARDS
 70
     0
  0
APPID
  5
11B12
330
9
100
AcDbSymbolTableRecord
100
AcDbRegAppTableRecord
  2
ACAD_DSTYLE_DIMARC_LENGTH_SYMBOL
 70
     0
  0
ENDTAB
  0
TABLE
  2
DIMSTYLE
  5
A
330
0
100
AcDbSymbolTable
 70
    34
100
AcDbDimStyleTable
 71
     3
340
2515
340
6C
340
FA9
  0
DIMSTYLE
105
6C
330
A
100
AcDbSymbolTableRecord
100
AcDbDimStyleTableRecord
  2
AM_ISO
 70
     0
  4
"
 41
2.5
 42
1.0
 43
10.0
 44
1.0
 47
0.1
 48
0.1
 73
     0
 74
     0
 77
     1
 78
     8
 79
     2
140
3.5
141
0.0
143
0.0393701
146
0.71
147
1.5
172
     1
176
   256
177
   256
178
     2
271
     2
272
     3
274
     4
283
     0
284
     8
340
11
371
    -1
372
    -1
  0
DIMSTYLE
105
6D
330
A
100
AcDbSymbolTableRecord
100
AcDbDimStyleTableRecord
  2
AM_ISO$3
 70
     0
  4
"
 41
0.8
 42
1.0
 43
10.0
 44
1.0
 47
0.1
 48
0.1
 73
     0
 77
     1
 78
     8
 79
     2
140
3.2
141
0.0
143
0.0393701
146
0.71
147
0.9999999999999996
176
   256
177
   256
178
     2
271
     2
272
     2
283
     0
284
     8
288
     1
289
     0
340
11
342
6C4
371
    -1
372
    -1
  0
DIMSTYLE
105
6E
330
A
100
AcDbSymbolTableRecord
100
AcDbDimStyleTableRecord
  2
AM_ISO$4
 70
     0
  4
"
 41
0.8
 42
1.0
 43
10.0
 44
1.0
 47
0.1
 48
0.1
 73
     0
 77
     1
 78
     8
 79
     2
140
3.2
141
0.0
143
0.0393701
146
0.71
147
1.0
173
     1
176
   256
177
   256
178
     2
271
     2
272
     2
283
     0
284
     8
288
     1
289
     0
340
11
344
6C4
371
    -1
372
    -1
  0
DIMSTYLE
105
6F
330
A
100
AcDbSymbolTableRecord
100
AcDbDimStyleTableRecord
  2
AM_ISO$6
 70
     0
  4
"
 41
0.8
 42
1.0
 43
10.0
 44
1.0
 47
0.1
 48
0.1
 73
     0
 74
     0
 78
     8
 79
     2
140
3.2
141
0.0
143
0.0393701
146
0.71
147
1.0
172
     1
176
   256
177
   256
178
     2
271
     2
272
     2
283
     0
284
     8
340
11
341
6C4
371
    -1
372
    -1
  0
DIMSTYLE
105
70
330
A
100
AcDbSymbolTableRecord
100
AcDbDimStyleTableRecord
  2
AM_ISO$7
 70
     0
  4
"
 41
0.8
 42
1.0
 43
10.0
 44
1.0
 47
0.1
 48
0.1
 73
     0
 74
     0
 77
     1
 78
     8
 79
     2
140
3.2
141
0.0
143
0.0393701
146
0.71
147
1.0
172
     1
176
   256
177
   256
178
     2
271
     2
272
     2
283
     0
284
     8
340
11
341
6C4
342
6C4
371
    -1
372
    -1
  0
DIMSTYLE
105
71
330
A
100
AcDbSymbolTableRecord
100
AcDbDimStyleTableRecord
  2
AM_ISO$SF
 70
     0
  4
"
 41
0.8
 42
1.0
 43
10.0
 44
1.0
 47
0.1
 48
0.1
 73
     0
 74
     0
 75
     1
 76
     1
 77
     1
 78
     8
 79
     2
140
3.2
141
0.0
143
0.0393701
146
0.71
147
1.0
172
     1
176
   256
177
   256
178
     2
271
     2
272
     2
283
     0
284
     8
340
11
341
6C4
342
6C4
371
    -1
372
    -1
  0
DIMSTYLE
105
76
330
A
100
AcDbSymbolTableRecord
100
AcDbDimStyleTableRecord
  2
AM_ISO$SH
 70
     0
  4
"
 41
0.8
 42
1.0
 43
10.0
 44
1.0
 47
0.1
 48
0.1
 73
     0
 74
     0
 75
     1
 76
     1
 77
     1
 78
     8
 79
     2
140
3.2
141
0.0
143
0.0393701
144
2.0
146
0.71
147
1.0
172
     1
176
   256
177
   256
178
     2
271
     2
272
     2
283
     0
284
     8
340
11
341
6C4
342
6C4
371
    -1
372
    -1
  0
DIMSTYLE
105
6BE
330
A
100
AcDbSymbolTableRecord
100
AcDbDimStyleTableRecord
  2
AM_ISO$0
 70
     0
  4
"
 41
0.8
 42
1.0
 43
10.0
 44
1.0
 47
0.1
 48
0.1
 73
     0
 74
     0
 77
     1
 78
     8
 79
     2
140
3.2
141
0.0
143
0.0393701
146
0.71
147
0.9999999999999996
172
     1
176
   256
177
   256
178
     2
271
     2
272
     2
283
     0
284
     8
340
11
341
6C4
342
6C4
371
    -1
372
    -1
  0
DIMSTYLE
105
6BF
330
A
100
AcDbSymbolTableRecord
100
AcDbDimStyleTableRecord
  2
AM_ISO$2
 70
     0
  4
"
 41
0.8
 42
1.0
 43
10.0
 44
1.0
 47
0.1
 48
0.1
 73
     0
 74
     0
 77
     3
 78
     8
 79
     2
140
3.200000000000001
141
0.0
143
0.0393701
146
0.71
147
0.9999999999999996
172
     1
176
   256
177
   256
178
     2
271
     2
272
     2
283
     0
284
     8
340
11
342
6C4
371
    -1
372
    -1
  0
DIMSTYLE
105
A76
330
A
100
AcDbSymbolTableRecord
100
AcDbDimStyleTableRecord
  2
STANDARD
 70
     0
 41
3.0
 42
1.0
 43
7.0
 44
2.0
 73
     0
 74
     0
 77
     1
140
2.799999999999999
141
0.0
143
0.0394
147
0.7
171
     4
172
     1
173
     1
176
     3
177
     3
178
     2
271
     3
272
     3
273
     8
274
     4
289
     0
340
A74
341
A66
343
A66
344
A66
  0
DIMSTYLE
105
FA9
330
A
100
AcDbSymbolTableRecord
100
AcDbDimStyleTableRecord
  2
AM_ANSI
 70
     0
  4
mm
 41
0.1
 42
0.05
 43
0.5
 44
0.1
 47
0.1
 48
0.1
 78
     7
 79
     2
140
0.12
141
0.0
146
0.71
147
0.06
176
   256
177
   256
178
     2
274
     4
284
     7
340
11
371
    -1
372
    -1
  0
DIMSTYLE
105
FAA
330
A
100
AcDbSymbolTableRecord
100
AcDbDimStyleTableRecord
  2
AM_ANSI$3
 70
     0
  4
mm
 41
0.1
 42
0.05
 43
0.5
 44
0.1
 47
0.1
 48
0.1
 78
     7
 79
     2
140
0.12
141
0.0
146
0.71
147
0.06
176
   256
177
   256
178
     2
274
     4
284
     7
288
     1
289
     0
340
11
371
    -1
372
    -1
  0
DIMSTYLE
105
FAB
330
A
100
AcDbSymbolTableRecord
100
AcDbDimStyleTableRecord
  2
AM_ANSI$4
 70
     0
  4
mm
 41
0.1
 42
0.05
 43
0.5
 44
0.1
 47
0.1
 48
0.1
 78
     7
 79
     2
140
0.12
141
0.0
146
0.71
147
0.06
176
   256
177
   256
178
     2
274
     4
284
     7
288
     1
289
     0
340
11
371
    -1
372
    -1
  0
DIMSTYLE
105
FAC
330
A
100
AcDbSymbolTableRecord
100
AcDbDimStyleTableRecord
  2
AM_ANSI$7
 70
     0
  4
mm
 41
0.1
 42
0.05
 43
0.5
 44
0.1
 47
0.1
 48
0.1
 78
     7
 79
     2
140
0.24
141
0.0
146
0.71
147
0.06
176
   256
177
   256
178
     2
274
     4
284
     7
340
11
371
    -1
372
    -1
  0
DIMSTYLE
105
FAD
330
A
100
AcDbSymbolTableRecord
100
AcDbDimStyleTableRecord
  2
AM_ANSI$SF
 70
     0
  4
mm
 41
0.1
 42
0.05
 43
0.5
 44
0.1
 47
0.1
 48
0.1
 75
     1
 76
     1
 78
     7
 79
     2
140
0.12
141
0.0
146
0.71
147
0.06
176
   256
177
   256
178
     2
274
     4
284
     7
340
11
371
    -1
372
    -1
  0
DIMSTYLE
105
FAE
330
A
100
AcDbSymbolTableRecord
100
AcDbDimStyleTableRecord
  2
AM_ANSI$SH
 70
     0
  4
mm
 41
0.1
 42
0.05
 43
0.5
 44
0.1
 47
0.1
 48
0.1
 75
     1
 76
     1
 78
     7
 79
     2
140
0.12
141
0.0
146
0.71
147
0.06
173
     1
176
   256
177
   256
178
     2
274
     4
284
     7
340
11
343
72
371
    -1
372
    -1
  0
DIMSTYLE
105
2515
330
A
100
AcDbSymbolTableRecord
100
AcDbDimStyleTableRecord
  2
SYS
 70
     0
  4
"
 41
2.5
 42
1.0
 43
10.0
 44
1.0
 47
0.1
 48
0.1
 73
     0
 74
     0
 77
     1
 78
     8
 79
     2
140
3.5
141
0.0
143
0.0393701
146
0.71
147
1.5
172
     1
176
   256
177
   256
178
     7
271
     2
272
     3
274
     4
283
     0
284
     8
340
11
371
    -1
372
    -1
  0
DIMSTYLE
105
2516
102
{ACAD_REACTORS
330
FF4E
102
}
330
A
100
AcDbSymbolTableRecord
100
AcDbDimStyleTableRecord
  2
SYS$3
 70
     0
  4
"
 41
2.0
 42
1.0
 43
10.0
 44
1.0
 47
0.1
 48
0.1
 73
     0
 77
     1
 78
     8
 79
     2
140
3.200000000000001
141
0.0
143
0.0393701
146
0.71
147
1.5
176
   256
177
   256
178
     2
271
     1
272
     1
283
     0
284
     8
288
     1
340
11
342
A66
371
    -1
372
    -1
  0
DIMSTYLE
105
2517
330
A
100
AcDbSymbolTableRecord
100
AcDbDimStyleTableRecord
  2
SYS$4
 70
     0
  4
"
 41
2.0
 42
1.0
 43
10.0
 44
1.0
 47
0.1
 48
0.1
 73
     0
 77
     1
 78
     8
 79
     2
140
3.2
141
0.0
143
0.0393701
146
0.71
147
1.5
173
     1
176
   256
177
   256
178
     2
271
     2
272
     2
283
     0
284
     8
288
     1
340
11
344
A66
371
    -1
372
    -1
  0
DIMSTYLE
105
2518
330
A
100
AcDbSymbolTableRecord
100
AcDbDimStyleTableRecord
  2
SYS$6
 70
     0
  4
"
 41
2.0
 42
1.0
 43
10.0
 44
1.0
 47
0.1
 48
0.1
 73
     0
 74
     0
 78
     8
 79
     2
140
3.2
141
0.0
143
0.0393701
146
0.71
147
1.5
172
     1
176
   256
177
   256
178
     2
271
     2
272
     2
283
     0
284
     8
340
11
341
A66
371
    -1
372
    -1
  0
DIMSTYLE
105
2519
330
A
100
AcDbSymbolTableRecord
100
AcDbDimStyleTableRecord
  2
SYS$7
 70
     0
  4
"
 41
2.0
 42
1.5
 43
10.0
 44
1.0
 47
0.1
 48
0.1
 73
     0
 74
     0
 77
     1
 78
     8
 79
     2
140
3.2
141
0.0
143
0.0393701
146
0.71
147
1.5
172
     1
176
   256
177
   256
178
     2
271
     2
272
     2
283
     0
284
     8
340
11
341
A66
342
A66
371
    -1
372
    -1
  0
DIMSTYLE
105
251A
330
A
100
AcDbSymbolTableRecord
100
AcDbDimStyleTableRecord
  2
SYS$SF
 70
     0
  4
"
 41
1.0
 42
1.0
 43
10.0
 44
1.0
 47
0.1
 48
0.1
 73
     0
 74
     0
 75
     1
 76
     1
 77
     1
 78
     8
 79
     2
140
3.2
141
0.0
143
0.0393701
146
0.71
147
1.5
172
     1
176
   256
177
   256
178
     2
271
     2
272
     2
283
     0
284
     8
340
11
341
6C4
342
6C4
371
    -1
372
    -1
  0
DIMSTYLE
105
251B
330
A
100
AcDbSymbolTableRecord
100
AcDbDimStyleTableRecord
  2
SYS$SH
 70
     0
  4
"
 41
1.0
 42
1.0
 43
10.0
 44
1.0
 47
0.1
 48
0.1
 73
     0
 74
     0
 75
     1
 76
     1
 77
     1
 78
     8
 79
     2
140
3.2
141
0.0
143
0.0393701
144
2.0
146
0.71
147
1.5
172
     1
173
     1
176
   256
177
   256
178
     2
271
     2
272
     2
283
     0
284
     8
340
11
341
6C4
343
72
344
6C4
371
    -1
372
    -1
  0
DIMSTYLE
105
2A59
330
A
100
AcDbSymbolTableRecord
100
AcDbDimStyleTableRecord
  2
SYS$2
 70
     0
  4
"
 41
1.0
 42
1.5
 43
10.0
 44
1.0
 47
0.1
 48
0.1
 73
     0
 74
     0
 77
     1
 78
     8
 79
     2
140
3.2
141
0.0
143
0.0393701
146
0.71
147
1.5
172
     1
176
   256
177
   256
178
     2
271
     2
272
     2
283
     0
284
     8
340
11
342
6C4
371
    -1
372
    -1
  0
DIMSTYLE
105
2AAB
102
{ACAD_REACTORS
330
FB1D
330
FB4F
330
FBB8
330
FBF4
330
FC1E
330
FC3F
330
FC60
330
FC81
330
FCAB
330
FCCC
330
FCED
330
FD0E
330
FB76
330
FB97
102
}
330
A
100
AcDbSymbolTableRecord
100
AcDbDimStyleTableRecord
  2
SYS$0
 70
     0
  4
"
 41
1.0
 42
1.5
 43
10.0
 44
1.0
 47
0.1
 48
0.1
 73
     0
 74
     0
 77
     1
 78
     8
 79
     2
140
3.2
141
0.0
143
0.0393701
146
0.71
147
1.5
172
     1
176
   256
177
   256
178
     2
271
     1
272
     1
283
     0
284
     8
340
11
341
A66
342
6C4
371
    -1
372
    -1
  0
DIMSTYLE
105
DD6D
330
A
100
AcDbSymbolTableRecord
100
AcDbDimStyleTableRecord
  2
AM_JIS
 70
     0
  4
"
 41
2.5
 42
1.0
 43
10.0
 44
1.0
 47
0.1
 48
0.1
 73
     0
 74
     0
 77
     3
 78
     8
 79
     2
140
3.5
141
0.0
143
0.0393701
146
0.71
147
1.5
172
     1
176
   256
177
   256
178
     2
271
     2
272
     3
274
     4
283
     0
284
     8
340
11
341
A66
342
A66
343
A66
344
A66
371
    -1
372
    -1
1001
ACAD_DSTYLE_DIMARC_LENGTH_SYMBOL
1070
   379
1070
     1
  0
DIMSTYLE
105
DD6E
330
A
100
AcDbSymbolTableRecord
100
AcDbDimStyleTableRecord
  2
AM_JIS$3
 70
     0
  4
"
 41
2.5
 42
1.0
 43
10.0
 44
1.0
 47
0.1
 48
0.1
 73
     0
 77
     3
 78
     8
 79
     2
140
3.5
141
0.0
143
0.0393701
146
0.71
147
1.5
176
   256
177
   256
178
     2
271
     2
272
     3
274
     4
283
     0
284
     8
288
     1
289
     0
340
11
341
A66
342
A66
343
A66
344
A66
371
    -1
372
    -1
1001
ACAD_DSTYLE_DIMARC_LENGTH_SYMBOL
1070
   379
1070
     1
  0
DIMSTYLE
105
DD6F
330
A
100
AcDbSymbolTableRecord
100
AcDbDimStyleTableRecord
  2
AM_JIS$4
 70
     0
  4
"
 41
2.5
 42
1.0
 43
10.0
 44
1.0
 47
0.1
 48
0.1
 73
     0
 77
     3
 78
     8
 79
     2
140
3.5
141
0.0
143
0.0393701
146
0.71
147
1.5
176
   256
177
   256
178
     2
271
     2
272
     3
274
     4
283
     0
284
     8
288
     1
289
     0
340
11
341
A66
342
A66
343
A66
344
A66
371
    -1
372
    -1
1001
ACAD_DSTYLE_DIMARC_LENGTH_SYMBOL
1070
   379
1070
     1
  0
DIMSTYLE
105
DD70
330
A
100
AcDbSymbolTableRecord
100
AcDbDimStyleTableRecord
  2
AM_JIS$6
 70
     0
  4
"
 41
2.5
 42
1.0
 43
10.0
 44
1.0
 47
0.1
 48
0.1
 73
     0
 74
     0
 78
     8
 79
     2
140
3.5
141
0.0
143
0.0393701
146
0.71
147
1.5
172
     1
176
   256
177
   256
178
     2
271
     2
272
     3
274
     4
283
     0
284
     8
340
11
341
A66
342
A66
343
A66
344
A66
371
    -1
372
    -1
1001
ACAD_DSTYLE_DIMARC_LENGTH_SYMBOL
1070
   379
1070
     1
  0
DIMSTYLE
105
DD71
330
A
100
AcDbSymbolTableRecord
100
AcDbDimStyleTableRecord
  2
AM_JIS$7
 70
     0
  4
"
 41
2.5
 42
1.0
 43
10.0
 44
1.0
 47
0.1
 48
0.1
 73
     0
 74
     0
 77
     3
 78
     8
 79
     2
140
5.0
141
0.0
143
0.0393701
146
0.71
147
1.5
172
     1
176
   256
177
   256
178
     2
271
     2
272
     3
274
     4
283
     0
284
     8
340
11
341
A66
342
A66
343
A66
344
A66
371
    -1
372
    -1
1001
ACAD_DSTYLE_DIMARC_LENGTH_SYMBOL
1070
   379
1070
     1
  0
DIMSTYLE
105
DD72
330
A
100
AcDbSymbolTableRecord
100
AcDbDimStyleTableRecord
  2
AM_JIS$SF
 70
     0
  4
"
 41
2.5
 42
1.0
 43
10.0
 44
1.0
 47
0.1
 48
0.1
 73
     0
 74
     0
 75
     1
 76
     1
 77
     3
 78
     8
 79
     2
140
3.5
141
0.0
143
0.0393701
146
0.71
147
1.5
172
     1
176
   256
177
   256
178
     2
271
     2
272
     3
274
     4
283
     0
284
     8
340
11
341
A66
342
A66
343
A66
344
A66
371
    -1
372
    -1
1001
ACAD_DSTYLE_DIMARC_LENGTH_SYMBOL
1070
   379
1070
     1
  0
DIMSTYLE
105
DD73
330
A
100
AcDbSymbolTableRecord
100
AcDbDimStyleTableRecord
  2
AM_JIS$SH
 70
     0
  4
"
 41
2.5
 42
1.0
 43
10.0
 44
1.0
 47
0.1
 48
0.1
 73
     0
 74
     0
 75
     1
 76
     1
 77
     3
 78
     8
 79
     2
140
3.5
141
0.0
143
0.0393701
144
2.0
146
0.71
147
1.5
172
     1
173
     1
176
   256
177
   256
178
     2
271
     2
272
     3
274
     4
283
     0
284
     8
340
11
341
A66
342
A66
343
72
344
A66
371
    -1
372
    -1
1001
ACAD_DSTYLE_DIMARC_LENGTH_SYMBOL
1070
   379
1070
     1
  0
ENDTAB
  0
TABLE
  2
BLOCK_RECORD
  5
1
330
0
100
AcDbSymbolTable
 70
    53
  0
BLOCK_RECORD
  5
1F
102
{ACAD_XDICTIONARY
360
8A
102
}
330
1
100
AcDbSymbolTableRecord
100
AcDbBlockTableRecord
  2
*Model_Space
340
22
  0
BLOCK_RECORD
  5
1B
330
1
100
AcDbSymbolTableRecord
100
AcDbBlockTableRecord
  2
*Paper_Space
340
1E
  0
BLOCK_RECORD
  5
23
330
1
100
AcDbSymbolTableRecord
100
AcDbBlockTableRecord
  2
*Paper_Space0
340
26
  0
BLOCK_RECORD
  5
72
330
1
100
AcDbSymbolTableRecord
100
AcDbBlockTableRecord
  2
GENAXEH
340
0
  0
BLOCK_RECORD
  5
6C4
330
1
100
AcDbSymbolTableRecord
100
AcDbBlockTableRecord
  2
_Dot
340
0
102
{BLKREFS
331
1155D
331
1155E
331
11566
331
11567
331
1156F
331
11570
331
1157A
331
1157B
331
11585
331
11586
331
1158E
331
1158F
331
11599
331
1159A
331
115A3
331
115A4
331
115AC
331
115AD
331
115B5
331
115B6
331
115BE
331
115BF
331
115C7
331
115C8
331
115D0
331
115D1
331
115D9
331
115DA
331
115E2
331
115E3
331
115EB
331
115EC
331
11600
331
11601
331
1163F
331
11640
331
119AC
331
119AD
331
119BE
331
119BF
331
119D0
331
119D1
331
119F4
331
119F5
331
11A18
331
11A19
331
11A2A
331
11A2B
331
11A3E
331
11A3F
331
11A54
331
11A55
331
11A6A
331
11A6B
331
11A7C
331
11A7D
331
11A8E
331
11A8F
331
11AA0
331
11AA1
331
11AC4
331
11AC5
331
11ADE
331
11ADF
331
11AE7
331
11AE8
102
}
  0
BLOCK_RECORD
  5
A66
330
1
100
AcDbSymbolTableRecord
100
AcDbBlockTableRecord
  2
_OPEN30
340
0
102
{BLKREFS
331
115F4
331
11654
102
}
  0
BLOCK_RECORD
  5
FB1E
330
1
100
AcDbSymbolTableRecord
100
AcDbBlockTableRecord
  2
*D14
340
0
  0
BLOCK_RECORD
  5
FB50
330
1
100
AcDbSymbolTableRecord
100
AcDbBlockTableRecord
  2
*D15
340
0
  0
BLOCK_RECORD
  5
FB77
330
1
100
AcDbSymbolTableRecord
100
AcDbBlockTableRecord
  2
*D16
340
0
  0
BLOCK_RECORD
  5
FB98
330
1
100
AcDbSymbolTableRecord
100
AcDbBlockTableRecord
  2
*D17
340
0
  0
BLOCK_RECORD
  5
FBB9
330
1
100
AcDbSymbolTableRecord
100
AcDbBlockTableRecord
  2
*D18
340
0
  0
BLOCK_RECORD
  5
FBF5
330
1
100
AcDbSymbolTableRecord
100
AcDbBlockTableRecord
  2
*D19
340
0
  0
BLOCK_RECORD
  5
FC1F
330
1
100
AcDbSymbolTableRecord
100
AcDbBlockTableRecord
  2
*D20
340
0
  0
BLOCK_RECORD
  5
FC40
330
1
100
AcDbSymbolTableRecord
100
AcDbBlockTableRecord
  2
*D21
340
0
  0
BLOCK_RECORD
  5
FC61
330
1
100
AcDbSymbolTableRecord
100
AcDbBlockTableRecord
  2
*D22
340
0
  0
BLOCK_RECORD
  5
FC82
330
1
100
AcDbSymbolTableRecord
100
AcDbBlockTableRecord
  2
*D23
340
0
  0
BLOCK_RECORD
  5
FCAC
330
1
100
AcDbSymbolTableRecord
100
AcDbBlockTableRecord
  2
*D24
340
0
  0
BLOCK_RECORD
  5
FCCD
330
1
100
AcDbSymbolTableRecord
100
AcDbBlockTableRecord
  2
*D25
340
0
  0
BLOCK_RECORD
  5
FCEE
330
1
100
AcDbSymbolTableRecord
100
AcDbBlockTableRecord
  2
*D26
340
0
  0
BLOCK_RECORD
  5
FD0F
330
1
100
AcDbSymbolTableRecord
100
AcDbBlockTableRecord
  2
*D27
340
0
  0
BLOCK_RECORD
  5
FF4F
330
1
100
AcDbSymbolTableRecord
100
AcDbBlockTableRecord
  2
*D28
340
0
  0
BLOCK_RECORD
  5
10781
330
1
100
AcDbSymbolTableRecord
100
AcDbBlockTableRecord
  2
GENDOT
340
0
102
{BLKREFS
331
11AB4
331
11AB5
102
}
  0
BLOCK_RECORD
  5
11AF7
330
1
100
AcDbSymbolTableRecord
100
AcDbBlockTableRecord
  2
*S52
340
0
  0
ENDTAB
  0
ENDSEC
  0
SECTION
  2
BLOCKS
  0
BLOCK
  5
20
330
1F
100
AcDbEntity
  8
0
100
AcDbBlockBegin
  2
*Model_Space
 70
     0
 10
0.0
 20
0.0
 30
0.0
  3
*Model_Space
  1

  0
ENDBLK
  5
21
330
1F
100
AcDbEntity
  8
0
100
AcDbBlockEnd
  0
BLOCK
  5
1C
330
1B
100
AcDbEntity
 67
     1
  8
0
100
AcDbBlockBegin
  2
*Paper_Space
 70
     0
 10
0.0
 20
0.0
 30
0.0
  3
*Paper_Space
  1

  0
ENDBLK
  5
1D
330
1B
100
AcDbEntity
 67
     1
  8
0
100
AcDbBlockEnd
  0
BLOCK
  5
24
330
23
100
AcDbEntity
 67
     1
  8
0
100
AcDbBlockBegin
  2
*Paper_Space0
 70
     0
 10
0.0
 20
0.0
 30
0.0
  3
*Paper_Space0
  1

  0
ENDBLK
  5
25
330
23
100
AcDbEntity
 67
     1
  8
0
100
AcDbBlockEnd
  0
BLOCK
  5
74
330
72
100
AcDbEntity
  8
0
100
AcDbBlockBegin
  2
GENAXEH
 70
     0
 10
0.0
 20
0.0
 30
0.0
  3
GENAXEH
  1

  0
LINE
  5
73
330
72
100
AcDbEntity
  8
0
100
AcDbLine
 10
-1.0
 20
0.0
 30
0.0
 11
1.0
 21
0.0
 31
0.0
  0
ENDBLK
  5
75
330
72
100
AcDbEntity
  8
0
100
AcDbBlockEnd
  0
BLOCK
  5
6C7
330
6C4
100
AcDbEntity
  8
0
100
AcDbBlockBegin
  2
_Dot
 70
     0
 10
0.0
 20
0.0
 30
0.0
  3
_Dot
  1

  0
LWPOLYLINE
  5
6C5
330
6C4
100
AcDbEntity
  8
0
  6
ByBlock
 62
     0
100
AcDbPolyline
 90
        2
 70
     1
 43
0.5
 10
-0.25
 20
0.0
 42
1.0
 10
0.25
 20
0.0
 42
1.0
  0
LINE
  5
6C6
330
6C4
100
AcDbEntity
  8
0
  6
ByBlock
 62
     0
370
    -2
100
AcDbLine
 10
-0.5
 20
0.0
 30
0.0
 11
-1.0
 21
0.0
 31
0.0
  0
ENDBLK
  5
6C8
330
6C4
100
AcDbEntity
  8
0
100
AcDbBlockEnd
  0
BLOCK
  5
A6A
330
A66
100
AcDbEntity
  8
0
100
AcDbBlockBegin
  2
_OPEN30
 70
     0
 10
0.0
 20
0.0
 30
0.0
  3
_OPEN30
  1

  0
LINE
  5
A67
330
A66
100
AcDbEntity
  8
0
  6
ByBlock
 62
     0
100
AcDbLine
 10
-1.0
 20
0.26794919
 30
0.0
 11
0.0
 21
0.0
 31
0.0
  0
LINE
  5
A68
330
A66
100
AcDbEntity
  8
0
  6
ByBlock
 62
     0
100
AcDbLine
 10
0.0
 20
0.0
 30
0.0
 11
-1.0
 21
-0.26794919
 31
0.0
  0
LINE
  5
A69
330
A66
100
AcDbEntity
  8
0
  6
ByBlock
 62
     0
100
AcDbLine
 10
0.0
 20
0.0
 30
0.0
 11
-1.0
 21
0.0
 31
0.0
  0
ENDBLK
  5
A6B
330
A66
100
AcDbEntity
  8
0
100
AcDbBlockEnd
  0
BLOCK
  5
FB1F
330
FB1E
100
AcDbEntity
  8
0
100
AcDbBlockBegin
  2
*D14
 70
     1
 10
0.0
 20
0.0
 30
0.0
  3
*D14
  1

  0
LINE
  5
11A4F
330
FB1E
100
AcDbEntity
  8
AM_5
100
AcDbLine
 10
3391.734513075941
 20
-517.7845954980068
 30
0.0
 11
3381.74334340637
 21
-517.7845954980068
 31
0.0
  0
LINE
  5
11A50
330
FB1E
100
AcDbEntity
  8
AM_5
100
AcDbLine
 10
3391.734513075941
 20
-513.7845954980068
 30
0.0
 11
3381.74334340637
 21
-513.7845954980068
 31
0.0
  0
LINE
  5
11A51
330
FB1E
100
AcDbEntity
  8
AM_5
100
AcDbLine
 10
3382.74334340637
 20
-518.7845954980068
 30
0.0
 11
3382.74334340637
 21
-519.7845954980068
 31
0.0
  0
LINE
  5
11A52
330
FB1E
100
AcDbEntity
  8
AM_5
100
AcDbLine
 10
3382.74334340637
 20
-512.7845954980069
 30
0.0
 11
3382.74334340637
 21
-507.9840954980068
 31
0.0
  0
LINE
  5
11A53
330
FB1E
100
AcDbEntity
  8
AM_5
100
AcDbLine
 10
3382.74334340637
 20
-517.7845954980068
 30
0.0
 11
3382.74334340637
 21
-513.7845954980068
 31
0.0
  0
INSERT
  5
11A54
330
FB1E
100
AcDbEntity
  8
AM_5
100
AcDbBlockReference
  2
_Dot
 10
3382.74334340637
 20
-517.7845954980068
 30
0.0
 41
1.0
 42
1.0
 43
1.0
 50
90.0
  0
INSERT
  5
11A55
330
FB1E
100
AcDbEntity
  8
AM_5
100
AcDbBlockReference
  2
_Dot
 10
3382.74334340637
 20
-513.7845954980068
 30
0.0
 41
1.0
 42
1.0
 43
1.0
 50
270.0
  0
MTEXT
  5
11A56
330
FB1E
100
AcDbEntity
  8
AM_5
 62
     2
100
AcDbMText
 10
3379.64334340637
 20
-509.4845954980063
 30
0.0
 40
3.2
 41
0.0
 71
     5
 72
     1
  1
I
 11
0.0000000000000001
 21
1.0
 31
0.0
 73
     1
 44
1.0
1001
ACAD
1000
MTEXTBEGIN
1070
    73
1070
     1
1070
    44
1040
1.0
1070
    74
1070
     0
1000
MTEXTEND
  0
POINT
  5
11A57
330
FB1E
100
AcDbEntity
  8
Defpoints
 62
     0
100
AcDbPoint
 10
3393.23451307594
 20
-517.7845954980068
 30
0.0
  0
POINT
  5
11A58
330
FB1E
100
AcDbEntity
  8
Defpoints
 62
     0
100
AcDbPoint
 10
3393.23451307594
 20
-513.7845954980068
 30
0.0
  0
POINT
  5
11A59
330
FB1E
100
AcDbEntity
  8
Defpoints
 62
     0
100
AcDbPoint
 10
3382.74334340637
 20
-513.7845954980068
 30
0.0
  0
ENDBLK
  5
FB20
330
FB1E
100
AcDbEntity
  8
0
100
AcDbBlockEnd
  0
BLOCK
  5
FB51
330
FB50
100
AcDbEntity
  8
0
100
AcDbBlockBegin
  2
*D15
 70
     1
 10
0.0
 20
0.0
 30
0.0
  3
*D15
  1

  0
LINE
  5
11A65
330
FB50
100
AcDbEntity
  8
AM_5
100
AcDbLine
 10
3405.73451307594
 20
-532.7845954980069
 30
0.0
 11
3391.765410208889
 21
-532.7845954980069
 31
0.0
  0
LINE
  5
11A66
330
FB50
100
AcDbEntity
  8
AM_5
100
AcDbLine
 10
3405.73451307594
 20
-536.7845954980068
 30
0.0
 11
3391.765410208889
 21
-536.7845954980068
 31
0.0
  0
LINE
  5
11A67
330
FB50
100
AcDbEntity
  8
AM_5
100
AcDbLine
 10
3392.76541020889
 20
-531.7845954980068
 30
0.0
 11
3392.76541020889
 21
-530.7845954980068
 31
0.0
  0
LINE
  5
11A68
330
FB50
100
AcDbEntity
  8
AM_5
100
AcDbLine
 10
3392.76541020889
 20
-537.7845954980069
 30
0.0
 11
3392.76541020889
 21
-543.0645954980069
 31
0.0
  0
LINE
  5
11A69
330
FB50
100
AcDbEntity
  8
AM_5
100
AcDbLine
 10
3392.76541020889
 20
-532.7845954980069
 30
0.0
 11
3392.76541020889
 21
-536.7845954980068
 31
0.0
  0
INSERT
  5
11A6A
330
FB50
100
AcDbEntity
  8
AM_5
100
AcDbBlockReference
  2
_Dot
 10
3392.76541020889
 20
-532.7845954980069
 30
0.0
 41
1.0
 42
1.0
 43
1.0
 50
270.0
  0
INSERT
  5
11A6B
330
FB50
100
AcDbEntity
  8
AM_5
100
AcDbBlockReference
  2
_Dot
 10
3392.76541020889
 20
-536.7845954980068
 30
0.0
 41
1.0
 42
1.0
 43
1.0
 50
90.0
  0
MTEXT
  5
11A6C
330
FB50
100
AcDbEntity
  8
AM_5
 62
     2
100
AcDbMText
 10
3389.66541020889
 20
-541.0312621646729
 30
0.0
 40
3.2
 41
0.0
 71
     5
 72
     1
  1
J
 11
0.0000000000000001
 21
1.0
 31
0.0
 73
     1
 44
1.0
1001
ACAD
1000
MTEXTBEGIN
1070
    73
1070
     1
1070
    44
1040
1.0
1070
    74
1070
     0
1000
MTEXTEND
  0
POINT
  5
11A6D
330
FB50
100
AcDbEntity
  8
Defpoints
 62
     0
100
AcDbPoint
 10
3407.23451307594
 20
-532.7845954980069
 30
0.0
  0
POINT
  5
11A6E
330
FB50
100
AcDbEntity
  8
Defpoints
 62
     0
100
AcDbPoint
 10
3407.23451307594
 20
-536.7845954980068
 30
0.0
  0
POINT
  5
11A6F
330
FB50
100
AcDbEntity
  8
Defpoints
 62
     0
100
AcDbPoint
 10
3392.76541020889
 20
-536.7845954980068
 30
0.0
  0
ENDBLK
  5
FB52
330
FB50
100
AcDbEntity
  8
0
100
AcDbBlockEnd
  0
BLOCK
  5
FB78
330
FB77
100
AcDbEntity
  8
0
100
AcDbBlockBegin
  2
*D16
 70
     1
 10
0.0
 20
0.0
 30
0.0
  3
*D16
  1

  0
LINE
  5
11A3A
330
FB77
100
AcDbEntity
  8
AM_5
100
AcDbLine
 10
3408.73451307594
 20
-536.7845954980068
 30
0.0
 11
3411.73451307594
 21
-536.7845954980068
 31
0.0
  0
LINE
  5
11A3B
330
FB77
100
AcDbEntity
  8
AM_5
100
AcDbLine
 10
3419.234513075941
 20
-517.7845954980068
 30
0.0
 11
3409.734513075941
 21
-517.7845954980068
 31
0.0
  0
LINE
  5
11A3C
330
FB77
100
AcDbEntity
  8
AM_5
100
AcDbLine
 10
3410.73451307594
 20
-518.7845954980068
 30
0.0
 11
3410.73451307594
 21
-535.7845954980068
 31
0.0
  0
LINE
  5
11A3D
330
FB77
100
AcDbEntity
  8
AM_5
100
AcDbLine
 10
3410.73451307594
 20
-536.7845954980068
 30
0.0
 11
3410.73451307594
 21
-543.2617201823412
 31
0.0
  0
INSERT
  5
11A3E
330
FB77
100
AcDbEntity
  8
AM_5
100
AcDbBlockReference
  2
_Dot
 10
3410.73451307594
 20
-517.7845954980068
 30
0.0
 41
1.0
 42
1.0
 43
1.0
 50
90.0
  0
INSERT
  5
11A3F
330
FB77
100
AcDbEntity
  8
AM_5
100
AcDbBlockReference
  2
_Dot
 10
3410.73451307594
 20
-536.7845954980068
 30
0.0
 41
1.0
 42
1.0
 43
1.0
 50
270.0
  0
MTEXT
  5
11A40
330
FB77
100
AcDbEntity
  8
AM_5
 62
     2
100
AcDbMText
 10
3407.634513075941
 20
-541.015053515674
 30
0.0
 40
3.2
 41
0.0
 71
     5
 72
     1
  1
H
 11
0.0000000000000001
 21
1.0
 31
0.0
 73
     1
 44
1.0
1001
ACAD
1000
MTEXTBEGIN
1070
    73
1070
     1
1070
    44
1040
1.0
1070
    74
1070
     0
1000
MTEXTEND
  0
POINT
  5
11A41
330
FB77
100
AcDbEntity
  8
Defpoints
 62
     0
100
AcDbPoint
 10
3407.23451307594
 20
-536.7845954980068
 30
0.0
  0
POINT
  5
11A42
330
FB77
100
AcDbEntity
  8
Defpoints
 62
     0
100
AcDbPoint
 10
3420.734513075941
 20
-517.7845954980068
 30
0.0
  0
POINT
  5
11A43
330
FB77
100
AcDbEntity
  8
Defpoints
 62
     0
100
AcDbPoint
 10
3410.73451307594
 20
-517.7845954980068
 30
0.0
  0
ENDBLK
  5
FB79
330
FB77
100
AcDbEntity
  8
0
100
AcDbBlockEnd
  0
BLOCK
  5
FB99
330
FB98
100
AcDbEntity
  8
0
100
AcDbBlockBegin
  2
*D17
 70
     1
 10
0.0
 20
0.0
 30
0.0
  3
*D17
  1

  0
LINE
  5
11A79
330
FB98
100
AcDbEntity
  8
AM_5
100
AcDbLine
 10
3405.73451307594
 20
-536.7845954980068
 30
0.0
 11
3361.71243111143
 21
-536.7845954980068
 31
0.0
  0
LINE
  5
11A7A
330
FB98
100
AcDbEntity
  8
AM_5
100
AcDbLine
 10
3391.734513075941
 20
-513.7845954980068
 30
0.0
 11
3361.71243111143
 21
-513.7845954980068
 31
0.0
  0
LINE
  5
11A7B
330
FB98
100
AcDbEntity
  8
AM_5
100
AcDbLine
 10
3362.712431111429
 20
-535.7845954980068
 30
0.0
 11
3362.712431111429
 21
-514.7845954980068
 31
0.0
  0
INSERT
  5
11A7C
330
FB98
100
AcDbEntity
  8
AM_5
100
AcDbBlockReference
  2
_Dot
 10
3362.712431111429
 20
-536.7845954980068
 30
0.0
 41
1.0
 42
1.0
 43
1.0
 50
270.0
  0
INSERT
  5
11A7D
330
FB98
100
AcDbEntity
  8
AM_5
100
AcDbBlockReference
  2
_Dot
 10
3362.712431111429
 20
-513.7845954980068
 30
0.0
 41
1.0
 42
1.0
 43
1.0
 50
90.0
  0
MTEXT
  5
11A7E
330
FB98
100
AcDbEntity
  8
AM_5
 62
     2
100
AcDbMText
 10
3359.612431111429
 20
-525.2845954980062
 30
0.0
 40
3.2
 41
0.0
 71
     5
 72
     1
  1
（K）
 11
0.0000000000000001
 21
1.0
 31
0.0
 73
     1
 44
1.0
1001
ACAD
1000
MTEXTBEGIN
1070
    73
1070
     1
1070
    44
1040
1.0
1070
    74
1070
     0
1000
MTEXTEND
  0
POINT
  5
11A7F
330
FB98
100
AcDbEntity
  8
Defpoints
 62
     0
100
AcDbPoint
 10
3407.23451307594
 20
-536.7845954980068
 30
0.0
  0
POINT
  5
11A80
330
FB98
100
AcDbEntity
  8
Defpoints
 62
     0
100
AcDbPoint
 10
3393.23451307594
 20
-513.7845954980068
 30
0.0
  0
POINT
  5
11A81
330
FB98
100
AcDbEntity
  8
Defpoints
 62
     0
100
AcDbPoint
 10
3362.712431111429
 20
-513.7845954980068
 30
0.0
  0
ENDBLK
  5
FB9A
330
FB98
100
AcDbEntity
  8
0
100
AcDbBlockEnd
  0
BLOCK
  5
FBBA
330
FBB9
100
AcDbEntity
  8
0
100
AcDbBlockBegin
  2
*D18
 70
     1
 10
0.0
 20
0.0
 30
0.0
  3
*D18
  1

  0
LINE
  5
11A15
330
FBB9
100
AcDbEntity
  8
AM_5
100
AcDbLine
 10
3391.734513075941
 20
-513.7845954980068
 30
0.0
 11
3371.675724058361
 21
-513.7845954980068
 31
0.0
  0
LINE
  5
11A16
330
FBB9
100
AcDbEntity
  8
AM_5
100
AcDbLine
 10
3401.234513075941
 20
-530.7845954980068
 30
0.0
 11
3371.675724058361
 21
-530.7845954980068
 31
0.0
  0
LINE
  5
11A17
330
FBB9
100
AcDbEntity
  8
AM_5
100
AcDbLine
 10
3372.675724058361
 20
-514.7845954980068
 30
0.0
 11
3372.675724058361
 21
-529.7845954980068
 31
0.0
  0
INSERT
  5
11A18
330
FBB9
100
AcDbEntity
  8
AM_5
100
AcDbBlockReference
  2
_Dot
 10
3372.675724058361
 20
-513.7845954980068
 30
0.0
 41
1.0
 42
1.0
 43
1.0
 50
90.0
  0
INSERT
  5
11A19
330
FBB9
100
AcDbEntity
  8
AM_5
100
AcDbBlockReference
  2
_Dot
 10
3372.675724058361
 20
-530.7845954980068
 30
0.0
 41
1.0
 42
1.0
 43
1.0
 50
270.0
  0
MTEXT
  5
11A1A
330
FBB9
100
AcDbEntity
  8
AM_5
 62
     2
100
AcDbMText
 10
3369.575724058361
 20
-522.2845954980063
 30
0.0
 40
3.2
 41
0.0
 71
     5
 72
     1
  1
G
 11
0.0000000000000001
 21
1.0
 31
0.0
 73
     1
 44
1.0
1001
ACAD
1000
MTEXTBEGIN
1070
    73
1070
     1
1070
    44
1040
1.0
1070
    74
1070
     0
1000
MTEXTEND
  0
POINT
  5
11A1B
330
FBB9
100
AcDbEntity
  8
Defpoints
 62
     0
100
AcDbPoint
 10
3393.23451307594
 20
-513.7845954980068
 30
0.0
  0
POINT
  5
11A1C
330
FBB9
100
AcDbEntity
  8
Defpoints
 62
     0
100
AcDbPoint
 10
3402.734513075941
 20
-530.7845954980068
 30
0.0
  0
POINT
  5
11A1D
330
FBB9
100
AcDbEntity
  8
Defpoints
 62
     0
100
AcDbPoint
 10
3372.675724058361
 20
-530.7845954980068
 30
0.0
  0
ENDBLK
  5
FBBB
330
FBB9
100
AcDbEntity
  8
0
100
AcDbBlockEnd
  0
BLOCK
  5
FBF6
330
FBF5
100
AcDbEntity
  8
0
100
AcDbBlockBegin
  2
*D19
 70
     1
 10
0.0
 20
0.0
 30
0.0
  3
*D19
  1

  0
LINE
  5
11ADB
330
FBF5
100
AcDbEntity
  8
AM_5
100
AcDbLine
 10
3512.778392196087
 20
-530.7845954980068
 30
0.0
 11
3512.778392196087
 21
-547.6837281235548
 31
0.0
  0
LINE
  5
11ADC
330
FBF5
100
AcDbEntity
  8
AM_5
100
AcDbLine
 10
3525.278392196087
 20
-541.2845954980069
 30
0.0
 11
3525.278392196087
 21
-547.6837281235548
 31
0.0
  0
LINE
  5
11ADD
330
FBF5
100
AcDbEntity
  8
AM_5
100
AcDbLine
 10
3513.778392196087
 20
-546.6837281235548
 30
0.0
 11
3524.278392196087
 21
-546.6837281235548
 31
0.0
  0
INSERT
  5
11ADE
330
FBF5
100
AcDbEntity
  8
AM_5
100
AcDbBlockReference
  2
_Dot
 10
3512.778392196087
 20
-546.6837281235548
 30
0.0
 41
1.0
 42
1.0
 43
1.0
 50
180.0
  0
INSERT
  5
11ADF
330
FBF5
100
AcDbEntity
  8
AM_5
100
AcDbBlockReference
  2
_Dot
 10
3525.278392196087
 20
-546.6837281235548
 30
0.0
 41
1.0
 42
1.0
 43
1.0
  0
MTEXT
  5
11AE0
330
FBF5
100
AcDbEntity
  8
AM_5
 62
     2
100
AcDbMText
 10
3519.028392196087
 20
-543.5837281235547
 30
0.0
 40
3.2
 41
0.0
 71
     5
 72
     1
  1
F
 73
     1
 44
1.0
1001
ACAD
1000
MTEXTBEGIN
1070
    73
1070
     1
1070
    44
1040
1.0
1070
    74
1070
     0
1000
MTEXTEND
  0
POINT
  5
11AE1
330
FBF5
100
AcDbEntity
  8
Defpoints
 62
     0
100
AcDbPoint
 10
3512.778392196087
 20
-529.2845954980069
 30
0.0
  0
POINT
  5
11AE2
330
FBF5
100
AcDbEntity
  8
Defpoints
 62
     0
100
AcDbPoint
 10
3525.278392196087
 20
-539.7845954980068
 30
0.0
  0
POINT
  5
11AE3
330
FBF5
100
AcDbEntity
  8
Defpoints
 62
     0
100
AcDbPoint
 10
3525.278392196087
 20
-546.6837281235548
 30
0.0
  0
ENDBLK
  5
FBF7
330
FBF5
100
AcDbEntity
  8
0
100
AcDbBlockEnd
  0
BLOCK
  5
FC20
330
FC1F
100
AcDbEntity
  8
0
100
AcDbBlockBegin
  2
*D20
 70
     1
 10
0.0
 20
0.0
 30
0.0
  3
*D20
  1

  0
LINE
  5
11A27
330
FC1F
100
AcDbEntity
  8
AM_5
100
AcDbLine
 10
3457.23451307594
 20
-524.2845954980068
 30
0.0
 11
3473.717683697656
 21
-524.2845954980068
 31
0.0
  0
LINE
  5
11A28
330
FC1F
100
AcDbEntity
  8
AM_5
100
AcDbLine
 10
3449.734513075941
 20
-536.7845954980068
 30
0.0
 11
3473.717683697656
 21
-536.7845954980068
 31
0.0
  0
LINE
  5
11A29
330
FC1F
100
AcDbEntity
  8
AM_5
100
AcDbLine
 10
3472.717683697656
 20
-525.2845954980069
 30
0.0
 11
3472.717683697656
 21
-535.7845954980068
 31
0.0
  0
INSERT
  5
11A2A
330
FC1F
100
AcDbEntity
  8
AM_5
100
AcDbBlockReference
  2
_Dot
 10
3472.717683697656
 20
-524.2845954980068
 30
0.0
 41
1.0
 42
1.0
 43
1.0
 50
90.0
  0
INSERT
  5
11A2B
330
FC1F
100
AcDbEntity
  8
AM_5
100
AcDbBlockReference
  2
_Dot
 10
3472.717683697656
 20
-536.7845954980068
 30
0.0
 41
1.0
 42
1.0
 43
1.0
 50
270.0
  0
MTEXT
  5
11A2C
330
FC1F
100
AcDbEntity
  8
AM_5
 62
     2
100
AcDbMText
 10
3469.617683697656
 20
-530.5345954980063
 30
0.0
 40
3.2
 41
0.0
 71
     5
 72
     1
  1
F
 11
0.0000000000000001
 21
1.0
 31
0.0
 73
     1
 44
1.0
1001
ACAD
1000
MTEXTBEGIN
1070
    73
1070
     1
1070
    44
1040
1.0
1070
    74
1070
     0
1000
MTEXTEND
  0
POINT
  5
11A2D
330
FC1F
100
AcDbEntity
  8
Defpoints
 62
     0
100
AcDbPoint
 10
3455.734513075941
 20
-524.2845954980068
 30
0.0
  0
POINT
  5
11A2E
330
FC1F
100
AcDbEntity
  8
Defpoints
 62
     0
100
AcDbPoint
 10
3448.234513075941
 20
-536.7845954980068
 30
0.0
  0
POINT
  5
11A2F
330
FC1F
100
AcDbEntity
  8
Defpoints
 62
     0
100
AcDbPoint
 10
3472.717683697656
 20
-536.7845954980068
 30
0.0
  0
ENDBLK
  5
FC21
330
FC1F
100
AcDbEntity
  8
0
100
AcDbBlockEnd
  0
BLOCK
  5
FC41
330
FC40
100
AcDbEntity
  8
0
100
AcDbBlockBegin
  2
*D21
 70
     1
 10
0.0
 20
0.0
 30
0.0
  3
*D21
  1

  0
LINE
  5
119F1
330
FC40
100
AcDbEntity
  8
AM_5
100
AcDbLine
 10
3457.23451307594
 20
-524.2845954980068
 30
0.0
 11
3473.717683697656
 21
-524.2845954980068
 31
0.0
  0
LINE
  5
119F2
330
FC40
100
AcDbEntity
  8
AM_5
100
AcDbLine
 10
3463.734513075941
 20
-513.7845954980068
 30
0.0
 11
3473.717683697656
 21
-513.7845954980068
 31
0.0
  0
LINE
  5
119F3
330
FC40
100
AcDbEntity
  8
AM_5
100
AcDbLine
 10
3472.717683697656
 20
-523.2845954980068
 30
0.0
 11
3472.717683697656
 21
-514.7845954980068
 31
0.0
  0
INSERT
  5
119F4
330
FC40
100
AcDbEntity
  8
AM_5
100
AcDbBlockReference
  2
_Dot
 10
3472.717683697656
 20
-524.2845954980068
 30
0.0
 41
1.0
 42
1.0
 43
1.0
 50
270.0
  0
INSERT
  5
119F5
330
FC40
100
AcDbEntity
  8
AM_5
100
AcDbBlockReference
  2
_Dot
 10
3472.717683697656
 20
-513.7845954980068
 30
0.0
 41
1.0
 42
1.0
 43
1.0
 50
90.0
  0
MTEXT
  5
119F6
330
FC40
100
AcDbEntity
  8
AM_5
 62
     2
100
AcDbMText
 10
3469.617683697656
 20
-519.0345954980062
 30
0.0
 40
3.2
 41
0.0
 71
     5
 72
     1
  1
E
 11
0.0000000000000001
 21
1.0
 31
0.0
 73
     1
 44
1.0
1001
ACAD
1000
MTEXTBEGIN
1070
    73
1070
     1
1070
    44
1040
1.0
1070
    74
1070
     0
1000
MTEXTEND
  0
POINT
  5
119F7
330
FC40
100
AcDbEntity
  8
Defpoints
 62
     0
100
AcDbPoint
 10
3455.734513075941
 20
-524.2845954980068
 30
0.0
  0
POINT
  5
119F8
330
FC40
100
AcDbEntity
  8
Defpoints
 62
     0
100
AcDbPoint
 10
3462.234513075941
 20
-513.7845954980068
 30
0.0
  0
POINT
  5
119F9
330
FC40
100
AcDbEntity
  8
Defpoints
 62
     0
100
AcDbPoint
 10
3472.717683697656
 20
-513.7845954980068
 30
0.0
  0
ENDBLK
  5
FC42
330
FC40
100
AcDbEntity
  8
0
100
AcDbBlockEnd
  0
BLOCK
  5
FC62
330
FC61
100
AcDbEntity
  8
0
100
AcDbBlockBegin
  2
*D22
 70
     1
 10
0.0
 20
0.0
 30
0.0
  3
*D22
  1

  0
LINE
  5
119CD
330
FC61
100
AcDbEntity
  8
AM_5
100
AcDbLine
 10
3391.734513075941
 20
-582.6330358381717
 30
0.0
 11
3381.734513075941
 21
-582.6330358381717
 31
0.0
  0
LINE
  5
119CE
330
FC61
100
AcDbEntity
  8
AM_5
100
AcDbLine
 10
3391.734513075941
 20
-595.6330358381717
 30
0.0
 11
3381.734513075941
 21
-595.6330358381717
 31
0.0
  0
LINE
  5
119CF
330
FC61
100
AcDbEntity
  8
AM_5
100
AcDbLine
 10
3382.73451307594
 20
-583.6330358381717
 30
0.0
 11
3382.73451307594
 21
-594.6330358381717
 31
0.0
  0
INSERT
  5
119D0
330
FC61
100
AcDbEntity
  8
AM_5
100
AcDbBlockReference
  2
_Dot
 10
3382.73451307594
 20
-582.6330358381717
 30
0.0
 41
1.0
 42
1.0
 43
1.0
 50
90.0
  0
INSERT
  5
119D1
330
FC61
100
AcDbEntity
  8
AM_5
100
AcDbBlockReference
  2
_Dot
 10
3382.73451307594
 20
-595.6330358381717
 30
0.0
 41
1.0
 42
1.0
 43
1.0
 50
270.0
  0
MTEXT
  5
119D2
330
FC61
100
AcDbEntity
  8
AM_5
 62
     2
100
AcDbMText
 10
3379.634513075941
 20
-589.1330358381717
 30
0.0
 40
3.2
 41
0.0
 71
     5
 72
     1
  1
C
 11
0.0000000000000001
 21
1.0
 31
0.0
 73
     1
 44
1.0
1001
ACAD
1000
MTEXTBEGIN
1070
    73
1070
     1
1070
    44
1040
1.0
1070
    74
1070
     0
1000
MTEXTEND
  0
POINT
  5
119D3
330
FC61
100
AcDbEntity
  8
Defpoints
 62
     0
100
AcDbPoint
 10
3393.23451307594
 20
-582.6330358381717
 30
0.0
  0
POINT
  5
119D4
330
FC61
100
AcDbEntity
  8
Defpoints
 62
     0
100
AcDbPoint
 10
3393.23451307594
 20
-595.6330358381717
 30
0.0
  0
POINT
  5
119D5
330
FC61
100
AcDbEntity
  8
Defpoints
 62
     0
100
AcDbPoint
 10
3382.73451307594
 20
-595.6330358381717
 30
0.0
  0
ENDBLK
  5
FC63
330
FC61
100
AcDbEntity
  8
0
100
AcDbBlockEnd
  0
BLOCK
  5
FC83
330
FC82
100
AcDbEntity
  8
0
100
AcDbBlockBegin
  2
*D23
 70
     1
 10
0.0
 20
0.0
 30
0.0
  3
*D23
  1

  0
LINE
  5
119A9
330
FC82
100
AcDbEntity
  8
AM_5
100
AcDbLine
 10
3392.734513075941
 20
-581.6330358381717
 30
0.0
 11
3392.734513075941
 21
-561.6164659600189
 31
0.0
  0
LINE
  5
119AA
330
FC82
100
AcDbEntity
  8
AM_5
100
AcDbLine
 10
3462.73451307594
 20
-581.6330358381717
 30
0.0
 11
3462.73451307594
 21
-561.6164659600189
 31
0.0
  0
LINE
  5
119AB
330
FC82
100
AcDbEntity
  8
AM_5
100
AcDbLine
 10
3393.734513075941
 20
-562.616465960019
 30
0.0
 11
3461.734513075941
 21
-562.616465960019
 31
0.0
  0
INSERT
  5
119AC
330
FC82
100
AcDbEntity
  8
AM_5
100
AcDbBlockReference
  2
_Dot
 10
3392.734513075941
 20
-562.616465960019
 30
0.0
 41
1.0
 42
1.0
 43
1.0
 50
180.0
  0
INSERT
  5
119AD
330
FC82
100
AcDbEntity
  8
AM_5
100
AcDbBlockReference
  2
_Dot
 10
3462.73451307594
 20
-562.616465960019
 30
0.0
 41
1.0
 42
1.0
 43
1.0
  0
MTEXT
  5
119AE
330
FC82
100
AcDbEntity
  8
AM_5
 62
     2
100
AcDbMText
 10
3427.734513075941
 20
-559.516465960019
 30
0.0
 40
3.2
 41
0.0
 71
     5
 72
     1
  1
A
 73
     1
 44
1.0
1001
ACAD
1000
MTEXTBEGIN
1070
    73
1070
     1
1070
    44
1040
1.0
1070
    74
1070
     0
1000
MTEXTEND
  0
POINT
  5
119AF
330
FC82
100
AcDbEntity
  8
Defpoints
 62
     0
100
AcDbPoint
 10
3392.734513075941
 20
-583.1330358381717
 30
0.0
  0
POINT
  5
119B0
330
FC82
100
AcDbEntity
  8
Defpoints
 62
     0
100
AcDbPoint
 10
3462.73451307594
 20
-583.1330358381717
 30
0.0
  0
POINT
  5
119B1
330
FC82
100
AcDbEntity
  8
Defpoints
 62
     0
100
AcDbPoint
 10
3462.73451307594
 20
-562.616465960019
 30
0.0
  0
ENDBLK
  5
FC84
330
FC82
100
AcDbEntity
  8
0
100
AcDbBlockEnd
  0
BLOCK
  5
FCAD
330
FCAC
100
AcDbEntity
  8
0
100
AcDbBlockBegin
  2
*D24
 70
     1
 10
0.0
 20
0.0
 30
0.0
  3
*D24
  1

  0
LINE
  5
11A8B
330
FCAC
100
AcDbEntity
  8
AM_5
100
AcDbLine
 10
3397.734513075941
 20
-580.6330358381717
 30
0.0
 11
3397.734513075941
 21
-571.6330358381717
 31
0.0
  0
LINE
  5
11A8C
330
FCAC
100
AcDbEntity
  8
AM_5
100
AcDbLine
 10
3457.734513075941
 20
-580.6330358381717
 30
0.0
 11
3457.734513075941
 21
-571.6330358381717
 31
0.0
  0
LINE
  5
11A8D
330
FCAC
100
AcDbEntity
  8
AM_5
100
AcDbLine
 10
3398.734513075941
 20
-572.6330358381717
 30
0.0
 11
3456.734513075941
 21
-572.6330358381717
 31
0.0
  0
INSERT
  5
11A8E
330
FCAC
100
AcDbEntity
  8
AM_5
100
AcDbBlockReference
  2
_Dot
 10
3397.734513075941
 20
-572.6330358381717
 30
0.0
 41
1.0
 42
1.0
 43
1.0
 50
180.0
  0
INSERT
  5
11A8F
330
FCAC
100
AcDbEntity
  8
AM_5
100
AcDbBlockReference
  2
_Dot
 10
3457.734513075941
 20
-572.6330358381717
 30
0.0
 41
1.0
 42
1.0
 43
1.0
  0
MTEXT
  5
11A90
330
FCAC
100
AcDbEntity
  8
AM_5
 62
     2
100
AcDbMText
 10
3427.734513075941
 20
-569.5330358381717
 30
0.0
 40
3.2
 41
0.0
 71
     5
 72
     1
  1
L
 73
     1
 44
1.0
1001
ACAD
1000
MTEXTBEGIN
1070
    73
1070
     1
1070
    44
1040
1.0
1070
    74
1070
     0
1000
MTEXTEND
  0
POINT
  5
11A91
330
FCAC
100
AcDbEntity
  8
Defpoints
 62
     0
100
AcDbPoint
 10
3397.734513075941
 20
-582.1330358381717
 30
0.0
  0
POINT
  5
11A92
330
FCAC
100
AcDbEntity
  8
Defpoints
 62
     0
100
AcDbPoint
 10
3457.734513075941
 20
-582.1330358381717
 30
0.0
  0
POINT
  5
11A93
330
FCAC
100
AcDbEntity
  8
Defpoints
 62
     0
100
AcDbPoint
 10
3457.734513075941
 20
-572.6330358381717
 30
0.0
  0
ENDBLK
  5
FCAE
330
FCAC
100
AcDbEntity
  8
0
100
AcDbBlockEnd
  0
BLOCK
  5
FCCE
330
FCCD
100
AcDbEntity
  8
0
100
AcDbBlockBegin
  2
*D25
 70
     1
 10
0.0
 20
0.0
 30
0.0
  3
*D25
  1

  0
LINE
  5
11A9D
330
FCCD
100
AcDbEntity
  8
AM_5
100
AcDbLine
 10
3412.73451307594
 20
-597.6330358381717
 30
0.0
 11
3412.73451307594
 21
-606.6330358381717
 31
0.0
  0
LINE
  5
11A9E
330
FCCD
100
AcDbEntity
  8
AM_5
100
AcDbLine
 10
3442.734513075941
 20
-597.6330358381717
 30
0.0
 11
3442.734513075941
 21
-606.6330358381717
 31
0.0
  0
LINE
  5
11A9F
330
FCCD
100
AcDbEntity
  8
AM_5
100
AcDbLine
 10
3413.734513075941
 20
-605.6330358381717
 30
0.0
 11
3441.734513075941
 21
-605.6330358381717
 31
0.0
  0
INSERT
  5
11AA0
330
FCCD
100
AcDbEntity
  8
AM_5
100
AcDbBlockReference
  2
_Dot
 10
3412.73451307594
 20
-605.6330358381717
 30
0.0
 41
1.0
 42
1.0
 43
1.0
 50
180.0
  0
INSERT
  5
11AA1
330
FCCD
100
AcDbEntity
  8
AM_5
100
AcDbBlockReference
  2
_Dot
 10
3442.734513075941
 20
-605.6330358381717
 30
0.0
 41
1.0
 42
1.0
 43
1.0
  0
MTEXT
  5
11AA2
330
FCCD
100
AcDbEntity
  8
AM_5
 62
     2
100
AcDbMText
 10
3427.734513075941
 20
-602.5330358381717
 30
0.0
 40
3.2
 41
0.0
 71
     5
 72
     1
  1
M
 73
     1
 44
1.0
1001
ACAD
1000
MTEXTBEGIN
1070
    73
1070
     1
1070
    44
1040
1.0
1070
    74
1070
     0
1000
MTEXTEND
  0
POINT
  5
11AA3
330
FCCD
100
AcDbEntity
  8
Defpoints
 62
     0
100
AcDbPoint
 10
3412.73451307594
 20
-596.1330358381717
 30
0.0
  0
POINT
  5
11AA4
330
FCCD
100
AcDbEntity
  8
Defpoints
 62
     0
100
AcDbPoint
 10
3442.734513075941
 20
-596.1330358381717
 30
0.0
  0
POINT
  5
11AA5
330
FCCD
100
AcDbEntity
  8
Defpoints
 62
     0
100
AcDbPoint
 10
3442.734513075941
 20
-605.6330358381717
 30
0.0
  0
ENDBLK
  5
FCCF
330
FCCD
100
AcDbEntity
  8
0
100
AcDbBlockEnd
  0
BLOCK
  5
FCEF
330
FCEE
100
AcDbEntity
  8
0
100
AcDbBlockBegin
  2
*D26
 70
     1
 10
0.0
 20
0.0
 30
0.0
  3
*D26
  1

  0
LINE
  5
119BB
330
FCEE
100
AcDbEntity
  8
AM_5
100
AcDbLine
 10
3406.734513075941
 20
-595.1330358381717
 30
0.0
 11
3406.734513075941
 21
-616.6236248525938
 31
0.0
  0
LINE
  5
119BC
330
FCEE
100
AcDbEntity
  8
AM_5
100
AcDbLine
 10
3448.734513075941
 20
-595.1330358381717
 30
0.0
 11
3448.734513075941
 21
-616.6236248525938
 31
0.0
  0
LINE
  5
119BD
330
FCEE
100
AcDbEntity
  8
AM_5
100
AcDbLine
 10
3407.73451307594
 20
-615.6236248525938
 30
0.0
 11
3447.73451307594
 21
-615.6236248525938
 31
0.0
  0
INSERT
  5
119BE
330
FCEE
100
AcDbEntity
  8
AM_5
100
AcDbBlockReference
  2
_Dot
 10
3406.734513075941
 20
-615.6236248525938
 30
0.0
 41
1.0
 42
1.0
 43
1.0
 50
180.0
  0
INSERT
  5
119BF
330
FCEE
100
AcDbEntity
  8
AM_5
100
AcDbBlockReference
  2
_Dot
 10
3448.734513075941
 20
-615.6236248525938
 30
0.0
 41
1.0
 42
1.0
 43
1.0
  0
MTEXT
  5
119C0
330
FCEE
100
AcDbEntity
  8
AM_5
 62
     2
100
AcDbMText
 10
3427.734513075941
 20
-612.5236248525937
 30
0.0
 40
3.2
 41
0.0
 71
     5
 72
     1
  1
B\P
 73
     1
 44
1.0
1001
ACAD
1000
MTEXTBEGIN
1070
    73
1070
     1
1070
    44
1040
1.0
1070
    74
1070
     0
1000
MTEXTEND
  0
POINT
  5
119C1
330
FCEE
100
AcDbEntity
  8
Defpoints
 62
     0
100
AcDbPoint
 10
3406.734513075941
 20
-593.6330358381717
 30
0.0
  0
POINT
  5
119C2
330
FCEE
100
AcDbEntity
  8
Defpoints
 62
     0
100
AcDbPoint
 10
3448.734513075941
 20
-593.6330358381717
 30
0.0
  0
POINT
  5
119C3
330
FCEE
100
AcDbEntity
  8
Defpoints
 62
     0
100
AcDbPoint
 10
3448.734513075941
 20
-615.6236248525938
 30
0.0
  0
ENDBLK
  5
FCF0
330
FCEE
100
AcDbEntity
  8
0
100
AcDbBlockEnd
  0
BLOCK
  5
FD10
330
FD0F
100
AcDbEntity
  8
0
100
AcDbBlockBegin
  2
*D27
 70
     1
 10
0.0
 20
0.0
 30
0.0
  3
*D27
  1

  0
LINE
  5
11AC1
330
FD0F
100
AcDbEntity
  8
AM_5
100
AcDbLine
 10
3449.734513075941
 20
-594.1330358381717
 30
0.0
 11
3473.734513075941
 21
-594.1330358381717
 31
0.0
  0
LINE
  5
11AC2
330
FD0F
100
AcDbEntity
  8
AM_5
100
AcDbLine
 10
3449.734513075941
 20
-584.1330358381717
 30
0.0
 11
3473.734513075941
 21
-584.1330358381717
 31
0.0
  0
LINE
  5
11AC3
330
FD0F
100
AcDbEntity
  8
AM_5
100
AcDbLine
 10
3472.73451307594
 20
-593.1330358381717
 30
0.0
 11
3472.73451307594
 21
-585.1330358381717
 31
0.0
  0
INSERT
  5
11AC4
330
FD0F
100
AcDbEntity
  8
AM_5
100
AcDbBlockReference
  2
_Dot
 10
3472.73451307594
 20
-594.1330358381717
 30
0.0
 41
1.0
 42
1.0
 43
1.0
 50
270.0
  0
INSERT
  5
11AC5
330
FD0F
100
AcDbEntity
  8
AM_5
100
AcDbBlockReference
  2
_Dot
 10
3472.73451307594
 20
-584.1330358381717
 30
0.0
 41
1.0
 42
1.0
 43
1.0
 50
90.0
  0
MTEXT
  5
11AC6
330
FD0F
100
AcDbEntity
  8
AM_5
 62
     2
100
AcDbMText
 10
3469.63451307594
 20
-589.1330358381717
 30
0.0
 40
3.2
 41
0.0
 71
     5
 72
     1
  1
D
 11
0.0000000000000001
 21
1.0
 31
0.0
 73
     1
 44
1.0
1001
ACAD
1000
MTEXTBEGIN
1070
    73
1070
     1
1070
    44
1040
1.0
1070
    74
1070
     0
1000
MTEXTEND
  0
POINT
  5
11AC7
330
FD0F
100
AcDbEntity
  8
Defpoints
 62
     0
100
AcDbPoint
 10
3448.234513075941
 20
-594.1330358381717
 30
0.0
  0
POINT
  5
11AC8
330
FD0F
100
AcDbEntity
  8
Defpoints
 62
     0
100
AcDbPoint
 10
3448.234513075941
 20
-584.1330358381717
 30
0.0
  0
POINT
  5
11AC9
330
FD0F
100
AcDbEntity
  8
Defpoints
 62
     0
100
AcDbPoint
 10
3472.73451307594
 20
-584.1330358381717
 30
0.0
  0
ENDBLK
  5
FD11
330
FD0F
100
AcDbEntity
  8
0
100
AcDbBlockEnd
  0
BLOCK
  5
FF50
330
FF4F
100
AcDbEntity
  8
0
100
AcDbBlockBegin
  2
*D28
 70
     1
 10
0.0
 20
0.0
 30
0.0
  3
*D28
  1

  0
LINE
  5
11AAF
330
FF4F
100
AcDbEntity
  8
AM_5
100
AcDbLine
 10
3481.219722870473
 20
-572.6401146100836
 30
0.0
 11
3468.306389537139
 21
-572.6401146100836
 31
0.0
  0
LINE
  5
11AB0
330
FF4F
100
AcDbEntity
  8
AM_5
100
AcDbLine
 10
3468.306389537139
 20
-572.6401146100836
 30
0.0
 11
3460.001033422447
 21
-585.5970938817945
 31
0.0
  0
LINE
  5
11AB1
330
FF4F
100
AcDbEntity
  8
AM_5
100
AcDbLine
 10
3455.467992729435
 20
-592.6689777945498
 30
0.0
 11
3454.388697326336
 21
-594.3527596785391
 31
0.0
  0
MTEXT
  5
11AB2
330
FF4F
100
AcDbEntity
  8
AM_5
 62
     2
100
AcDbMText
 10
3475.513056203805
 20
-569.5401146100834
 30
0.0
 40
3.200000000000001
 41
0.0
 71
     5
 72
     1
  1
4-Nサラ
 73
     1
 44
1.0
1001
ACAD
1000
MTEXTBEGIN
1070
    73
1070
     1
1070
    44
1040
1.0
1070
    74
1070
     0
1000
MTEXTEND
  0
LINE
  5
11AB3
330
FF4F
100
AcDbEntity
  8
AM_5
100
AcDbLine
 10
3456.547288132533
 20
-590.9851959105603
 30
0.0
 11
3458.921738019349
 21
-587.2808757657837
 31
0.0
  0
INSERT
  5
11AB4
330
FF4F
100
AcDbEntity
  8
AM_5
100
AcDbBlockReference
  2
GENDOT
 10
3456.547288132533
 20
-590.9851959105603
 30
0.0
 41
2.0
 42
2.0
 43
2.0
 50
57.34034041497599
  0
INSERT
  5
11AB5
330
FF4F
100
AcDbEntity
  8
AM_5
100
AcDbBlockReference
  2
GENDOT
 10
3458.921738019349
 20
-587.2808757657837
 30
0.0
 41
2.0
 42
2.0
 43
2.0
 50
237.340340414976
  0
POINT
  5
11AB6
330
FF4F
100
AcDbEntity
  8
Defpoints
 62
     0
100
AcDbPoint
 10
3458.921738019349
 20
-587.2808757657837
 30
0.0
  0
POINT
  5
11AB7
330
FF4F
100
AcDbEntity
  8
Defpoints
 62
     0
100
AcDbPoint
 10
3456.547288132533
 20
-590.9851959105603
 30
0.0
  0
ENDBLK
  5
FF51
330
FF4F
100
AcDbEntity
  8
0
100
AcDbBlockEnd
  0
BLOCK
  5
10784
330
10781
100
AcDbEntity
  8
0
100
AcDbBlockBegin
  2
GENDOT
 70
     0
 10
0.0
 20
0.0
 30
0.0
  3
GENDOT
  1

  0
LINE
  5
10782
330
10781
100
AcDbEntity
  8
0
100
AcDbLine
 10
0.0
 20
0.0
 30
0.0
 11
-1.0
 21
0.0
 31
0.0
  0
LWPOLYLINE
  5
10783
330
10781
100
AcDbEntity
  8
0
100
AcDbPolyline
 90
        2
 70
     1
 43
0.25
 10
-0.125
 20
0.0
 42
1.0
 10
0.125
 20
0.0
 42
1.0
  0
ENDBLK
  5
10785
330
10781
100
AcDbEntity
  8
0
100
AcDbBlockEnd
  0
BLOCK
  5
11AFE
330
11AF7
100
AcDbEntity
  8
0
100
AcDbBlockBegin
  2
*S52
 70
     1
 10
0.0
 20
0.0
 30
0.0
  3
*S52
  1

  0
LINE
  5
11AF8
330
11AF7
100
AcDbEntity
  8
AM_5
 62
     3
100
AcDbLine
 10
3485.96728161388
 20
-513.7969166304555
 30
0.0
 11
3509.604614947213
 21
-513.7969166304555
 31
0.0
  0
LINE
  5
11AF9
330
11AF7
100
AcDbEntity
  8
AM_5
 62
     3
100
AcDbLine
 10
3509.604614947213
 20
-513.7969166304555
 30
0.0
 11
3513.415550008076
 21
-517.8307805464876
 31
0.0
  0
LINE
  5
11AFA
330
11AF7
100
AcDbEntity
  8
AM_5
  6
Continuous
 62
     3
100
AcDbLine
 10
3513.415550008076
 20
-517.8307805464876
 30
0.0
 11
3514.789020825654
 21
-519.2845954980068
 31
0.0
  0
LINE
  5
11AFB
330
11AF7
100
AcDbEntity
  8
AM_5
  6
Continuous
 62
     3
100
AcDbLine
 10
3513.026001469407
 20
-518.1988009395463
 30
0.0
 11
3514.789020825654
 21
-519.2845954980068
 31
0.0
  0
LINE
  5
11AFC
330
11AF7
100
AcDbEntity
  8
AM_5
  6
Continuous
 62
     3
100
AcDbLine
 10
3514.789020825654
 20
-519.2845954980068
 30
0.0
 11
3513.805098546745
 21
-517.4627601534289
 31
0.0
  0
MTEXT
  5
11AFD
330
11AF7
100
AcDbEntity
  8
AM_5
 62
     2
100
AcDbMText
 10
3506.404614947213
 20
-512.1969166304555
 30
0.0
 40
3.2
 41
0.0
 71
     9
 72
     5
  1
90°で使用の場合
 73
     1
 44
1.0
1001
ACAD
1000
MTEXTBEGIN
1070
    73
1070
     1
1070
    44
1040
1.0
1070
    74
1070
     0
1000
MTEXTEND
  0
ENDBLK
  5
11AFF
330
11AF7
100
AcDbEntity
  8
0
100
AcDbBlockEnd
  0
ENDSEC
  0
SECTION
  2
ENTITIES
  0
LINE
  5
F4C1
330
1F
100
AcDbEntity
  8
size
100
AcDbLine
 10
3295.801488536429
 20
-668.2427308116889
 30
0.0
 11
3592.801488536429
 21
-668.2427308116889
 31
0.0
1001
GENIUS_GENREC_14
1002
{
1000
PYDIR
1011
3295.801488536429
1021
-371.242730811689
1031
0.0
1002
}
1002
{
1000
PXDIR
1011
3715.80148853643
1021
-668.2427308116889
1031
0.0
1002
}
1002
{
1000
PORI
1011
3295.801488536429
1021
-668.2427308116889
1031
0.0
1002
}
1002
{
1000
PINS
1011
3505.801488536429
1021
-519.7427308116889
1031
0.0
1002
}
1002
{
1000
HVAL
1000
297
1002
}
1002
{
1000
H
1070
     2
1002
}
1002
{
1000
WVAL
1000
420
1002
}
1002
{
1000
W
1070
     2
1002
}
1002
{
1000
C
1070
     4
1002
}
1001
GENIUS_GENOBJ-N-REC_13
1002
{
1000
OWNER
1000
GEN
1002
}
1001
GENIUS_GENODEF_13
1002
{
1000
HIER
1070
     0
1002
}
1002
{
1000
MANEDIT
1070
     0
1002
}
1002
{
1000
NOSEL
1070
     0
1002
}
1002
{
1000
BEHIND
1070
     0
1002
}
1002
{
1000
OTHER
1070
     0
1002
}
1002
{
1000
REACTOR
1002
}
  0
LINE
  5
F4C2
330
1F
100
AcDbEntity
  8
size
100
AcDbLine
 10
3295.801488536429
 20
-458.2427308116889
 30
0.0
 11
3295.801488536429
 21
-668.2427308116889
 31
0.0
1001
GENIUS_GENREC_14
1002
{
1000
PYDIR
1011
3295.801488536429
1021
-371.242730811689
1031
0.0
1002
}
1002
{
1000
PXDIR
1011
3715.80148853643
1021
-668.2427308116889
1031
0.0
1002
}
1002
{
1000
PORI
1011
3295.801488536429
1021
-668.2427308116889
1031
0.0
1002
}
1002
{
1000
PINS
1011
3505.801488536429
1021
-519.7427308116889
1031
0.0
1002
}
1002
{
1000
HVAL
1000
297
1002
}
1002
{
1000
H
1070
     2
1002
}
1002
{
1000
WVAL
1000
420
1002
}
1002
{
1000
W
1070
     2
1002
}
1002
{
1000
C
1070
     4
1002
}
1001
GENIUS_GENOBJ-N-REC_13
1002
{
1000
OWNER
1000
GEN
1002
}
1001
GENIUS_GENODEF_13
1002
{
1000
HIER
1070
     0
1002
}
1002
{
1000
MANEDIT
1070
     0
1002
}
1002
{
1000
NOSEL
1070
     0
1002
}
1002
{
1000
BEHIND
1070
     0
1002
}
1002
{
1000
OTHER
1070
     0
1002
}
1002
{
1000
REACTOR
1002
}
  0
LINE
  5
F4C3
330
1F
100
AcDbEntity
  8
waku
100
AcDbLine
 10
3581.301488536429
 20
-659.7427308116889
 30
0.0
 11
3581.301488536429
 21
-466.7427308116889
 31
0.0
1001
GENIUS_GENREC_14
1002
{
1000
PYDIR
1011
3172.801488536429
1021
-452.2427308116889
1031
0.0
1002
}
1002
{
1000
PXDIR
1011
3592.801488536429
1021
-749.2427308116889
1031
0.0
1002
}
1002
{
1000
PORI
1011
3172.801488536429
1021
-749.2427308116889
1031
0.0
1002
}
1002
{
1000
PINS
1011
3382.801488536429
1021
-600.7427308116889
1031
0.0
1002
}
1002
{
1000
HVAL
1000
297
1002
}
1002
{
1000
H
1070
     2
1002
}
1002
{
1000
WVAL
1000
420
1002
}
1002
{
1000
W
1070
     2
1002
}
1002
{
1000
C
1070
     4
1002
}
1001
GENIUS_GENOBJ-N-REC_13
1002
{
1000
OWNER
1000
GEN
1002
}
1001
GENIUS_GENODEF_13
1002
{
1000
HIER
1070
     0
1002
}
1002
{
1000
MANEDIT
1070
     0
1002
}
1002
{
1000
NOSEL
1070
     0
1002
}
1002
{
1000
BEHIND
1070
     0
1002
}
1002
{
1000
OTHER
1070
     0
1002
}
1002
{
1000
REACTOR
1002
}
  0
LINE
  5
F4C4
330
1F
100
AcDbEntity
  8
waku
100
AcDbLine
 10
3307.30148853643
 20
-466.7427308116889
 30
0.0
 11
3307.30148853643
 21
-659.7427308116889
 31
0.0
1001
GENIUS_GENREC_14
1002
{
1000
PYDIR
1011
3295.801488536429
1021
-371.242730811689
1031
0.0
1002
}
1002
{
1000
PXDIR
1011
3715.80148853643
1021
-668.2427308116889
1031
0.0
1002
}
1002
{
1000
PORI
1011
3295.801488536429
1021
-668.2427308116889
1031
0.0
1002
}
1002
{
1000
PINS
1011
3505.801488536429
1021
-519.7427308116889
1031
0.0
1002
}
1002
{
1000
HVAL
1000
297
1002
}
1002
{
1000
H
1070
     2
1002
}
1002
{
1000
WVAL
1000
420
1002
}
1002
{
1000
W
1070
     2
1002
}
1002
{
1000
C
1070
     4
1002
}
1001
GENIUS_GENOBJ-N-REC_13
1002
{
1000
OWNER
1000
GEN
1002
}
1001
GENIUS_GENODEF_13
1002
{
1000
HIER
1070
     0
1002
}
1002
{
1000
MANEDIT
1070
     0
1002
}
1002
{
1000
NOSEL
1070
     0
1002
}
1002
{
1000
BEHIND
1070
     0
1002
}
1002
{
1000
OTHER
1070
     0
1002
}
1002
{
1000
REACTOR
1002
}
  0
LINE
  5
F4C5
330
1F
100
AcDbEntity
  8
waku
100
AcDbLine
 10
3581.301488536429
 20
-466.7427308116889
 30
0.0
 11
3307.30148853643
 21
-466.7427308116889
 31
0.0
1001
GENIUS_GENREC_14
1002
{
1000
PYDIR
1011
3172.801488536429
1021
-458.2427308116889
1031
0.0
1002
}
1002
{
1000
PXDIR
1011
3592.801488536429
1021
-755.242730811689
1031
0.0
1002
}
1002
{
1000
PORI
1011
3172.801488536429
1021
-755.242730811689
1031
0.0
1002
}
1002
{
1000
PINS
1011
3382.801488536429
1021
-606.7427308116889
1031
0.0
1002
}
1002
{
1000
HVAL
1000
297
1002
}
1002
{
1000
H
1070
     2
1002
}
1002
{
1000
WVAL
1000
420
1002
}
1002
{
1000
W
1070
     2
1002
}
1002
{
1000
C
1070
     4
1002
}
1001
GENIUS_GENOBJ-N-REC_13
1002
{
1000
OWNER
1000
GEN
1002
}
1001
GENIUS_GENODEF_13
1002
{
1000
HIER
1070
     0
1002
}
1002
{
1000
MANEDIT
1070
     0
1002
}
1002
{
1000
NOSEL
1070
     0
1002
}
1002
{
1000
BEHIND
1070
     0
1002
}
1002
{
1000
OTHER
1070
     0
1002
}
1002
{
1000
REACTOR
1002
}
  0
LINE
  5
F4C6
330
1F
100
AcDbEntity
  8
waku
100
AcDbLine
 10
3307.30148853643
 20
-659.7427308116889
 30
0.0
 11
3581.301488536429
 21
-659.7427308116889
 31
0.0
1001
GENIUS_GENREC_14
1002
{
1000
PYDIR
1011
3295.801488536429
1021
-371.242730811689
1031
0.0
1002
}
1002
{
1000
PXDIR
1011
3715.80148853643
1021
-668.2427308116889
1031
0.0
1002
}
1002
{
1000
PORI
1011
3295.801488536429
1021
-668.2427308116889
1031
0.0
1002
}
1002
{
1000
PINS
1011
3505.801488536429
1021
-519.7427308116889
1031
0.0
1002
}
1002
{
1000
HVAL
1000
297
1002
}
1002
{
1000
H
1070
     2
1002
}
1002
{
1000
WVAL
1000
420
1002
}
1002
{
1000
W
1070
     2
1002
}
1002
{
1000
C
1070
     4
1002
}
  0
LINE
  5
F4C7
330
1F
100
AcDbEntity
  8
size
100
AcDbLine
 10
3592.801488536429
 20
-458.2427308116889
 30
0.0
 11
3592.801488536429
 21
-668.2427308116889
 31
0.0
1001
GENIUS_GENREC_14
1002
{
1000
PYDIR
1011
3295.801488536429
1021
-371.242730811689
1031
0.0
1002
}
1002
{
1000
PXDIR
1011
3715.80148853643
1021
-668.2427308116889
1031
0.0
1002
}
1002
{
1000
PORI
1011
3295.801488536429
1021
-668.2427308116889
1031
0.0
1002
}
1002
{
1000
PINS
1011
3505.801488536429
1021
-519.7427308116889
1031
0.0
1002
}
1002
{
1000
HVAL
1000
297
1002
}
1002
{
1000
H
1070
     2
1002
}
1002
{
1000
WVAL
1000
420
1002
}
1002
{
1000
W
1070
     2
1002
}
1002
{
1000
C
1070
     4
1002
}
1001
GENIUS_GENOBJ-N-REC_13
1002
{
1000
OWNER
1000
GEN
1002
}
1001
GENIUS_GENODEF_13
1002
{
1000
HIER
1070
     0
1002
}
1002
{
1000
MANEDIT
1070
     0
1002
}
1002
{
1000
NOSEL
1070
     0
1002
}
1002
{
1000
BEHIND
1070
     0
1002
}
1002
{
1000
OTHER
1070
     0
1002
}
1002
{
1000
REACTOR
1002
}
  0
LINE
  5
F4C8
330
1F
100
AcDbEntity
  8
size
100
AcDbLine
 10
3295.801488536429
 20
-458.2427308116889
 30
0.0
 11
3592.801488536429
 21
-458.2427308116889
 31
0.0
1001
GENIUS_GENREC_14
1002
{
1000
PYDIR
1011
3295.801488536429
1021
-371.242730811689
1031
0.0
1002
}
1002
{
1000
PXDIR
1011
3715.80148853643
1021
-668.2427308116889
1031
0.0
1002
}
1002
{
1000
PORI
1011
3295.801488536429
1021
-668.2427308116889
1031
0.0
1002
}
1002
{
1000
PINS
1011
3505.801488536429
1021
-519.7427308116889
1031
0.0
1002
}
1002
{
1000
HVAL
1000
297
1002
}
1002
{
1000
H
1070
     2
1002
}
1002
{
1000
WVAL
1000
420
1002
}
1002
{
1000
W
1070
     2
1002
}
1002
{
1000
C
1070
     4
1002
}
1001
GENIUS_GENOBJ-N-REC_13
1002
{
1000
OWNER
1000
GEN
1002
}
1001
GENIUS_GENODEF_13
1002
{
1000
HIER
1070
     0
1002
}
1002
{
1000
MANEDIT
1070
     0
1002
}
1002
{
1000
NOSEL
1070
     0
1002
}
1002
{
1000
BEHIND
1070
     0
1002
}
1002
{
1000
OTHER
1070
     0
1002
}
1002
{
1000
REACTOR
1002
}
  0
LINE
  5
F4C9
330
1F
100
AcDbEntity
  8
AM_0
100
AcDbLine
 10
3327.301488536429
 20
-466.7427308116889
 30
0.0
 11
3327.301488536429
 21
-498.7427308116918
 31
0.0
  0
LINE
  5
F4CA
330
1F
100
AcDbEntity
  8
AM_0
100
AcDbLine
 10
3307.30148853643
 20
-474.7427308116889
 30
0.0
 11
3417.301488536429
 21
-474.7427308116889
 31
0.0
  0
LINE
  5
F4CB
330
1F
100
AcDbEntity
  8
AM_0
100
AcDbLine
 10
3307.30148853643
 20
-482.7427308116889
 30
0.0
 11
3417.301488536429
 21
-482.7427308116889
 31
0.0
  0
LINE
  5
F4CC
330
1F
100
AcDbEntity
  8
AM_0
100
AcDbLine
 10
3307.30148853643
 20
-490.7427308116889
 30
0.0
 11
3417.301488536429
 21
-490.7427308116889
 31
0.0
  0
LINE
  5
F4CD
330
1F
100
AcDbEntity
  8
AM_0
100
AcDbLine
 10
3307.30148853643
 20
-490.7427308116889
 30
0.0
 11
3417.30148853643
 21
-490.7427308116889
 31
0.0
  0
LINE
  5
F4CE
330
1F
100
AcDbEntity
  8
AM_0
100
AcDbLine
 10
3307.30148853643
 20
-466.7427308116889
 30
0.0
 11
3417.301488536429
 21
-466.7427308116889
 31
0.0
  0
LINE
  5
F4CF
330
1F
100
AcDbEntity
  8
AM_0
100
AcDbLine
 10
3417.301488536429
 20
-466.7427308116889
 30
0.0
 11
3417.30148853643
 21
-498.7427308116889
 31
0.0
  0
TEXT
  5
F4D0
330
1F
100
AcDbEntity
  8
AM_6
100
AcDbText
 10
3312.95848853643
 20
-472.3427308116892
 30
0.0
 40
3.2
  1
品　名
 41
0.85537027
100
AcDbText
  0
TEXT
  5
F4D1
330
1F
100
AcDbEntity
  8
AM_6
100
AcDbText
 10
3312.95848853643
 20
-480.3427308116893
 30
0.0
 40
3.2
  1
品　番
 41
0.85537027
100
AcDbText
  0
TEXT
  5
F4D2
330
1F
100
AcDbEntity
  8
AM_6
100
AcDbText
 10
3312.95848853643
 20
-488.3427308116893
 30
0.0
 40
3.2
  1
材　質
 41
0.85537027
100
AcDbText
  0
TEXT
  5
F4D3
330
1F
100
AcDbEntity
  8
AM_6
100
AcDbText
 10
3312.95848853643
 20
-496.3427308116893
 30
0.0
 40
3.2
  1
仕上げ
 41
0.85537027
100
AcDbText
  0
TEXT
  5
F4D4
330
1F
100
AcDbEntity
  8
AM_6
100
AcDbText
 10
3329.95848853643
 20
-472.3427308116892
 30
0.0
 40
3.2
  1
ボールキャッチ
 41
0.85537027
100
AcDbText
  0
TEXT
  5
F4D5
330
1F
100
AcDbEntity
  8
AM_6
100
AcDbText
 10
3329.95848853643
 20
-480.3427308116893
 30
0.0
 40
3.2
  1
SC-200
 41
0.85537027
100
AcDbText
  0
TEXT
  5
F4D6
330
1F
100
AcDbEntity
  8
AM_6
100
AcDbText
 10
3329.95848853643
 20
-488.3427308116893
 30
0.0
 40
3.2
  1
ステンレス
 41
0.85537027
100
AcDbText
  0
LINE
  5
F4D8
330
1F
100
AcDbEntity
  8
AM_0
100
AcDbLine
 10
3307.30148853643
 20
-498.7427308116925
 30
0.0
 11
3417.30148853643
 21
-498.7427308116889
 31
0.0
  0
TEXT
  5
F4DA
330
1F
100
AcDbEntity
  8
AM_6
100
AcDbText
 10
3329.95848853643
 20
-496.3427308116893
 30
0.0
 40
3.2
  1
バレル研磨
 41
0.85537027
100
AcDbText
  0
LINE
  5
F4E9
330
1F
100
AcDbEntity
  8
AM_0
100
AcDbLine
 10
3531.778392196087
 20
-513.7845954980068
 30
0.0
 11
3518.778392196087
 21
-513.7845954980068
 31
0.0
  0
LINE
  5
F4EA
330
1F
100
AcDbEntity
  8
AM_0
100
AcDbLine
 10
3531.778392196087
 20
-517.7845954980068
 30
0.0
 11
3518.778392196087
 21
-517.7845954980068
 31
0.0
  0
LINE
  5
F4EB
330
1F
100
AcDbEntity
  8
AM_0
100
AcDbLine
 10
3530.278392196087
 20
-530.7845954980068
 30
0.0
 11
3520.278392196086
 21
-530.7845954980068
 31
0.0
  0
LINE
  5
F4EC
330
1F
100
AcDbEntity
  8
AM_0
100
AcDbLine
 10
3520.278392196086
 20
-532.7845954980069
 30
0.0
 11
3530.278392196087
 21
-532.7845954980069
 31
0.0
  0
LINE
  5
F4ED
330
1F
100
AcDbEntity
  8
AM_0
100
AcDbLine
 10
3530.278392196087
 20
-536.7845954980068
 30
0.0
 11
3520.278392196086
 21
-536.7845954980068
 31
0.0
  0
LINE
  5
F4EE
330
1F
100
AcDbEntity
  8
AM_0
100
AcDbLine
 10
3518.778392196087
 20
-524.2845954980068
 30
0.0
 11
3518.778392196087
 21
-513.7845954980068
 31
0.0
  0
LINE
  5
F4EF
330
1F
100
AcDbEntity
  8
AM_0
100
AcDbLine
 10
3531.778392196087
 20
-524.2845954980068
 30
0.0
 11
3531.778392196087
 21
-513.7845954980068
 31
0.0
  0
CIRCLE
  5
F4F0
330
1F
100
AcDbEntity
  8
AM_0
100
AcDbCircle
 10
3525.278392196087
 20
-524.2845954980068
 30
0.0
 40
5.5
  0
ARC
  5
F4F1
330
1F
100
AcDbEntity
  8
AM_0
100
AcDbCircle
 10
3525.278392196087
 20
-524.2845954980068
 30
0.0
 40
6.5
100
AcDbArc
 50
180.0
 51
0.0
  0
LINE
  5
F4F2
330
1F
100
AcDbEntity
  8
AM_0
100
AcDbLine
 10
3520.278392196086
 20
-536.7845954980068
 30
0.0
 11
3520.278392196086
 21
-528.4379074980067
 31
0.0
  0
LINE
  5
F4F3
330
1F
100
AcDbEntity
  8
AM_0
100
AcDbLine
 10
3530.278392196087
 20
-536.7845954980068
 30
0.0
 11
3530.278392196087
 21
-528.4379074980067
 31
0.0
  0
ARC
  5
F4F4
330
1F
100
AcDbEntity
  8
AM_0
100
AcDbCircle
 10
3525.278392196087
 20
-524.2845954980068
 30
0.0
 40
4.5
100
AcDbArc
 50
186.3793699999997
 51
353.6206300000003
  0
LINE
  5
F4F5
330
1F
100
AcDbEntity
  8
AM_0
100
AcDbLine
 10
3529.750528196087
 20
-523.7845954980068
 30
0.0
 11
3520.806256196087
 21
-523.7845954980068
 31
0.0
  0
LINE
  5
F4F6
330
1F
100
AcDbEntity
  8
AM_0
100
AcDbLine
 10
3529.750528196087
 20
-524.7845954980069
 30
0.0
 11
3520.806256196087
 21
-524.7845954980069
 31
0.0
  0
ARC
  5
F4F7
330
1F
100
AcDbEntity
  8
AM_0
100
AcDbCircle
 10
3525.278392196087
 20
-524.2845954980068
 30
0.0
 40
4.5
100
AcDbArc
 50
6.379369999999748
 51
173.6206300000001
  0
LINE
  5
F4F8
102
{ACAD_REACTORS
330
FC8F
102
}
330
1F
100
AcDbEntity
  8
AM_0
100
AcDbLine
 10
3462.73451307594
 20
-583.1330358381717
 30
0.0
 11
3462.73451307594
 21
-595.1330358381717
 31
0.0
  0
LINE
  5
F4F9
102
{ACAD_REACTORS
330
FC6E
102
}
330
1F
100
AcDbEntity
  8
AM_0
100
AcDbLine
 10
3462.234513075941
 20
-595.6330358381717
 30
0.0
 11
3393.23451307594
 21
-595.6330358381717
 31
0.0
  0
LINE
  5
F4FA
102
{ACAD_REACTORS
330
FC8F
102
}
330
1F
100
AcDbEntity
  8
AM_0
100
AcDbLine
 10
3392.734513075941
 20
-595.1330358381717
 30
0.0
 11
3392.734513075941
 21
-583.1330358381717
 31
0.0
  0
LINE
  5
F4FB
102
{ACAD_REACTORS
330
FC6E
102
}
330
1F
100
AcDbEntity
  8
AM_0
100
AcDbLine
 10
3393.23451307594
 20
-582.6330358381717
 30
0.0
 11
3462.234513075941
 21
-582.6330358381717
 31
0.0
  0
CIRCLE
  5
F4FC
102
{ACAD_REACTORS
330
FF5B
102
}
330
1F
100
AcDbEntity
  8
AM_0
100
AcDbCircle
 10
3457.734513075941
 20
-589.1330358381717
 30
0.0
 40
2.2
  0
CIRCLE
  5
F4FD
330
1F
100
AcDbEntity
  8
AM_0
100
AcDbCircle
 10
3442.734513075941
 20
-589.1330358381717
 30
0.0
 40
2.2
  0
LINE
  5
F500
330
1F
100
AcDbEntity
  8
AM_0
100
AcDbLine
 10
3452.734513075941
 20
-595.6330358381717
 30
0.0
 11
3452.734513075941
 21
-582.6330358381717
 31
0.0
  0
LINE
  5
F501
102
{ACAD_REACTORS
330
FCFB
102
}
330
1F
100
AcDbEntity
  8
AM_0
100
AcDbLine
 10
3448.734513075941
 20
-584.6330358381717
 30
0.0
 11
3448.734513075941
 21
-593.6330358381717
 31
0.0
  0
LINE
  5
F502
102
{ACAD_REACTORS
330
FCFB
102
}
330
1F
100
AcDbEntity
  8
AM_0
100
AcDbLine
 10
3406.734513075941
 20
-584.6330358381717
 30
0.0
 11
3406.734513075941
 21
-593.6330358381717
 31
0.0
  0
LINE
  5
F503
330
1F
100
AcDbEntity
  8
AM_0
100
AcDbLine
 10
3402.734513075941
 20
-582.6330358381717
 30
0.0
 11
3402.734513075941
 21
-595.6330358381717
 31
0.0
  0
LINE
  5
F504
330
1F
100
AcDbEntity
  8
AM_0
100
AcDbLine
 10
3420.734513075941
 20
-582.6330358381717
 30
0.0
 11
3420.734513075941
 21
-584.1330358381717
 31
0.0
  0
LINE
  5
F505
330
1F
100
AcDbEntity
  8
AM_0
100
AcDbLine
 10
3434.734513075941
 20
-595.6330358381717
 30
0.0
 11
3434.734513075941
 21
-594.1330358381717
 31
0.0
  0
LINE
  5
F506
102
{ACAD_REACTORS
330
FD1C
102
}
330
1F
100
AcDbEntity
  8
AM_0
100
AcDbLine
 10
3448.234513075941
 20
-584.1330358381717
 30
0.0
 11
3407.23451307594
 21
-584.1330358381717
 31
0.0
  0
LINE
  5
F507
102
{ACAD_REACTORS
330
FD1C
102
}
330
1F
100
AcDbEntity
  8
AM_0
100
AcDbLine
 10
3448.234513075941
 20
-594.1330358381717
 30
0.0
 11
3407.23451307594
 21
-594.1330358381717
 31
0.0
  0
LINE
  5
F508
330
1F
100
AcDbEntity
  8
AM_0
100
AcDbLine
 10
3420.734513075941
 20
-594.1330358381717
 30
0.0
 11
3420.734513075941
 21
-595.6330358381717
 31
0.0
  0
LINE
  5
F509
330
1F
100
AcDbEntity
  8
AM_0
100
AcDbLine
 10
3434.734513075941
 20
-584.1330358381717
 30
0.0
 11
3434.734513075941
 21
-582.6330358381717
 31
0.0
  0
CIRCLE
  5
F50A
330
1F
100
AcDbEntity
  8
AM_0
100
AcDbCircle
 10
3457.734513075941
 20
-589.1330358381717
 30
0.0
 40
4.2
  0
ARC
  5
F50C
330
1F
100
AcDbEntity
  8
AM_0
100
AcDbCircle
 10
3462.234513075941
 20
-583.1330358381717
 30
0.0
 40
0.5
100
AcDbArc
 50
0.0
 51
90.0
  0
ARC
  5
F50D
330
1F
100
AcDbEntity
  8
AM_0
100
AcDbCircle
 10
3462.234513075941
 20
-595.1330358381717
 30
0.0
 40
0.5
100
AcDbArc
 50
270.0
 51
0.0
  0
ARC
  5
F50E
330
1F
100
AcDbEntity
  8
AM_0
100
AcDbCircle
 10
3393.23451307594
 20
-595.1330358381717
 30
0.0
 40
0.5
100
AcDbArc
 50
180.0
 51
270.0
  0
ARC
  5
F50F
330
1F
100
AcDbEntity
  8
AM_0
100
AcDbCircle
 10
3393.23451307594
 20
-583.1330358381717
 30
0.0
 40
0.5
100
AcDbArc
 50
90.0
 51
180.0
  0
ARC
  5
F510
330
1F
100
AcDbEntity
  8
AM_0
100
AcDbCircle
 10
3407.23451307594
 20
-584.6330358381717
 30
0.0
 40
0.5
100
AcDbArc
 50
90.0
 51
180.0
  0
ARC
  5
F511
330
1F
100
AcDbEntity
  8
AM_0
100
AcDbCircle
 10
3407.23451307594
 20
-593.6330358381717
 30
0.0
 40
0.5
100
AcDbArc
 50
180.0
 51
270.0
  0
ARC
  5
F512
330
1F
100
AcDbEntity
  8
AM_0
100
AcDbCircle
 10
3448.234513075941
 20
-593.6330358381717
 30
0.0
 40
0.5
100
AcDbArc
 50
270.0
 51
0.0
  0
ARC
  5
F513
330
1F
100
AcDbEntity
  8
AM_0
100
AcDbCircle
 10
3448.234513075941
 20
-584.6330358381717
 30
0.0
 40
0.5
100
AcDbArc
 50
0.0
 51
90.0
  0
LINE
  5
F514
102
{ACAD_REACTORS
330
FB2D
330
FBC6
330
FC4D
330
FBA5
102
}
330
1F
100
AcDbEntity
  8
AM_0
100
AcDbLine
 10
3462.234513075941
 20
-513.7845954980068
 30
0.0
 11
3393.23451307594
 21
-513.7845954980068
 31
0.0
  0
LINE
  5
F515
330
1F
100
AcDbEntity
  8
AM_0
100
AcDbLine
 10
3392.734513075941
 20
-514.2845954980068
 30
0.0
 11
3392.734513075941
 21
-517.2845954980068
 31
0.0
  0
LINE
  5
F516
330
1F
100
AcDbEntity
  8
AM_0
100
AcDbLine
 10
3462.73451307594
 20
-517.2845954980068
 30
0.0
 11
3462.73451307594
 21
-514.2845954980068
 31
0.0
  0
LINE
  5
F517
330
1F
100
AcDbEntity
  8
AM_0
100
AcDbLine
 10
3452.734513075941
 20
-530.7845954980068
 30
0.0
 11
3436.73451307594
 21
-530.7845954980068
 31
0.0
  0
LINE
  5
F518
330
1F
100
AcDbEntity
  8
AM_0
100
AcDbLine
 10
3462.234513075941
 20
-517.7845954980068
 30
0.0
 11
3452.734513075941
 21
-517.7845954980068
 31
0.0
  0
LINE
  5
F519
102
{ACAD_REACTORS
330
FBC6
102
}
330
1F
100
AcDbEntity
  8
AM_0
100
AcDbLine
 10
3402.734513075941
 20
-517.7845954980068
 30
0.0
 11
3402.734513075941
 21
-530.7845954980068
 31
0.0
  0
LINE
  5
F51A
330
1F
100
AcDbEntity
  8
AM_0
100
AcDbLine
 10
3452.734513075941
 20
-530.7845954980068
 30
0.0
 11
3452.734513075941
 21
-517.7845954980068
 31
0.0
  0
LINE
  5
F51B
330
1F
100
AcDbEntity
  8
AM_0
100
AcDbLine
 10
3420.734513075941
 20
-517.7845954980068
 30
0.0
 11
3420.734513075941
 21
-528.7845954980069
 31
0.0
  0
LINE
  5
F51C
330
1F
100
AcDbEntity
  8
AM_0
100
AcDbLine
 10
3434.734513075941
 20
-528.7845954980069
 30
0.0
 11
3434.734513075941
 21
-517.7845954980068
 31
0.0
  0
LINE
  5
F51D
330
1F
100
AcDbEntity
  8
AM_0
100
AcDbLine
 10
3418.734513075941
 20
-530.7845954980068
 30
0.0
 11
3402.734513075941
 21
-530.7845954980068
 31
0.0
  0
LINE
  5
F51E
102
{ACAD_REACTORS
330
FB84
102
}
330
1F
100
AcDbEntity
  8
AM_0
100
AcDbLine
 10
3434.734513075941
 20
-517.7845954980068
 30
0.0
 11
3420.734513075941
 21
-517.7845954980068
 31
0.0
  0
LINE
  5
F51F
102
{ACAD_REACTORS
330
FB2D
102
}
330
1F
100
AcDbEntity
  8
AM_0
100
AcDbLine
 10
3402.734513075941
 20
-517.7845954980068
 30
0.0
 11
3393.23451307594
 21
-517.7845954980068
 31
0.0
  0
LINE
  5
F520
102
{ACAD_REACTORS
330
FB5F
330
FC2C
330
FBA5
102
}
330
1F
100
AcDbEntity
  8
AM_0
100
AcDbLine
 10
3448.234513075941
 20
-536.7845954980068
 30
0.0
 11
3407.23451307594
 21
-536.7845954980068
 31
0.0
  0
LINE
  5
F521
330
1F
100
AcDbEntity
  8
AM_0
100
AcDbLine
 10
3448.234513075941
 20
-532.7845954980069
 30
0.0
 11
3438.734513075941
 21
-532.7845954980069
 31
0.0
  0
LINE
  5
F522
330
1F
100
AcDbEntity
  8
AM_0
100
AcDbLine
 10
3406.734513075941
 20
-533.2845954980069
 30
0.0
 11
3406.734513075941
 21
-536.2845954980068
 31
0.0
  0
LINE
  5
F523
330
1F
100
AcDbEntity
  8
AM_0
100
AcDbLine
 10
3448.734513075941
 20
-533.2845954980069
 30
0.0
 11
3448.734513075941
 21
-536.2845954980068
 31
0.0
  0
ARC
  5
F524
330
1F
100
AcDbEntity
  8
AM_0
100
AcDbCircle
 10
3425.734513075941
 20
-520.7845954980069
 30
0.0
 40
3.0
100
AcDbArc
 50
90.0
 51
208.9398810000028
  0
ARC
  5
F525
330
1F
100
AcDbEntity
  8
AM_0
100
AcDbCircle
 10
3429.734513075941
 20
-520.7845954980069
 30
0.0
 40
3.0
100
AcDbArc
 50
331.0601189999972
 51
90.0
  0
LINE
  5
F526
330
1F
100
AcDbEntity
  8
AM_0
100
AcDbLine
 10
3423.734513075941
 20
-524.6575784980068
 30
0.0
 11
3423.734513075941
 21
-525.7845954980068
 31
0.0
  0
LINE
  5
F527
330
1F
100
AcDbEntity
  8
AM_0
100
AcDbLine
 10
3431.734513075941
 20
-524.6575784980068
 30
0.0
 11
3431.734513075941
 21
-525.7845954980068
 31
0.0
  0
ARC
  5
F528
330
1F
100
AcDbEntity
  8
AM_0
100
AcDbCircle
 10
3418.734513075941
 20
-524.6575784980068
 30
0.0
 40
5.0
100
AcDbArc
 50
0.0
 51
28.96410699999746
  0
ARC
  5
F529
330
1F
100
AcDbEntity
  8
AM_0
100
AcDbCircle
 10
3436.73451307594
 20
-524.6575784980068
 30
0.0
 40
5.0
100
AcDbArc
 50
151.0358930000025
 51
180.0
  0
ARC
  5
F52A
330
1F
100
AcDbEntity
  8
AM_0
100
AcDbCircle
 10
3416.734513075941
 20
-525.7845954980068
 30
0.0
 40
7.0
100
AcDbArc
 50
270.0
 51
0.0
  0
ARC
  5
F52B
330
1F
100
AcDbEntity
  8
AM_0
100
AcDbCircle
 10
3438.734513075941
 20
-525.7845954980068
 30
0.0
 40
7.0
100
AcDbArc
 50
180.0
 51
270.0
  0
LINE
  5
F52C
102
{ACAD_REACTORS
330
FB5F
102
}
330
1F
100
AcDbEntity
  8
AM_0
100
AcDbLine
 10
3407.23451307594
 20
-532.7845954980069
 30
0.0
 11
3416.734513075941
 21
-532.7845954980069
 31
0.0
  0
ARC
  5
F52D
330
1F
100
AcDbEntity
  8
AM_0
100
AcDbCircle
 10
3435.734513075941
 20
-524.2845954980068
 30
0.0
 40
3.5
100
AcDbArc
 50
106.6015499999925
 51
253.3984500000074
  0
ARC
  5
F52E
330
1F
100
AcDbEntity
  8
AM_0
100
AcDbCircle
 10
3419.73451307594
 20
-524.2845954980068
 30
0.0
 40
3.5
100
AcDbArc
 50
286.6015499999926
 51
73.39845000000742
  0
ARC
  5
F52F
330
1F
100
AcDbEntity
  8
AM_0
100
AcDbCircle
 10
3462.234513075941
 20
-517.2845954980068
 30
0.0
 40
0.5
100
AcDbArc
 50
270.0
 51
0.0
  0
ARC
  5
F530
330
1F
100
AcDbEntity
  8
AM_0
100
AcDbCircle
 10
3462.234513075941
 20
-514.2845954980068
 30
0.0
 40
0.5
100
AcDbArc
 50
0.0
 51
90.0
  0
ARC
  5
F531
330
1F
100
AcDbEntity
  8
AM_0
100
AcDbCircle
 10
3393.23451307594
 20
-517.2845954980068
 30
0.0
 40
0.5
100
AcDbArc
 50
180.0
 51
270.0
  0
ARC
  5
F532
330
1F
100
AcDbEntity
  8
AM_0
100
AcDbCircle
 10
3393.23451307594
 20
-514.2845954980068
 30
0.0
 40
0.5
100
AcDbArc
 50
90.0
 51
180.0
  0
ARC
  5
F533
330
1F
100
AcDbEntity
  8
AM_0
100
AcDbCircle
 10
3407.23451307594
 20
-533.2845954980069
 30
0.0
 40
0.5
100
AcDbArc
 50
90.0
 51
180.0
  0
ARC
  5
F534
330
1F
100
AcDbEntity
  8
AM_0
100
AcDbCircle
 10
3407.23451307594
 20
-536.2845954980068
 30
0.0
 40
0.5
100
AcDbArc
 50
180.0
 51
270.0
  0
ARC
  5
F535
330
1F
100
AcDbEntity
  8
AM_0
100
AcDbCircle
 10
3448.234513075941
 20
-536.2845954980068
 30
0.0
 40
0.5
100
AcDbArc
 50
270.0
 51
0.0
  0
ARC
  5
F536
330
1F
100
AcDbEntity
  8
AM_0
100
AcDbCircle
 10
3448.234513075941
 20
-533.2845954980069
 30
0.0
 40
0.5
100
AcDbArc
 50
0.0
 51
90.0
  0
ARC
  5
F537
330
1F
100
AcDbEntity
  8
AM_0
100
AcDbCircle
 10
3418.734513075941
 20
-528.7845954980069
 30
0.0
 40
2.0
100
AcDbArc
 50
270.0
 51
0.0
  0
ARC
  5
F538
330
1F
100
AcDbEntity
  8
AM_0
100
AcDbCircle
 10
3436.73451307594
 20
-528.7845954980069
 30
0.0
 40
2.0
100
AcDbArc
 50
180.0
 51
270.0
  0
LINE
  5
F53B
102
{ACAD_REACTORS
330
FC02
102
}
330
1F
100
AcDbEntity
  8
AM_11
 48
0.5
100
AcDbLine
 10
3512.778392196087
 20
-529.2845954980069
 30
0.0
 11
3520.278392196086
 21
-529.2779214980067
 31
0.0
  0
LINE
  5
F53C
330
1F
100
AcDbEntity
  8
AM_11
 48
0.5
100
AcDbLine
 10
3512.778392196087
 20
-519.2845954980068
 30
0.0
 11
3518.778392196087
 21
-519.2845954980068
 31
0.0
  0
LINE
  5
F53D
330
1F
100
AcDbEntity
  8
AM_11
 48
0.5
100
AcDbLine
 10
3512.778392196087
 20
-529.2845954980069
 30
0.0
 11
3512.778392196087
 21
-519.2845954980068
 31
0.0
  0
LINE
  5
F53E
330
1F
100
AcDbEntity
  8
AM_11
 48
0.5
100
AcDbLine
 10
3516.778392196087
 20
-519.2845954980068
 30
0.0
 11
3516.778392196087
 21
-529.2845954980069
 31
0.0
  0
LINE
  5
F53F
330
1F
100
AcDbEntity
  8
AM_11
 48
0.5
100
AcDbLine
 10
3518.778392196087
 20
-529.2845954980069
 30
0.0
 11
3518.778392196087
 21
-519.2845954980068
 31
0.0
  0
LINE
  5
F540
330
1F
100
AcDbEntity
  8
AM_7
100
AcDbLine
 10
3427.734513075941
 20
-510.7845954980068
 30
0.0
 11
3427.734513075941
 21
-539.7845954980068
 31
0.0
1001
GENIUS_GENODEF_13
1002
{
1000
HIER
1070
     0
1002
}
1002
{
1000
MANEDIT
1070
     0
1002
}
1002
{
1000
NOSEL
1070
     0
1002
}
1002
{
1000
BEHIND
1070
     0
1002
}
1002
{
1000
OTHER
1070
     0
1002
}
1002
{
1000
REACTOR
1002
}
1001
GENIUS_GENOBJ-N-CEN_13
1002
{
1000
OWNER
1000
GEN
1002
}
1001
GENIUS_GENCEN_19
1002
{
1040
3.0
1002
}
  0
LINE
  5
F541
102
{ACAD_REACTORS
330
FC2C
330
FC4D
102
}
330
1F
100
AcDbEntity
  8
AM_7
100
AcDbLine
 10
3399.734513075941
 20
-524.2845954980068
 30
0.0
 11
3455.734513075941
 21
-524.2845954980068
 31
0.0
1001
GENIUS_GENODEF_13
1002
{
1000
HIER
1070
     0
1002
}
1002
{
1000
MANEDIT
1070
     0
1002
}
1002
{
1000
NOSEL
1070
     0
1002
}
1002
{
1000
BEHIND
1070
     0
1002
}
1002
{
1000
OTHER
1070
     0
1002
}
1002
{
1000
REACTOR
1002
}
1001
GENIUS_GENOBJ-N-CEN_13
1002
{
1000
OWNER
1000
GEN
1002
}
1001
GENIUS_GENCEN_19
1002
{
1040
3.0
1002
}
  0
LINE
  5
F542
102
{ACAD_REACTORS
330
FC02
102
}
330
1F
100
AcDbEntity
  8
AM_7
100
AcDbLine
 10
3525.278392196087
 20
-510.7845954980068
 30
0.0
 11
3525.278392196087
 21
-539.7845954980068
 31
0.0
1001
GENIUS_GENODEF_13
1002
{
1000
HIER
1070
     0
1002
}
1002
{
1000
MANEDIT
1070
     0
1002
}
1002
{
1000
NOSEL
1070
     0
1002
}
1002
{
1000
BEHIND
1070
     0
1002
}
1002
{
1000
OTHER
1070
     0
1002
}
1002
{
1000
REACTOR
1002
}
1001
GENIUS_GENOBJ-N-CEN_13
1002
{
1000
OWNER
1000
GEN
1002
}
1001
GENIUS_GENCEN_19
1002
{
1040
3.0
1002
}
  0
LINE
  5
F543
330
1F
100
AcDbEntity
  8
AM_7
100
AcDbLine
 10
3515.778392196087
 20
-524.2845954980068
 30
0.0
 11
3534.778392196087
 21
-524.2845954980068
 31
0.0
1001
GENIUS_GENODEF_13
1002
{
1000
HIER
1070
     0
1002
}
1002
{
1000
MANEDIT
1070
     0
1002
}
1002
{
1000
NOSEL
1070
     0
1002
}
1002
{
1000
BEHIND
1070
     0
1002
}
1002
{
1000
OTHER
1070
     0
1002
}
1002
{
1000
REACTOR
1002
}
1001
GENIUS_GENOBJ-N-CEN_13
1002
{
1000
OWNER
1000
GEN
1002
}
1001
GENIUS_GENCEN_19
1002
{
1040
3.0
1002
}
  0
LINE
  5
F544
330
1F
100
AcDbEntity
  8
AM_7
100
AcDbLine
 10
3389.734513075941
 20
-589.1330358381717
 30
0.0
 11
3465.73451307594
 21
-589.1330358381717
 31
0.0
1001
GENIUS_GENODEF_13
1002
{
1000
HIER
1070
     0
1002
}
1002
{
1000
MANEDIT
1070
     0
1002
}
1002
{
1000
NOSEL
1070
     0
1002
}
1002
{
1000
BEHIND
1070
     0
1002
}
1002
{
1000
OTHER
1070
     0
1002
}
1002
{
1000
REACTOR
1002
}
1001
GENIUS_GENOBJ-N-CEN_13
1002
{
1000
OWNER
1000
GEN
1002
}
1001
GENIUS_GENCEN_19
1002
{
1040
3.0
1002
}
  0
LINE
  5
F545
330
1F
100
AcDbEntity
  8
AM_7
100
AcDbLine
 10
3427.734513075941
 20
-579.6330358381717
 30
0.0
 11
3427.734513075941
 21
-598.6330358381717
 31
0.0
1001
GENIUS_GENODEF_13
1002
{
1000
HIER
1070
     0
1002
}
1002
{
1000
MANEDIT
1070
     0
1002
}
1002
{
1000
NOSEL
1070
     0
1002
}
1002
{
1000
BEHIND
1070
     0
1002
}
1002
{
1000
OTHER
1070
     0
1002
}
1002
{
1000
REACTOR
1002
}
1001
GENIUS_GENOBJ-N-CEN_13
1002
{
1000
OWNER
1000
GEN
1002
}
1001
GENIUS_GENCEN_19
1002
{
1040
3.0
1002
}
  0
LINE
  5
F546
102
{ACAD_REACTORS
330
FCB9
102
}
330
1F
100
AcDbEntity
  8
AM_7
 48
0.5
100
AcDbLine
 10
3397.734513075941
 20
-582.1330358381717
 30
0.0
 11
3397.734513075941
 21
-596.1330358381717
 31
0.0
1001
GENIUS_GENOBJ-N-CEN_13
1002
{
1000
OWNER
1000
GEN
1002
}
1001
GENIUS_GENODEF_13
1002
{
1000
HIER
1070
     0
1002
}
1002
{
1000
MANEDIT
1070
     0
1002
}
1002
{
1000
NOSEL
1070
     0
1002
}
1002
{
1000
BEHIND
1070
     0
1002
}
1002
{
1000
OTHER
1070
     0
1002
}
1002
{
1000
REACTOR
1002
}
1001
GENIUS_GENCEN_19
1002
{
1040
3.0
1002
}
  0
LINE
  5
F547
102
{ACAD_REACTORS
330
FCDA
102
}
330
1F
100
AcDbEntity
  8
AM_7
 48
0.5
100
AcDbLine
 10
3412.73451307594
 20
-582.1330358381717
 30
0.0
 11
3412.73451307594
 21
-596.1330358381717
 31
0.0
1001
GENIUS_GENODEF_13
1002
{
1000
HIER
1070
     0
1002
}
1002
{
1000
MANEDIT
1070
     0
1002
}
1002
{
1000
NOSEL
1070
     0
1002
}
1002
{
1000
BEHIND
1070
     0
1002
}
1002
{
1000
OTHER
1070
     0
1002
}
1002
{
1000
REACTOR
1002
}
1001
GENIUS_GENOBJ-N-CEN_13
1002
{
1000
OWNER
1000
GEN
1002
}
1001
GENIUS_GENCEN_19
1002
{
1040
3.0
1002
}
  0
LINE
  5
F548
102
{ACAD_REACTORS
330
FCB9
102
}
330
1F
100
AcDbEntity
  8
AM_7
 48
0.5
100
AcDbLine
 10
3457.734513075941
 20
-582.1330358381717
 30
0.0
 11
3457.734513075941
 21
-596.1330358381717
 31
0.0
1001
GENIUS_GENOBJ-N-CEN_13
1002
{
1000
OWNER
1000
GEN
1002
}
1001
GENIUS_GENODEF_13
1002
{
1000
HIER
1070
     0
1002
}
1002
{
1000
MANEDIT
1070
     0
1002
}
1002
{
1000
NOSEL
1070
     0
1002
}
1002
{
1000
BEHIND
1070
     0
1002
}
1002
{
1000
OTHER
1070
     0
1002
}
1002
{
1000
REACTOR
1002
}
1001
GENIUS_GENCEN_19
1002
{
1040
3.0
1002
}
  0
LINE
  5
F549
102
{ACAD_REACTORS
330
FCDA
102
}
330
1F
100
AcDbEntity
  8
AM_7
 48
0.5
100
AcDbLine
 10
3442.734513075941
 20
-582.1330358381717
 30
0.0
 11
3442.734513075941
 21
-596.1330358381717
 31
0.0
1001
GENIUS_GENODEF_13
1002
{
1000
HIER
1070
     0
1002
}
1002
{
1000
MANEDIT
1070
     0
1002
}
1002
{
1000
NOSEL
1070
     0
1002
}
1002
{
1000
BEHIND
1070
     0
1002
}
1002
{
1000
OTHER
1070
     0
1002
}
1002
{
1000
REACTOR
1002
}
1001
GENIUS_GENOBJ-N-CEN_13
1002
{
1000
OWNER
1000
GEN
1002
}
1001
GENIUS_GENCEN_19
1002
{
1040
3.0
1002
}
  0
LINE
  5
F54A
330
1F
100
AcDbEntity
  8
AM_7
 48
0.5
100
AcDbLine
 10
3412.73451307594
 20
-529.7845954980068
 30
0.0
 11
3412.73451307594
 21
-539.7845954980068
 31
0.0
1001
GENIUS_GENOBJ-N-CEN_13
1002
{
1000
OWNER
1000
GEN
1002
}
1001
GENIUS_GENODEF_13
1002
{
1000
HIER
1070
     0
1002
}
1002
{
1000
MANEDIT
1070
     0
1002
}
1002
{
1000
NOSEL
1070
     0
1002
}
1002
{
1000
BEHIND
1070
     0
1002
}
1002
{
1000
OTHER
1070
     0
1002
}
1002
{
1000
REACTOR
1002
}
1001
GENIUS_GENCEN_19
1002
{
1040
3.0
1002
}
  0
LINE
  5
F54B
330
1F
100
AcDbEntity
  8
AM_7
 48
0.5
100
AcDbLine
 10
3442.734513075941
 20
-529.7845954980068
 30
0.0
 11
3442.734513075941
 21
-539.7845954980068
 31
0.0
1001
GENIUS_GENOBJ-N-CEN_13
1002
{
1000
OWNER
1000
GEN
1002
}
1001
GENIUS_GENODEF_13
1002
{
1000
HIER
1070
     0
1002
}
1002
{
1000
MANEDIT
1070
     0
1002
}
1002
{
1000
NOSEL
1070
     0
1002
}
1002
{
1000
BEHIND
1070
     0
1002
}
1002
{
1000
OTHER
1070
     0
1002
}
1002
{
1000
REACTOR
1002
}
1001
GENIUS_GENCEN_19
1002
{
1040
3.0
1002
}
  0
LINE
  5
F54C
330
1F
100
AcDbEntity
  8
AM_7
 48
0.5
100
AcDbLine
 10
3397.734513075941
 20
-510.7845954980068
 30
0.0
 11
3397.734513075941
 21
-520.7845954980069
 31
0.0
1001
GENIUS_GENOBJ-N-CEN_13
1002
{
1000
OWNER
1000
GEN
1002
}
1001
GENIUS_GENODEF_13
1002
{
1000
HIER
1070
     0
1002
}
1002
{
1000
MANEDIT
1070
     0
1002
}
1002
{
1000
NOSEL
1070
     0
1002
}
1002
{
1000
BEHIND
1070
     0
1002
}
1002
{
1000
OTHER
1070
     0
1002
}
1002
{
1000
REACTOR
1002
}
1001
GENIUS_GENCEN_19
1002
{
1040
3.0
1002
}
  0
LINE
  5
F54D
330
1F
100
AcDbEntity
  8
AM_7
 48
0.5
100
AcDbLine
 10
3457.734513075941
 20
-510.7845954980068
 30
0.0
 11
3457.734513075941
 21
-520.7845954980069
 31
0.0
1001
GENIUS_GENOBJ-N-CEN_13
1002
{
1000
OWNER
1000
GEN
1002
}
1001
GENIUS_GENODEF_13
1002
{
1000
HIER
1070
     0
1002
}
1002
{
1000
MANEDIT
1070
     0
1002
}
1002
{
1000
NOSEL
1070
     0
1002
}
1002
{
1000
BEHIND
1070
     0
1002
}
1002
{
1000
OTHER
1070
     0
1002
}
1002
{
1000
REACTOR
1002
}
1001
GENIUS_GENCEN_19
1002
{
1040
3.0
1002
}
  0
DIMENSION
  5
FB1D
102
{ACAD_XDICTIONARY
360
FB2C
102
}
102
{ACAD_REACTORS
330
FB2D
102
}
330
1F
100
AcDbEntity
  8
AM_5
100
AcDbDimension
  2
*D14
 10
3382.74334340637
 20
-513.7845954980068
 30
0.0
 11
3382.74334340637
 21
-509.4845954980063
 31
0.0
 70
   160
  1
I
 71
     5
 42
4.0
  3
SYS$0
100
AcDbAlignedDimension
 13
3393.23451307594
 23
-517.7845954980068
 33
0.0
 14
3393.23451307594
 24
-513.7845954980068
 34
0.0
 50
90.0
100
AcDbRotatedDimension
1001
ACAD
1000
DSTYLE
1002
{
1070
    47
1040
0.2
1070
    48
1040
0.2
1070
   271
1070
     1
1002
}
1001
ACAD_DSTYLE_DIMINSPECT
1070
   396
1000
100%
1070
   395
1000

1070
   394
1070
    33
1070
   393
1070
     0
  0
DIMENSION
  5
FB4F
102
{ACAD_XDICTIONARY
360
FB5E
102
}
102
{ACAD_REACTORS
330
FB5F
102
}
330
1F
100
AcDbEntity
  8
AM_5
100
AcDbDimension
  2
*D15
 10
3392.76541020889
 20
-536.7845954980068
 30
0.0
 11
3392.76541020889
 21
-541.0312621646729
 31
0.0
 70
   160
  1
J
 71
     5
 42
4.0
  3
SYS$0
100
AcDbAlignedDimension
 13
3407.23451307594
 23
-532.7845954980069
 33
0.0
 14
3407.23451307594
 24
-536.7845954980068
 34
0.0
 50
90.0
100
AcDbRotatedDimension
1001
ACAD
1000
DSTYLE
1002
{
1070
    47
1040
0.2
1070
    48
1040
0.2
1070
   271
1070
     1
1002
}
1001
ACAD_DSTYLE_DIMINSPECT
1070
   396
1000
100%
1070
   395
1000

1070
   394
1070
    33
1070
   393
1070
     0
  0
DIMENSION
  5
FB76
102
{ACAD_XDICTIONARY
360
FB83
102
}
102
{ACAD_REACTORS
330
FB84
102
}
330
1F
100
AcDbEntity
  8
AM_5
100
AcDbDimension
  2
*D16
 10
3410.73451307594
 20
-517.7845954980068
 30
0.0
 11
3410.73451307594
 21
-541.015053515674
 31
0.0
 70
   160
  1
H
 71
     5
 42
19.0
  3
SYS$0
100
AcDbAlignedDimension
 13
3407.23451307594
 23
-536.7845954980068
 33
0.0
 14
3420.734513075941
 24
-517.7845954980068
 34
0.0
 50
90.0
100
AcDbRotatedDimension
1001
ACAD
1000
DSTYLE
1002
{
1070
    47
1040
0.2
1070
    48
1040
0.2
1070
   271
1070
     1
1002
}
1001
ACAD_DSTYLE_DIMINSPECT
1070
   396
1000
100%
1070
   395
1000

1070
   394
1070
    33
1070
   393
1070
     0
  0
DIMENSION
  5
FB97
102
{ACAD_XDICTIONARY
360
FBA4
102
}
102
{ACAD_REACTORS
330
FBA5
102
}
330
1F
100
AcDbEntity
  8
AM_5
100
AcDbDimension
  2
*D17
 10
3362.712431111429
 20
-513.7845954980068
 30
0.0
 11
3362.712431111429
 21
-525.2845954980062
 31
0.0
 70
   160
  1
（K）
 71
     5
 42
23.0
  3
SYS$0
100
AcDbAlignedDimension
 13
3407.23451307594
 23
-536.7845954980068
 33
0.0
 14
3393.23451307594
 24
-513.7845954980068
 34
0.0
 50
90.0
100
AcDbRotatedDimension
1001
ACAD
1000
DSTYLE
1002
{
1070
    47
1040
0.2
1070
    48
1040
0.2
1070
   271
1070
     1
1002
}
1001
ACAD_DSTYLE_DIMINSPECT
1070
   396
1000
100%
1070
   395
1000

1070
   394
1070
    33
1070
   393
1070
     0
  0
DIMENSION
  5
FBB8
102
{ACAD_XDICTIONARY
360
FBC5
102
}
102
{ACAD_REACTORS
330
FBC6
102
}
330
1F
100
AcDbEntity
  8
AM_5
100
AcDbDimension
  2
*D18
 10
3372.675724058361
 20
-530.7845954980068
 30
0.0
 11
3372.675724058361
 21
-522.2845954980063
 31
0.0
 70
   160
  1
G
 71
     5
 42
17.0
  3
SYS$0
100
AcDbAlignedDimension
 13
3393.23451307594
 23
-513.7845954980068
 33
0.0
 14
3402.734513075941
 24
-530.7845954980068
 34
0.0
 50
90.0
100
AcDbRotatedDimension
1001
ACAD
1000
DSTYLE
1002
{
1070
    47
1040
0.2
1070
    48
1040
0.2
1070
   271
1070
     1
1002
}
1001
ACAD_DSTYLE_DIMINSPECT
1070
   396
1000
100%
1070
   395
1000

1070
   394
1070
    33
1070
   393
1070
     0
  0
DIMENSION
  5
FBF4
102
{ACAD_XDICTIONARY
360
FC01
102
}
102
{ACAD_REACTORS
330
FC02
102
}
330
1F
100
AcDbEntity
  8
AM_5
100
AcDbDimension
  2
*D19
 10
3525.278392196087
 20
-546.6837281235548
 30
0.0
 11
3519.028392196087
 21
-546.6837281235548
 31
0.0
 70
   160
  1
F
 71
     5
 42
12.5
  3
SYS$0
100
AcDbAlignedDimension
 13
3512.778392196087
 23
-529.2845954980069
 33
0.0
 14
3525.278392196087
 24
-539.7845954980068
 34
0.0
100
AcDbRotatedDimension
1001
ACAD
1000
DSTYLE
1002
{
1070
    47
1040
0.2
1070
    48
1040
0.2
1070
   271
1070
     1
1002
}
1001
ACAD_DSTYLE_DIMINSPECT
1070
   396
1000
100%
1070
   395
1000

1070
   394
1070
    33
1070
   393
1070
     0
  0
DIMENSION
  5
FC1E
102
{ACAD_XDICTIONARY
360
FC2B
102
}
102
{ACAD_REACTORS
330
FC2C
102
}
330
1F
100
AcDbEntity
  8
AM_5
100
AcDbDimension
  2
*D20
 10
3472.717683697656
 20
-536.7845954980068
 30
0.0
 11
3469.617683697656
 21
-530.5345954980063
 31
0.0
 70
    32
  1
F
 71
     5
 42
12.5
  3
SYS$0
100
AcDbAlignedDimension
 13
3455.734513075941
 23
-524.2845954980068
 33
0.0
 14
3448.234513075941
 24
-536.7845954980068
 34
0.0
 50
90.0
100
AcDbRotatedDimension
1001
ACAD
1000
DSTYLE
1002
{
1070
    47
1040
0.2
1070
    48
1040
0.2
1070
   271
1070
     1
1002
}
1001
ACAD_DSTYLE_DIMINSPECT
1070
   396
1000
100%
1070
   395
1000

1070
   394
1070
    33
1070
   393
1070
     0
  0
DIMENSION
  5
FC3F
102
{ACAD_XDICTIONARY
360
FC4C
102
}
102
{ACAD_REACTORS
330
FC4D
102
}
330
1F
100
AcDbEntity
  8
AM_5
100
AcDbDimension
  2
*D21
 10
3472.717683697656
 20
-513.7845954980068
 30
0.0
 11
3472.717683697656
 21
-519.0345954980062
 31
0.0
 70
   160
  1
E
 71
     5
 42
10.5
  3
SYS$0
100
AcDbAlignedDimension
 13
3455.734513075941
 23
-524.2845954980068
 33
0.0
 14
3462.234513075941
 24
-513.7845954980068
 34
0.0
 50
90.0
100
AcDbRotatedDimension
1001
ACAD
1000
DSTYLE
1002
{
1070
    47
1040
0.2
1070
    48
1040
0.2
1070
   271
1070
     1
1002
}
1001
ACAD_DSTYLE_DIMINSPECT
1070
   396
1000
100%
1070
   395
1000

1070
   394
1070
    33
1070
   393
1070
     0
  0
DIMENSION
  5
FC60
102
{ACAD_XDICTIONARY
360
FC6D
102
}
102
{ACAD_REACTORS
330
FC6E
102
}
330
1F
100
AcDbEntity
  8
AM_5
100
AcDbDimension
  2
*D22
 10
3382.73451307594
 20
-595.6330358381717
 30
0.0
 11
3382.73451307594
 21
-589.1330358381717
 31
0.0
 70
   160
  1
C
 71
     5
 42
13.0
  3
SYS$0
100
AcDbAlignedDimension
 13
3393.23451307594
 23
-582.6330358381717
 33
0.0
 14
3393.23451307594
 24
-595.6330358381717
 34
0.0
 50
90.0
100
AcDbRotatedDimension
1001
ACAD
1000
DSTYLE
1002
{
1070
    47
1040
0.2
1070
    48
1040
0.2
1070
   271
1070
     1
1002
}
1001
ACAD_DSTYLE_DIMINSPECT
1070
   396
1000
100%
1070
   395
1000

1070
   394
1070
    33
1070
   393
1070
     0
  0
DIMENSION
  5
FC81
102
{ACAD_XDICTIONARY
360
FC8E
102
}
102
{ACAD_REACTORS
330
FC8F
102
}
330
1F
100
AcDbEntity
  8
AM_5
100
AcDbDimension
  2
*D23
 10
3462.73451307594
 20
-562.616465960019
 30
0.0
 11
3427.734513075941
 21
-562.616465960019
 31
0.0
 70
   160
  1
A
 71
     5
 42
70.0
  3
SYS$0
100
AcDbAlignedDimension
 13
3392.734513075941
 23
-583.1330358381717
 33
0.0
 14
3462.73451307594
 24
-583.1330358381717
 34
0.0
100
AcDbRotatedDimension
1001
ACAD
1000
DSTYLE
1002
{
1070
    47
1040
0.2
1070
    48
1040
0.2
1070
   271
1070
     1
1002
}
1001
ACAD_DSTYLE_DIMINSPECT
1070
   396
1000
100%
1070
   395
1000

1070
   394
1070
    33
1070
   393
1070
     0
  0
DIMENSION
  5
FCAB
102
{ACAD_XDICTIONARY
360
FCB8
102
}
102
{ACAD_REACTORS
330
FCB9
102
}
330
1F
100
AcDbEntity
  8
AM_5
100
AcDbDimension
  2
*D24
 10
3457.734513075941
 20
-572.6330358381717
 30
0.0
 11
3427.734513075941
 21
-572.6330358381717
 31
0.0
 70
   160
  1
L
 71
     5
 42
60.0
  3
SYS$0
100
AcDbAlignedDimension
 13
3397.734513075941
 23
-582.1330358381717
 33
0.0
 14
3457.734513075941
 24
-582.1330358381717
 34
0.0
100
AcDbRotatedDimension
1001
ACAD
1000
DSTYLE
1002
{
1070
    47
1040
0.2
1070
    48
1040
0.2
1070
   271
1070
     1
1002
}
1001
ACAD_DSTYLE_DIMINSPECT
1070
   396
1000
100%
1070
   395
1000

1070
   394
1070
    33
1070
   393
1070
     0
  0
DIMENSION
  5
FCCC
102
{ACAD_XDICTIONARY
360
FCD9
102
}
102
{ACAD_REACTORS
330
FCDA
102
}
330
1F
100
AcDbEntity
  8
AM_5
100
AcDbDimension
  2
*D25
 10
3442.734513075941
 20
-605.6330358381717
 30
0.0
 11
3427.734513075941
 21
-605.6330358381717
 31
0.0
 70
   160
  1
M
 71
     5
 42
30.0
  3
SYS$0
100
AcDbAlignedDimension
 13
3412.73451307594
 23
-596.1330358381717
 33
0.0
 14
3442.734513075941
 24
-596.1330358381717
 34
0.0
100
AcDbRotatedDimension
1001
ACAD
1000
DSTYLE
1002
{
1070
    47
1040
0.2
1070
    48
1040
0.2
1070
   271
1070
     1
1002
}
1001
ACAD_DSTYLE_DIMINSPECT
1070
   396
1000
100%
1070
   395
1000

1070
   394
1070
    33
1070
   393
1070
     0
  0
DIMENSION
  5
FCED
102
{ACAD_XDICTIONARY
360
FCFA
102
}
102
{ACAD_REACTORS
330
FCFB
102
}
330
1F
100
AcDbEntity
  8
AM_5
100
AcDbDimension
  2
*D26
 10
3448.734513075941
 20
-615.6236248525938
 30
0.0
 11
3427.734513075941
 21
-615.6236248525938
 31
0.0
 70
   160
  1
B\P
 71
     5
 42
42.0
  3
SYS$0
100
AcDbAlignedDimension
 13
3406.734513075941
 23
-593.6330358381717
 33
0.0
 14
3448.734513075941
 24
-593.6330358381717
 34
0.0
100
AcDbRotatedDimension
1001
ACAD
1000
DSTYLE
1002
{
1070
    47
1040
0.2
1070
    48
1040
0.2
1070
   271
1070
     1
1002
}
1001
ACAD_DSTYLE_DIMINSPECT
1070
   396
1000
100%
1070
   395
1000

1070
   394
1070
    33
1070
   393
1070
     0
  0
DIMENSION
  5
FD0E
102
{ACAD_XDICTIONARY
360
FD1B
102
}
102
{ACAD_REACTORS
330
FD1C
102
}
330
1F
100
AcDbEntity
  8
AM_5
100
AcDbDimension
  2
*D27
 10
3472.73451307594
 20
-584.1330358381717
 30
0.0
 11
3472.73451307594
 21
-589.1330358381717
 31
0.0
 70
   160
  1
D
 71
     5
 42
10.0
  3
SYS$0
100
AcDbAlignedDimension
 13
3448.234513075941
 23
-594.1330358381717
 33
0.0
 14
3448.234513075941
 24
-584.1330358381717
 34
0.0
 50
90.0
100
AcDbRotatedDimension
1001
ACAD
1000
DSTYLE
1002
{
1070
    47
1040
0.2
1070
    48
1040
0.2
1070
   271
1070
     1
1002
}
1001
ACAD_DSTYLE_DIMINSPECT
1070
   396
1000
100%
1070
   395
1000

1070
   394
1070
    33
1070
   393
1070
     0
  0
DIMENSION
  5
FF4E
102
{ACAD_XDICTIONARY
360
FF5A
102
}
102
{ACAD_REACTORS
330
FF5B
102
}
330
1F
100
AcDbEntity
  8
AM_5
100
AcDbDimension
  2
*D28
 10
3456.547288132533
 20
-590.9851959105603
 30
0.0
 11
3475.513056203805
 21
-572.6401146100833
 31
0.0
 70
   163
  1
4-Nサラ
 71
     5
 42
4.399999999999863
  3
SYS$3
100
AcDbDiametricDimension
 15
3458.921738019349
 25
-587.2808757657837
 35
0.0
 40
0.0
1001
ACAD_DSTYLE_DIMRADIAL_EXTENSION
1070
   387
1070
     1
1070
   388
1040
0.0
1070
   390
1040
0.0
1001
ACAD
1000
DSTYLE
1002
{
1070
    47
1040
0.2
1070
    48
1040
0.2
1070
   172
1070
     1
1070
   342
1005
10781
1002
}
1001
ACAD_DSTYLE_DIMINSPECT
1070
   396
1000
100%
1070
   395
1000

1070
   394
1070
    33
1070
   393
1070
     0
  0
INSERT
  5
FF90
330
1F
100
AcDbEntity
  8
AM_5
100
AcDbBlockReference
  2
*S52
 10
0.0
 20
0.0
 30
0.0
  0
MTEXT
  5
1029A
330
1F
100
AcDbEntity
  8
AM_6
100
AcDbMText
 10
3335.55148853643
 20
-628.565627447173
 30
0.0
 40
3.200000000000001
 41
0.0
 71
     5
 72
     1
  1
品番
 73
     1
 44
1.0
1001
ACAD
1000
MTEXTBEGIN
1070
    73
1070
     1
1070
    44
1040
1.0
1070
    74
1070
     0
1000
MTEXTEND
  0
LINE
  5
1029B
330
1F
100
AcDbEntity
  8
AM_0
100
AcDbLine
 10
3324.301488536429
 20
-632.065627447173
 30
0.0
 11
3564.301488536429
 21
-632.065627447173
 31
0.0
  0
LINE
  5
1029C
330
1F
100
AcDbEntity
  8
AM_0
100
AcDbLine
 10
3324.301488536429
 20
-625.065627447173
 30
0.0
 11
3564.301488536429
 21
-625.065627447173
 31
0.0
  0
LINE
  5
1029D
330
1F
100
AcDbEntity
  8
AM_0
100
AcDbLine
 10
3346.801488536429
 20
-625.065627447173
 30
0.0
 11
3346.801488536429
 21
-632.065627447173
 31
0.0
  0
LINE
  5
1029E
330
1F
100
AcDbEntity
  8
AM_0
100
AcDbLine
 10
3324.301488536429
 20
-625.065627447173
 30
0.0
 11
3324.301488536429
 21
-632.065627447173
 31
0.0
  0
MTEXT
  5
1029F
330
1F
100
AcDbEntity
  8
AM_6
100
AcDbMText
 10
3335.55148853643
 20
-635.565627447173
 30
0.0
 40
3.200000000000001
 41
0.0
 71
     5
 72
     1
  1
SC-200-1
 73
     1
 44
1.0
1001
ACAD
1000
MTEXTBEGIN
1070
    73
1070
     1
1070
    44
1040
1.0
1070
    74
1070
     0
1000
MTEXTEND
  0
LINE
  5
102A0
330
1F
100
AcDbEntity
  8
AM_2
100
AcDbLine
 10
3324.301488536429
 20
-639.065627447173
 30
0.0
 11
3564.301488536429
 21
-639.065627447173
 31
0.0
  0
LINE
  5
102A1
330
1F
100
AcDbEntity
  8
AM_0
100
AcDbLine
 10
3346.801488536429
 20
-632.065627447173
 30
0.0
 11
3346.801488536429
 21
-639.065627447173
 31
0.0
  0
LINE
  5
102A2
330
1F
100
AcDbEntity
  8
AM_0
100
AcDbLine
 10
3324.301488536429
 20
-632.065627447173
 30
0.0
 11
3324.301488536429
 21
-639.065627447173
 31
0.0
  0
LINE
  5
102A3
330
1F
100
AcDbEntity
  8
AM_2
100
AcDbLine
 10
3324.301488536429
 20
-646.065627447173
 30
0.0
 11
3564.301488536429
 21
-646.065627447173
 31
0.0
  0
LINE
  5
102A4
330
1F
100
AcDbEntity
  8
AM_0
100
AcDbLine
 10
3346.801488536429
 20
-639.065627447173
 30
0.0
 11
3346.801488536429
 21
-646.065627447173
 31
0.0
  0
LINE
  5
102A5
330
1F
100
AcDbEntity
  8
AM_0
100
AcDbLine
 10
3324.301488536429
 20
-639.065627447173
 30
0.0
 11
3324.301488536429
 21
-646.065627447173
 31
0.0
  0
LINE
  5
106E9
330
1F
100
AcDbEntity
  8
AM_0
100
AcDbLine
 10
3361.801488536429
 20
-625.065627447173
 30
0.0
 11
3361.801488536429
 21
-632.065627447173
 31
0.0
  0
LINE
  5
106EA
330
1F
100
AcDbEntity
  8
AM_0
100
AcDbLine
 10
3361.801488536429
 20
-632.065627447173
 30
0.0
 11
3361.801488536429
 21
-639.065627447173
 31
0.0
  0
LINE
  5
106EB
330
1F
100
AcDbEntity
  8
AM_0
100
AcDbLine
 10
3361.801488536429
 20
-639.065627447173
 30
0.0
 11
3361.801488536429
 21
-646.065627447173
 31
0.0
  0
MTEXT
  5
106EC
330
1F
100
AcDbEntity
  8
AM_6
100
AcDbMText
 10
3354.301488536429
 20
-628.565627447173
 30
0.0
 40
3.200000000000001
 41
0.0
 71
     5
 72
     1
  1
A
 73
     1
 44
1.0
1001
ACAD
1000
MTEXTBEGIN
1070
    73
1070
     1
1070
    44
1040
1.0
1070
    74
1070
     0
1000
MTEXTEND
  0
MTEXT
  5
106ED
330
1F
100
AcDbEntity
  8
AM_6
100
AcDbMText
 10
3354.301488536429
 20
-635.565627447173
 30
0.0
 40
3.200000000000001
 41
0.0
 71
     5
 72
     1
  1
43
 73
     1
 44
1.0
1001
ACAD
1000
MTEXTBEGIN
1070
    73
1070
     1
1070
    44
1040
1.0
1070
    74
1070
     0
1000
MTEXTEND
  0
MTEXT
  5
106EE
330
1F
100
AcDbEntity
  8
AM_6
100
AcDbMText
 10
3354.301488536429
 20
-642.565627447173
 30
0.0
 40
3.200000000000001
 41
0.0
 71
     5
 72
     1
  1
50
 73
     1
 44
1.0
1001
ACAD
1000
MTEXTBEGIN
1070
    73
1070
     1
1070
    44
1040
1.0
1070
    74
1070
     0
1000
MTEXTEND
  0
LINE
  5
106F0
330
1F
100
AcDbEntity
  8
AM_0
100
AcDbLine
 10
3376.801488536429
 20
-625.065627447173
 30
0.0
 11
3376.801488536429
 21
-632.065627447173
 31
0.0
  0
LINE
  5
106F1
330
1F
100
AcDbEntity
  8
AM_0
100
AcDbLine
 10
3376.801488536429
 20
-632.065627447173
 30
0.0
 11
3376.801488536429
 21
-639.065627447173
 31
0.0
  0
LINE
  5
106F2
330
1F
100
AcDbEntity
  8
AM_0
100
AcDbLine
 10
3376.801488536429
 20
-639.065627447173
 30
0.0
 11
3376.801488536429
 21
-646.065627447173
 31
0.0
  0
MTEXT
  5
106F3
330
1F
100
AcDbEntity
  8
AM_6
100
AcDbMText
 10
3369.301488536429
 20
-628.565627447173
 30
0.0
 40
3.200000000000001
 41
0.0
 71
     5
 72
     1
  1
B
 73
     1
 44
1.0
1001
ACAD
1000
MTEXTBEGIN
1070
    73
1070
     1
1070
    44
1040
1.0
1070
    74
1070
     0
1000
MTEXTEND
  0
MTEXT
  5
106F4
330
1F
100
AcDbEntity
  8
AM_6
100
AcDbMText
 10
3369.301488536429
 20
-635.565627447173
 30
0.0
 40
3.200000000000001
 41
0.0
 71
     5
 72
     1
  1
25
 73
     1
 44
1.0
1001
ACAD
1000
MTEXTBEGIN
1070
    73
1070
     1
1070
    44
1040
1.0
1070
    74
1070
     0
1000
MTEXTEND
  0
MTEXT
  5
106F5
330
1F
100
AcDbEntity
  8
AM_6
100
AcDbMText
 10
3369.301488536429
 20
-642.565627447173
 30
0.0
 40
3.200000000000001
 41
0.0
 71
     5
 72
     1
  1
30
 73
     1
 44
1.0
1001
ACAD
1000
MTEXTBEGIN
1070
    73
1070
     1
1070
    44
1040
1.0
1070
    74
1070
     0
1000
MTEXTEND
  0
LINE
  5
106F6
330
1F
100
AcDbEntity
  8
AM_0
100
AcDbLine
 10
3391.80148853643
 20
-625.065627447173
 30
0.0
 11
3391.80148853643
 21
-632.065627447173
 31
0.0
  0
LINE
  5
106F7
330
1F
100
AcDbEntity
  8
AM_0
100
AcDbLine
 10
3391.80148853643
 20
-632.065627447173
 30
0.0
 11
3391.80148853643
 21
-639.065627447173
 31
0.0
  0
LINE
  5
106F8
330
1F
100
AcDbEntity
  8
AM_0
100
AcDbLine
 10
3391.80148853643
 20
-639.065627447173
 30
0.0
 11
3391.80148853643
 21
-646.065627447173
 31
0.0
  0
MTEXT
  5
106F9
330
1F
100
AcDbEntity
  8
AM_6
100
AcDbMText
 10
3384.301488536429
 20
-628.565627447173
 30
0.0
 40
3.200000000000001
 41
0.0
 71
     5
 72
     1
  1
C
 73
     1
 44
1.0
1001
ACAD
1000
MTEXTBEGIN
1070
    73
1070
     1
1070
    44
1040
1.0
1070
    74
1070
     0
1000
MTEXTEND
  0
MTEXT
  5
106FA
330
1F
100
AcDbEntity
  8
AM_6
100
AcDbMText
 10
3384.301488536429
 20
-635.565627447173
 30
0.0
 40
3.200000000000001
 41
0.0
 71
     5
 72
     1
  1
8
 73
     1
 44
1.0
1001
ACAD
1000
MTEXTBEGIN
1070
    73
1070
     1
1070
    44
1040
1.0
1070
    74
1070
     0
1000
MTEXTEND
  0
MTEXT
  5
106FB
330
1F
100
AcDbEntity
  8
AM_6
100
AcDbMText
 10
3384.301488536429
 20
-642.565627447173
 30
0.0
 40
3.200000000000001
 41
0.0
 71
     5
 72
     1
  1
10
 73
     1
 44
1.0
1001
ACAD
1000
MTEXTBEGIN
1070
    73
1070
     1
1070
    44
1040
1.0
1070
    74
1070
     0
1000
MTEXTEND
  0
LINE
  5
106FC
330
1F
100
AcDbEntity
  8
AM_0
100
AcDbLine
 10
3406.801488536429
 20
-625.065627447173
 30
0.0
 11
3406.801488536429
 21
-632.065627447173
 31
0.0
  0
LINE
  5
106FD
330
1F
100
AcDbEntity
  8
AM_0
100
AcDbLine
 10
3406.801488536429
 20
-632.065627447173
 30
0.0
 11
3406.801488536429
 21
-639.065627447173
 31
0.0
  0
LINE
  5
106FE
330
1F
100
AcDbEntity
  8
AM_0
100
AcDbLine
 10
3406.801488536429
 20
-639.065627447173
 30
0.0
 11
3406.801488536429
 21
-646.065627447173
 31
0.0
  0
MTEXT
  5
106FF
330
1F
100
AcDbEntity
  8
AM_6
100
AcDbMText
 10
3399.301488536429
 20
-628.565627447173
 30
0.0
 40
3.200000000000001
 41
0.0
 71
     5
 72
     1
  1
D
 73
     1
 44
1.0
1001
ACAD
1000
MTEXTBEGIN
1070
    73
1070
     1
1070
    44
1040
1.0
1070
    74
1070
     0
1000
MTEXTEND
  0
MTEXT
  5
10700
330
1F
100
AcDbEntity
  8
AM_6
100
AcDbMText
 10
3399.301488536429
 20
-635.565627447173
 30
0.0
 40
3.200000000000001
 41
0.0
 71
     5
 72
     1
  1
7.5
 73
     1
 44
1.0
1001
ACAD
1000
MTEXTBEGIN
1070
    73
1070
     1
1070
    44
1040
1.0
1070
    74
1070
     0
1000
MTEXTEND
  0
MTEXT
  5
10701
330
1F
100
AcDbEntity
  8
AM_6
100
AcDbMText
 10
3399.301488536429
 20
-642.565627447173
 30
0.0
 40
3.200000000000001
 41
0.0
 71
     5
 72
     1
  1
9
 73
     1
 44
1.0
1001
ACAD
1000
MTEXTBEGIN
1070
    73
1070
     1
1070
    44
1040
1.0
1070
    74
1070
     0
1000
MTEXTEND
  0
LINE
  5
10702
330
1F
100
AcDbEntity
  8
AM_0
100
AcDbLine
 10
3421.801488536429
 20
-625.065627447173
 30
0.0
 11
3421.801488536429
 21
-632.065627447173
 31
0.0
  0
LINE
  5
10703
330
1F
100
AcDbEntity
  8
AM_0
100
AcDbLine
 10
3421.801488536429
 20
-632.065627447173
 30
0.0
 11
3421.801488536429
 21
-639.065627447173
 31
0.0
  0
LINE
  5
10704
330
1F
100
AcDbEntity
  8
AM_0
100
AcDbLine
 10
3421.801488536429
 20
-639.065627447173
 30
0.0
 11
3421.801488536429
 21
-646.065627447173
 31
0.0
  0
MTEXT
  5
10705
330
1F
100
AcDbEntity
  8
AM_6
100
AcDbMText
 10
3414.30148853643
 20
-628.565627447173
 30
0.0
 40
3.200000000000001
 41
0.0
 71
     5
 72
     1
  1
E
 73
     1
 44
1.0
1001
ACAD
1000
MTEXTBEGIN
1070
    73
1070
     1
1070
    44
1040
1.0
1070
    74
1070
     0
1000
MTEXTEND
  0
MTEXT
  5
10706
330
1F
100
AcDbEntity
  8
AM_6
100
AcDbMText
 10
3414.30148853643
 20
-635.565627447173
 30
0.0
 40
3.200000000000001
 41
0.0
 71
     5
 72
     1
  1
6
 73
     1
 44
1.0
1001
ACAD
1000
MTEXTBEGIN
1070
    73
1070
     1
1070
    44
1040
1.0
1070
    74
1070
     0
1000
MTEXTEND
  0
MTEXT
  5
10707
330
1F
100
AcDbEntity
  8
AM_6
100
AcDbMText
 10
3414.30148853643
 20
-642.565627447173
 30
0.0
 40
3.200000000000001
 41
0.0
 71
     5
 72
     1
  1
7
 73
     1
 44
1.0
1001
ACAD
1000
MTEXTBEGIN
1070
    73
1070
     1
1070
    44
1040
1.0
1070
    74
1070
     0
1000
MTEXTEND
  0
LINE
  5
10708
330
1F
100
AcDbEntity
  8
AM_0
100
AcDbLine
 10
3436.801488536429
 20
-625.065627447173
 30
0.0
 11
3436.801488536429
 21
-632.065627447173
 31
0.0
  0
LINE
  5
10709
330
1F
100
AcDbEntity
  8
AM_0
100
AcDbLine
 10
3436.801488536429
 20
-632.065627447173
 30
0.0
 11
3436.801488536429
 21
-639.065627447173
 31
0.0
  0
LINE
  5
1070A
330
1F
100
AcDbEntity
  8
AM_0
100
AcDbLine
 10
3436.801488536429
 20
-639.065627447173
 30
0.0
 11
3436.801488536429
 21
-646.065627447173
 31
0.0
  0
MTEXT
  5
1070B
330
1F
100
AcDbEntity
  8
AM_6
100
AcDbMText
 10
3429.30148853643
 20
-628.565627447173
 30
0.0
 40
3.200000000000001
 41
0.0
 71
     5
 72
     1
  1
F
 73
     1
 44
1.0
1001
ACAD
1000
MTEXTBEGIN
1070
    73
1070
     1
1070
    44
1040
1.0
1070
    74
1070
     0
1000
MTEXTEND
  0
MTEXT
  5
1070C
330
1F
100
AcDbEntity
  8
AM_6
100
AcDbMText
 10
3429.30148853643
 20
-635.565627447173
 30
0.0
 40
3.200000000000001
 41
0.0
 71
     5
 72
     1
  1
7.5
 73
     1
 44
1.0
1001
ACAD
1000
MTEXTBEGIN
1070
    73
1070
     1
1070
    44
1040
1.0
1070
    74
1070
     0
1000
MTEXTEND
  0
MTEXT
  5
1070D
330
1F
100
AcDbEntity
  8
AM_6
100
AcDbMText
 10
3429.30148853643
 20
-642.565627447173
 30
0.0
 40
3.200000000000001
 41
0.0
 71
     5
 72
     1
  1
8.5
 73
     1
 44
1.0
1001
ACAD
1000
MTEXTBEGIN
1070
    73
1070
     1
1070
    44
1040
1.0
1070
    74
1070
     0
1000
MTEXTEND
  0
LINE
  5
1070E
330
1F
100
AcDbEntity
  8
AM_0
100
AcDbLine
 10
3451.80148853643
 20
-625.065627447173
 30
0.0
 11
3451.80148853643
 21
-632.065627447173
 31
0.0
  0
LINE
  5
1070F
330
1F
100
AcDbEntity
  8
AM_0
100
AcDbLine
 10
3451.80148853643
 20
-632.065627447173
 30
0.0
 11
3451.80148853643
 21
-639.065627447173
 31
0.0
  0
LINE
  5
10710
330
1F
100
AcDbEntity
  8
AM_0
100
AcDbLine
 10
3451.80148853643
 20
-639.065627447173
 30
0.0
 11
3451.80148853643
 21
-646.065627447173
 31
0.0
  0
MTEXT
  5
10711
330
1F
100
AcDbEntity
  8
AM_6
100
AcDbMText
 10
3444.301488536429
 20
-628.565627447173
 30
0.0
 40
3.200000000000001
 41
0.0
 71
     5
 72
     1
  1
G
 73
     1
 44
1.0
1001
ACAD
1000
MTEXTBEGIN
1070
    73
1070
     1
1070
    44
1040
1.0
1070
    74
1070
     0
1000
MTEXTEND
  0
MTEXT
  5
10712
330
1F
100
AcDbEntity
  8
AM_6
100
AcDbMText
 10
3444.301488536429
 20
-635.565627447173
 30
0.0
 40
3.200000000000001
 41
0.0
 71
     5
 72
     1
  1
10
 73
     1
 44
1.0
1001
ACAD
1000
MTEXTBEGIN
1070
    73
1070
     1
1070
    44
1040
1.0
1070
    74
1070
     0
1000
MTEXTEND
  0
MTEXT
  5
10713
330
1F
100
AcDbEntity
  8
AM_6
100
AcDbMText
 10
3444.301488536429
 20
-642.565627447173
 30
0.0
 40
3.200000000000001
 41
0.0
 71
     5
 72
     1
  1
12
 73
     1
 44
1.0
1001
ACAD
1000
MTEXTBEGIN
1070
    73
1070
     1
1070
    44
1040
1.0
1070
    74
1070
     0
1000
MTEXTEND
  0
LINE
  5
10714
330
1F
100
AcDbEntity
  8
AM_0
100
AcDbLine
 10
3466.801488536429
 20
-625.065627447173
 30
0.0
 11
3466.801488536429
 21
-632.065627447173
 31
0.0
  0
LINE
  5
10715
330
1F
100
AcDbEntity
  8
AM_0
100
AcDbLine
 10
3466.801488536429
 20
-632.065627447173
 30
0.0
 11
3466.801488536429
 21
-639.065627447173
 31
0.0
  0
LINE
  5
10716
330
1F
100
AcDbEntity
  8
AM_0
100
AcDbLine
 10
3466.801488536429
 20
-639.065627447173
 30
0.0
 11
3466.801488536429
 21
-646.065627447173
 31
0.0
  0
MTEXT
  5
10717
330
1F
100
AcDbEntity
  8
AM_6
100
AcDbMText
 10
3459.301488536429
 20
-628.565627447173
 30
0.0
 40
3.200000000000001
 41
0.0
 71
     5
 72
     1
  1
H
 73
     1
 44
1.0
1001
ACAD
1000
MTEXTBEGIN
1070
    73
1070
     1
1070
    44
1040
1.0
1070
    74
1070
     0
1000
MTEXTEND
  0
MTEXT
  5
10718
330
1F
100
AcDbEntity
  8
AM_6
100
AcDbMText
 10
3459.301488536429
 20
-635.565627447173
 30
0.0
 40
3.200000000000001
 41
0.0
 71
     5
 72
     1
  1
11
 73
     1
 44
1.0
1001
ACAD
1000
MTEXTBEGIN
1070
    73
1070
     1
1070
    44
1040
1.0
1070
    74
1070
     0
1000
MTEXTEND
  0
MTEXT
  5
10719
330
1F
100
AcDbEntity
  8
AM_6
100
AcDbMText
 10
3459.301488536429
 20
-642.565627447173
 30
0.0
 40
3.200000000000001
 41
0.0
 71
     5
 72
     1
  1
13
 73
     1
 44
1.0
1001
ACAD
1000
MTEXTBEGIN
1070
    73
1070
     1
1070
    44
1040
1.0
1070
    74
1070
     0
1000
MTEXTEND
  0
LINE
  5
1071A
330
1F
100
AcDbEntity
  8
AM_0
100
AcDbLine
 10
3481.801488536429
 20
-625.065627447173
 30
0.0
 11
3481.801488536429
 21
-632.065627447173
 31
0.0
  0
LINE
  5
1071B
330
1F
100
AcDbEntity
  8
AM_0
100
AcDbLine
 10
3481.801488536429
 20
-632.065627447173
 30
0.0
 11
3481.801488536429
 21
-639.065627447173
 31
0.0
  0
LINE
  5
1071C
330
1F
100
AcDbEntity
  8
AM_0
100
AcDbLine
 10
3481.801488536429
 20
-639.065627447173
 30
0.0
 11
3481.801488536429
 21
-646.065627447173
 31
0.0
  0
MTEXT
  5
1071D
330
1F
100
AcDbEntity
  8
AM_6
100
AcDbMText
 10
3474.301488536429
 20
-628.565627447173
 30
0.0
 40
3.200000000000001
 41
0.0
 71
     5
 72
     1
  1
I
 73
     1
 44
1.0
1001
ACAD
1000
MTEXTBEGIN
1070
    73
1070
     1
1070
    44
1040
1.0
1070
    74
1070
     0
1000
MTEXTEND
  0
MTEXT
  5
1071E
330
1F
100
AcDbEntity
  8
AM_6
100
AcDbMText
 10
3474.301488536429
 20
-635.565627447173
 30
0.0
 40
3.200000000000001
 41
0.0
 71
     5
 72
     1
  1
2.5
 73
     1
 44
1.0
1001
ACAD
1000
MTEXTBEGIN
1070
    73
1070
     1
1070
    44
1040
1.0
1070
    74
1070
     0
1000
MTEXTEND
  0
MTEXT
  5
1071F
330
1F
100
AcDbEntity
  8
AM_6
100
AcDbMText
 10
3474.301488536429
 20
-642.565627447173
 30
0.0
 40
3.200000000000001
 41
0.0
 71
     5
 72
     1
  1
2.5
 73
     1
 44
1.0
1001
ACAD
1000
MTEXTBEGIN
1070
    73
1070
     1
1070
    44
1040
1.0
1070
    74
1070
     0
1000
MTEXTEND
  0
LINE
  5
10720
330
1F
100
AcDbEntity
  8
AM_0
100
AcDbLine
 10
3496.801488536429
 20
-625.065627447173
 30
0.0
 11
3496.801488536429
 21
-632.065627447173
 31
0.0
  0
LINE
  5
10721
330
1F
100
AcDbEntity
  8
AM_0
100
AcDbLine
 10
3496.801488536429
 20
-632.065627447173
 30
0.0
 11
3496.801488536429
 21
-639.065627447173
 31
0.0
  0
LINE
  5
10722
330
1F
100
AcDbEntity
  8
AM_0
100
AcDbLine
 10
3496.801488536429
 20
-639.065627447173
 30
0.0
 11
3496.801488536429
 21
-646.065627447173
 31
0.0
  0
MTEXT
  5
10723
330
1F
100
AcDbEntity
  8
AM_6
100
AcDbMText
 10
3489.30148853643
 20
-628.565627447173
 30
0.0
 40
3.200000000000001
 41
0.0
 71
     5
 72
     1
  1
J
 73
     1
 44
1.0
1001
ACAD
1000
MTEXTBEGIN
1070
    73
1070
     1
1070
    44
1040
1.0
1070
    74
1070
     0
1000
MTEXTEND
  0
LINE
  5
10726
330
1F
100
AcDbEntity
  8
AM_0
100
AcDbLine
 10
3511.801488536429
 20
-625.065627447173
 30
0.0
 11
3511.801488536429
 21
-632.065627447173
 31
0.0
  0
LINE
  5
10727
330
1F
100
AcDbEntity
  8
AM_0
100
AcDbLine
 10
3511.801488536429
 20
-632.065627447173
 30
0.0
 11
3511.801488536429
 21
-639.065627447173
 31
0.0
  0
LINE
  5
10728
330
1F
100
AcDbEntity
  8
AM_0
100
AcDbLine
 10
3511.801488536429
 20
-639.065627447173
 30
0.0
 11
3511.801488536429
 21
-646.065627447173
 31
0.0
  0
MTEXT
  5
10729
330
1F
100
AcDbEntity
  8
AM_6
100
AcDbMText
 10
3504.301488536429
 20
-628.565627447173
 30
0.0
 40
3.200000000000001
 41
0.0
 71
     5
 72
     1
  1
K
 73
     1
 44
1.0
1001
ACAD
1000
MTEXTBEGIN
1070
    73
1070
     1
1070
    44
1040
1.0
1070
    74
1070
     0
1000
MTEXTEND
  0
MTEXT
  5
1072A
330
1F
100
AcDbEntity
  8
AM_6
100
AcDbMText
 10
3504.301488536429
 20
-635.565627447173
 30
0.0
 40
3.200000000000001
 41
0.0
 71
     5
 72
     1
  1
13.5
 73
     1
 44
1.0
1001
ACAD
1000
MTEXTBEGIN
1070
    73
1070
     1
1070
    44
1040
1.0
1070
    74
1070
     0
1000
MTEXTEND
  0
MTEXT
  5
1072B
330
1F
100
AcDbEntity
  8
AM_6
100
AcDbMText
 10
3504.301488536429
 20
-642.565627447173
 30
0.0
 40
3.200000000000001
 41
0.0
 71
     5
 72
     1
  1
15.5
 73
     1
 44
1.0
1001
ACAD
1000
MTEXTBEGIN
1070
    73
1070
     1
1070
    44
1040
1.0
1070
    74
1070
     0
1000
MTEXTEND
  0
LINE
  5
1072C
330
1F
100
AcDbEntity
  8
AM_0
100
AcDbLine
 10
3526.80148853643
 20
-625.065627447173
 30
0.0
 11
3526.80148853643
 21
-632.065627447173
 31
0.0
  0
LINE
  5
1072D
330
1F
100
AcDbEntity
  8
AM_0
100
AcDbLine
 10
3526.80148853643
 20
-632.065627447173
 30
0.0
 11
3526.80148853643
 21
-639.065627447173
 31
0.0
  0
LINE
  5
1072E
330
1F
100
AcDbEntity
  8
AM_0
100
AcDbLine
 10
3526.80148853643
 20
-639.065627447173
 30
0.0
 11
3526.80148853643
 21
-646.065627447173
 31
0.0
  0
MTEXT
  5
1072F
330
1F
100
AcDbEntity
  8
AM_6
100
AcDbMText
 10
3519.301488536429
 20
-628.565627447173
 30
0.0
 40
3.200000000000001
 41
0.0
 71
     5
 72
     1
  1
L
 73
     1
 44
1.0
1001
ACAD
1000
MTEXTBEGIN
1070
    73
1070
     1
1070
    44
1040
1.0
1070
    74
1070
     0
1000
MTEXTEND
  0
MTEXT
  5
10730
330
1F
100
AcDbEntity
  8
AM_6
100
AcDbMText
 10
3519.301488536429
 20
-635.565627447173
 30
0.0
 40
3.200000000000001
 41
0.0
 71
     5
 72
     1
  1
35
 73
     1
 44
1.0
1001
ACAD
1000
MTEXTBEGIN
1070
    73
1070
     1
1070
    44
1040
1.0
1070
    74
1070
     0
1000
MTEXTEND
  0
MTEXT
  5
10731
330
1F
100
AcDbEntity
  8
AM_6
100
AcDbMText
 10
3519.301488536429
 20
-642.565627447173
 30
0.0
 40
3.200000000000001
 41
0.0
 71
     5
 72
     1
  1
40
 73
     1
 44
1.0
1001
ACAD
1000
MTEXTBEGIN
1070
    73
1070
     1
1070
    44
1040
1.0
1070
    74
1070
     0
1000
MTEXTEND
  0
LINE
  5
10732
330
1F
100
AcDbEntity
  8
AM_0
100
AcDbLine
 10
3541.801488536429
 20
-625.065627447173
 30
0.0
 11
3541.801488536429
 21
-632.065627447173
 31
0.0
  0
LINE
  5
10733
330
1F
100
AcDbEntity
  8
AM_0
100
AcDbLine
 10
3541.801488536429
 20
-632.065627447173
 30
0.0
 11
3541.801488536429
 21
-639.065627447173
 31
0.0
  0
LINE
  5
10734
330
1F
100
AcDbEntity
  8
AM_0
100
AcDbLine
 10
3541.801488536429
 20
-639.065627447173
 30
0.0
 11
3541.801488536429
 21
-646.065627447173
 31
0.0
  0
MTEXT
  5
10735
330
1F
100
AcDbEntity
  8
AM_6
100
AcDbMText
 10
3534.301488536429
 20
-628.565627447173
 30
0.0
 40
3.200000000000001
 41
0.0
 71
     5
 72
     1
  1
M
 73
     1
 44
1.0
1001
ACAD
1000
MTEXTBEGIN
1070
    73
1070
     1
1070
    44
1040
1.0
1070
    74
1070
     0
1000
MTEXTEND
  0
MTEXT
  5
10736
330
1F
100
AcDbEntity
  8
AM_6
100
AcDbMText
 10
3534.301488536429
 20
-635.565627447173
 30
0.0
 40
3.200000000000001
 41
0.0
 71
     5
 72
     1
  1
16
 73
     1
 44
1.0
1001
ACAD
1000
MTEXTBEGIN
1070
    73
1070
     1
1070
    44
1040
1.0
1070
    74
1070
     0
1000
MTEXTEND
  0
MTEXT
  5
10737
330
1F
100
AcDbEntity
  8
AM_6
100
AcDbMText
 10
3534.301488536429
 20
-642.565627447173
 30
0.0
 40
3.200000000000001
 41
0.0
 71
     5
 72
     1
  1
20
 73
     1
 44
1.0
1001
ACAD
1000
MTEXTBEGIN
1070
    73
1070
     1
1070
    44
1040
1.0
1070
    74
1070
     0
1000
MTEXTEND
  0
LINE
  5
10738
330
1F
100
AcDbEntity
  8
AM_0
100
AcDbLine
 10
3564.301488536429
 20
-625.065627447173
 30
0.0
 11
3564.301488536429
 21
-632.065627447173
 31
0.0
  0
LINE
  5
10739
330
1F
100
AcDbEntity
  8
AM_0
100
AcDbLine
 10
3564.301488536429
 20
-632.065627447173
 30
0.0
 11
3564.301488536429
 21
-639.065627447173
 31
0.0
  0
LINE
  5
1073A
330
1F
100
AcDbEntity
  8
AM_0
100
AcDbLine
 10
3564.301488536429
 20
-639.065627447173
 30
0.0
 11
3564.301488536429
 21
-646.065627447173
 31
0.0
  0
MTEXT
  5
1073B
330
1F
100
AcDbEntity
  8
AM_6
100
AcDbMText
 10
3553.051488536429
 20
-628.565627447173
 30
0.0
 40
3.200000000000001
 41
0.0
 71
     5
 72
     1
  1
N
 73
     1
 44
1.0
1001
ACAD
1000
MTEXTBEGIN
1070
    73
1070
     1
1070
    44
1040
1.0
1070
    74
1070
     0
1000
MTEXTEND
  0
MTEXT
  5
1073C
330
1F
100
AcDbEntity
  8
AM_6
100
AcDbMText
 10
3553.051488536429
 20
-635.565627447173
 30
0.0
 40
3.200000000000001
 41
0.0
 71
     5
 72
     1
  1
%%C3.4×%%C6
 73
     1
 44
1.0
1001
ACAD
1000
MTEXTBEGIN
1070
    73
1070
     1
1070
    44
1040
1.0
1070
    74
1070
     0
1000
MTEXTEND
  0
LINE
  5
1074A
330
1F
100
AcDbEntity
  8
AM_0
100
AcDbLine
 10
3324.301488536429
 20
-653.065627447173
 30
0.0
 11
3564.301488536429
 21
-653.065627447173
 31
0.0
  0
LINE
  5
1074B
330
1F
100
AcDbEntity
  8
AM_0
100
AcDbLine
 10
3346.801488536429
 20
-646.065627447173
 30
0.0
 11
3346.801488536429
 21
-653.065627447173
 31
0.0
  0
LINE
  5
1074C
330
1F
100
AcDbEntity
  8
AM_0
100
AcDbLine
 10
3324.301488536429
 20
-646.065627447173
 30
0.0
 11
3324.301488536429
 21
-653.065627447173
 31
0.0
  0
LINE
  5
1074E
330
1F
100
AcDbEntity
  8
AM_0
100
AcDbLine
 10
3361.801488536429
 20
-646.065627447173
 30
0.0
 11
3361.801488536429
 21
-653.065627447173
 31
0.0
  0
MTEXT
  5
1074F
330
1F
100
AcDbEntity
  8
AM_6
100
AcDbMText
 10
3354.301488536429
 20
-649.565627447173
 30
0.0
 40
3.200000000000001
 41
0.0
 71
     5
 72
     1
  1
70
 73
     1
 44
1.0
1001
ACAD
1000
MTEXTBEGIN
1070
    73
1070
     1
1070
    44
1040
1.0
1070
    74
1070
     0
1000
MTEXTEND
  0
LINE
  5
10750
330
1F
100
AcDbEntity
  8
AM_0
100
AcDbLine
 10
3376.801488536429
 20
-646.065627447173
 30
0.0
 11
3376.801488536429
 21
-653.065627447173
 31
0.0
  0
MTEXT
  5
10751
330
1F
100
AcDbEntity
  8
AM_6
100
AcDbMText
 10
3369.301488536429
 20
-649.565627447173
 30
0.0
 40
3.200000000000001
 41
0.0
 71
     5
 72
     1
  1
42
 73
     1
 44
1.0
1001
ACAD
1000
MTEXTBEGIN
1070
    73
1070
     1
1070
    44
1040
1.0
1070
    74
1070
     0
1000
MTEXTEND
  0
LINE
  5
10752
330
1F
100
AcDbEntity
  8
AM_0
100
AcDbLine
 10
3391.80148853643
 20
-646.065627447173
 30
0.0
 11
3391.80148853643
 21
-653.065627447173
 31
0.0
  0
MTEXT
  5
10753
330
1F
100
AcDbEntity
  8
AM_6
100
AcDbMText
 10
3384.301488536429
 20
-649.565627447173
 30
0.0
 40
3.200000000000001
 41
0.0
 71
     5
 72
     1
  1
13
 73
     1
 44
1.0
1001
ACAD
1000
MTEXTBEGIN
1070
    73
1070
     1
1070
    44
1040
1.0
1070
    74
1070
     0
1000
MTEXTEND
  0
LINE
  5
10754
330
1F
100
AcDbEntity
  8
AM_0
100
AcDbLine
 10
3406.801488536429
 20
-646.065627447173
 30
0.0
 11
3406.801488536429
 21
-653.065627447173
 31
0.0
  0
MTEXT
  5
10755
330
1F
100
AcDbEntity
  8
AM_6
100
AcDbMText
 10
3399.301488536429
 20
-649.565627447173
 30
0.0
 40
3.200000000000001
 41
0.0
 71
     5
 72
     1
  1
10
 73
     1
 44
1.0
1001
ACAD
1000
MTEXTBEGIN
1070
    73
1070
     1
1070
    44
1040
1.0
1070
    74
1070
     0
1000
MTEXTEND
  0
LINE
  5
10756
330
1F
100
AcDbEntity
  8
AM_0
100
AcDbLine
 10
3421.801488536429
 20
-646.065627447173
 30
0.0
 11
3421.801488536429
 21
-653.065627447173
 31
0.0
  0
MTEXT
  5
10757
330
1F
100
AcDbEntity
  8
AM_6
100
AcDbMText
 10
3414.30148853643
 20
-649.565627447173
 30
0.0
 40
3.200000000000001
 41
0.0
 71
     5
 72
     1
  1
10.5
 73
     1
 44
1.0
1001
ACAD
1000
MTEXTBEGIN
1070
    73
1070
     1
1070
    44
1040
1.0
1070
    74
1070
     0
1000
MTEXTEND
  0
LINE
  5
10758
330
1F
100
AcDbEntity
  8
AM_0
100
AcDbLine
 10
3436.801488536429
 20
-646.065627447173
 30
0.0
 11
3436.801488536429
 21
-653.065627447173
 31
0.0
  0
MTEXT
  5
10759
330
1F
100
AcDbEntity
  8
AM_6
100
AcDbMText
 10
3429.30148853643
 20
-649.565627447173
 30
0.0
 40
3.200000000000001
 41
0.0
 71
     5
 72
     1
  1
12.5
 73
     1
 44
1.0
1001
ACAD
1000
MTEXTBEGIN
1070
    73
1070
     1
1070
    44
1040
1.0
1070
    74
1070
     0
1000
MTEXTEND
  0
LINE
  5
1075A
330
1F
100
AcDbEntity
  8
AM_0
100
AcDbLine
 10
3451.80148853643
 20
-646.065627447173
 30
0.0
 11
3451.80148853643
 21
-653.065627447173
 31
0.0
  0
MTEXT
  5
1075B
330
1F
100
AcDbEntity
  8
AM_6
100
AcDbMText
 10
3444.301488536429
 20
-649.565627447173
 30
0.0
 40
3.200000000000001
 41
0.0
 71
     5
 72
     1
  1
17
 73
     1
 44
1.0
1001
ACAD
1000
MTEXTBEGIN
1070
    73
1070
     1
1070
    44
1040
1.0
1070
    74
1070
     0
1000
MTEXTEND
  0
LINE
  5
1075C
330
1F
100
AcDbEntity
  8
AM_0
100
AcDbLine
 10
3466.801488536429
 20
-646.065627447173
 30
0.0
 11
3466.801488536429
 21
-653.065627447173
 31
0.0
  0
MTEXT
  5
1075D
330
1F
100
AcDbEntity
  8
AM_6
100
AcDbMText
 10
3459.301488536429
 20
-649.565627447173
 30
0.0
 40
3.200000000000001
 41
0.0
 71
     5
 72
     1
  1
19
 73
     1
 44
1.0
1001
ACAD
1000
MTEXTBEGIN
1070
    73
1070
     1
1070
    44
1040
1.0
1070
    74
1070
     0
1000
MTEXTEND
  0
LINE
  5
1075E
330
1F
100
AcDbEntity
  8
AM_0
100
AcDbLine
 10
3481.801488536429
 20
-646.065627447173
 30
0.0
 11
3481.801488536429
 21
-653.065627447173
 31
0.0
  0
MTEXT
  5
1075F
330
1F
100
AcDbEntity
  8
AM_6
100
AcDbMText
 10
3474.301488536429
 20
-649.565627447173
 30
0.0
 40
3.200000000000001
 41
0.0
 71
     5
 72
     1
  1
4
 73
     1
 44
1.0
1001
ACAD
1000
MTEXTBEGIN
1070
    73
1070
     1
1070
    44
1040
1.0
1070
    74
1070
     0
1000
MTEXTEND
  0
LINE
  5
10760
330
1F
100
AcDbEntity
  8
AM_0
100
AcDbLine
 10
3496.801488536429
 20
-646.065627447173
 30
0.0
 11
3496.801488536429
 21
-653.065627447173
 31
0.0
  0
LINE
  5
10762
330
1F
100
AcDbEntity
  8
AM_0
100
AcDbLine
 10
3511.801488536429
 20
-646.065627447173
 30
0.0
 11
3511.801488536429
 21
-653.065627447173
 31
0.0
  0
MTEXT
  5
10763
330
1F
100
AcDbEntity
  8
AM_6
100
AcDbMText
 10
3504.301488536429
 20
-649.565627447173
 30
0.0
 40
3.200000000000001
 41
0.0
 71
     5
 72
     1
  1
23
 73
     1
 44
1.0
1001
ACAD
1000
MTEXTBEGIN
1070
    73
1070
     1
1070
    44
1040
1.0
1070
    74
1070
     0
1000
MTEXTEND
  0
LINE
  5
10764
330
1F
100
AcDbEntity
  8
AM_0
100
AcDbLine
 10
3526.80148853643
 20
-646.065627447173
 30
0.0
 11
3526.80148853643
 21
-653.065627447173
 31
0.0
  0
MTEXT
  5
10765
330
1F
100
AcDbEntity
  8
AM_6
100
AcDbMText
 10
3519.301488536429
 20
-649.565627447173
 30
0.0
 40
3.200000000000001
 41
0.0
 71
     5
 72
     1
  1
60
 73
     1
 44
1.0
1001
ACAD
1000
MTEXTBEGIN
1070
    73
1070
     1
1070
    44
1040
1.0
1070
    74
1070
     0
1000
MTEXTEND
  0
LINE
  5
10766
330
1F
100
AcDbEntity
  8
AM_0
100
AcDbLine
 10
3541.801488536429
 20
-646.065627447173
 30
0.0
 11
3541.801488536429
 21
-653.065627447173
 31
0.0
  0
MTEXT
  5
10767
330
1F
100
AcDbEntity
  8
AM_6
100
AcDbMText
 10
3534.301488536429
 20
-649.565627447173
 30
0.0
 40
3.200000000000001
 41
0.0
 71
     5
 72
     1
  1
30
 73
     1
 44
1.0
1001
ACAD
1000
MTEXTBEGIN
1070
    73
1070
     1
1070
    44
1040
1.0
1070
    74
1070
     0
1000
MTEXTEND
  0
LINE
  5
10768
330
1F
100
AcDbEntity
  8
AM_0
100
AcDbLine
 10
3564.301488536429
 20
-646.065627447173
 30
0.0
 11
3564.301488536429
 21
-653.065627447173
 31
0.0
  0
MTEXT
  5
1076D
330
1F
100
AcDbEntity
  8
AM_6
100
AcDbMText
 10
3489.30148853643
 20
-635.565627447173
 30
0.0
 40
3.200000000000001
 41
0.0
 71
     5
 72
     1
  1
2.5
 73
     1
 44
1.0
1001
ACAD
1000
MTEXTBEGIN
1070
    73
1070
     1
1070
    44
1040
1.0
1070
    74
1070
     0
1000
MTEXTEND
  0
MTEXT
  5
1076E
330
1F
100
AcDbEntity
  8
AM_6
100
AcDbMText
 10
3489.30148853643
 20
-642.565627447173
 30
0.0
 40
3.200000000000001
 41
0.0
 71
     5
 72
     1
  1
2.5
 73
     1
 44
1.0
1001
ACAD
1000
MTEXTBEGIN
1070
    73
1070
     1
1070
    44
1040
1.0
1070
    74
1070
     0
1000
MTEXTEND
  0
MTEXT
  5
1076F
330
1F
100
AcDbEntity
  8
AM_6
100
AcDbMText
 10
3489.30148853643
 20
-649.565627447173
 30
0.0
 40
3.200000000000001
 41
0.0
 71
     5
 72
     1
  1
4
 73
     1
 44
1.0
1001
ACAD
1000
MTEXTBEGIN
1070
    73
1070
     1
1070
    44
1040
1.0
1070
    74
1070
     0
1000
MTEXTEND
  0
CIRCLE
  5
114F5
330
1F
100
AcDbEntity
  8
AM_0
100
AcDbCircle
 10
3397.734513075941
 20
-589.1330358381717
 30
0.0
 40
2.2
  0
CIRCLE
  5
114F6
330
1F
100
AcDbEntity
  8
AM_0
100
AcDbCircle
 10
3412.73451307594
 20
-589.1330358381717
 30
0.0
 40
2.2
  0
CIRCLE
  5
114F7
330
1F
100
AcDbEntity
  8
AM_0
100
AcDbCircle
 10
3397.734513075941
 20
-589.1330358381717
 30
0.0
 40
4.2
  0
MTEXT
  5
11534
330
1F
100
AcDbEntity
  8
AM_6
100
AcDbMText
 10
3553.051488536429
 20
-642.565627447173
 30
0.0
 40
3.200000000000001
 41
0.0
 71
     5
 72
     1
  1
%%C4.4×%%C8.4
 73
     1
 44
1.0
1001
ACAD
1000
MTEXTBEGIN
1070
    73
1070
     1
1070
    44
1040
1.0
1070
    74
1070
     0
1000
MTEXTEND
  0
MTEXT
  5
11535
330
1F
100
AcDbEntity
  8
AM_6
100
AcDbMText
 10
3553.051488536429
 20
-649.565627447173
 30
0.0
 40
3.200000000000001
 41
0.0
 71
     5
 72
     1
  1
%%C4.4×%%C8.4
 73
     1
 44
1.0
1001
ACAD
1000
MTEXTBEGIN
1070
    73
1070
     1
1070
    44
1040
1.0
1070
    74
1070
     0
1000
MTEXTEND
  0
MTEXT
  5
117F6
330
1F
100
AcDbEntity
  8
AM_6
100
AcDbMText
 10
3335.55148853643
 20
-642.565627447173
 30
0.0
 40
3.200000000000001
 41
0.0
 71
     5
 72
     1
  1
SC-200-2
 73
     1
 44
1.0
1001
ACAD
1000
MTEXTBEGIN
1070
    73
1070
     1
1070
    44
1040
1.0
1070
    74
1070
     0
1000
MTEXTEND
  0
MTEXT
  5
117F7
330
1F
100
AcDbEntity
  8
AM_6
100
AcDbMText
 10
3335.55148853643
 20
-649.565627447173
 30
0.0
 40
3.200000000000001
 41
0.0
 71
     5
 72
     1
  1
SC-200-3
 73
     1
 44
1.0
1001
ACAD
1000
MTEXTBEGIN
1070
    73
1070
     1
1070
    44
1040
1.0
1070
    74
1070
     0
1000
MTEXTEND
  0
ENDSEC
  0
SECTION
  2
OBJECTS
  0
DICTIONARY
  5
C
330
0
100
AcDbDictionary
281
     1
  3
ACAD_COLOR
350
C45B
  3
ACAD_GROUP
350
D
  3
ACAD_LAYOUT
350
1A
  3
ACAD_MATERIAL
350
C446
  3
ACAD_MLEADERSTYLE
350
CB0A
  3
ACAD_MLINESTYLE
350
17
  3
ACAD_PLOTSETTINGS
350
19
  3
ACAD_PLOTSTYLENAME
350
E
  3
ACAD_SCALELIST
350
CAE8
  3
ACAD_TABLESTYLE
350
C45C
  3
ACAD_VISUALSTYLE
350
C44A
  3
AcAsAppObject
350
3DA1
  3
ACASGREF_MASTER
350
3DE9
  3
ACDB_RECOMPOSE_DATA
350
DB56
  3
AcDbVariableDictionary
350
34
  3
AcmDictionary
350
47
  3
AD_GREF_MODULE
350
3DEA
  3
AD_MAPI_MODULE
350
3E06
  3
AMG
350
2B
  3
AMGSNAPSETTINGS
350
7D
  3
ASE_INDEX_DICTIONARY
350
FF98
  3
DWGPROPS
350
11B02
  3
MAPISURF_MODULE
350
3DEB
  0
DICTIONARY
  5
3F95
330
2
100
AcDbDictionary
280
     1
281
     1
  3
ACAD_LAYERFILTERS
360
CA41
  3
ACAD_LAYERSTATES
360
3F96
  3
ACLYDICTIONARY
360
CA40
  0
DICTIONARY
  5
DB24
330
10
100
AcDbDictionary
280
     1
281
     1
  3
ADSK_XREC_LAYER_RECONCILED
360
DB25
  0
DICTIONARY
  5
DB26
330
A46
100
AcDbDictionary
280
     1
281
     1
  3
ADSK_XREC_LAYER_RECONCILED
360
DB27
  0
DICTIONARY
  5
DB28
330
A47
100
AcDbDictionary
280
     1
281
     1
  3
ADSK_XREC_LAYER_RECONCILED
360
DB29
  0
DICTIONARY
  5
DB2A
330
A48
100
AcDbDictionary
280
     1
281
     1
  3
ADSK_XREC_LAYER_RECONCILED
360
DB2B
  0
DICTIONARY
  5
DB34
330
5F85
100
AcDbDictionary
280
     1
281
     1
  3
ADSK_XREC_LAYER_RECONCILED
360
DB35
  0
DICTIONARY
  5
DB40
330
BFAA
100
AcDbDictionary
280
     1
281
     1
  3
ADSK_XREC_LAYER_RECONCILED
360
DB41
  0
DICTIONARY
  5
DB42
330
BFAB
100
AcDbDictionary
280
     1
281
     1
  3
ADSK_XREC_LAYER_RECONCILED
360
DB43
  0
DICTIONARY
  5
DB44
330
BFAC
100
AcDbDictionary
280
     1
281
     1
  3
ADSK_XREC_LAYER_RECONCILED
360
DB45
  0
DICTIONARY
  5
DB4A
330
C7E9
100
AcDbDictionary
280
     1
281
     1
  3
ADSK_XREC_LAYER_RECONCILED
360
DB4B
  0
DICTIONARY
  5
8A
330
1F
100
AcDbDictionary
280
     1
281
     1
  3
ACAD_SORTENTS
360
11795
  0
DICTIONARY
  5
FB2C
330
FB1D
100
AcDbDictionary
280
     1
281
     1
  3
ACAD_DIMASSOC
360
FB2D
  0
DICTIONARY
  5
FB5E
330
FB4F
100
AcDbDictionary
280
     1
281
     1
  3
ACAD_DIMASSOC
360
FB5F
  0
DICTIONARY
  5
FB83
330
FB76
100
AcDbDictionary
280
     1
281
     1
  3
ACAD_DIMASSOC
360
FB84
  0
DICTIONARY
  5
FBA4
330
FB97
100
AcDbDictionary
280
     1
281
     1
  3
ACAD_DIMASSOC
360
FBA5
  0
DICTIONARY
  5
FBC5
330
FBB8
100
AcDbDictionary
280
     1
281
     1
  3
ACAD_DIMASSOC
360
FBC6
  0
DICTIONARY
  5
FC01
330
FBF4
100
AcDbDictionary
280
     1
281
     1
  3
ACAD_DIMASSOC
360
FC02
  0
DICTIONARY
  5
FC2B
330
FC1E
100
AcDbDictionary
280
     1
281
     1
  3
ACAD_DIMASSOC
360
FC2C
  0
DICTIONARY
  5
FC4C
330
FC3F
100
AcDbDictionary
280
     1
281
     1
  3
ACAD_DIMASSOC
360
FC4D
  0
DICTIONARY
  5
FC6D
330
FC60
100
AcDbDictionary
280
     1
281
     1
  3
ACAD_DIMASSOC
360
FC6E
  0
DICTIONARY
  5
FC8E
330
FC81
100
AcDbDictionary
280
     1
281
     1
  3
ACAD_DIMASSOC
360
FC8F
  0
DICTIONARY
  5
FCB8
330
FCAB
100
AcDbDictionary
280
     1
281
     1
  3
ACAD_DIMASSOC
360
FCB9
  0
DICTIONARY
  5
FCD9
330
FCCC
100
AcDbDictionary
280
     1
281
     1
  3
ACAD_DIMASSOC
360
FCDA
  0
DICTIONARY
  5
FCFA
330
FCED
100
AcDbDictionary
280
     1
281
     1
  3
ACAD_DIMASSOC
360
FCFB
  0
DICTIONARY
  5
FD1B
330
FD0E
100
AcDbDictionary
280
     1
281
     1
  3
ACAD_DIMASSOC
360
FD1C
  0
DICTIONARY
  5
FF5A
330
FF4E
100
AcDbDictionary
280
     1
281
     1
  3
ACAD_DIMASSOC
360
FF5B
  0
DICTIONARY
  5
C45B
102
{ACAD_REACTORS
330
C
102
}
330
C
100
AcDbDictionary
281
     1
  0
DICTIONARY
  5
D
102
{ACAD_REACTORS
330
C
102
}
330
C
100
AcDbDictionary
281
     1
  0
DICTIONARY
  5
1A
102
{ACAD_REACTORS
330
C
102
}
330
C
100
AcDbDictionary
281
     1
  3
Model
350
22
  3
ﾚｲｱｳﾄ1
350
1E
  3
ﾚｲｱｳﾄ2
350
26
  0
DICTIONARY
  5
C446
102
{ACAD_REACTORS
330
C
102
}
330
C
100
AcDbDictionary
281
     1
  3
ByBlock
350
C448
  3
ByLayer
350
C447
  3
Global
350
C449
  0
DICTIONARY
  5
CB0A
102
{ACAD_REACTORS
330
C
102
}
330
C
100
AcDbDictionary
281
     1
  3
Standard
350
CB0B
  0
DICTIONARY
  5
17
102
{ACAD_REACTORS
330
C
102
}
330
C
100
AcDbDictionary
281
     1
  3
Standard
350
18
  0
DICTIONARY
  5
19
102
{ACAD_REACTORS
330
C
102
}
330
C
100
AcDbDictionary
281
     1
  3
-00
350
C85D
  0
ACDBDICTIONARYWDFLT
  5
E
102
{ACAD_REACTORS
330
C
102
}
330
C
100
AcDbDictionary
281
     1
  3
Normal
350
F
100
AcDbDictionaryWithDefault
340
F
  0
DICTIONARY
  5
CAE8
102
{ACAD_REACTORS
330
C
102
}
330
C
100
AcDbDictionary
281
     1
  3
A0
350
CAE9
  3
A1
350
CAEA
  3
A2
350
CAEB
  3
A3
350
CAEC
  3
A4
350
CAED
  3
A5
350
CAEE
  3
A6
350
CAEF
  3
A7
350
CAF0
  3
A8
350
CAF1
  3
A9
350
CAF2
  3
B0
350
CAF3
  3
B1
350
CAF4
  3
B2
350
CAF5
  3
B3
350
CAF6
  3
B4
350
CAF7
  3
B5
350
CAF8
  3
B6
350
CAF9
  3
B7
350
CAFA
  3
B8
350
CAFB
  3
B9
350
CAFC
  3
C0
350
CAFD
  3
C1
350
CAFE
  3
C2
350
CAFF
  3
C3
350
CB00
  3
C4
350
CB01
  3
C5
350
CB02
  3
C6
350
CB03
  3
C7
350
CB04
  3
C8
350
CB05
  3
C9
350
CB06
  3
D0
350
CB07
  3
D1
350
CB08
  3
D2
350
CB09
  0
DICTIONARY
  5
C45C
102
{ACAD_REACTORS
330
C
102
}
330
C
100
AcDbDictionary
281
     1
  3
Standard
350
C45D
  0
DICTIONARY
  5
C44A
102
{ACAD_REACTORS
330
C
102
}
330
C
100
AcDbDictionary
281
     1
  3
2dWireframe
350
C450
  3
3D Hidden
350
C452
  3
3dWireframe
350
C451
  3
Basic
350
C44F
  3
Brighten
350
C456
  3
ColorChange
350
C45A
  3
Conceptual
350
C453
  3
Dim
350
C455
  3
Facepattern
350
C459
  3
Flat
350
C44B
  3
FlatWithEdges
350
C44C
  3
Gouraud
350
C44D
  3
GouraudWithEdges
350
C44E
  3
Linepattern
350
C458
  3
Realistic
350
C454
  3
Thicken
350
C457
  0
ACAD_PROXY_OBJECT
  5
3DA1
102
{ACAD_REACTORS
330
C
102
}
330
C
100
AcDbProxyObject
 90
      499
 91
      576
 95
   720919
 70
     0
 93
       10
310
407F
 94
        0
1001
ACAD
1000
AcRTDxfName
1000
ASAPP
  0
ACAD_PROXY_OBJECT
  5
3DE9
102
{ACAD_REACTORS
330
C
102
}
330
C
100
AcDbProxyObject
 90
      499
 91
      581
 95
   720919
 70
     0
 93
       34
310
010000407F
 94
        0
1001
ACAD
1000
AcRTDxfName
1000
ACASGREFMASTER
  0
XRECORD
  5
DB56
102
{ACAD_REACTORS
330
C
102
}
330
C
100
AcDbXrecord
280
     1
 90
        1
330
C45D
  0
DICTIONARY
  5
34
102
{ACAD_REACTORS
330
C
102
}
330
C
100
AcDbDictionary
281
     1
  3
CANNOSCALE
350
DB59
  3
CMLEADERSTYLE
350
DB57
  3
CTABLESTYLE
350
C4A2
  3
DIMASSOC
350
AC85
  3
INDEXCTL
350
35
  3
LIGHTINGUNITS
350
DB5A
  3
MSLTSCALE
350
DB58
  3
SORTENTS
350
194C
  0
DICTIONARY
  5
47
102
{ACAD_REACTORS
330
C
102
}
330
C
100
AcDbDictionary
281
     1
  3
AcmBOM
350
7E8
  3
AcmStdDictionary
350
4C
  3
AMDTSECTSYM_ARROWCOLOR
350
C487
  0
ACAD_PROXY_OBJECT
  5
3DEA
102
{ACAD_REACTORS
330
C
102
}
330
C
100
AcDbProxyObject
 90
      499
 91
      582
 95
   720919
 70
     0
 93
      114
310
00000043800000000000000000003F
 94
        0
1001
ACAD
1000
AcRTDxfName
1000
ACADGREFMODULE
  0
ACAD_PROXY_OBJECT
  5
3E06
102
{ACAD_REACTORS
330
C
102
}
330
C
100
AcDbProxyObject
 90
      499
 91
      594
 95
   720919
 70
     0
 93
       34
310
05000044FF
 94
        0
1001
ACAD
1000
AcRTDxfName
1000
MAPIADMODULE
  0
DICTIONARY
  5
2B
102
{ACAD_REACTORS
330
C
102
}
330
C
100
AcDbDictionary
281
     1
  0
DICTIONARY
  5
7D
102
{ACAD_REACTORS
330
C
102
}
330
C
100
AcDbDictionary
281
     1
  0
DICTIONARY
  5
FF98
102
{ACAD_REACTORS
330
C
102
}
330
C
100
AcDbDictionary
281
     1
  3
ASEBlockHierarchyIndexRecord
350
FF99
1001
DCO15
1040
1674830307.348
  0
XRECORD
  5
11B02
102
{ACAD_REACTORS
330
C
102
}
330
C
100
AcDbXrecord
280
     1
  1
DWGPROPS COOKIE
  2

  3

  4

  6

  7

  8
Administrator
  9

300
AmdtFileType=84
301
=
302
=
303
=
304
=
305
=
306
=
307
=
308
=
309
=
 40
4.453117789351852
 41
2452002.615067627
 42
2455268.603251586
  1

 90
        1
  0
ACAD_PROXY_OBJECT
  5
3DEB
102
{ACAD_REACTORS
330
C
102
}
330
C
100
AcDbProxyObject
 90
      499
 91
      583
 95
   720919
 70
     0
 93
        8
310
047D
 94
        0
1001
ACAD
1000
AcRTDxfName
1000
AMDTMAPISURFMOUDULE
  0
DICTIONARY
  5
CA41
102
{ACAD_REACTORS
330
3F95
102
}
330
3F95
100
AcDbDictionary
281
     1
  3
50
350
CA43
  0
DICTIONARY
  5
3F96
102
{ACAD_REACTORS
330
3F95
102
}
330
3F95
100
AcDbDictionary
281
     1
  3
20011210
350
3FB7
  0
DICTIONARY
  5
CA40
102
{ACAD_REACTORS
330
3F95
102
}
330
3F95
100
AcDbDictionary
281
     1
  3
*A1
350
CA42
1001
ACAD
1000
<All
  0
XRECORD
  5
DB25
102
{ACAD_REACTORS
330
DB24
102
}
330
DB24
100
AcDbXrecord
280
     1
290
     1
  0
XRECORD
  5
DB27
102
{ACAD_REACTORS
330
DB26
102
}
330
DB26
100
AcDbXrecord
280
     1
290
     1
  0
XRECORD
  5
DB29
102
{ACAD_REACTORS
330
DB28
102
}
330
DB28
100
AcDbXrecord
280
     1
290
     1
  0
XRECORD
  5
DB2B
102
{ACAD_REACTORS
330
DB2A
102
}
330
DB2A
100
AcDbXrecord
280
     1
290
     1
  0
XRECORD
  5
DB35
102
{ACAD_REACTORS
330
DB34
102
}
330
DB34
100
AcDbXrecord
280
     1
290
     1
  0
XRECORD
  5
DB41
102
{ACAD_REACTORS
330
DB40
102
}
330
DB40
100
AcDbXrecord
280
     1
290
     1
  0
XRECORD
  5
DB43
102
{ACAD_REACTORS
330
DB42
102
}
330
DB42
100
AcDbXrecord
280
     1
290
     1
  0
XRECORD
  5
DB45
102
{ACAD_REACTORS
330
DB44
102
}
330
DB44
100
AcDbXrecord
280
     1
290
     1
  0
XRECORD
  5
DB4B
102
{ACAD_REACTORS
330
DB4A
102
}
330
DB4A
100
AcDbXrecord
280
     1
290
     1
  0
SORTENTSTABLE
  5
11795
102
{ACAD_REACTORS
330
8A
102
}
330
8A
100
AcDbSortentsTable
330
1F
331
10708
  5
1070C
331
10710
  5
10714
331
FCAB
  5
FF4E
331
10755
  5
10759
331
10718
  5
1071C
331
102A1
  5
102A5
331
10720
  5
10726
331
1075D
  5
10762
331
10765
  5
1076D
331
F533
  5
F533
331
F4FC
  5
F4FC
331
F53B
  5
F53B
331
F504
  5
F504
331
F543
  5
F543
331
F50C
  5
F50C
331
F4C5
  5
F4C5
331
F54B
  5
F54B
331
F514
  5
F514
331
F4CD
  5
F4CD
331
106E9
  5
106ED
331
10728
  5
1072C
331
10730
  5
10734
331
106F1
  5
106F5
331
1076D
  5
10863
331
10738
  5
1073C
331
106F9
  5
106FD
331
10701
  5
10705
331
114F6
  5
11535
331
F51C
  5
F51C
331
F4D5
  5
F4D5
331
F524
  5
F524
331
F52C
  5
F52C
331
F4ED
  5
F4ED
331
F4F5
  5
F4F5
331
10709
  5
1070D
331
10711
  5
10715
331
1074E
  5
10752
331
10756
  5
1075A
331
1029A
  5
1029E
331
10719
  5
1071D
331
102A2
  5
106E3
331
FCCC
  5
FF90
331
10721
  5
10727
331
1075E
  5
10763
331
10766
  5
1076E
331
F534
  5
F534
331
F4FD
  5
F4FD
331
F53C
  5
F53C
331
F505
  5
F505
331
FC3F
  5
FCCC
331
F544
  5
F544
331
F50D
  5
F50D
331
F4C6
  5
F4C6
331
FBB8
  5
FC60
331
F54C
  5
F54C
331
F515
  5
F515
331
F4CE
  5
F4CE
331
106EA
  5
106EE
331
10729
  5
1072D
331
10731
  5
10735
331
106F2
  5
106F6
331
1076E
  5
10864
331
10739
  5
1074A
331
106FA
  5
106FE
331
10702
  5
10706
331
114F7
  5
1160C
331
F51D
  5
F51D
331
F4D6
  5
F4D6
331
F525
  5
F525
331
F52D
  5
F52D
331
F4EE
  5
F4EE
331
F4F6
  5
F4F6
331
1070A
  5
1070E
331
10712
  5
10716
331
1074F
  5
10753
331
10757
  5
1075B
331
1029B
  5
1029F
331
1071A
  5
1071E
331
102A3
  5
106E9
331
10722
  5
10728
331
1075F
  5
10764
331
10767
  5
1076F
331
F535
  5
F535
331
F53D
  5
F53D
331
F506
  5
F506
331
F545
  5
F545
331
F50E
  5
F50E
331
F4C7
  5
F4C7
331
F54D
  5
F54D
331
F516
  5
F516
331
F4CF
  5
F4CF
331
106EB
  5
106F0
331
1072A
  5
1072E
331
1076F
  5
10865
331
106F3
  5
106F7
331
FCED
  5
1029A
331
10732
  5
10736
331
1073A
  5
1074B
331
106FB
  5
106FF
331
10703
  5
10707
331
FC60
  5
FCED
331
F51E
  5
F51E
331
F526
  5
F526
331
F52E
  5
F52E
331
F4EF
  5
F4EF
331
F4F7
  5
F4F7
331
1070B
  5
1070F
331
10750
  5
10754
331
10713
  5
10717
331
10758
  5
1075C
331
1029C
  5
102A0
331
1071B
  5
1071F
331
102A4
  5
106EA
331
10723
  5
10729
331
10760
  5
10765
331
F536
  5
F536
331
F53E
  5
F53E
331
F507
  5
F507
331
F546
  5
F546
331
F50F
  5
F50F
331
F4C8
  5
F4C8
331
F517
  5
F517
331
106EC
  5
106F1
331
1072B
  5
1072F
331
10768
  5
10862
331
10733
  5
10737
331
106F4
  5
106F8
331
1073B
  5
1074C
331
106FC
  5
10700
331
10704
  5
10708
331
F4D0
  5
F4D0
331
F51F
  5
F51F
331
F4D8
  5
F4D8
331
F527
  5
F527
331
FC81
  5
FD0E
331
F52F
  5
F52F
331
F4F0
  5
F4F0
331
FD0E
  5
1029B
331
1070C
  5
10710
331
10751
  5
10755
331
10714
  5
10718
331
1029D
  5
102A1
331
1071C
  5
10720
331
10759
  5
1075D
331
102A5
  5
106EB
331
F4F8
  5
F4F8
331
F537
  5
F537
331
F500
  5
F500
331
F53F
  5
F53F
331
F508
  5
F508
331
F4C1
  5
F4C1
331
F547
  5
F547
331
F510
  5
F510
331
F4C9
  5
F4C9
331
FF4E
  5
1029C
331
106ED
  5
106F2
331
1072C
  5
10730
331
10734
  5
10738
331
106F5
  5
106F9
331
1073C
  5
1074D
331
106FD
  5
10701
331
10705
  5
10709
331
F518
  5
F518
331
F4D1
  5
F4D1
331
F520
  5
F520
331
FB1D
  5
FBB8
331
F528
  5
F528
331
F4E9
  5
F4E9
331
F4F1
  5
F4F1
331
1070D
  5
10711
331
1074A
  5
1074E
331
10752
  5
10756
331
10715
  5
10719
331
1029E
  5
102A2
331
1071D
  5
10721
331
1075A
  5
1075E
331
10762
  5
10766
331
F530
  5
F530
331
F4F9
  5
F4F9
331
F538
  5
F538
331
F501
  5
F501
331
F540
  5
F540
331
F509
  5
F509
331
F4C2
  5
F4C2
331
F548
  5
F548
331
F511
  5
F511
331
F4CA
  5
F4CA
331
106EE
  5
106F3
331
1072D
  5
10731
331
10735
  5
10739
331
106F6
  5
106FA
331
106FE
  5
10702
331
10706
  5
1070A
331
F519
  5
F519
331
F4D2
  5
F4D2
331
FBF4
  5
FC81
331
F521
  5
F521
331
F4DA
  5
F4DA
331
F529
  5
F529
331
F4EA
  5
F4EA
331
F4F2
  5
F4F2
331
1070E
  5
10712
331
1074B
  5
1074F
331
10753
  5
10757
331
10716
  5
1071A
331
1029F
  5
102A3
331
1071E
  5
10722
331
1075B
  5
1075F
331
10726
  5
1072A
331
10763
  5
10767
331
F531
  5
F531
331
F4FA
  5
F4FA
331
F502
  5
F502
331
F541
  5
F541
331
F50A
  5
F50A
331
F4C3
  5
F4C3
331
F549
  5
F549
331
F512
  5
F512
331
F4CB
  5
F4CB
331
FB76
  5
FC1E
331
1072E
  5
10732
331
10736
  5
1073A
331
106F7
  5
106FB
331
106FF
  5
10703
331
10707
  5
1070B
331
F51A
  5
F51A
331
11534
  5
11685
331
F4D3
  5
F4D3
331
F522
  5
F522
331
F52A
  5
F52A
331
F4EB
  5
F4EB
331
F4F3
  5
F4F3
331
FF90
  5
1029D
331
1070F
  5
10713
331
1074C
  5
10750
331
10754
  5
10758
331
10717
  5
1071B
331
102A0
  5
102A4
331
1071F
  5
10723
331
1075C
  5
10760
331
10727
  5
1072B
331
10764
  5
10768
331
F532
  5
F532
331
F4FB
  5
F4FB
331
FB4F
  5
FBF4
331
F503
  5
F503
331
F542
  5
F542
331
F4C4
  5
F4C4
331
F54A
  5
F54A
331
F513
  5
F513
331
F4CC
  5
F4CC
331
106F0
  5
106F4
331
1072F
  5
10733
331
10737
  5
1073B
331
106F8
  5
106FC
331
10700
  5
10704
331
114F5
  5
11534
331
F51B
  5
F51B
331
11535
  5
11794
331
F4D4
  5
F4D4
331
F523
  5
F523
331
F52B
  5
F52B
331
F4EC
  5
F4EC
331
FC1E
  5
FCAB
331
FB97
  5
FC3F
331
F4F4
  5
F4F4
  0
DIMASSOC
  5
FB2D
102
{ACAD_REACTORS
330
FB2C
102
}
330
FB2C
100
AcDbDimAssoc
330
FB1D
 90
        3
 70
     0
 71
     0
  1
AcDbOsnapPointRef
 72
     1
331
F51F
 73
     0
 91
        0
 40
0.0
 10
0.0
 20
0.0
 30
2.000000000000000E+50
 75
     0
  1
AcDbOsnapPointRef
 72
     1
331
F514
 73
     0
 91
        0
 40
0.0
 10
0.0
 20
0.0
 30
2.000000000000000E+50
 75
     0
  0
DIMASSOC
  5
FB5F
102
{ACAD_REACTORS
330
FB5E
102
}
330
FB5E
100
AcDbDimAssoc
330
FB4F
 90
        3
 70
     0
 71
     0
  1
AcDbOsnapPointRef
 72
    13
331
F52C
 73
     0
 91
        0
 40
0.0
 10
0.0
 20
0.0
 30
2.000000000000000E+50
 75
     0
  1
AcDbOsnapPointRef
 72
     1
331
F520
 73
     0
 91
        0
 40
0.0
 10
0.0
 20
0.0
 30
2.000000000000000E+50
 75
     0
  0
DIMASSOC
  5
FB84
102
{ACAD_REACTORS
330
FB83
102
}
330
FB83
100
AcDbDimAssoc
330
FB76
 90
        2
 70
     0
 71
     0
  1
AcDbOsnapPointRef
 72
     1
331
F51E
 73
     0
 91
        0
 40
0.0
 10
0.0
 20
0.0
 30
2.000000000000000E+50
 75
     0
  0
DIMASSOC
  5
FBA5
102
{ACAD_REACTORS
330
FBA4
102
}
330
FBA4
100
AcDbDimAssoc
330
FB97
 90
        3
 70
     0
 71
     0
  1
AcDbOsnapPointRef
 72
     1
331
F520
 73
     0
 91
        0
 40
0.0
 10
0.0
 20
0.0
 30
2.000000000000000E+50
 75
     0
  1
AcDbOsnapPointRef
 72
     1
331
F514
 73
     0
 91
        0
 40
0.0
 10
0.0
 20
0.0
 30
2.000000000000000E+50
 75
     0
  0
DIMASSOC
  5
FBC6
102
{ACAD_REACTORS
330
FBC5
102
}
330
FBC5
100
AcDbDimAssoc
330
FBB8
 90
        3
 70
     0
 71
     0
  1
AcDbOsnapPointRef
 72
     1
331
F514
 73
     0
 91
        0
 40
0.0
 10
0.0
 20
0.0
 30
2.000000000000000E+50
 75
     0
  1
AcDbOsnapPointRef
 72
     1
331
F519
 73
     0
 91
        0
 40
0.0
 10
0.0
 20
0.0
 30
2.000000000000000E+50
 75
     0
  0
DIMASSOC
  5
FC02
102
{ACAD_REACTORS
330
FC01
102
}
330
FC01
100
AcDbDimAssoc
330
FBF4
 90
        3
 70
     0
 71
     0
  1
AcDbOsnapPointRef
 72
    13
331
F53B
 73
     0
 91
        0
 40
0.0
 10
0.0
 20
0.0
 30
2.000000000000000E+50
 75
     0
  1
AcDbOsnapPointRef
 72
     1
331
F542
 73
     0
 91
        0
 40
0.0
 10
0.0
 20
0.0
 30
2.000000000000000E+50
 75
     0
  0
DIMASSOC
  5
FC2C
102
{ACAD_REACTORS
330
FC2B
102
}
330
FC2B
100
AcDbDimAssoc
330
FC1E
 90
        3
 70
     0
 71
     0
  1
AcDbOsnapPointRef
 72
     1
331
F541
 73
     0
 91
        0
 40
0.0
 10
0.0
 20
0.0
 30
2.000000000000000E+50
 75
     0
  1
AcDbOsnapPointRef
 72
    13
331
F520
 73
     0
 91
        0
 40
0.0
 10
0.0
 20
0.0
 30
2.000000000000000E+50
 75
     0
  0
DIMASSOC
  5
FC4D
102
{ACAD_REACTORS
330
FC4C
102
}
330
FC4C
100
AcDbDimAssoc
330
FC3F
 90
        3
 70
     0
 71
     0
  1
AcDbOsnapPointRef
 72
     1
331
F541
 73
     0
 91
        0
 40
0.0
 10
0.0
 20
0.0
 30
2.000000000000000E+50
 75
     0
  1
AcDbOsnapPointRef
 72
    13
331
F514
 73
     0
 91
        0
 40
0.0
 10
0.0
 20
0.0
 30
2.000000000000000E+50
 75
     0
  0
DIMASSOC
  5
FC6E
102
{ACAD_REACTORS
330
FC6D
102
}
330
FC6D
100
AcDbDimAssoc
330
FC60
 90
        3
 70
     0
 71
     0
  1
AcDbOsnapPointRef
 72
    13
331
F4FB
 73
     0
 91
        0
 40
0.0
 10
0.0
 20
0.0
 30
2.000000000000000E+50
 75
     0
  1
AcDbOsnapPointRef
 72
     1
331
F4F9
 73
     0
 91
        0
 40
0.0
 10
0.0
 20
0.0
 30
2.000000000000000E+50
 75
     0
  0
DIMASSOC
  5
FC8F
102
{ACAD_REACTORS
330
FC8E
102
}
330
FC8E
100
AcDbDimAssoc
330
FC81
 90
        3
 70
     0
 71
     0
  1
AcDbOsnapPointRef
 72
     1
331
F4FA
 73
     0
 91
        0
 40
0.0
 10
0.0
 20
0.0
 30
2.000000000000000E+50
 75
     0
  1
AcDbOsnapPointRef
 72
    13
331
F4F8
 73
     0
 91
        0
 40
0.0
 10
0.0
 20
0.0
 30
2.000000000000000E+50
 75
     0
  0
DIMASSOC
  5
FCB9
102
{ACAD_REACTORS
330
FCB8
102
}
330
FCB8
100
AcDbDimAssoc
330
FCAB
 90
        3
 70
     0
 71
     0
  1
AcDbOsnapPointRef
 72
    13
331
F546
 73
     0
 91
        0
 40
0.0
 10
0.0
 20
0.0
 30
2.000000000000000E+50
 75
     0
  1
AcDbOsnapPointRef
 72
    13
331
F548
 73
     0
 91
        0
 40
0.0
 10
0.0
 20
0.0
 30
2.000000000000000E+50
 75
     0
  0
DIMASSOC
  5
FCDA
102
{ACAD_REACTORS
330
FCD9
102
}
330
FCD9
100
AcDbDimAssoc
330
FCCC
 90
        3
 70
     0
 71
     0
  1
AcDbOsnapPointRef
 72
     1
331
F547
 73
     0
 91
        0
 40
0.0
 10
0.0
 20
0.0
 30
2.000000000000000E+50
 75
     0
  1
AcDbOsnapPointRef
 72
     1
331
F549
 73
     0
 91
        0
 40
0.0
 10
0.0
 20
0.0
 30
2.000000000000000E+50
 75
     0
  0
DIMASSOC
  5
FCFB
102
{ACAD_REACTORS
330
FCFA
102
}
330
FCFA
100
AcDbDimAssoc
330
FCED
 90
        3
 70
     0
 71
     0
  1
AcDbOsnapPointRef
 72
     1
331
F502
 73
     0
 91
        0
 40
0.0
 10
0.0
 20
0.0
 30
2.000000000000000E+50
 75
     0
  1
AcDbOsnapPointRef
 72
     1
331
F501
 73
     0
 91
        0
 40
0.0
 10
0.0
 20
0.0
 30
2.000000000000000E+50
 75
     0
  0
DIMASSOC
  5
FD1C
102
{ACAD_REACTORS
330
FD1B
102
}
330
FD1B
100
AcDbDimAssoc
330
FD0E
 90
        3
 70
     0
 71
     0
  1
AcDbOsnapPointRef
 72
    13
331
F507
 73
     0
 91
        0
 40
0.0
 10
0.0
 20
0.0
 30
2.000000000000000E+50
 75
     0
  1
AcDbOsnapPointRef
 72
    13
331
F506
 73
     0
 91
        0
 40
0.0
 10
0.0
 20
0.0
 30
2.000000000000000E+50
 75
     0
  0
DIMASSOC
  5
FF5B
102
{ACAD_REACTORS
330
FF5A
102
}
330
FF5A
100
AcDbDimAssoc
330
FF4E
 90
        2
 70
     0
 71
     0
  1
AcDbOsnapPointRef
 72
     3
331
F4FC
 73
     2
 91
        0
 40
0.0
 10
0.0
 20
0.0
 30
0.0
 75
     0
  0
LAYOUT
  5
22
102
{ACAD_XDICTIONARY
360
11B05
102
}
102
{ACAD_REACTORS
330
1A
102
}
330
1A
100
AcDbPlotSettings
  1

  2
Acrobat Distiller
  4
A4
  6

 40
3.174999952316284
 41
3.174999952316284
 42
3.175003051757812
 43
3.17498779296875
 44
209.9098358154297
 45
297.0318298339844
 46
5.279916405677795
 47
8.34092104434967
 48
3307.30148853643
 49
-659.7427308116889
140
3581.301488536429
141
-466.7427308116889
142
1.0
143
1.0
 70
 11940
 72
     1
 73
     1
 74
     4
  7
monochrome.ctb
 75
     0
147
1.054714159644329
148
-3307.30148853643
149
659.7427308116889
100
AcDbLayout
  1
Model
 70
     1
 71
     0
 10
0.0
 20
0.0
 11
12.0
 21
9.0
 12
0.0
 22
0.0
 32
0.0
 14
0.0
 24
0.0
 34
0.0
 15
0.0
 25
0.0
 35
0.0
146
0.0
 13
0.0
 23
0.0
 33
0.0
 16
1.0
 26
0.0
 36
0.0
 17
0.0
 27
1.0
 37
0.0
 76
     0
330
1F
331
C444
1001
ACAD_PSEXT
1000
Acrobat Distiller
1000
AdobePS Acrobat Distiller J
1000
C:\Documents and Settings\All Users\デスクトップ\*.pdf
1000

1070
     0
  0
LAYOUT
  5
1E
102
{ACAD_XDICTIONARY
360
11B03
102
}
102
{ACAD_REACTORS
330
1A
102
}
330
1A
100
AcDbPlotSettings
  1

  2
\\ML370\XEROX
  4
A4
  6

 40
3.174999952316284
 41
3.174999952316284
 42
3.175003051757812
 43
3.17498779296875
 44
209.8674926757813
 45
296.6719970703125
 46
0.0
 47
0.0
 48
0.0
 49
0.0
140
0.0
141
0.0
142
1.0
143
1.0
 70
   688
 72
     1
 73
     1
 74
     5
  7
monochrome.ctb
 75
    16
147
1.0
148
0.0
149
0.0
100
AcDbLayout
  1
ﾚｲｱｳﾄ1
 70
     1
 71
     1
 10
-3.17498779296875
 20
-3.174999952316284
 11
293.4970092773438
 21
206.692492723465
 12
0.0
 22
0.0
 32
0.0
 14
1.000000000000000E+20
 24
1.000000000000000E+20
 34
1.000000000000000E+20
 15
-1.000000000000000E+20
 25
-1.000000000000000E+20
 35
-1.000000000000000E+20
146
0.0
 13
0.0
 23
0.0
 33
0.0
 16
1.0
 26
0.0
 36
0.0
 17
0.0
 27
1.0
 37
0.0
 76
     0
330
1B
  0
LAYOUT
  5
26
102
{ACAD_XDICTIONARY
360
11B07
102
}
102
{ACAD_REACTORS
330
1A
102
}
330
1A
100
AcDbPlotSettings
  1

  2
\\ML370\XEROX
  4

  6

 40
0.0
 41
0.0
 42
0.0
 43
0.0
 44
0.0
 45
0.0
 46
0.0
 47
0.0
 48
0.0
 49
0.0
140
0.0
141
0.0
142
1.0
143
1.0
 70
   688
 72
     0
 73
     0
 74
     5
  7
monochrome.ctb
 75
    16
147
1.0
148
0.0
149
0.0
100
AcDbLayout
  1
ﾚｲｱｳﾄ2
 70
     1
 71
     2
 10
0.0
 20
0.0
 11
12.0
 21
9.0
 12
0.0
 22
0.0
 32
0.0
 14
0.0
 24
0.0
 34
0.0
 15
0.0
 25
0.0
 35
0.0
146
0.0
 13
0.0
 23
0.0
 33
0.0
 16
1.0
 26
0.0
 36
0.0
 17
0.0
 27
1.0
 37
0.0
 76
     0
330
23
  0
MATERIAL
  5
C448
102
{ACAD_XDICTIONARY
360
11B0B
102
}
102
{ACAD_REACTORS
330
C446
102
}
330
C446
100
AcDbMaterial
  1
ByBlock
 73
     1
 78
     1
172
     1
176
     1
270
     1
274
     1
  0
MATERIAL
  5
C447
102
{ACAD_XDICTIONARY
360
11B09
102
}
102
{ACAD_REACTORS
330
C446
102
}
330
C446
100
AcDbMaterial
  1
ByLayer
 73
     1
 78
     1
172
     1
176
     1
270
     1
274
     1
  0
MATERIAL
  5
C449
102
{ACAD_XDICTIONARY
360
11B0D
102
}
102
{ACAD_REACTORS
330
C446
102
}
330
C446
100
AcDbMaterial
  1
Global
 73
     1
 78
     1
172
     1
176
     1
270
     1
274
     1
  0
MLEADERSTYLE
  5
CB0B
102
{ACAD_REACTORS
330
CB0A
102
}
330
CB0A
100
AcDbMLeaderStyle
170
     2
171
     1
172
     0
 90
        2
 40
0.0
 41
0.0
173
     1
 91
-1056964608
340
14
 92
       -2
290
     1
 42
2.0
291
     1
 43
0.36
  3
Standard
 44
4.0
300

342
11
174
     1
178
     6
175
     1
176
     0
 93
-1056964608
 45
4.0
292
     0
297
     0
 46
4.0
 94
-1056964608
 47
1.0
 49
1.0
140
1.0
293
     1
141
0.0
294
     1
177
     0
142
1.0
295
     0
296
     0
143
0.125
1001
ACAD_MLEADERVER
1070
     2
  0
MLINESTYLE
  5
18
102
{ACAD_REACTORS
330
17
102
}
330
17
100
AcDbMlineStyle
  2
STANDARD
 70
     0
  3

 62
   256
 51
90.0
 52
90.0
 71
     2
 49
0.5
 62
   256
  6
BYLAYER
 49
-0.5
 62
   256
  6
BYLAYER
  0
PLOTSETTINGS
  5
C85D
102
{ACAD_XDICTIONARY
360
11B10
102
}
102
{ACAD_REACTORS
330
19
102
}
330
19
100
AcDbPlotSettings
  1
-00
  2
RICOH imagio Wide 7040e RP-GL/2
  4
A3
  6
AM_VIEW1
 40
5.069416522979736
 41
7.228392601013183
 42
5.23870849609375
 43
7.05908203125
 44
419.9889831542968
 45
296.9683227539062
 46
-5.159570932388305
 47
-7.159575939178466
 48
347.0000006405867
 49
-0.0000003719120514
140
767.0000006405866
141
296.9999996280879
142
1.0
143
1.0
 70
 11956
 72
     1
 73
     0
 74
     4
  7
monochrome.ctb
 75
    16
147
1.0
148
-347.0000006405867
149
0.0000003719120514
1001
ACAD_PSEXT
1000
RICOH imagio Wide 7040e RP-GL/2
1000
RICOH imagio Wide 7040e RP-GL/2
1000
\\ADMINISTRATOR
1000
RP-GL/2 Driver (Windows 2000/XP/Server 2003)
1070
     0
  0
ACDBPLACEHOLDER
  5
F
102
{ACAD_REACTORS
330
E
102
}
330
E
  0
SCALE
  5
CAE9
102
{ACAD_REACTORS
330
CAE8
102
}
330
CAE8
100
AcDbScale
 70
     0
300
1:1
140
1.0
141
1.0
290
     1
  0
SCALE
  5
CAEA
102
{ACAD_REACTORS
330
CAE8
102
}
330
CAE8
100
AcDbScale
 70
     0
300
1:2
140
1.0
141
2.0
290
     0
  0
SCALE
  5
CAEB
102
{ACAD_REACTORS
330
CAE8
102
}
330
CAE8
100
AcDbScale
 70
     0
300
1:4
140
1.0
141
4.0
290
     0
  0
SCALE
  5
CAEC
102
{ACAD_REACTORS
330
CAE8
102
}
330
CAE8
100
AcDbScale
 70
     0
300
1:5
140
1.0
141
5.0
290
     0
  0
SCALE
  5
CAED
102
{ACAD_REACTORS
330
CAE8
102
}
330
CAE8
100
AcDbScale
 70
     0
300
1:8
140
1.0
141
8.0
290
     0
  0
SCALE
  5
CAEE
102
{ACAD_REACTORS
330
CAE8
102
}
330
CAE8
100
AcDbScale
 70
     0
300
1:10
140
1.0
141
10.0
290
     0
  0
SCALE
  5
CAEF
102
{ACAD_REACTORS
330
CAE8
102
}
330
CAE8
100
AcDbScale
 70
     0
300
1:16
140
1.0
141
16.0
290
     0
  0
SCALE
  5
CAF0
102
{ACAD_REACTORS
330
CAE8
102
}
330
CAE8
100
AcDbScale
 70
     0
300
1:20
140
1.0
141
20.0
290
     0
  0
SCALE
  5
CAF1
102
{ACAD_REACTORS
330
CAE8
102
}
330
CAE8
100
AcDbScale
 70
     0
300
1:30
140
1.0
141
30.0
290
     0
  0
SCALE
  5
CAF2
102
{ACAD_REACTORS
330
CAE8
102
}
330
CAE8
100
AcDbScale
 70
     0
300
1:40
140
1.0
141
40.0
290
     0
  0
SCALE
  5
CAF3
102
{ACAD_REACTORS
330
CAE8
102
}
330
CAE8
100
AcDbScale
 70
     0
300
1:50
140
1.0
141
50.0
290
     0
  0
SCALE
  5
CAF4
102
{ACAD_REACTORS
330
CAE8
102
}
330
CAE8
100
AcDbScale
 70
     0
300
1:100
140
1.0
141
100.0
290
     0
  0
SCALE
  5
CAF5
102
{ACAD_REACTORS
330
CAE8
102
}
330
CAE8
100
AcDbScale
 70
     0
300
2:1
140
2.0
141
1.0
290
     0
  0
SCALE
  5
CAF6
102
{ACAD_REACTORS
330
CAE8
102
}
330
CAE8
100
AcDbScale
 70
     0
300
4:1
140
4.0
141
1.0
290
     0
  0
SCALE
  5
CAF7
102
{ACAD_REACTORS
330
CAE8
102
}
330
CAE8
100
AcDbScale
 70
     0
300
8:1
140
8.0
141
1.0
290
     0
  0
SCALE
  5
CAF8
102
{ACAD_REACTORS
330
CAE8
102
}
330
CAE8
100
AcDbScale
 70
     0
300
10:1
140
10.0
141
1.0
290
     0
  0
SCALE
  5
CAF9
102
{ACAD_REACTORS
330
CAE8
102
}
330
CAE8
100
AcDbScale
 70
     0
300
100:1
140
100.0
141
1.0
290
     0
  0
SCALE
  5
CAFA
102
{ACAD_REACTORS
330
CAE8
102
}
330
CAE8
100
AcDbScale
 70
     0
300
1/128" = 1'-0"
140
0.0078125
141
12.0
290
     0
  0
SCALE
  5
CAFB
102
{ACAD_REACTORS
330
CAE8
102
}
330
CAE8
100
AcDbScale
 70
     0
300
1/64" = 1'-0"
140
0.015625
141
12.0
290
     0
  0
SCALE
  5
CAFC
102
{ACAD_REACTORS
330
CAE8
102
}
330
CAE8
100
AcDbScale
 70
     0
300
1/32" = 1'-0"
140
0.03125
141
12.0
290
     0
  0
SCALE
  5
CAFD
102
{ACAD_REACTORS
330
CAE8
102
}
330
CAE8
100
AcDbScale
 70
     0
300
1/16" = 1'-0"
140
0.0625
141
12.0
290
     0
  0
SCALE
  5
CAFE
102
{ACAD_REACTORS
330
CAE8
102
}
330
CAE8
100
AcDbScale
 70
     0
300
3/32" = 1'-0"
140
0.09375
141
12.0
290
     0
  0
SCALE
  5
CAFF
102
{ACAD_REACTORS
330
CAE8
102
}
330
CAE8
100
AcDbScale
 70
     0
300
1/8" = 1'-0"
140
0.125
141
12.0
290
     0
  0
SCALE
  5
CB00
102
{ACAD_REACTORS
330
CAE8
102
}
330
CAE8
100
AcDbScale
 70
     0
300
3/16" = 1'-0"
140
0.1875
141
12.0
290
     0
  0
SCALE
  5
CB01
102
{ACAD_REACTORS
330
CAE8
102
}
330
CAE8
100
AcDbScale
 70
     0
300
1/4" = 1'-0"
140
0.25
141
12.0
290
     0
  0
SCALE
  5
CB02
102
{ACAD_REACTORS
330
CAE8
102
}
330
CAE8
100
AcDbScale
 70
     0
300
3/8" = 1'-0"
140
0.375
141
12.0
290
     0
  0
SCALE
  5
CB03
102
{ACAD_REACTORS
330
CAE8
102
}
330
CAE8
100
AcDbScale
 70
     0
300
1/2" = 1'-0"
140
0.5
141
12.0
290
     0
  0
SCALE
  5
CB04
102
{ACAD_REACTORS
330
CAE8
102
}
330
CAE8
100
AcDbScale
 70
     0
300
3/4" = 1'-0"
140
0.75
141
12.0
290
     0
  0
SCALE
  5
CB05
102
{ACAD_REACTORS
330
CAE8
102
}
330
CAE8
100
AcDbScale
 70
     0
300
1" = 1'-0"
140
1.0
141
12.0
290
     0
  0
SCALE
  5
CB06
102
{ACAD_REACTORS
330
CAE8
102
}
330
CAE8
100
AcDbScale
 70
     0
300
1-1/2" = 1'-0"
140
1.5
141
12.0
290
     0
  0
SCALE
  5
CB07
102
{ACAD_REACTORS
330
CAE8
102
}
330
CAE8
100
AcDbScale
 70
     0
300
3" = 1'-0"
140
3.0
141
12.0
290
     0
  0
SCALE
  5
CB08
102
{ACAD_REACTORS
330
CAE8
102
}
330
CAE8
100
AcDbScale
 70
     0
300
6" = 1'-0"
140
6.0
141
12.0
290
     0
  0
SCALE
  5
CB09
102
{ACAD_REACTORS
330
CAE8
102
}
330
CAE8
100
AcDbScale
 70
     0
300
1'-0" = 1'-0"
140
12.0
141
12.0
290
     0
  0
TABLESTYLE
  5
C45D
102
{ACAD_XDICTIONARY
360
DB54
102
}
102
{ACAD_REACTORS
330
C45C
102
}
330
C45C
100
AcDbTableStyle
  3
Standard
 70
     0
 71
     0
 40
1.5
 41
1.5
280
     0
281
     0
  7
STANDARD
140
4.5
170
     2
 62
     0
 63
     7
283
     0
274
    -2
284
     1
 64
     0
275
    -2
285
     1
 65
     0
276
    -2
286
     1
 66
     0
277
    -2
287
     1
 67
     0
278
    -2
288
     1
 68
     0
279
    -2
289
     1
 69
     0
  7
STANDARD
140
6.0
170
     5
 62
     0
 63
     7
283
     0
274
    -2
284
     1
 64
     0
275
    -2
285
     1
 65
     0
276
    -2
286
     1
 66
     0
277
    -2
287
     1
 67
     0
278
    -2
288
     1
 68
     0
279
    -2
289
     1
 69
     0
  7
STANDARD
140
4.5
170
     5
 62
     0
 63
     7
283
     0
274
    -2
284
     1
 64
     0
275
    -2
285
     1
 65
     0
276
    -2
286
     1
 66
     0
277
    -2
287
     1
 67
     0
278
    -2
288
     1
 68
     0
279
    -2
289
     1
 69
     0
  0
VISUALSTYLE
  5
C450
102
{ACAD_REACTORS
330
C44A
102
}
330
C44A
100
AcDbVisualStyle
  2
2dWireframe
 70
     4
 71
     0
 72
     2
 73
     0
 90
        0
 40
-0.6
 41
-30.0
 62
     5
 63
     7
 74
     1
 91
        4
 64
     7
 65
   257
 75
     1
175
     1
 42
1.0
 92
        0
 66
   257
 43
1.0
 76
     1
 77
     6
 78
     2
 67
     7
 79
     5
170
     0
171
     0
290
     0
174
     0
 93
        1
 44
0.0
173
     0
291
     0
 45
0.0
1001
ACAD
1000
AcDbSavedByObjectVersion
1070
     0
  0
VISUALSTYLE
  5
C452
102
{ACAD_REACTORS
330
C44A
102
}
330
C44A
100
AcDbVisualStyle
  2
3D Hidden
 70
     6
 71
     1
 72
     2
 73
     2
 90
        0
 40
-0.6
 41
-30.0
 62
     5
 63
     7
 74
     2
 91
        2
 64
     7
 65
   257
 75
     2
175
     1
 42
40.0
 92
        0
 66
   257
 43
1.0
 76
     1
 77
     6
 78
     2
 67
     7
 79
     3
170
     0
171
     0
290
     0
174
     0
 93
        1
 44
0.0
173
     0
291
     0
 45
0.0
1001
ACAD
1000
AcDbSavedByObjectVersion
1070
     0
  0
VISUALSTYLE
  5
C451
102
{ACAD_REACTORS
330
C44A
102
}
330
C44A
100
AcDbVisualStyle
  2
3dWireframe
 70
     5
 71
     0
 72
     2
 73
     0
 90
        0
 40
-0.6
 41
-30.0
 62
     5
 63
     7
 74
     1
 91
        4
 64
     7
 65
   257
 75
     1
175
     1
 42
1.0
 92
        0
 66
   257
 43
1.0
 76
     1
 77
     6
 78
     2
 67
     7
 79
     5
170
     0
171
     0
290
     0
174
     0
 93
        1
 44
0.0
173
     0
291
     0
 45
0.0
1001
ACAD
1000
AcDbSavedByObjectVersion
1070
     0
  0
VISUALSTYLE
  5
C44F
102
{ACAD_REACTORS
330
C44A
102
}
330
C44A
100
AcDbVisualStyle
  2
Basic
 70
     7
 71
     1
 72
     0
 73
     1
 90
        0
 40
-0.6
 41
-30.0
 62
     5
 63
     7
 74
     0
 91
        4
 64
     7
 65
   257
 75
     1
175
     1
 42
1.0
 92
        8
 66
     7
 43
1.0
 76
     1
 77
     6
 78
     2
 67
     7
 79
     5
170
     0
171
     0
290
     0
174
     0
 93
        1
 44
0.0
173
     0
291
     1
 45
0.0
1001
ACAD
1000
AcDbSavedByObjectVersion
1070
     0
  0
VISUALSTYLE
  5
C456
102
{ACAD_REACTORS
330
C44A
102
}
330
C44A
100
AcDbVisualStyle
  2
Brighten
 70
    12
 71
     2
 72
     2
 73
     0
 90
        0
 40
-0.6
 41
-30.0
 62
     5
 63
     7
 74
     1
 91
        4
 64
     7
 65
   257
 75
     1
175
     1
 42
1.0
 92
        8
 66
     7
 43
1.0
 76
     1
 77
     6
 78
     2
 67
     7
 79
     5
170
     0
171
     0
290
     0
174
     0
 93
        1
 44
50.0
173
     0
291
     1
 45
0.0
1001
ACAD
1000
AcDbSavedByObjectVersion
1070
     0
  0
VISUALSTYLE
  5
C45A
102
{ACAD_REACTORS
330
C44A
102
}
330
C44A
100
AcDbVisualStyle
  2
ColorChange
 70
    16
 71
     2
 72
     2
 73
     3
 90
        0
 40
-0.6
 41
-30.0
 62
     5
 63
     8
 74
     1
 91
        4
 64
     7
 65
   257
 75
     1
175
     1
 42
1.0
 92
        8
 66
     8
 43
1.0
 76
     1
 77
     6
 78
     2
 67
     7
 79
     5
170
     0
171
     0
290
     0
174
     0
 93
        1
 44
0.0
173
     0
291
     1
 45
0.0
1001
ACAD
1000
AcDbSavedByObjectVersion
1070
     0
  0
VISUALSTYLE
  5
C453
102
{ACAD_REACTORS
330
C44A
102
}
330
C44A
100
AcDbVisualStyle
  2
Conceptual
 70
     9
 71
     3
 72
     2
 73
     0
 90
        0
 40
-0.6
 41
-30.0
 62
     5
 63
     7
 74
     2
 91
        2
 64
     7
 65
   257
 75
     1
175
     1
 42
40.0
 92
        8
 66
     7
 43
1.0
 76
     1
 77
     6
 78
     2
 67
     7
 79
     3
170
     0
171
     0
290
     0
174
     0
 93
        1
 44
0.0
173
     0
291
     0
 45
0.0
1001
ACAD
1000
AcDbSavedByObjectVersion
1070
     0
  0
VISUALSTYLE
  5
C455
102
{ACAD_REACTORS
330
C44A
102
}
330
C44A
100
AcDbVisualStyle
  2
Dim
 70
    11
 71
     2
 72
     2
 73
     0
 90
        0
 40
-0.6
 41
-30.0
 62
     5
 63
     7
 74
     1
 91
        4
 64
     7
 65
   257
 75
     1
175
     1
 42
1.0
 92
        8
 66
     7
 43
1.0
 76
     1
 77
     6
 78
     2
 67
     7
 79
     5
170
     0
171
     0
290
     0
174
     0
 93
        1
 44
-50.0
173
     0
291
     1
 45
0.0
1001
ACAD
1000
AcDbSavedByObjectVersion
1070
     0
  0
VISUALSTYLE
  5
C459
102
{ACAD_REACTORS
330
C44A
102
}
330
C44A
100
AcDbVisualStyle
  2
Facepattern
 70
    15
 71
     2
 72
     2
 73
     0
 90
        0
 40
-0.6
 41
-30.0
 62
     5
 63
     7
 74
     1
 91
        4
 64
     7
 65
   257
 75
     1
175
     1
 42
1.0
 92
        8
 66
     7
 43
1.0
 76
     1
 77
     6
 78
     2
 67
     7
 79
     5
170
     0
171
     0
290
     0
174
     0
 93
        1
 44
0.0
173
     0
291
     1
 45
0.0
1001
ACAD
1000
AcDbSavedByObjectVersion
1070
     0
  0
VISUALSTYLE
  5
C44B
102
{ACAD_REACTORS
330
C44A
102
}
330
C44A
100
AcDbVisualStyle
  2
Flat
 70
     0
 71
     2
 72
     1
 73
     1
 90
        2
 40
-0.6
 41
30.0
 62
     5
 63
     7
 74
     0
 91
        4
 64
     7
 65
   257
 75
     1
175
     1
 42
1.0
 92
        8
 66
     7
 43
1.0
 76
     1
 77
     6
 78
     2
 67
     7
 79
     5
170
     0
171
     0
290
     0
174
     0
 93
       13
 44
0.0
173
     0
291
     1
 45
0.0
1001
ACAD
1000
AcDbSavedByObjectVersion
1070
     0
  0
VISUALSTYLE
  5
C44C
102
{ACAD_REACTORS
330
C44A
102
}
330
C44A
100
AcDbVisualStyle
  2
FlatWithEdges
 70
     1
 71
     2
 72
     1
 73
     1
 90
        2
 40
-0.6
 41
30.0
 62
     5
 63
     7
 74
     1
 91
        4
 64
     7
 65
   257
 75
     1
175
     1
 42
1.0
 92
        0
 66
   257
 43
1.0
 76
     1
 77
     6
 78
     2
 67
     7
 79
     5
170
     0
171
     0
290
     0
174
     0
 93
       13
 44
0.0
173
     0
291
     1
 45
0.0
1001
ACAD
1000
AcDbSavedByObjectVersion
1070
     0
  0
VISUALSTYLE
  5
C44D
102
{ACAD_REACTORS
330
C44A
102
}
330
C44A
100
AcDbVisualStyle
  2
Gouraud
 70
     2
 71
     2
 72
     2
 73
     1
 90
        2
 40
-0.6
 41
30.0
 62
     5
 63
     7
 74
     0
 91
        4
 64
     7
 65
   257
 75
     1
175
     1
 42
1.0
 92
        0
 66
     7
 43
1.0
 76
     1
 77
     6
 78
     2
 67
     7
 79
     5
170
     0
171
     0
290
     0
174
     0
 93
       13
 44
0.0
173
     0
291
     1
 45
0.0
1001
ACAD
1000
AcDbSavedByObjectVersion
1070
     0
  0
VISUALSTYLE
  5
C44E
102
{ACAD_REACTORS
330
C44A
102
}
330
C44A
100
AcDbVisualStyle
  2
GouraudWithEdges
 70
     3
 71
     2
 72
     2
 73
     1
 90
        2
 40
-0.6
 41
30.0
 62
     5
 63
     7
 74
     1
 91
        4
 64
     7
 65
   257
 75
     1
175
     1
 42
1.0
 92
        0
 66
   257
 43
1.0
 76
     1
 77
     6
 78
     2
 67
     7
 79
     5
170
     0
171
     0
290
     0
174
     0
 93
       13
 44
0.0
173
     0
291
     1
 45
0.0
1001
ACAD
1000
AcDbSavedByObjectVersion
1070
     0
  0
VISUALSTYLE
  5
C458
102
{ACAD_REACTORS
330
C44A
102
}
330
C44A
100
AcDbVisualStyle
  2
Linepattern
 70
    14
 71
     2
 72
     2
 73
     0
 90
        0
 40
-0.6
 41
-30.0
 62
     5
 63
     7
 74
     1
 91
        4
 64
     7
 65
   257
 75
     7
175
     7
 42
1.0
 92
        8
 66
     7
 43
1.0
 76
     1
 77
     6
 78
     2
 67
     7
 79
     5
170
     0
171
     0
290
     0
174
     0
 93
        1
 44
0.0
173
     0
291
     1
 45
0.0
1001
ACAD
1000
AcDbSavedByObjectVersion
1070
     0
  0
VISUALSTYLE
  5
C454
102
{ACAD_REACTORS
330
C44A
102
}
330
C44A
100
AcDbVisualStyle
  2
Realistic
 70
     8
 71
     2
 72
     2
 73
     0
 90
        0
 40
-0.6
 41
-30.0
 62
     5
 63
     7
 74
     1
 91
        0
 64
     7
 65
   257
 75
     1
175
     1
 42
1.0
 92
        8
 66
     8
 43
1.0
 76
     1
 77
     6
 78
     2
 67
     7
 79
     5
170
     0
171
     0
290
     0
174
     0
 93
       13
 44
0.0
173
     0
291
     0
 45
0.0
1001
ACAD
1000
AcDbSavedByObjectVersion
1070
     0
  0
VISUALSTYLE
  5
C457
102
{ACAD_REACTORS
330
C44A
102
}
330
C44A
100
AcDbVisualStyle
  2
Thicken
 70
    13
 71
     2
 72
     2
 73
     0
 90
        0
 40
-0.6
 41
-30.0
 62
     5
 63
     7
 74
     1
 91
        4
 64
     7
 65
   257
 75
     1
175
     1
 42
1.0
 92
       12
 66
     7
 43
1.0
 76
     1
 77
     6
 78
     2
 67
     7
 79
     5
170
     0
171
     0
290
     0
174
     0
 93
        1
 44
0.0
173
     0
291
     1
 45
0.0
1001
ACAD
1000
AcDbSavedByObjectVersion
1070
     0
  0
DICTIONARYVAR
  5
DB59
102
{ACAD_REACTORS
330
34
102
}
330
34
100
DictionaryVariables
280
     0
  1
1:1
  0
DICTIONARYVAR
  5
DB57
102
{ACAD_REACTORS
330
34
102
}
330
34
100
DictionaryVariables
280
     0
  1
STANDARD
  0
DICTIONARYVAR
  5
C4A2
102
{ACAD_REACTORS
330
34
102
}
330
34
100
DictionaryVariables
280
     0
  1
STANDARD
  0
DICTIONARYVAR
  5
AC85
102
{ACAD_REACTORS
330
34
102
}
330
34
100
DictionaryVariables
280
     0
  1
2
  0
DICTIONARYVAR
  5
35
102
{ACAD_REACTORS
330
34
102
}
330
34
100
DictionaryVariables
280
     0
  1
0
  0
DICTIONARYVAR
  5
DB5A
102
{ACAD_REACTORS
330
34
102
}
330
34
100
DictionaryVariables
280
     0
  1
0
  0
DICTIONARYVAR
  5
DB58
102
{ACAD_REACTORS
330
34
102
}
330
34
100
DictionaryVariables
280
     0
  1
0
  0
DICTIONARYVAR
  5
194C
102
{ACAD_REACTORS
330
34
102
}
330
34
100
DictionaryVariables
280
     0
  1
96
  0
DICTIONARY
  5
7E8
102
{ACAD_REACTORS
330
47
102
}
330
47
100
AcDbDictionary
281
     1
  0
DICTIONARY
  5
4C
102
{ACAD_REACTORS
330
47
102
}
330
47
100
AcDbDictionary
281
     1
  0
XRECORD
  5
C487
102
{ACAD_REACTORS
330
47
102
}
330
47
100
AcDbXrecord
280
     1
 90
-1023410169
  0
XRECORD
  5
FF99
102
{ACAD_REACTORS
330
FF98
102
}
330
FF98
100
AcDbXrecord
280
     1
330
0
330
0
330
0
330
0
330
0
330
0
330
0
330
0
330
0
330
0
330
0
330
0
330
0
330
0
330
0
330
0
330
0
330
0
330
0
330
0
330
0
330
0
330
0
330
0
330
0
330
0
330
0
330
0
330
0
330
0
330
0
330
0
330
0
330
0
330
0
330
0
330
0
330
0
330
0
330
0
330
0
330
0
330
0
330
0
330
0
330
0
330
0
330
0
330
0
330
0
330
0
330
0
330
0
330
0
330
0
330
0
330
0
330
0
330
0
330
0
330
0
330
0
330
0
330
0
330
0
330
0
330
0
330
0
330
0
330
0
330
0
330
0
330
0
330
0
330
0
330
0
330
0
330
0
330
0
330
0
330
0
330
0
330
0
330
0
330
0
330
0
330
0
330
0
330
0
330
0
330
0
330
0
330
0
330
0
330
0
330
0
330
0
330
0
330
0
330
0
330
0
330
0
330
0
330
0
330
0
330
0
330
0
330
0
330
0
330
0
330
0
330
0
330
0
330
0
330
0
330
0
330
0
330
0
330
0
330
0
330
0
330
0
330
0
330
0
330
0
330
0
330
0
330
0
330
0
330
0
330
0
330
0
330
0
330
0
330
0
330
0
330
0
330
0
330
0
330
0
330
0
330
0
330
0
330
0
330
0
330
0
330
0
330
0
330
0
330
0
330
0
330
0
330
0
330
0
330
0
330
0
330
0
330
0
330
0
330
0
330
0
330
0
330
0
330
0
330
0
330
0
330
0
330
0
330
0
330
0
330
0
330
0
330
0
330
0
330
0
330
0
330
0
330
0
330
0
330
0
330
0
330
0
330
0
330
0
330
0
330
0
330
0
330
0
330
0
330
0
330
0
330
0
330
0
330
0
330
0
330
0
330
0
330
0
330
0
330
0
330
0
330
0
330
0
330
0
330
0
330
0
330
0
330
0
330
0
330
0
330
0
330
0
330
0
330
0
330
0
330
0
330
0
330
0
330
0
330
0
330
0
  0
XRECORD
  5
CA43
102
{ACAD_REACTORS
330
CA41
102
}
330
CA41
100
AcDbXrecord
280
     1
  1
50
  1
*-50
  1
*
  1
*
 70
     0
  1
*
  1
*
1001
ACAD
1000
( NAME== "*-50" )
  0
XRECORD
  5
3FB7
102
{ACAD_REACTORS
330
3F96
102
}
330
3F96
100
AcDbXrecord
280
     1
 91
        3
330
A47
 90
        8
 62
     7
370
    40
331
16
  1
Color_7
330
A46
 90
        0
 62
    14
370
    -3
331
16
  1
Color_14
330
3A31
 90
        8
 62
     7
370
    20
331
16
  1
Color_7
330
6D1
 90
        0
 62
     7
370
    -3
331
16
  1
Color_7
330
0
 90
        8
 62
     7
370
    50
331
16
  1
Color_7
330
A48
 90
        8
 62
     2
370
    35
331
16
  1
Color_2
330
FA5
 90
        8
 62
     7
370
    -3
331
16
  1
Color_7
330
10
 90
        8
 62
     7
370
    -3
331
16
  1
Color_7
  0
XRECORD
  5
CA42
102
{ACAD_REACTORS
330
CA40
102
}
330
CA40
100
AcDbXrecord
280
     1
  1
AcLyLayerFilter
 90
        1
300
50
301
( NAME== "*-50" )
  0
DICTIONARY
  5
11B05
330
22
100
AcDbDictionary
280
     1
281
     1
  3
ACAD_XREC_ROUNDTRIP
360
11B06
  0
DICTIONARY
  5
11B03
330
1E
100
AcDbDictionary
280
     1
281
     1
  3
ACAD_XREC_ROUNDTRIP
360
11B04
  0
DICTIONARY
  5
11B07
330
26
100
AcDbDictionary
280
     1
281
     1
  3
ACAD_XREC_ROUNDTRIP
360
11B08
  0
DICTIONARY
  5
11B0B
330
C448
100
AcDbDictionary
280
     1
281
     1
  3
ACAD_XREC_ROUNDTRIP
360
11B0C
  0
DICTIONARY
  5
11B09
330
C447
100
AcDbDictionary
280
     1
281
     1
  3
ACAD_XREC_ROUNDTRIP
360
11B0A
  0
DICTIONARY
  5
11B0D
330
C449
100
AcDbDictionary
280
     1
281
     1
  3
ACAD_XREC_ROUNDTRIP
360
11B0E
  0
DICTIONARY
  5
11B10
330
C85D
100
AcDbDictionary
280
     1
281
     1
  3
ACAD_XREC_ROUNDTRIP
360
11B11
  0
DICTIONARY
  5
DB54
330
C45D
100
AcDbDictionary
280
     1
281
     1
  3
ACAD_ROUNDTRIP_2008_TABLESTYLE_CELLSTYLEMAP
360
11B01
  3
ACAD_XREC_ROUNDTRIP
360
11B0F
  0
XRECORD
  5
11B06
102
{ACAD_REACTORS
330
11B05
102
}
330
11B05
100
AcDbXrecord
280
     1
102
SHADEPLOT
 70
     0
102
SHADEPLOTRESLEVEL
 70
     2
102
SHADEPLOTCUSTOMDPI
 70
   300
  0
XRECORD
  5
11B04
102
{ACAD_REACTORS
330
11B03
102
}
330
11B03
100
AcDbXrecord
280
     1
102
SHADEPLOT
 70
     0
102
SHADEPLOTRESLEVEL
 70
     2
102
SHADEPLOTCUSTOMDPI
 70
   300
  0
XRECORD
  5
11B08
102
{ACAD_REACTORS
330
11B07
102
}
330
11B07
100
AcDbXrecord
280
     1
102
SHADEPLOT
 70
     0
102
SHADEPLOTRESLEVEL
 70
     2
102
SHADEPLOTCUSTOMDPI
 70
   300
  0
XRECORD
  5
11B0C
102
{ACAD_REACTORS
330
11B0B
102
}
330
11B0B
100
AcDbXrecord
280
     1
102
MATERIAL
148
0.0
149
0.0
149
0.0
 93
        0
 94
       63
282
     0
 72
     1
 77
     1
171
     1
175
     1
179
     1
273
     0
  0
XRECORD
  5
11B0A
102
{ACAD_REACTORS
330
11B09
102
}
330
11B09
100
AcDbXrecord
280
     1
102
MATERIAL
148
0.0
149
0.0
149
0.0
 93
        0
 94
       63
282
     0
 72
     1
 77
     1
171
     1
175
     1
179
     1
273
     0
  0
XRECORD
  5
11B0E
102
{ACAD_REACTORS
330
11B0D
102
}
330
11B0D
100
AcDbXrecord
280
     1
102
MATERIAL
148
0.0
149
0.0
149
0.0
 93
        0
 94
       63
282
     0
 72
     1
 77
     1
171
     1
175
     1
179
     1
273
     0
  0
XRECORD
  5
11B11
102
{ACAD_REACTORS
330
11B10
102
}
330
11B10
100
AcDbXrecord
280
     1
102
SHADEPLOT
 70
     0
102
SHADEPLOTRESLEVEL
 70
     2
102
SHADEPLOTCUSTOMDPI
 70
   300
  0
CELLSTYLEMAP
  5
11B01
102
{ACAD_REACTORS
330
DB54
102
}
330
DB54
100
AcDbCellStyleMap
 90
        3
300
CELLSTYLE
  1
TABLEFORMAT_BEGIN
 90
        5
170
     1
 91
        0
 92
    32768
 62
   257
 93
        1
300
CONTENTFORMAT
  1
CONTENTFORMAT_BEGIN
 90
        0
 91
        0
 92
      512
 93
        0
300

 40
0.0
140
1.0
 94
        5
 62
     0
340
11
144
6.0
309
CONTENTFORMAT_END
171
     1
301
MARGIN
  1
CELLMARGIN_BEGIN
 40
1.5
 40
1.5
 40
1.5
 40
1.5
 40
0.18
 40
0.18
309
CELLMARGIN_END
 94
        6
 95
        1
302
GRIDFORMAT
  1
GRIDFORMAT_BEGIN
 90
        0
 91
        1
 62
     0
 92
       -2
340
0
 93
        0
 40
0.045
309
GRIDFORMAT_END
 95
        2
302
GRIDFORMAT
  1
GRIDFORMAT_BEGIN
 90
        0
 91
        1
 62
     0
 92
       -2
340
0
 93
        0
 40
0.045
309
GRIDFORMAT_END
 95
        4
302
GRIDFORMAT
  1
GRIDFORMAT_BEGIN
 90
        0
 91
        1
 62
     0
 92
       -2
340
0
 93
        0
 40
0.045
309
GRIDFORMAT_END
 95
        8
302
GRIDFORMAT
  1
GRIDFORMAT_BEGIN
 90
        0
 91
        1
 62
     0
 92
       -2
340
0
 93
        0
 40
0.045
309
GRIDFORMAT_END
 95
       16
302
GRIDFORMAT
  1
GRIDFORMAT_BEGIN
 90
        0
 91
        1
 62
     0
 92
       -2
340
0
 93
        0
 40
0.045
309
GRIDFORMAT_END
 95
       32
302
GRIDFORMAT
  1
GRIDFORMAT_BEGIN
 90
        0
 91
        1
 62
     0
 92
       -2
340
0
 93
        0
 40
0.045
309
GRIDFORMAT_END
309
TABLEFORMAT_END
  1
CELLSTYLE_BEGIN
 90
        1
 91
        1
300
_TITLE
309
CELLSTYLE_END
300
CELLSTYLE
  1
TABLEFORMAT_BEGIN
 90
        5
170
     1
 91
        0
 92
        0
 62
   257
 93
        1
300
CONTENTFORMAT
  1
CONTENTFORMAT_BEGIN
 90
        0
 91
        0
 92
      512
 93
        0
300

 40
0.0
140
1.0
 94
        5
 62
     0
340
11
144
4.5
309
CONTENTFORMAT_END
171
     1
301
MARGIN
  1
CELLMARGIN_BEGIN
 40
1.5
 40
1.5
 40
1.5
 40
1.5
 40
0.18
 40
0.18
309
CELLMARGIN_END
 94
        6
 95
        1
302
GRIDFORMAT
  1
GRIDFORMAT_BEGIN
 90
        0
 91
        1
 62
     0
 92
       -2
340
0
 93
        0
 40
0.045
309
GRIDFORMAT_END
 95
        2
302
GRIDFORMAT
  1
GRIDFORMAT_BEGIN
 90
        0
 91
        1
 62
     0
 92
       -2
340
0
 93
        0
 40
0.045
309
GRIDFORMAT_END
 95
        4
302
GRIDFORMAT
  1
GRIDFORMAT_BEGIN
 90
        0
 91
        1
 62
     0
 92
       -2
340
0
 93
        0
 40
0.045
309
GRIDFORMAT_END
 95
        8
302
GRIDFORMAT
  1
GRIDFORMAT_BEGIN
 90
        0
 91
        1
 62
     0
 92
       -2
340
0
 93
        0
 40
0.045
309
GRIDFORMAT_END
 95
       16
302
GRIDFORMAT
  1
GRIDFORMAT_BEGIN
 90
        0
 91
        1
 62
     0
 92
       -2
340
0
 93
        0
 40
0.045
309
GRIDFORMAT_END
 95
       32
302
GRIDFORMAT
  1
GRIDFORMAT_BEGIN
 90
        0
 91
        1
 62
     0
 92
       -2
340
0
 93
        0
 40
0.045
309
GRIDFORMAT_END
309
TABLEFORMAT_END
  1
CELLSTYLE_BEGIN
 90
        2
 91
        1
300
_HEADER
309
CELLSTYLE_END
300
CELLSTYLE
  1
TABLEFORMAT_BEGIN
 90
        5
170
     1
 91
        0
 92
        0
 62
   257
 93
        1
300
CONTENTFORMAT
  1
CONTENTFORMAT_BEGIN
 90
        0
 91
        0
 92
      512
 93
        0
300

 40
0.0
140
1.0
 94
        2
 62
     0
340
11
144
4.5
309
CONTENTFORMAT_END
171
     1
301
MARGIN
  1
CELLMARGIN_BEGIN
 40
1.5
 40
1.5
 40
1.5
 40
1.5
 40
0.18
 40
0.18
309
CELLMARGIN_END
 94
        6
 95
        1
302
GRIDFORMAT
  1
GRIDFORMAT_BEGIN
 90
        0
 91
        1
 62
     0
 92
       -2
340
0
 93
        0
 40
0.045
309
GRIDFORMAT_END
 95
        2
302
GRIDFORMAT
  1
GRIDFORMAT_BEGIN
 90
        0
 91
        1
 62
     0
 92
       -2
340
0
 93
        0
 40
0.045
309
GRIDFORMAT_END
 95
        4
302
GRIDFORMAT
  1
GRIDFORMAT_BEGIN
 90
        0
 91
        1
 62
     0
 92
       -2
340
0
 93
        0
 40
0.045
309
GRIDFORMAT_END
 95
        8
302
GRIDFORMAT
  1
GRIDFORMAT_BEGIN
 90
        0
 91
        1
 62
     0
 92
       -2
340
0
 93
        0
 40
0.045
309
GRIDFORMAT_END
 95
       16
302
GRIDFORMAT
  1
GRIDFORMAT_BEGIN
 90
        0
 91
        1
 62
     0
 92
       -2
340
0
 93
        0
 40
0.045
309
GRIDFORMAT_END
 95
       32
302
GRIDFORMAT
  1
GRIDFORMAT_BEGIN
 90
        0
 91
        1
 62
     0
 92
       -2
340
0
 93
        0
 40
0.045
309
GRIDFORMAT_END
309
TABLEFORMAT_END
  1
CELLSTYLE_BEGIN
 90
        3
 91
        2
300
_DATA
309
CELLSTYLE_END
  0
XRECORD
  5
11B0F
102
{ACAD_REACTORS
330
DB54
102
}
330
DB54
100
AcDbXrecord
280
     1
102
ACAD_ROUNDTRIP_PRE2007_TABLESTYLE
 90
      512
 91
        0
  1

 92
      512
 93
        0
  2

 94
      512
 95
        0
  3

  0
ENDSEC
  0
EOF
