  0
SECTION
  2
HEADER
  9
$ACADVER
  1
AC1015
  9
$ACADMAINTVER
 70
    20
  9
$DWGCODEPAGE
  3
ANSI_932
  9
$INSBASE
 10
0.0
 20
0.0
 30
0.0
  9
$EXTMIN
 10
-0.0594745813882582
 20
-0.0064082024693448
 30
-0.0015258207003583
  9
$EXTMAX
 10
297.0427086622849
 20
210.0064091803581
 30
0.0000000349246037
  9
$LIMMIN
 10
-356.8178934561676
 20
0.0000000000000153
  9
$LIMMAX
 10
-59.81789345616761
 20
210.0
  9
$ORTHOMODE
 70
     0
  9
$REGENMODE
 70
     1
  9
$FILLMODE
 70
     1
  9
$QTEXTMODE
 70
     0
  9
$MIRRTEXT
 70
     0
  9
$LTSCALE
 40
1.0
  9
$ATTMODE
 70
     1
  9
$TEXTSIZE
 40
3.2
  9
$TRACEWID
 40
1.0
  9
$TEXTSTYLE
  7
STANDARD
  9
$CLAYER
  8
AM_7
  9
$CELTYPE
  6
ByLayer
  9
$CECOLOR
 62
   256
  9
$CELTSCALE
 40
1.0
  9
$DISPSILH
 70
     0
  9
$DIMSCALE
 40
1.0
  9
$DIMASZ
 40
1.0
  9
$DIMEXO
 40
1.0
  9
$DIMDLI
 40
10.0
  9
$DIMRND
 40
0.0
  9
$DIMDLE
 40
0.0
  9
$DIMEXE
 40
1.0
  9
$DIMTP
 40
0.1
  9
$DIMTM
 40
0.1
  9
$DIMTXT
 40
3.5
  9
$DIMCEN
 40
0.0
  9
$DIMTSZ
 40
0.0
  9
$DIMTOL
 70
     0
  9
$DIMLIM
 70
     0
  9
$DIMTIH
 70
     0
  9
$DIMTOH
 70
     0
  9
$DIMSE1
 70
     0
  9
$DIMSE2
 70
     0
  9
$DIMTAD
 70
     1
  9
$DIMZIN
 70
     8
  9
$DIMBLK
  1

  9
$DIMASO
 70
     1
  9
$DIMSHO
 70
     1
  9
$DIMPOST
  1

  9
$DIMAPOST
  1
"
  9
$DIMALT
 70
     0
  9
$DIMALTD
 70
     2
  9
$DIMALTF
 40
0.0393701
  9
$DIMLFAC
 40
1.0
  9
$DIMTOFL
 70
     1
  9
$DIMTVP
 40
0.0
  9
$DIMTIX
 70
     0
  9
$DIMSOXD
 70
     0
  9
$DIMSAH
 70
     0
  9
$DIMBLK1
  1

  9
$DIMBLK2
  1

  9
$DIMSTYLE
  2
SYS
  9
$DIMCLRD
 70
   256
  9
$DIMCLRE
 70
   256
  9
$DIMCLRT
 70
     7
  9
$DIMTFAC
 40
0.71
  9
$DIMGAP
 40
1.5
  9
$DIMJUST
 70
     0
  9
$DIMSD1
 70
     0
  9
$DIMSD2
 70
     0
  9
$DIMTOLJ
 70
     0
  9
$DIMTZIN
 70
     8
  9
$DIMALTZ
 70
     0
  9
$DIMALTTZ
 70
     0
  9
$DIMUPT
 70
     0
  9
$DIMDEC
 70
     2
  9
$DIMTDEC
 70
     2
  9
$DIMALTU
 70
     2
  9
$DIMALTTD
 70
     2
  9
$DIMTXSTY
  7
STANDARD
  9
$DIMAUNIT
 70
     0
  9
$DIMADEC
 70
     0
  9
$DIMALTRND
 40
0.0
  9
$DIMAZIN
 70
     2
  9
$DIMDSEP
 70
    46
  9
$DIMATFIT
 70
     3
  9
$DIMFRAC
 70
     0
  9
$DIMLDRBLK
  1

  9
$DIMLUNIT
 70
     2
  9
$DIMLWD
 70
    -1
  9
$DIMLWE
 70
    -1
  9
$DIMTMOVE
 70
     0
  9
$LUNITS
 70
     2
  9
$LUPREC
 70
     2
  9
$SKETCHINC
 40
1.0
  9
$FILLETRAD
 40
0.0
  9
$AUNITS
 70
     0
  9
$AUPREC
 70
     0
  9
$MENU
  1
.
  9
$ELEVATION
 40
0.0
  9
$PELEVATION
 40
0.0
  9
$THICKNESS
 40
0.0
  9
$LIMCHECK
 70
     0
  9
$CHAMFERA
 40
0.0
  9
$CHAMFERB
 40
0.0
  9
$CHAMFERC
 40
20.0
  9
$CHAMFERD
 40
0.0
  9
$SKPOLY
 70
     0
  9
$TDCREATE
 40
2455567.561054317
  9
$TDUCREATE
 40
2455567.186054318
  9
$TDUPDATE
 40
2456268.502458160
  9
$TDUUPDATE
 40
2456268.127458160
  9
$TDINDWG
 40
0.0878061806
  9
$TDUSRTIMER
 40
0.0878041898
  9
$USRTIMER
 70
     1
  9
$ANGBASE
 50
0.0
  9
$ANGDIR
 70
     0
  9
$PDMODE
 70
     0
  9
$PDSIZE
 40
-3.0
  9
$PLINEWID
 40
0.0
  9
$SPLFRAME
 70
     0
  9
$SPLINETYPE
 70
     6
  9
$SPLINESEGS
 70
     8
  9
$HANDSEED
  5
CFB9
  9
$SURFTAB1
 70
     6
  9
$SURFTAB2
 70
     6
  9
$SURFTYPE
 70
     6
  9
$SURFU
 70
     6
  9
$SURFV
 70
     6
  9
$UCSBASE
  2

  9
$UCSNAME
  2

  9
$UCSORG
 10
0.0
 20
0.0
 30
0.0
  9
$UCSXDIR
 10
1.0
 20
0.0
 30
0.0
  9
$UCSYDIR
 10
0.0
 20
1.0
 30
0.0
  9
$UCSORTHOREF
  2

  9
$UCSORTHOVIEW
 70
     0
  9
$UCSORGTOP
 10
0.0
 20
0.0
 30
0.0
  9
$UCSORGBOTTOM
 10
0.0
 20
0.0
 30
0.0
  9
$UCSORGLEFT
 10
0.0
 20
0.0
 30
0.0
  9
$UCSORGRIGHT
 10
0.0
 20
0.0
 30
0.0
  9
$UCSORGFRONT
 10
0.0
 20
0.0
 30
0.0
  9
$UCSORGBACK
 10
0.0
 20
0.0
 30
0.0
  9
$PUCSBASE
  2

  9
$PUCSNAME
  2

  9
$PUCSORG
 10
0.0
 20
0.0
 30
0.0
  9
$PUCSXDIR
 10
1.0
 20
0.0
 30
0.0
  9
$PUCSYDIR
 10
0.0
 20
1.0
 30
0.0
  9
$PUCSORTHOREF
  2

  9
$PUCSORTHOVIEW
 70
     0
  9
$PUCSORGTOP
 10
0.0
 20
0.0
 30
0.0
  9
$PUCSORGBOTTOM
 10
0.0
 20
0.0
 30
0.0
  9
$PUCSORGLEFT
 10
0.0
 20
0.0
 30
0.0
  9
$PUCSORGRIGHT
 10
0.0
 20
0.0
 30
0.0
  9
$PUCSORGFRONT
 10
0.0
 20
0.0
 30
0.0
  9
$PUCSORGBACK
 10
0.0
 20
0.0
 30
0.0
  9
$USERI1
 70
     0
  9
$USERI2
 70
     0
  9
$USERI3
 70
     0
  9
$USERI4
 70
     0
  9
$USERI5
 70
     0
  9
$USERR1
 40
0.0
  9
$USERR2
 40
0.0
  9
$USERR3
 40
0.0
  9
$USERR4
 40
0.0
  9
$USERR5
 40
0.0
  9
$WORLDVIEW
 70
     1
  9
$SHADEDGE
 70
     3
  9
$SHADEDIF
 70
    70
  9
$TILEMODE
 70
     1
  9
$MAXACTVP
 70
    64
  9
$PINSBASE
 10
0.0
 20
0.0
 30
0.0
  9
$PLIMCHECK
 70
     0
  9
$PEXTMIN
 10
1.000000000000000E+20
 20
1.000000000000000E+20
 30
1.000000000000000E+20
  9
$PEXTMAX
 10
-1.000000000000000E+20
 20
-1.000000000000000E+20
 30
-1.000000000000000E+20
  9
$PLIMMIN
 10
-3.17498779296875
 20
-3.174999952316284
  9
$PLIMMAX
 10
293.4970092773438
 20
206.692492723465
  9
$UNITMODE
 70
     0
  9
$VISRETAIN
 70
     1
  9
$PLINEGEN
 70
     0
  9
$PSLTSCALE
 70
     1
  9
$TREEDEPTH
 70
  3020
  9
$CMLSTYLE
  2
Standard
  9
$CMLJUST
 70
     0
  9
$CMLSCALE
 40
20.0
  9
$PROXYGRAPHICS
 70
     1
  9
$MEASUREMENT
 70
     1
  9
$CELWEIGHT
370
    -1
  9
$ENDCAPS
280
     0
  9
$JOINSTYLE
280
     0
  9
$LWDISPLAY
290
     1
  9
$INSUNITS
 70
     4
  9
$HYPERLINKBASE
  1

  9
$STYLESHEET
  1
monochrome.ctb
  9
$XEDIT
290
     1
  9
$CEPSNTYPE
380
     0
  9
$PSTYLEMODE
290
     1
  9
$FINGERPRINTGUID
  2
{E0FB5660-30B4-4D8A-8C1D-9D7E99D72F0A}
  9
$VERSIONGUID
  2
{75532E43-A434-4D81-B94B-3937FC4466B4}
  9
$EXTNAMES
290
     1
  9
$PSVPSCALE
 40
0.0
  9
$OLESTARTUP
290
     0
  0
ENDSEC
  0
SECTION
  2
CLASSES
  0
CLASS
  1
ACDBDICTIONARYWDFLT
  2
AcDbDictionaryWithDefault
  3
ObjectDBX Classes
 90
        0
280
     0
281
     0
  0
CLASS
  1
ACDBPLACEHOLDER
  2
AcDbPlaceHolder
  3
ObjectDBX Classes
 90
        0
280
     0
281
     0
  0
CLASS
  1
LAYOUT
  2
AcDbLayout
  3
ObjectDBX Classes
 90
        0
280
     0
281
     0
  0
CLASS
  1
AMGSETTINGSOBJ
  2
AmgSettingsObj
  3
"AcadM|Product Description: AutoCAD Mechanical|Company: Autodesk"
 90
        0
280
     0
281
     0
  0
CLASS
  1
ACME_DOCUMENT
  2
AcMeDbDoc
  3
AcMeServices
 90
        0
280
     0
281
     0
  0
CLASS
  1
ACMESCOPE
  2
AcMeScope
  3
AcMeServices
 90
        0
280
     0
281
     0
  0
CLASS
  1
ACMECOMMANDHISTORY
  2
AcMeCommandHistory
  3
AcMeServices
 90
        0
280
     0
281
     0
  0
CLASS
  1
DICTIONARYVAR
  2
AcDbDictionaryVar
  3
ObjectDBX Classes
 90
        0
280
     0
281
     0
  0
CLASS
  1
ACIMSYSVARMAN
  2
AcImSysVarManager
  3
AcMeServices
 90
        0
280
     0
281
     0
  0
CLASS
  1
ACIMREALSYSVAR
  2
AcImRealSysVar
  3
AcMeServices
 90
        0
280
     0
281
     0
  0
CLASS
  1
ACIMINTSYSVAR
  2
AcImIntSysVar
  3
AcMeServices
 90
        0
280
     0
281
     0
  0
CLASS
  1
ACMEDRAWINGMAN
  2
AcMeDrawingMan
  3
AcMeServices
 90
        0
280
     0
281
     0
  0
CLASS
  1
ACMEVIEW
  2
AcMeView
  3
AcMeServices
 90
        0
280
     0
281
     0
  0
CLASS
  1
ACDBENTITYCACHE
  2
AcMeEntityCache
  3
AcMeServices
 90
        0
280
     0
281
     0
  0
CLASS
  1
GSMANAGER
  2
AcMeGSManager
  3
AcMeServices
 90
        0
280
     0
281
     0
  0
CLASS
  1
AMDTINTERNALREACTOR
  2
AmdtInternalReactor
  3
AcMeServices
 90
        0
280
     0
281
     0
  0
CLASS
  1
ACMESTATEMGR
  2
AcMeStateMgr
  3
AcMeServices
 90
        0
280
     0
281
     0
  0
CLASS
  1
ACGREFMASTER
  2
AcGrefMaster
  3
AcAttribServices
 90
        0
280
     0
281
     0
  0
CLASS
  1
ACME_DATABASE
  2
AcMeDbDatabase
  3
AcMeServices
 90
        0
280
     0
281
     0
  0
CLASS
  1
ACRFINSADJUSTERMGR
  2
AcRfInsAdjusterMgr
  3
AcMeServices
 90
        0
280
     0
281
     0
  0
CLASS
  1
ACGREFACADMASTER
  2
AcGrefacadMaster
  3
AcGrefServices
 90
        0
280
     0
281
     0
  0
CLASS
  1
AMIMASTER
  2
AmiMaster
  3
AmiServices
 90
        0
280
     0
281
     0
  0
CLASS
  1
ACMDATADICTIONARY
  2
AcmDataDictionary
  3
"AcmSymBB|Product Description: AutoCAD Mechanical|Company: Autodesk"
 90
        0
280
     0
281
     0
  0
CLASS
  1
ACMDATAENTRYBLOCK
  2
AcmDataEntryBlock
  3
"AcmSymBB|Product Description: AutoCAD Mechanical|Company: Autodesk"
 90
        0
280
     0
281
     0
  0
CLASS
  1
ACIMSTRSYSVAR
  2
AcImStrSysVar
  3
AcMeServices
 90
        0
280
     0
281
     0
  0
CLASS
  1
ACMSTANDARDISO
  2
AcmStandardISO
  3
"Amdt_StdImp|Product Description: AutoCAD Mechanical|Company: Autodesk"
 90
        0
280
     0
281
     0
  0
CLASS
  1
AMGOBJPROPCFG
  2
AmgObjPropCfg
  3
"AmgLay|Product Description: AutoCAD Mechanical|Company: Autodesk"
 90
        1
280
     0
281
     0
  0
CLASS
  1
AMDTEDGESTANDARDISO
  2
AmdtEdgeStdISO
  3
"Amdt_StdImp|Product Description: AutoCAD Mechanical|Company: Autodesk"
 90
        0
280
     0
281
     0
  0
CLASS
  1
ACMSURFSTANDARDISO
  2
AcmSurfTextStdISO
  3
"Amdt_StdImp|Product Description: AutoCAD Mechanical|Company: Autodesk"
 90
        0
280
     0
281
     0
  0
CLASS
  1
ACMFCFSTANDARDISO
  2
AcmFCFStdISO
  3
"Amdt_StdImp|Product Description: AutoCAD Mechanical|Company: Autodesk"
 90
        0
280
     0
281
     0
  0
CLASS
  1
ACMWELDSTANDARDISO
  2
AcmWeldingStdISO
  3
"Amdt_StdImp|Product Description: AutoCAD Mechanical|Company: Autodesk"
 90
        0
280
     0
281
     0
  0
CLASS
  1
ACMIDSTANDARDISO
  2
AcmIdStdISO
  3
"Amdt_StdImp|Product Description: AutoCAD Mechanical|Company: Autodesk"
 90
        0
280
     0
281
     0
  0
CLASS
  1
ACMDATUMSTANDARDISO
  2
AcmDatumStdISO
  3
"Amdt_StdImp|Product Description: AutoCAD Mechanical|Company: Autodesk"
 90
        0
280
     0
281
     0
  0
CLASS
  1
ACMBOMSTANDARDISO
  2
AcmBOMStdISO
  3
"Amdt_StdImp|Product Description: AutoCAD Mechanical|Company: Autodesk"
 90
        0
280
     0
281
     0
  0
CLASS
  1
ACMDETAILSTANDARDISO
  2
AmdtDetailSymStdISO
  3
"Amdt_StdImp|Product Description: AutoCAD Mechanical|Company: Autodesk"
 90
        0
280
     0
281
     0
  0
CLASS
  1
ACMSECTIONSTANDARDISO
  2
AmdtSectionSymStdISO
  3
"Amdt_StdImp|Product Description: AutoCAD Mechanical|Company: Autodesk"
 90
        0
280
     0
281
     0
  0
CLASS
  1
ACMCENTERLINESTANDARDISO
  2
AmdtCenterLineStdISO
  3
"Amdt_StdImp|Product Description: AutoCAD Mechanical|Company: Autodesk"
 90
        0
280
     0
281
     0
  0
CLASS
  1
ACAMGLAYSTD
  2
AcAmgLayStd
  3
"AmgLay|Product Description: AutoCAD Mechanical|Company: Autodesk"
 90
        0
280
     0
281
     0
  0
CLASS
  1
ACAMGDIMSTD
  2
AcAmgDimStd
  3
"AmgDim|Product Description: AutoCAD Mechanical|Company: Autodesk"
 90
        0
280
     0
281
     0
  0
CLASS
  1
ACAMGTITLESTD
  2
AcAmgTitleStd
  3
"AmgTitle|Product Description: AutoCAD Mechanical|Company: Autodesk"
 90
        0
280
     0
281
     0
  0
CLASS
  1
ACAMGFILTERDAT
  2
AcAmgFilterDat
  3
"AcadM|Product Description: AutoCAD Mechanical|Company: Autodesk"
 90
        0
280
     0
281
     0
  0
CLASS
  1
LAYER_INDEX
  2
AcDbLayerIndex
  3
ObjectDBX Classes
 90
    32768
280
     0
281
     0
  0
CLASS
  1
IDBUFFER
  2
AcDbIdBuffer
  3
ObjectDBX Classes
 90
    32768
280
     0
281
     0
  0
CLASS
  1
PLOTSETTINGS
  2
AcDbPlotSettings
  3
ObjectDBX Classes
 90
    32768
280
     0
281
     0
  0
CLASS
  1
AMDTFORMULAUPDATEDISPATCHER
  2
AmdtFormulaUpdateDispatcher
  3
AcMeServices
 90
        0
280
     0
281
     0
  0
CLASS
  1
ACMSTANDARDANSI
  2
AcmStandardANSI
  3
"Amdt_StdImp|Product Description: AutoCAD Mechanical|Company: Autodesk"
 90
    32768
280
     0
281
     0
  0
CLASS
  1
ACMSURFSTANDARDANSI
  2
AcmSurfTextStdANSI
  3
"Amdt_StdImp|Product Description: AutoCAD Mechanical|Company: Autodesk"
 90
    32768
280
     0
281
     0
  0
CLASS
  1
ACMFCFSTANDARDANSI
  2
AcmFCFStdANSI
  3
"Amdt_StdImp|Product Description: AutoCAD Mechanical|Company: Autodesk"
 90
    32768
280
     0
281
     0
  0
CLASS
  1
ACMWELDSTANDARDANSI
  2
AcmWeldingStdANSI
  3
"Amdt_StdImp|Product Description: AutoCAD Mechanical|Company: Autodesk"
 90
    32768
280
     0
281
     0
  0
CLASS
  1
ACMIDSTANDARDANSI
  2
AcmIdStdANSI
  3
"Amdt_StdImp|Product Description: AutoCAD Mechanical|Company: Autodesk"
 90
    32768
280
     0
281
     0
  0
CLASS
  1
ACMDATUMSTANDARDANSI
  2
AcmDatumStdANSI
  3
"Amdt_StdImp|Product Description: AutoCAD Mechanical|Company: Autodesk"
 90
    32768
280
     0
281
     0
  0
CLASS
  1
ACMBOMSTANDARDANSI
  2
AcmBOMStdANSI
  3
"Amdt_StdImp|Product Description: AutoCAD Mechanical|Company: Autodesk"
 90
    32768
280
     0
281
     0
  0
CLASS
  1
ACMDETAILSTANDARDANSI
  2
AmdtDetailSymStdANSI
  3
"Amdt_StdImp|Product Description: AutoCAD Mechanical|Company: Autodesk"
 90
    32768
280
     0
281
     0
  0
CLASS
  1
ACMSECTIONSTANDARDANSI
  2
AmdtSectionSymStdANSI
  3
"Amdt_StdImp|Product Description: AutoCAD Mechanical|Company: Autodesk"
 90
    32768
280
     0
281
     0
  0
CLASS
  1
ACMCENTERLINESTANDARDANSI
  2
AmdtCenterLineStdANSI
  3
"Amdt_StdImp|Product Description: AutoCAD Mechanical|Company: Autodesk"
 90
    32768
280
     0
281
     0
  0
CLASS
  1
ACMBOM
  2
AcmBom
  3
"AcmSymBB|Product Description: AutoCAD Mechanical|Company: Autodesk"
 90
        0
280
     0
281
     0
  0
CLASS
  1
ACMDATAENTRYPART
  2
AcmDataEntryPart
  3
"AcmSymBB|Product Description: AutoCAD Mechanical|Company: Autodesk"
 90
    32768
280
     0
281
     0
  0
CLASS
  1
ACMPARTREF
  2
AcmPartRef
  3
"AcmSymBB|Product Description: AutoCAD Mechanical|Company: Autodesk"
 90
    35839
280
     0
281
     1
  0
CLASS
  1
ACDBCIRCARCRES
  2
AcDbCircArcRes
  3
AcGrefServices
 90
    32768
280
     0
281
     0
  0
CLASS
  1
ACMBOMROW
  2
AcmBomRow
  3
"AcmSymBB|Product Description: AutoCAD Mechanical|Company: Autodesk"
 90
    32768
280
     0
281
     0
  0
CLASS
  1
ACMBALLOON
  2
AcmBalloon
  3
"AcmSymBB|Product Description: AutoCAD Mechanical|Company: Autodesk"
 90
    35839
280
     0
281
     1
  0
CLASS
  1
AMDTNOTE
  2
AmdtNote
  3
"AcmSymBB|Product Description: AutoCAD Mechanical|Company: Autodesk"
 90
     3071
280
     0
281
     1
  0
CLASS
  1
STDPART2D
  2
AmgStdPart
  3
"g3vace|Class: AmgStdPart|Product Description: AutoCAD Mechanical|Company: Autodesk"
 90
    35839
280
     0
281
     1
  0
CLASS
  1
ACDBSTDPARTRES_LINE
  2
AcDbStdPartRes_Line
  3
"g3vace|Class: AcDbStdPartRes_Line|Product Description: AutoCAD Mechanical|Company: Autodesk"
 90
    32768
280
     0
281
     0
  0
CLASS
  1
ACMDATAENTRY
  2
AcmDataEntry
  3
"AcmSymBB|Product Description: AutoCAD Mechanical|Company: Autodesk"
 90
        0
280
     0
281
     0
  0
CLASS
  1
ACDBOPPOLYLINERES
  2
AcDbOpPolylineRes
  3
AcGrefServices
 90
    32768
280
     0
281
     0
  0
CLASS
  1
ACMPARTLIST
  2
AcmPartList
  3
"AcmSymBB|Product Description: AutoCAD Mechanical|Company: Autodesk"
 90
    35839
280
     0
281
     1
  0
CLASS
  1
ACDBLINERES
  2
AcDbLineRes
  3
AcGrefServices
 90
    32768
280
     0
281
     0
  0
CLASS
  1
ACRFINSADJ
  2
AcRfInsAdjuster
  3
AcMeServices
 90
    32768
280
     0
281
     0
  0
CLASS
  1
AM_DRAWING_MGR
  2
AcDmDwgMgr
  3
AcMechDwgViewMgmt
 90
        0
280
     0
281
     0
  0
CLASS
  1
AM_DWG_DOCUMENT
  2
AcDmDwgDocument
  3
AcMechDwgViewMgmt
 90
        0
280
     0
281
     0
  0
CLASS
  1
AM_DWG_SHEET
  2
AcDmSheet
  3
AcMechDwgViewMgmt
 90
        0
280
     0
281
     0
  0
CLASS
  1
AM_VIEWDIMPARMAP
  2
AcDmViewDimParMap
  3
AcMechDwgViewMgmt
 90
        0
280
     0
281
     0
  0
CLASS
  1
AM_DWGMGR_NAME
  2
AcDmDwgMgrName
  3
AcMechDwgViewMgmt
 90
        0
280
     0
281
     0
  0
CLASS
  1
AMDTMENUSTATEMGR
  2
AmdtMenuStateMgr
  3
McadcomServices
 90
        0
280
     0
281
     0
  0
CLASS
  1
AMDTMCOMMENUSTATE
  2
AmdtMcomMenuState
  3
McadcomServices
 90
        0
280
     0
281
     0
  0
CLASS
  1
ASAPP
  2
AcAsAppObject
  3
AutoSurfServices
 90
        0
280
     0
281
     0
  0
CLASS
  1
IM_STATIC_MAN
  2
AcImStaticVarManager
  3
AcMeServices
 90
        0
280
     0
281
     0
  0
CLASS
  1
ACIMDBLSTATICVAR
  2
AcImDblStaticVar
  3
AcMeServices
 90
        0
280
     0
281
     0
  0
CLASS
  1
ACIMSTRSTATICVAR
  2
AcImStrStaticVar
  3
AcMeServices
 90
        0
280
     0
281
     0
  0
CLASS
  1
ACIMINTSTATICVAR
  2
AcImIntStaticVar
  3
AcMeServices
 90
        0
280
     0
281
     0
  0
CLASS
  1
ACASGREFMASTER
  2
AcAsGrefMaster
  3
AutoSurfResolverServices
 90
        0
280
     0
281
     0
  0
CLASS
  1
ACADGREFMODULE
  2
AcAdGrefModule
  3
AdGrefServices
 90
        0
280
     0
281
     0
  0
CLASS
  1
AMDTMAPISURFMOUDULE
  2
AmdtMApiSurfModule
  3
MApiSurfServices
 90
        0
280
     0
281
     0
  0
CLASS
  1
MAPIAMMOUDLE
  2
MApiAmModule
  3
MApiAmServices
 90
        0
280
     0
281
     0
  0
CLASS
  1
AMDTADMENUSTATE
  2
AmdtAdMenuState
  3
DesignerServices
 90
        0
280
     0
281
     0
  0
CLASS
  1
ADAPPL
  2
AcAdAppl
  3
DesignerServices
 90
        0
280
     0
281
     0
  0
CLASS
  1
DEPMGR
  2
AcAdDepMgr
  3
DesignerServices
 90
        0
280
     0
281
     0
  0
CLASS
  1
PARAMMGR
  2
AcAdParamMgr
  3
DesignerServices
 90
        0
280
     0
281
     0
  0
CLASS
  1
PARAMSCOPE
  2
AcAdParamScope
  3
DesignerServices
 90
        0
280
     0
281
     0
  0
CLASS
  1
NAMEDAPPL
  2
AcAdNamedAppl
  3
DesignerServices
 90
        0
280
     0
281
     0
  0
CLASS
  1
ADHNTMPLT
  2
AdHoleNoteTemplateMgr
  3
DesignerServices
 90
    32768
280
     0
281
     0
  0
CLASS
  1
AM_HNTEMPLATE_MGR_NAME
  2
AdHoleNoteTemplateMgrName
  3
DesignerServices
 90
    32768
280
     0
281
     0
  0
CLASS
  1
AMDTDMMENUSTATE
  2
AmdtDmMenuState
  3
AcMechDwgViewMgmt
 90
        0
280
     0
281
     0
  0
CLASS
  1
MAPIADMODULE
  2
MApiAdModule
  3
MApiAdServices
 90
        0
280
     0
281
     0
  0
CLASS
  1
AMDTAMMENUSTATE
  2
AmdtAmMenuState
  3
DesignerAssemblies
 90
        0
280
     0
281
     0
  0
CLASS
  1
ACAMPROJECT
  2
AcAmProject
  3
DesignerAssemblies
 90
        0
280
     0
281
     0
  0
CLASS
  1
ACAMGRCOMPDEF
  2
AcAmGrCompDef
  3
DesignerAssemblies
 90
        0
280
     0
281
     0
  0
CLASS
  1
ACCMCONTEXT
  2
AcCmContext
  3
DesignerAssemblies
 90
        0
280
     0
281
     0
  0
CLASS
  1
ACAMCOMPDEF
  2
AcAmCompDef
  3
DesignerAssemblies
 90
        0
280
     0
281
     0
  0
CLASS
  1
ACAMCOMPDEFMGR
  2
AcAmCompDefMgr
  3
DesignerAssemblies
 90
        0
280
     0
281
     0
  0
CLASS
  1
AMCONTEXTMGR
  2
AcAmContextMgr
  3
DesignerAssemblies
 90
        0
280
     0
281
     0
  0
CLASS
  1
ACAMCONTEXTMODELER
  2
AcAmContextModeler
  3
DesignerAssemblies
 90
        0
280
     0
281
     0
  0
CLASS
  1
CATALOGSTATE
  2
AcAmCatalogState
  3
DesignerAssemblies
 90
        0
280
     0
281
     0
  0
CLASS
  1
ACAMGRCOMPDEFSET
  2
AcAmGrCompDefSet
  3
DesignerAssemblies
 90
        0
280
     0
281
     0
  0
CLASS
  1
AMDTBROWSERDBTAB
  2
AmdtBrowserDbTab
  3
McadcomServices
 90
        0
280
     0
281
     0
  0
CLASS
  1
CBROWSERAPPOBJECT
  2
CBrowserAppObject
  3
McadcomServices
 90
        0
280
     0
281
     0
  0
CLASS
  1
DM_PLACEHOLDER
  2
AcDmSelsetPlaceholder
  3
AcMechDwgViewMgmt
 90
        0
280
     0
281
     0
  0
CLASS
  1
ACMPICKOBJ
  2
AcmPickEnt
  3
"AcmSymBB|Product Description: AutoCAD Mechanical|Company: Autodesk"
 90
    32768
280
     0
281
     1
  0
CLASS
  1
ACMNOTESTANDARDISO
  2
AmdtNoteStdISO
  3
"Amdt_StdImp|Product Description: AutoCAD Mechanical|Company: Autodesk"
 90
        0
280
     0
281
     0
  0
CLASS
  1
ACMNOTESTANDARDANSI
  2
AmdtNoteStdANSI
  3
"Amdt_StdImp|Product Description: AutoCAD Mechanical|Company: Autodesk"
 90
    32768
280
     0
281
     0
  0
CLASS
  1
ACMTHREADLINESTANDARDISO
  2
AmdtThreadLineStdISO
  3
"Amdt_StdImp|Product Description: AutoCAD Mechanical|Company: Autodesk"
 90
        0
280
     0
281
     0
  0
CLASS
  1
ACMTHREADLINESTANDARDANSI
  2
AmdtThreadLineStdANSI
  3
"Amdt_StdImp|Product Description: AutoCAD Mechanical|Company: Autodesk"
 90
    32768
280
     0
281
     0
  0
CLASS
  1
TABLESTYLE
  2
AcDbTableStyle
  3
ObjectDBX Classes
 90
     4095
280
     0
281
     0
  0
CLASS
  1
SORTENTSTABLE
  2
AcDbSortentsTable
  3
ObjectDBX Classes
 90
        0
280
     0
281
     0
  0
CLASS
  1
MATERIAL
  2
AcDbMaterial
  3
ObjectDBX Classes
 90
     1024
280
     0
281
     0
  0
CLASS
  1
VISUALSTYLE
  2
AcDbVisualStyle
  3
ObjectDBX Classes
 90
     4095
280
     0
281
     0
  0
CLASS
  1
ACRFATTGENMGR
  2
AcRfAttGeneralMgr
  3
AcAttribServices
 90
        0
280
     0
281
     0
  0
CLASS
  1
ACRFOBJATTMGR
  2
AcRfObjAttGroupMgr
  3
AcAttribServices
 90
        0
280
     0
281
     0
  0
CLASS
  1
ACRFMCADAPIATTHOLDER
  2
AcRfMCADAPIAttHolder
  3
AcAttribServices
 90
        0
280
     0
281
     0
  0
CLASS
  1
AMDTSYSATTR
  2
AmdtSystemAttribute
  3
AcAttribServices
 90
        0
280
     0
281
     0
  0
CLASS
  1
ACMTAPERSTANDARDISO
  2
AcmTaperStdISO
  3
"Amdt_StdImp|Product Description: AutoCAD Mechanical|Company: Autodesk"
 90
        0
280
     0
281
     0
  0
CLASS
  1
CAMSSTRUCTBTNSTATE
  2
StructBtnState
  3
L"DesignerAssemblies"
 90
        0
280
     0
281
     0
  0
CLASS
  1
DIMASSOC
  2
AcDbDimAssoc
  3
"AcDbDimAssoc|Product Desc:     AcDim ARX App For Dimension|Company:          Autodesk, Inc.|WEB Address:      www.autodesk.com"
 90
        0
280
     0
281
     0
  0
ENDSEC
  0
SECTION
  2
TABLES
  0
TABLE
  2
VPORT
  5
8
330
0
100
AcDbSymbolTable
 70
     1
  0
VPORT
  5
B0EC
330
8
100
AcDbSymbolTableRecord
100
AcDbViewportTableRecord
  2
*Active
 70
     0
 10
0.0
 20
0.0
 11
1.0
 21
1.0
 12
148.4916170404483
 22
105.0000004889444
 13
0.0
 23
0.0
 14
2.5
 24
2.5
 15
10.0
 25
10.0
 16
0.0
 26
0.0
 36
1.0
 17
0.0
 27
0.0
 37
0.0
 40
211.5589240138667
 41
1.648648648648648
 42
50.0
 43
-1370.695619172058
 44
-1370.695619172058
 50
0.0
 51
0.0
 71
     0
 72
   100
 73
     1
 74
     3
 75
     0
 76
     0
 77
     0
 78
     0
281
     0
 65
     0
110
0.0
120
0.0
130
0.0
111
1.0
121
0.0
131
0.0
112
0.0
122
1.0
132
0.0
 79
     0
146
0.0
  0
ENDTAB
  0
TABLE
  2
LTYPE
  5
5
330
0
100
AcDbSymbolTable
 70
    27
  0
LTYPE
  5
14
330
5
100
AcDbSymbolTableRecord
100
AcDbLinetypeTableRecord
  2
ByBlock
 70
     0
  3

 72
    65
 73
     0
 40
0.0
  0
LTYPE
  5
15
330
5
100
AcDbSymbolTableRecord
100
AcDbLinetypeTableRecord
  2
ByLayer
 70
     0
  3

 72
    65
 73
     0
 40
0.0
  0
LTYPE
  5
16
330
5
100
AcDbSymbolTableRecord
100
AcDbLinetypeTableRecord
  2
Continuous
 70
     0
  3
Solid line
 72
    65
 73
     0
 40
0.0
  0
LTYPE
  5
4F
330
5
100
AcDbSymbolTableRecord
100
AcDbLinetypeTableRecord
  2
AM_ISO02W050
 70
     0
  3
__ __ __ __ __ __ __ __ __ __ __ __ __ __ __
 72
    65
 73
     2
 40
7.5
 49
6.0
 74
     0
 49
-1.5
 74
     0
  0
LTYPE
  5
52
330
5
100
AcDbSymbolTableRecord
100
AcDbLinetypeTableRecord
  2
Amconstr
 70
     0
  3
_______________________
 72
    65
 73
     2
 40
9999.0
 49
9999.0
 74
     0
 49
0.0
 74
     0
  0
LTYPE
  5
64
330
5
100
AcDbSymbolTableRecord
100
AcDbLinetypeTableRecord
  2
ACISOWELD
 70
     0
  3
_ _ _ _ _
 72
    65
 73
     2
 40
2.0
 49
2.0
 74
     0
 49
-1.0
 74
     0
  0
LTYPE
  5
65
330
5
100
AcDbSymbolTableRecord
100
AcDbLinetypeTableRecord
  2
ACISOTGB
 70
     0
  3
__ . . __ . .
 72
    65
 73
     6
 40
9.0
 49
4.0
 74
     0
 49
-1.0
 74
     0
 49
1.0
 74
     0
 49
-1.0
 74
     0
 49
1.0
 74
     0
 49
-1.0
 74
     0
  0
LTYPE
  5
66
330
5
100
AcDbSymbolTableRecord
100
AcDbLinetypeTableRecord
  2
ACISOTGL
 70
     0
  3
_ _ _ _ _
 72
    65
 73
     2
 40
3.0
 49
2.0
 74
     0
 49
-1.0
 74
     0
  0
LTYPE
  5
69
330
5
100
AcDbSymbolTableRecord
100
AcDbLinetypeTableRecord
  2
CENTER
 70
     0
  3
__ . __
 72
    65
 73
     4
 40
7.0
 49
4.0
 74
     0
 49
-1.0
 74
     0
 49
1.0
 74
     0
 49
-1.0
 74
     0
  0
LTYPE
  5
A6E
330
5
100
AcDbSymbolTableRecord
100
AcDbLinetypeTableRecord
  2
PHANTOM2
 70
     0
  3
Phantom (.5x) ___ _ _ ___ _ _ ___ _ _ ___ _ _
 72
    65
 73
     6
 40
31.75
 49
15.875
 74
     0
 49
-3.174999999999999
 74
     0
 49
3.174999999999999
 74
     0
 49
-3.174999999999999
 74
     0
 49
3.174999999999999
 74
     0
 49
-3.174999999999999
 74
     0
  0
LTYPE
  5
4DED
330
5
100
AcDbSymbolTableRecord
100
AcDbLinetypeTableRecord
  2
中線
 70
     0
  3
___________________
 72
    65
 73
     2
 40
2.0
 49
1.0
 74
     0
 49
1.0
 74
     0
  0
LTYPE
  5
4DF6
330
5
100
AcDbSymbolTableRecord
100
AcDbLinetypeTableRecord
  2
細線
 70
     0
  3
___________________
 72
    65
 73
     2
 40
2.0
 49
1.0
 74
     0
 49
1.0
 74
     0
  0
LTYPE
  5
4DF7
330
5
100
AcDbSymbolTableRecord
100
AcDbLinetypeTableRecord
  2
太線
 70
     0
  3
___________________
 72
    65
 73
     2
 40
2.0
 49
1.0
 74
     0
 49
1.0
 74
     0
  0
LTYPE
  5
4EA7
330
5
100
AcDbSymbolTableRecord
100
AcDbLinetypeTableRecord
  2
文字
 70
     0
  3
_________________
 72
    65
 73
     2
 40
2.0
 49
1.0
 74
     0
 49
1.0
 74
     0
  0
LTYPE
  5
4EA9
330
5
100
AcDbSymbolTableRecord
100
AcDbLinetypeTableRecord
  2
寸法線
 70
     0
  3
________________
 72
    65
 73
     2
 40
2.0
 49
1.0
 74
     0
 49
1.0
 74
     0
  0
LTYPE
  5
4F12
330
5
100
AcDbSymbolTableRecord
100
AcDbLinetypeTableRecord
  2
ハッチング
 70
     0
  3
_________________
 72
    65
 73
     2
 40
2.0
 49
1.0
 74
     0
 49
1.0
 74
     0
  0
LTYPE
  5
5180
330
5
100
AcDbSymbolTableRecord
100
AcDbLinetypeTableRecord
  2
陰線1
 70
     0
  3
__ __ __ __
 72
    65
 73
     2
 40
4.0
 49
2.2
 74
     0
 49
-1.8
 74
     0
  0
LTYPE
  5
5182
330
5
100
AcDbSymbolTableRecord
100
AcDbLinetypeTableRecord
  2
切断線
 70
     0
  3
/\/-/\/-/\/-/\/-/\/-/\/
 72
    65
 73
     2
 40
11.0001
 49
0.0001
 74
     4
 75
   135
340
56
 46
0.04
 50
0.0
 44
0.0
 45
0.0
 49
-11.0
 74
     0
  0
LTYPE
  5
5183
330
5
100
AcDbSymbolTableRecord
100
AcDbLinetypeTableRecord
  2
想像線1
 70
     0
  3
__ __ __ _____ __ __ ____
 72
    65
 73
     6
 40
14.5
 49
6.0
 74
     0
 49
-1.5
 74
     0
 49
2.0
 74
     0
 49
-1.5
 74
     0
 49
2.0
 74
     0
 49
-1.5
 74
     0
  0
LTYPE
  5
5185
330
5
100
AcDbSymbolTableRecord
100
AcDbLinetypeTableRecord
  2
中心線1
 70
     0
  3
___ _ ___ _ ___
 72
    65
 73
     4
 40
18.0
 49
12.0
 74
     0
 49
-2.0
 74
     0
 49
2.0
 74
     0
 49
-2.0
 74
     0
  0
LTYPE
  5
5188
330
5
100
AcDbSymbolTableRecord
100
AcDbLinetypeTableRecord
  2
補助線
 70
     0
  3
______________
 72
    65
 73
     2
 40
2.0
 49
1.0
 74
     0
 49
1.0
 74
     0
  0
LTYPE
  5
6427
330
5
100
AcDbSymbolTableRecord
100
AcDbLinetypeTableRecord
  2
HIDDEN
 70
     0
  3
Hidden __ __ __ __ __ __ __ __ __ __ __ __ __ _
 72
    65
 73
     2
 40
0.375
 49
0.25
 74
     0
 49
-0.125
 74
     0
  0
LTYPE
  5
AC81
330
5
100
AcDbSymbolTableRecord
100
AcDbLinetypeTableRecord
  2
破断線
 70
     0
  3
/\/-/\/-/\/-/\/-/\/-/\/
 72
    65
 73
     2
 40
0.4401
 49
0.0001
 74
     4
 75
   136
340
AC80
 46
0.0016
 50
0.0
 44
0.0
 45
0.0
 49
-0.4400000000000001
 74
     0
  0
LTYPE
  5
AC9E
330
5
100
AcDbSymbolTableRecord
100
AcDbLinetypeTableRecord
  2
Amzigzag
 70
     0
  3
/\/-/\/-/\/-/\/-/\/-/\/
 72
    65
 73
     2
 40
11.0001
 49
0.0001
 74
     4
 75
   135
340
56
 46
0.04
 50
0.0
 44
0.0
 45
0.0
 49
-11.0
 74
     0
  0
LTYPE
  5
AF0F
330
5
100
AcDbSymbolTableRecord
100
AcDbLinetypeTableRecord
  2
genzigzag
 70
     0
  3
/\/-/\/-/\/-/\/-/\/-/\/
 72
    65
 73
     2
 40
12.0001
 49
0.0001
 74
     4
 75
   135
340
AC80
 46
2.0
 50
0.0
 44
0.0
 45
0.0
 49
-12.0
 74
     0
  0
LTYPE
  5
AF95
330
5
100
AcDbSymbolTableRecord
100
AcDbLinetypeTableRecord
  2
AM_ISO08W050
 70
     0
  3
____ . ____ . ____ . ____ . ____ . ____ . ____
 72
    65
 73
     4
 40
18.0
 49
12.0
 74
     0
 49
-1.5
 74
     0
 49
3.0
 74
     0
 49
-1.5
 74
     0
  0
LTYPE
  5
AF96
330
5
100
AcDbSymbolTableRecord
100
AcDbLinetypeTableRecord
  2
AM_ISO09W050
 70
     0
  3
_____ . . _____ . . _____ . . ____ .. ____
 72
    65
 73
     6
 40
22.5
 49
12.0
 74
     0
 49
-1.5
 74
     0
 49
3.0
 74
     0
 49
-1.5
 74
     0
 49
3.0
 74
     0
 49
-1.5
 74
     0
  0
LTYPE
  5
AF97
330
5
100
AcDbSymbolTableRecord
100
AcDbLinetypeTableRecord
  2
AM_ISO08W050x2
 70
     0
  3
__ . __ . __ . __ . __ . __
 72
    65
 73
     4
 40
9.0
 49
6.0
 74
     0
 49
-0.75
 74
     0
 49
1.5
 74
     0
 49
-0.75
 74
     0
  0
LTYPE
  5
AF98
330
5
100
AcDbSymbolTableRecord
100
AcDbLinetypeTableRecord
  2
AM_ISO02W050x2
 70
     0
  3
 _ _ _ _ _ _ _ _ _ _ _ _
 72
    65
 73
     2
 40
3.75
 49
3.0
 74
     0
 49
-0.75
 74
     0
  0
ENDTAB
  0
TABLE
  2
LAYER
  5
2
102
{ACAD_XDICTIONARY
360
3F95
102
}
330
0
100
AcDbSymbolTable
 70
    23
  0
LAYER
  5
10
330
2
100
AcDbSymbolTableRecord
100
AcDbLayerTableRecord
  2
0
 70
     0
 62
     7
  6
Continuous
370
    -3
390
F
  0
LAYER
  5
6D1
330
2
100
AcDbSymbolTableRecord
100
AcDbLayerTableRecord
  2
Defpoints
 70
     0
 62
     7
  6
Continuous
290
     0
370
    -3
390
F
  0
LAYER
  5
5F85
330
2
100
AcDbSymbolTableRecord
100
AcDbLayerTableRecord
  2
AM_0
 70
     0
 62
     7
  6
中線
370
    30
390
F
1001
AcAecLayerStandard
1000

1000

  0
LAYER
  5
AC9F
330
2
100
AcDbSymbolTableRecord
100
AcDbLayerTableRecord
  2
size
 70
     0
 62
     5
  6
Continuous
290
     0
370
    25
390
F
  0
LAYER
  5
ACA0
330
2
100
AcDbSymbolTableRecord
100
AcDbLayerTableRecord
  2
waku
 70
     0
 62
     7
  6
Continuous
370
    35
390
F
  0
LAYER
  5
ACA1
330
2
100
AcDbSymbolTableRecord
100
AcDbLayerTableRecord
  2
AM_6
 70
     0
 62
     2
  6
文字
370
    13
390
F
1001
AcAecLayerStandard
1000

1000

  0
LAYER
  5
ACC8
330
2
100
AcDbSymbolTableRecord
100
AcDbLayerTableRecord
  2
hyomoji
 70
     0
 62
     2
  6
Continuous
370
    13
390
F
  0
LAYER
  5
ACC9
330
2
100
AcDbSymbolTableRecord
100
AcDbLayerTableRecord
  2
hyosen1
 70
     0
 62
     1
  6
Continuous
370
    25
390
F
  0
LAYER
  5
ACCA
330
2
100
AcDbSymbolTableRecord
100
AcDbLayerTableRecord
  2
hyosen2
 70
     0
 62
     1
  6
Continuous
370
    13
390
F
  0
LAYER
  5
AD60
330
2
100
AcDbSymbolTableRecord
100
AcDbLayerTableRecord
  2
AM_1
 70
     0
 62
    30
  6
太線
370
    40
390
F
1001
AcAecLayerStandard
1000

1000

  0
LAYER
  5
AD64
330
2
100
AcDbSymbolTableRecord
100
AcDbLayerTableRecord
  2
AM_2
 70
     0
 62
     1
  6
細線
370
     9
390
F
1001
AcAecLayerStandard
1000

1000

  0
LAYER
  5
AD67
330
2
100
AcDbSymbolTableRecord
100
AcDbLayerTableRecord
  2
AM_3
 70
     0
 62
     6
  6
陰線1
370
     9
390
F
1001
AcAecLayerStandard
1000

1000

  0
LAYER
  5
AD68
330
2
100
AcDbSymbolTableRecord
100
AcDbLayerTableRecord
  2
AM_5
 70
     0
 62
     3
  6
寸法線
370
     9
390
F
1001
AcAecLayerStandard
1000

1000

  0
LAYER
  5
AD69
330
2
100
AcDbSymbolTableRecord
100
AcDbLayerTableRecord
  2
AM_7
 70
     0
 62
     4
  6
中心線1
370
     9
390
F
1001
AcAecLayerStandard
1000

1000

  0
LAYER
  5
AD6A
330
2
100
AcDbSymbolTableRecord
100
AcDbLayerTableRecord
  2
AM_8
 70
     0
 62
     1
  6
ハッチング
370
     9
390
F
1001
AcAecLayerStandard
1000

1000

  0
LAYER
  5
AD6E
330
2
100
AcDbSymbolTableRecord
100
AcDbLayerTableRecord
  2
AM_10
 70
     0
 62
     7
  6
切断線
370
     9
390
F
1001
AcAecLayerStandard
1000

1000

  0
LAYER
  5
AD6F
330
2
100
AcDbSymbolTableRecord
100
AcDbLayerTableRecord
  2
AM_11
 70
     0
 62
     2
  6
想像線1
370
     9
390
F
1001
AcAecLayerStandard
1000

1000

  0
LAYER
  5
B1B6
330
2
100
AcDbSymbolTableRecord
100
AcDbLayerTableRecord
  2
AM_CL
 70
     0
 62
     1
  6
Amconstr
370
    15
390
F
1001
AcAecLayerStandard
1000

1000

  0
LAYER
  5
B2EB
330
2
100
AcDbSymbolTableRecord
100
AcDbLayerTableRecord
  2
AM_14
 70
     0
 62
     5
  6
細線
370
     9
390
F
1001
AcAecLayerStandard
1000

1000

  0
LAYER
  5
B2EC
330
2
100
AcDbSymbolTableRecord
100
AcDbLayerTableRecord
  2
AM_15
 70
     0
 62
     6
  6
陰線1
370
     9
390
F
1001
AcAecLayerStandard
1000

1000

  0
LAYER
  5
B657
330
2
100
AcDbSymbolTableRecord
100
AcDbLayerTableRecord
  2
001
 70
     0
 62
    40
  6
中線
370
    30
390
F
1001
AcAecLayerStandard
1000

1000

  0
LAYER
  5
C2BE
330
2
100
AcDbSymbolTableRecord
100
AcDbLayerTableRecord
  2
00鈴木検図
 70
     0
 62
    10
  6
中線
370
    40
390
F
1001
AcAecLayerStandard
1000

1000

  0
LAYER
  5
C519
330
2
100
AcDbSymbolTableRecord
100
AcDbLayerTableRecord
  2
002
 70
     0
 62
    93
  6
中線
370
    30
390
F
1001
AcAecLayerStandard
1000

1000

  0
ENDTAB
  0
TABLE
  2
STYLE
  5
3
330
0
100
AcDbSymbolTable
 70
     6
  0
STYLE
  5
11
330
3
100
AcDbSymbolTableRecord
100
AcDbTextStyleTableRecord
  2
STANDARD
 70
     0
 40
0.0
 41
0.7
 50
0.0
 71
     0
 42
3.2
  3
romans.shx
  4
extfont.shx
  0
STYLE
  5
56
330
3
100
AcDbSymbolTableRecord
100
AcDbTextStyleTableRecord
  2

 70
     1
 40
0.0
 41
1.0
 50
0.0
 71
     0
 42
2.5
  3
ltypeshp.shx
  4

  0
STYLE
  5
58
330
3
100
AcDbSymbolTableRecord
100
AcDbTextStyleTableRecord
  2
ACISOTS
 70
     0
 40
1.0
 41
1.0
 50
0.0
 71
     0
 42
2.5
  3
isocp.shx
  4
extfont.shx
  0
STYLE
  5
63
330
3
100
AcDbSymbolTableRecord
100
AcDbTextStyleTableRecord
  2
ACISOGDT
 70
     0
 40
0.0
 41
1.0
 50
0.0
 71
     0
 42
2.5
  3
amgdt.shx
  4

  0
STYLE
  5
A74
330
3
100
AcDbSymbolTableRecord
100
AcDbTextStyleTableRecord
  2
DIM
 70
     0
 40
0.0
 41
1.0
 50
0.0
 71
     0
 42
2.5
  3
monotxt.shx
  4
extfont.shx
  0
STYLE
  5
AC80
330
3
100
AcDbSymbolTableRecord
100
AcDbTextStyleTableRecord
  2

 70
     1
 40
0.0
 41
1.0
 50
0.0
 71
     0
 42
3.2
  3
genltshp.shx
  4

  0
ENDTAB
  0
TABLE
  2
VIEW
  5
6
330
0
100
AcDbSymbolTable
 70
     6
  0
VIEW
  5
AE1
330
6
100
AcDbSymbolTableRecord
100
AcDbViewTableRecord
  2
AM_VIEW1
 70
     0
 40
105.0
 10
-273.0664141662268
 20
157.5
 41
167.5029585798817
 11
0.0
 21
0.0
 31
1.0
 12
0.0
 22
0.0
 32
0.0
 42
50.0
 43
-1370.695619172058
 44
-1370.695619172058
 50
0.0
 71
     0
281
     0
 72
     0
  0
VIEW
  5
AE2
330
6
100
AcDbSymbolTableRecord
100
AcDbViewTableRecord
  2
AM_VIEW2
 70
     0
 40
105.0
 10
-143.5693727461084
 20
157.5
 41
167.5029585798817
 11
0.0
 21
0.0
 31
1.0
 12
0.0
 22
0.0
 32
0.0
 42
50.0
 43
-1370.695619172058
 44
-1370.695619172058
 50
0.0
 71
     0
281
     0
 72
     0
  0
VIEW
  5
AE3
330
6
100
AcDbSymbolTableRecord
100
AcDbViewTableRecord
  2
AM_VIEW3
 70
     0
 40
105.0
 10
-273.0664141662268
 20
52.50000000000002
 41
167.5029585798817
 11
0.0
 21
0.0
 31
1.0
 12
0.0
 22
0.0
 32
0.0
 42
50.0
 43
-1370.695619172058
 44
-1370.695619172058
 50
0.0
 71
     0
281
     0
 72
     0
  0
VIEW
  5
AE4
330
6
100
AcDbSymbolTableRecord
100
AcDbViewTableRecord
  2
AM_VIEW4
 70
     0
 40
105.0
 10
-143.5693727461084
 20
52.50000000000002
 41
167.5029585798817
 11
0.0
 21
0.0
 31
1.0
 12
0.0
 22
0.0
 32
0.0
 42
50.0
 43
-1370.695619172058
 44
-1370.695619172058
 50
0.0
 71
     0
281
     0
 72
     0
  0
VIEW
  5
AE5
330
6
100
AcDbSymbolTableRecord
100
AcDbViewTableRecord
  2
AM_VIEW5
 70
     0
 40
105.0
 10
-208.3178934561676
 20
105.0
 41
167.5029585798817
 11
0.0
 21
0.0
 31
1.0
 12
0.0
 22
0.0
 32
0.0
 42
50.0
 43
-1370.695619172058
 44
-1370.695619172058
 50
0.0
 71
     0
281
     0
 72
     0
  0
VIEW
  5
AE6
330
6
100
AcDbSymbolTableRecord
100
AcDbViewTableRecord
  2
AM_VIEW6
 70
     0
 40
209.9979
 10
-208.3178934561676
 20
105.0
 41
335.0025671005918
 11
0.0
 21
0.0
 31
1.0
 12
0.0
 22
0.0
 32
0.0
 42
50.0
 43
-1370.695619172058
 44
-1370.695619172058
 50
0.0
 71
     0
281
     0
 72
     0
  0
ENDTAB
  0
TABLE
  2
UCS
  5
7
330
0
100
AcDbSymbolTable
 70
     0
  0
ENDTAB
  0
TABLE
  2
APPID
  5
9
330
0
100
AcDbSymbolTable
 70
    59
  0
APPID
  5
12
330
9
100
AcDbSymbolTableRecord
100
AcDbRegAppTableRecord
  2
ACAD
 70
     0
  0
APPID
  5
30
330
9
100
AcDbSymbolTableRecord
100
AcDbRegAppTableRecord
  2
MCAD_NO_VIS
 70
     0
  0
APPID
  5
31
330
9
100
AcDbSymbolTableRecord
100
AcDbRegAppTableRecord
  2
ACAD_TEMP_GRAPHIC
 70
     0
  0
APPID
  5
44
330
9
100
AcDbSymbolTableRecord
100
AcDbRegAppTableRecord
  2
ACATTRIBSERVICES
 70
     0
  0
APPID
  5
7A1
330
9
100
AcDbSymbolTableRecord
100
AcDbRegAppTableRecord
  2
GENIUS_GENDIMSH_14
 70
     0
  0
APPID
  5
A49
330
9
100
AcDbSymbolTableRecord
100
AcDbRegAppTableRecord
  2
GENIUS_GENREC_14
 70
     0
  0
APPID
  5
A4A
330
9
100
AcDbSymbolTableRecord
100
AcDbRegAppTableRecord
  2
GENIUS_GENOBJ-N-REC_13
 70
     0
  0
APPID
  5
A4B
330
9
100
AcDbSymbolTableRecord
100
AcDbRegAppTableRecord
  2
GENIUS_GENODEF_13
 70
     0
  0
APPID
  5
A4C
330
9
100
AcDbSymbolTableRecord
100
AcDbRegAppTableRecord
  2
DCO15
 70
     0
  0
APPID
  5
ADC
330
9
100
AcDbSymbolTableRecord
100
AcDbRegAppTableRecord
  2
GENIUS_GENOLIS_13
 70
     0
  0
APPID
  5
ADD
330
9
100
AcDbSymbolTableRecord
100
AcDbRegAppTableRecord
  2
GENIUS_GENOENT_13
 70
     0
  0
APPID
  5
ADE
330
9
100
AcDbSymbolTableRecord
100
AcDbRegAppTableRecord
  2
GENIUS_GENOBJ-N-TIT_13
 70
     0
  0
APPID
  5
ADF
330
9
100
AcDbSymbolTableRecord
100
AcDbRegAppTableRecord
  2
GENIUS_GENTITLE_13
 70
     0
  0
APPID
  5
AE0
330
9
100
AcDbSymbolTableRecord
100
AcDbRegAppTableRecord
  2
GENIUS_GENOREF_13
 70
     0
  0
APPID
  5
AE7
330
9
100
AcDbSymbolTableRecord
100
AcDbRegAppTableRecord
  2
GENIUS_GENSCREG_15
 70
     0
  0
APPID
  5
AE8
330
9
100
AcDbSymbolTableRecord
100
AcDbRegAppTableRecord
  2
GENIUS_GENOBJ-N-SDF_13
 70
     0
  0
APPID
  5
FAF
330
9
100
AcDbSymbolTableRecord
100
AcDbRegAppTableRecord
  2
GENIUS_GENBLLY_14
 70
     0
  0
APPID
  5
FB0
330
9
100
AcDbSymbolTableRecord
100
AcDbRegAppTableRecord
  2
GENIUS_GENTRA_14
 70
     0
  0
APPID
  5
1285
330
9
100
AcDbSymbolTableRecord
100
AcDbRegAppTableRecord
  2
GENIUS_GENDTOL_13
 70
     0
  0
APPID
  5
142D
330
9
100
AcDbSymbolTableRecord
100
AcDbRegAppTableRecord
  2
GENIUS_GENOBJ-N-CEN_13
 70
     0
  0
APPID
  5
1AB5
330
9
100
AcDbSymbolTableRecord
100
AcDbRegAppTableRecord
  2
GENIUS_GENOBJ-N-CRS_13
 70
     0
  0
APPID
  5
1B36
330
9
100
AcDbSymbolTableRecord
100
AcDbRegAppTableRecord
  2
GENIUS_GENOBJ-N-HTC_13
 70
     0
  0
APPID
  5
1B37
330
9
100
AcDbSymbolTableRecord
100
AcDbRegAppTableRecord
  2
GENIUS_GENHATCH_13
 70
     0
  0
APPID
  5
216D
330
9
100
AcDbSymbolTableRecord
100
AcDbRegAppTableRecord
  2
GENIUS_GENOBJ-N-FIL_13
 70
     0
  0
APPID
  5
2356
330
9
100
AcDbSymbolTableRecord
100
AcDbRegAppTableRecord
  2
GEVID990412420
 70
     0
  0
APPID
  5
2357
330
9
100
AcDbSymbolTableRecord
100
AcDbRegAppTableRecord
  2
GEVDC
 70
     0
  0
APPID
  5
2358
330
9
100
AcDbSymbolTableRecord
100
AcDbRegAppTableRecord
  2
GEVCON
 70
     0
  0
APPID
  5
235B
330
9
100
AcDbSymbolTableRecord
100
AcDbRegAppTableRecord
  2
GEVRADREF
 70
     0
  0
APPID
  5
2360
330
9
100
AcDbSymbolTableRecord
100
AcDbRegAppTableRecord
  2
GENIUS_GENBH_13
 70
     0
  0
APPID
  5
2362
330
9
100
AcDbSymbolTableRecord
100
AcDbRegAppTableRecord
  2
GENIUS_GENOBJ-NBEHI-BHF_13
 70
     0
  0
APPID
  5
2364
330
9
100
AcDbSymbolTableRecord
100
AcDbRegAppTableRecord
  2
GENIUS_GENOBJ-NBEHI-BHB_13
 70
     0
  0
APPID
  5
2379
330
9
100
AcDbSymbolTableRecord
100
AcDbRegAppTableRecord
  2
GENIUS_GENOBJ-F-SCPASSM_13
 70
     0
  0
APPID
  5
3D74
330
9
100
AcDbSymbolTableRecord
100
AcDbRegAppTableRecord
  2
GENIUS_GENDIM_13
 70
     0
  0
APPID
  5
3D76
330
9
100
AcDbSymbolTableRecord
100
AcDbRegAppTableRecord
  2
GENIUS_GE3DTOL_13
 70
     0
  0
APPID
  5
3D9C
330
9
100
AcDbSymbolTableRecord
100
AcDbRegAppTableRecord
  2
AD_DRAW
 70
     0
  0
APPID
  5
3DE8
330
9
100
AcDbSymbolTableRecord
100
AcDbRegAppTableRecord
  2
ASURF_PCURVE_APPNAME
 70
     0
  0
APPID
  5
3DED
330
9
100
AcDbSymbolTableRecord
100
AcDbRegAppTableRecord
  2
AMG_3D2D_5.0
 70
     0
  0
APPID
  5
3E1B
330
9
100
AcDbSymbolTableRecord
100
AcDbRegAppTableRecord
  2
DESIGNERASSEMBLIES
 70
     0
  0
APPID
  5
3E20
330
9
100
AcDbSymbolTableRecord
100
AcDbRegAppTableRecord
  2
ACADM_DIM_EDIT
 70
     0
  0
APPID
  5
3E21
330
9
100
AcDbSymbolTableRecord
100
AcDbRegAppTableRecord
  2
AMDT_DM_ADJ
 70
     0
  0
APPID
  5
4143
330
9
100
AcDbSymbolTableRecord
100
AcDbRegAppTableRecord
  2
GENIUS_GENFIL_13
 70
     0
  0
APPID
  5
4144
330
9
100
AcDbSymbolTableRecord
100
AcDbRegAppTableRecord
  2
GENIUS_GENOBJ-N-CHA_13
 70
     0
  0
APPID
  5
4E17
330
9
100
AcDbSymbolTableRecord
100
AcDbRegAppTableRecord
  2
GEVID1008153417
 70
     0
  0
APPID
  5
4E58
330
9
100
AcDbSymbolTableRecord
100
AcDbRegAppTableRecord
  2
GEVID1008153418
 70
     0
  0
APPID
  5
4E5E
330
9
100
AcDbSymbolTableRecord
100
AcDbRegAppTableRecord
  2
GEVID1008153419
 70
     0
  0
APPID
  5
4E64
330
9
100
AcDbSymbolTableRecord
100
AcDbRegAppTableRecord
  2
GEVID1008153420
 70
     0
  0
APPID
  5
4E75
330
9
100
AcDbSymbolTableRecord
100
AcDbRegAppTableRecord
  2
GEVID1008153421
 70
     0
  0
APPID
  5
4EB7
330
9
100
AcDbSymbolTableRecord
100
AcDbRegAppTableRecord
  2
GENIUS_AMGTXT_16
 70
     0
  0
APPID
  5
7645
330
9
100
AcDbSymbolTableRecord
100
AcDbRegAppTableRecord
  2
GENIUS_GENOBJ-N-DIM_13
 70
     0
  0
APPID
  5
AAD0
330
9
100
AcDbSymbolTableRecord
100
AcDbRegAppTableRecord
  2
ACAD_DSTYLE_DIMARC_LENGTH_SYMBOL
 70
     0
  0
APPID
  5
AAD1
330
9
100
AcDbSymbolTableRecord
100
AcDbRegAppTableRecord
  2
ACAD_DSTYLE_DIMJOGGED_JOGANGLE_SYMBOL
 70
     0
  0
APPID
  5
AAFD
330
9
100
AcDbSymbolTableRecord
100
AcDbRegAppTableRecord
  2
ACAD_PSEXT
 70
     0
  0
APPID
  5
AD61
330
9
100
AcDbSymbolTableRecord
100
AcDbRegAppTableRecord
  2
AcAecLayerStandard
 70
     0
  0
APPID
  5
AEE3
330
9
100
AcDbSymbolTableRecord
100
AcDbRegAppTableRecord
  2
ACAD_EXEMPT_FROM_CAD_STANDARDS
 70
     0
  0
APPID
  5
B1BE
330
9
100
AcDbSymbolTableRecord
100
AcDbRegAppTableRecord
  2
GENIUS_GENCEN_19
 70
     0
  0
APPID
  5
B4DF
330
9
100
AcDbSymbolTableRecord
100
AcDbRegAppTableRecord
  2
ACAD_MLEADERVER
 70
     0
  0
APPID
  5
C5EF
330
9
100
AcDbSymbolTableRecord
100
AcDbRegAppTableRecord
  2
ACAD_DSTYLE_DIMINSPECT
 70
     0
  0
APPID
  5
C5F0
330
9
100
AcDbSymbolTableRecord
100
AcDbRegAppTableRecord
  2
ACAD_DSTYLE_DIMRADIAL_EXTENSION
 70
     0
  0
APPID
  5
CFB8
330
9
100
AcDbSymbolTableRecord
100
AcDbRegAppTableRecord
  2
AcDbAttr
 70
     0
  0
ENDTAB
  0
TABLE
  2
DIMSTYLE
  5
A
330
0
100
AcDbSymbolTable
 70
    18
100
AcDbDimStyleTable
 71
     1
340
2515
  0
DIMSTYLE
105
A76
330
A
100
AcDbSymbolTableRecord
100
AcDbDimStyleTableRecord
  2
STANDARD
 70
     0
 41
3.0
 42
1.0
 43
7.0
 44
2.0
 73
     0
 74
     0
 77
     1
140
2.799999999999999
141
0.0
143
0.0394
147
0.7
171
     4
172
     1
173
     1
176
     3
177
     3
178
     2
271
     3
272
     3
273
     8
274
     4
289
     0
340
A74
341
A66
343
A66
344
A66
  0
DIMSTYLE
105
2515
330
A
100
AcDbSymbolTableRecord
100
AcDbDimStyleTableRecord
  2
SYS
 70
     0
  4
"
 41
1.0
 42
1.0
 43
10.0
 44
1.0
 47
0.1
 48
0.1
 73
     0
 74
     0
 77
     1
 78
     8
 79
     2
140
3.5
141
0.0
143
0.0393701
146
0.71
147
1.5
172
     1
176
   256
177
   256
178
     7
271
     2
272
     2
283
     0
284
     8
340
11
371
    -1
372
    -1
1001
ACAD_DSTYLE_DIMJOGGED_JOGANGLE_SYMBOL
1070
   384
1040
0.7853981633974483
1001
ACAD_DSTYLE_DIMARC_LENGTH_SYMBOL
1070
   379
1070
     1
  0
DIMSTYLE
105
2516
102
{ACAD_REACTORS
330
C7B8
102
}
330
A
100
AcDbSymbolTableRecord
100
AcDbDimStyleTableRecord
  2
SYS$3
 70
     0
  4
"
 41
2.0
 42
1.0
 43
10.0
 44
1.0
 47
0.1
 48
0.1
 73
     0
 77
     1
 78
     8
 79
     2
140
3.2
141
0.0
143
0.0393701
146
0.71
147
1.0
176
   256
177
   256
178
     2
271
     2
272
     2
283
     0
284
     8
288
     1
340
11
342
A66
371
    -1
372
    -1
1001
ACAD_DSTYLE_DIMJOGGED_JOGANGLE_SYMBOL
1070
   384
1040
0.7853981633974483
1001
ACAD_DSTYLE_DIMARC_LENGTH_SYMBOL
1070
   379
1070
     1
  0
DIMSTYLE
105
2517
330
A
100
AcDbSymbolTableRecord
100
AcDbDimStyleTableRecord
  2
SYS$4
 70
     0
  4
"
 41
2.0
 42
1.0
 43
10.0
 44
1.0
 47
0.1
 48
0.1
 73
     0
 77
     1
 78
     8
 79
     2
140
3.2
141
0.0
143
0.0393701
146
0.71
147
1.0
173
     1
176
   256
177
   256
178
     2
271
     2
272
     2
283
     0
284
     8
288
     1
340
11
344
A66
371
    -1
372
    -1
1001
ACAD_DSTYLE_DIMJOGGED_JOGANGLE_SYMBOL
1070
   384
1040
0.7853981633974483
1001
ACAD_DSTYLE_DIMARC_LENGTH_SYMBOL
1070
   379
1070
     1
  0
DIMSTYLE
105
2518
330
A
100
AcDbSymbolTableRecord
100
AcDbDimStyleTableRecord
  2
SYS$6
 70
     0
  4
"
 41
2.0
 42
1.0
 43
10.0
 44
1.0
 47
0.1
 48
0.1
 73
     0
 74
     0
 78
     8
 79
     2
140
3.5
141
0.0
143
0.0393701
146
0.71
147
1.5
172
     1
176
   256
177
   256
178
     2
271
     2
272
     2
283
     0
284
     8
340
11
341
A66
371
    -1
372
    -1
1001
ACAD_DSTYLE_DIMJOGGED_JOGANGLE_SYMBOL
1070
   384
1040
0.7853981633974483
1001
ACAD_DSTYLE_DIMARC_LENGTH_SYMBOL
1070
   379
1070
     1
  0
DIMSTYLE
105
2519
330
A
100
AcDbSymbolTableRecord
100
AcDbDimStyleTableRecord
  2
SYS$7
 70
     0
  4
"
 41
2.0
 42
1.0
 43
10.0
 44
1.0
 47
0.1
 48
0.1
 73
     0
 74
     0
 77
     1
 78
     8
 79
     2
140
3.2
141
0.0
143
0.0393701
146
0.71
147
1.0
172
     1
176
   256
177
   256
178
     2
271
     2
272
     2
283
     0
284
     8
340
11
341
A66
342
A66
371
    -1
372
    -1
1001
ACAD_DSTYLE_DIMJOGGED_JOGANGLE_SYMBOL
1070
   384
1040
0.7853981633974483
1001
ACAD_DSTYLE_DIMARC_LENGTH_SYMBOL
1070
   379
1070
     1
  0
DIMSTYLE
105
251A
330
A
100
AcDbSymbolTableRecord
100
AcDbDimStyleTableRecord
  2
SYS$SF
 70
     0
  4
"
 41
2.5
 42
1.0
 43
10.0
 44
1.0
 47
0.1
 48
0.1
 73
     0
 74
     0
 75
     1
 76
     1
 77
     1
 78
     8
 79
     2
140
3.5
141
0.0
143
0.0393701
146
0.71
147
1.5
172
     1
176
   256
177
   256
178
     2
271
     2
272
     3
283
     0
284
     8
340
11
341
6C4
342
6C4
371
    -1
372
    -1
1001
ACAD_DSTYLE_DIMJOGGED_JOGANGLE_SYMBOL
1070
   384
1040
0.7853981633974483
1001
ACAD_DSTYLE_DIMARC_LENGTH_SYMBOL
1070
   379
1070
     1
  0
DIMSTYLE
105
251B
330
A
100
AcDbSymbolTableRecord
100
AcDbDimStyleTableRecord
  2
SYS$SH
 70
     0
  4
"
 41
2.5
 42
1.0
 43
10.0
 44
1.0
 47
0.1
 48
0.1
 73
     0
 74
     0
 75
     1
 76
     1
 77
     1
 78
     8
 79
     2
140
3.5
141
0.0
143
0.0393701
144
2.0
146
0.71
147
1.5
172
     1
173
     1
176
   256
177
   256
178
     2
271
     2
272
     3
283
     0
284
     8
340
11
341
6C4
343
72
344
6C4
371
    -1
372
    -1
1001
ACAD_DSTYLE_DIMJOGGED_JOGANGLE_SYMBOL
1070
   384
1040
0.7853981633974483
1001
ACAD_DSTYLE_DIMARC_LENGTH_SYMBOL
1070
   379
1070
     1
  0
DIMSTYLE
105
2A59
330
A
100
AcDbSymbolTableRecord
100
AcDbDimStyleTableRecord
  2
SYS$2
 70
     0
  4
"
 41
1.0
 42
1.0
 43
10.0
 44
1.0
 47
0.1
 48
0.1
 73
     0
 74
     0
 77
     1
 78
     8
 79
     2
140
3.2
141
0.0
143
0.0393701
146
0.71
147
1.0
172
     1
176
   256
177
   256
178
     2
271
     2
272
     2
283
     0
284
     8
340
11
342
6C4
371
    -1
372
    -1
1001
ACAD_DSTYLE_DIMJOGGED_JOGANGLE_SYMBOL
1070
   384
1040
0.7853981633974483
1001
ACAD_DSTYLE_DIMARC_LENGTH_SYMBOL
1070
   379
1070
     1
  0
DIMSTYLE
105
2AAB
102
{ACAD_REACTORS
330
C793
330
C796
330
C799
330
C79C
330
C79F
330
C7A2
330
C7A5
330
C7A8
330
C7AB
330
C7AE
330
C7B1
330
C7B2
330
C7B5
102
}
330
A
100
AcDbSymbolTableRecord
100
AcDbDimStyleTableRecord
  2
SYS$0
 70
     0
  4
"
 41
1.0
 42
1.0
 43
10.0
 44
1.0
 47
0.1
 48
0.1
 73
     0
 74
     0
 77
     1
 78
     8
 79
     2
140
3.200000000000001
141
0.0
143
0.0393701
146
0.71
147
1.0
172
     1
176
   256
177
   256
178
     2
271
     2
272
     2
283
     0
284
     8
340
11
341
A66
342
6C4
371
    -1
372
    -1
1001
ACAD_DSTYLE_DIMJOGGED_JOGANGLE_SYMBOL
1070
   384
1040
0.7853981633974483
1001
ACAD_DSTYLE_DIMARC_LENGTH_SYMBOL
1070
   379
1070
     1
  0
DIMSTYLE
105
AF99
330
A
100
AcDbSymbolTableRecord
100
AcDbDimStyleTableRecord
  2
AM_ISO
 70
     0
  4
"
 41
2.5
 42
1.0
 43
10.0
 44
1.0
 47
0.1
 48
0.1
 73
     0
 74
     0
 77
     1
 78
     8
 79
     2
140
3.5
141
0.0
143
0.0393701
146
0.71
147
1.5
172
     1
176
   256
177
   256
178
     2
271
     2
272
     3
274
     4
283
     0
284
     8
340
11
371
    -1
372
    -1
  0
DIMSTYLE
105
AF9A
330
A
100
AcDbSymbolTableRecord
100
AcDbDimStyleTableRecord
  2
AM_ISO$3
 70
     0
  4
"
 41
2.5
 42
1.0
 43
10.0
 44
1.0
 47
0.1
 48
0.1
 73
     0
 77
     1
 78
     8
 79
     2
140
3.5
141
0.0
143
0.0393701
146
0.71
147
1.5
176
   256
177
   256
178
     2
271
     2
272
     3
274
     4
283
     0
284
     8
288
     1
289
     0
340
11
371
    -1
372
    -1
  0
DIMSTYLE
105
AF9B
330
A
100
AcDbSymbolTableRecord
100
AcDbDimStyleTableRecord
  2
AM_ISO$4
 70
     0
  4
"
 41
2.5
 42
1.0
 43
10.0
 44
1.0
 47
0.1
 48
0.1
 73
     0
 77
     1
 78
     8
 79
     2
140
3.5
141
0.0
143
0.0393701
146
0.71
147
1.5
176
   256
177
   256
178
     2
271
     2
272
     3
274
     4
283
     0
284
     8
288
     1
289
     0
340
11
371
    -1
372
    -1
  0
DIMSTYLE
105
AF9C
330
A
100
AcDbSymbolTableRecord
100
AcDbDimStyleTableRecord
  2
AM_ISO$6
 70
     0
  4
"
 41
2.5
 42
1.0
 43
10.0
 44
1.0
 47
0.1
 48
0.1
 73
     0
 74
     0
 78
     8
 79
     2
140
3.5
141
0.0
143
0.0393701
146
0.71
147
1.5
172
     1
176
   256
177
   256
178
     2
271
     2
272
     3
274
     4
283
     0
284
     8
340
11
371
    -1
372
    -1
  0
DIMSTYLE
105
AF9D
330
A
100
AcDbSymbolTableRecord
100
AcDbDimStyleTableRecord
  2
AM_ISO$7
 70
     0
  4
"
 41
2.5
 42
1.0
 43
10.0
 44
1.0
 47
0.1
 48
0.1
 73
     0
 74
     0
 77
     1
 78
     8
 79
     2
140
5.0
141
0.0
143
0.0393701
146
0.71
147
1.5
172
     1
176
   256
177
   256
178
     2
271
     2
272
     3
274
     4
283
     0
284
     8
340
11
371
    -1
372
    -1
  0
DIMSTYLE
105
AF9E
330
A
100
AcDbSymbolTableRecord
100
AcDbDimStyleTableRecord
  2
AM_ISO$SF
 70
     0
  4
"
 41
2.5
 42
1.0
 43
10.0
 44
1.0
 47
0.1
 48
0.1
 73
     0
 74
     0
 75
     1
 76
     1
 77
     1
 78
     8
 79
     2
140
3.5
141
0.0
143
0.0393701
146
0.71
147
1.5
172
     1
176
   256
177
   256
178
     2
271
     2
272
     3
274
     4
283
     0
284
     8
340
11
371
    -1
372
    -1
  0
DIMSTYLE
105
AF9F
330
A
100
AcDbSymbolTableRecord
100
AcDbDimStyleTableRecord
  2
AM_ISO$SH
 70
     0
  4
"
 41
2.5
 42
1.0
 43
10.0
 44
1.0
 47
0.1
 48
0.1
 73
     0
 74
     0
 75
     1
 76
     1
 77
     1
 78
     8
 79
     2
140
3.5
141
0.0
143
0.0393701
144
2.0
146
0.71
147
1.5
172
     1
173
     1
176
   256
177
   256
178
     2
271
     2
272
     3
274
     4
283
     0
284
     8
340
11
343
72
371
    -1
372
    -1
  0
DIMSTYLE
105
B658
330
A
100
AcDbSymbolTableRecord
100
AcDbDimStyleTableRecord
  2
AM_ANSI
 70
     0
  4
mm
 41
0.1
 42
0.05
 43
0.5
 44
0.1
 47
0.1
 48
0.1
 78
     7
 79
     2
140
0.12
141
0.0
146
0.71
147
0.06
176
   256
177
   256
178
     2
274
     4
284
     7
340
11
371
    -1
372
    -1
  0
ENDTAB
  0
TABLE
  2
BLOCK_RECORD
  5
1
330
0
100
AcDbSymbolTable
 70
    37
  0
BLOCK_RECORD
  5
1F
102
{ACAD_XDICTIONARY
360
8A
102
}
330
1
100
AcDbSymbolTableRecord
100
AcDbBlockTableRecord
  2
*Model_Space
340
22
  0
BLOCK_RECORD
  5
1B
330
1
100
AcDbSymbolTableRecord
100
AcDbBlockTableRecord
  2
*Paper_Space
340
1E
  0
BLOCK_RECORD
  5
23
330
1
100
AcDbSymbolTableRecord
100
AcDbBlockTableRecord
  2
*Paper_Space0
340
26
  0
BLOCK_RECORD
  5
72
330
1
100
AcDbSymbolTableRecord
100
AcDbBlockTableRecord
  2
GENAXEH
340
0
  0
BLOCK_RECORD
  5
6C4
330
1
100
AcDbSymbolTableRecord
100
AcDbBlockTableRecord
  2
_Dot
340
0
102
{BLKREFS
331
CD65
331
CD66
331
CD6E
331
CD6F
331
CD77
331
CD78
331
CD80
331
CD81
331
CD89
331
CD8A
331
CD92
331
CD93
331
CDF0
331
CDF1
331
CDFA
331
CDFB
331
CE04
331
CE05
331
CE0D
331
CE0E
331
CE16
331
CE17
331
CE1F
331
CE20
331
CE28
331
CE29
331
CF17
331
CF18
331
CF21
331
CF22
331
CF2B
331
CF2C
331
CF34
331
CF35
331
CF3D
331
CF3E
331
CF46
331
CF47
331
CF4F
331
CF50
331
CF58
331
CF59
331
CF61
331
CF62
331
CF6A
331
CF6B
331
CF73
331
CF74
331
CF7C
331
CF7D
331
CF85
331
CF86
102
}
  0
BLOCK_RECORD
  5
A66
330
1
100
AcDbSymbolTableRecord
100
AcDbBlockTableRecord
  2
_OPEN30
340
0
  0
BLOCK_RECORD
  5
B50A
102
{ACAD_XDICTIONARY
360
B563
102
}
330
1
100
AcDbSymbolTableRecord
100
AcDbBlockTableRecord
  2
SYS表題(AIS11)
340
0
  0
BLOCK_RECORD
  5
B60A
102
{ACAD_XDICTIONARY
360
B61A
102
}
330
1
100
AcDbSymbolTableRecord
100
AcDbBlockTableRecord
  2
SYS図枠A4(AIS11)
340
0
  0
BLOCK_RECORD
  5
C53D
330
1
100
AcDbSymbolTableRecord
100
AcDbBlockTableRecord
  2
GENDOT
340
0
102
{BLKREFS
331
CDA6
331
CDA7
331
CF99
331
CF9A
102
}
  0
BLOCK_RECORD
  5
C844
330
1
100
AcDbSymbolTableRecord
100
AcDbBlockTableRecord
  2
*D8
340
0
  0
BLOCK_RECORD
  5
C850
330
1
100
AcDbSymbolTableRecord
100
AcDbBlockTableRecord
  2
*D9
340
0
  0
BLOCK_RECORD
  5
C85D
330
1
100
AcDbSymbolTableRecord
100
AcDbBlockTableRecord
  2
*D10
340
0
  0
BLOCK_RECORD
  5
C86A
330
1
100
AcDbSymbolTableRecord
100
AcDbBlockTableRecord
  2
*D11
340
0
  0
BLOCK_RECORD
  5
C877
330
1
100
AcDbSymbolTableRecord
100
AcDbBlockTableRecord
  2
*D12
340
0
  0
BLOCK_RECORD
  5
C883
330
1
100
AcDbSymbolTableRecord
100
AcDbBlockTableRecord
  2
*D13
340
0
  0
BLOCK_RECORD
  5
C88F
330
1
100
AcDbSymbolTableRecord
100
AcDbBlockTableRecord
  2
*D14
340
0
  0
BLOCK_RECORD
  5
C89B
330
1
100
AcDbSymbolTableRecord
100
AcDbBlockTableRecord
  2
*D15
340
0
  0
BLOCK_RECORD
  5
C8A7
330
1
100
AcDbSymbolTableRecord
100
AcDbBlockTableRecord
  2
*D16
340
0
  0
BLOCK_RECORD
  5
C8B3
330
1
100
AcDbSymbolTableRecord
100
AcDbBlockTableRecord
  2
*D17
340
0
  0
BLOCK_RECORD
  5
C8BF
330
1
100
AcDbSymbolTableRecord
100
AcDbBlockTableRecord
  2
*D18
340
0
  0
BLOCK_RECORD
  5
C8D4
330
1
100
AcDbSymbolTableRecord
100
AcDbBlockTableRecord
  2
*D19
340
0
  0
BLOCK_RECORD
  5
C8E0
330
1
100
AcDbSymbolTableRecord
100
AcDbBlockTableRecord
  2
*D20
340
0
  0
BLOCK_RECORD
  5
C8EC
330
1
100
AcDbSymbolTableRecord
100
AcDbBlockTableRecord
  2
*D21
340
0
  0
BLOCK_RECORD
  5
CC65
330
1
100
AcDbSymbolTableRecord
100
AcDbBlockTableRecord
  2
*D22
340
0
  0
BLOCK_RECORD
  5
CC71
330
1
100
AcDbSymbolTableRecord
100
AcDbBlockTableRecord
  2
*D23
340
0
  0
BLOCK_RECORD
  5
CC7E
330
1
100
AcDbSymbolTableRecord
100
AcDbBlockTableRecord
  2
*D24
340
0
  0
BLOCK_RECORD
  5
CC8B
330
1
100
AcDbSymbolTableRecord
100
AcDbBlockTableRecord
  2
*D25
340
0
  0
BLOCK_RECORD
  5
CC98
330
1
100
AcDbSymbolTableRecord
100
AcDbBlockTableRecord
  2
*D26
340
0
  0
BLOCK_RECORD
  5
CCA4
330
1
100
AcDbSymbolTableRecord
100
AcDbBlockTableRecord
  2
*D27
340
0
  0
BLOCK_RECORD
  5
CCB0
330
1
100
AcDbSymbolTableRecord
100
AcDbBlockTableRecord
  2
*D28
340
0
  0
BLOCK_RECORD
  5
CCBC
330
1
100
AcDbSymbolTableRecord
100
AcDbBlockTableRecord
  2
*D29
340
0
  0
BLOCK_RECORD
  5
CCC8
330
1
100
AcDbSymbolTableRecord
100
AcDbBlockTableRecord
  2
*D30
340
0
  0
BLOCK_RECORD
  5
CCD4
330
1
100
AcDbSymbolTableRecord
100
AcDbBlockTableRecord
  2
*D31
340
0
  0
BLOCK_RECORD
  5
CCE0
330
1
100
AcDbSymbolTableRecord
100
AcDbBlockTableRecord
  2
*D32
340
0
  0
BLOCK_RECORD
  5
CCF5
330
1
100
AcDbSymbolTableRecord
100
AcDbBlockTableRecord
  2
*D33
340
0
  0
BLOCK_RECORD
  5
CD01
330
1
100
AcDbSymbolTableRecord
100
AcDbBlockTableRecord
  2
*D34
340
0
  0
BLOCK_RECORD
  5
CD0D
330
1
100
AcDbSymbolTableRecord
100
AcDbBlockTableRecord
  2
*D35
340
0
  0
BLOCK_RECORD
  5
CF9D
330
1
100
AcDbSymbolTableRecord
100
AcDbBlockTableRecord
  2
*S36
340
0
  0
ENDTAB
  0
ENDSEC
  0
SECTION
  2
BLOCKS
  0
BLOCK
  5
20
330
1F
100
AcDbEntity
  8
0
100
AcDbBlockBegin
  2
*Model_Space
 70
     0
 10
0.0
 20
0.0
 30
0.0
  3
*Model_Space
  1

  0
ENDBLK
  5
21
330
1F
100
AcDbEntity
  8
0
100
AcDbBlockEnd
  0
BLOCK
  5
1C
330
1B
100
AcDbEntity
 67
     1
  8
0
100
AcDbBlockBegin
  2
*Paper_Space
 70
     0
 10
0.0
 20
0.0
 30
0.0
  3
*Paper_Space
  1

  0
ENDBLK
  5
1D
330
1B
100
AcDbEntity
 67
     1
  8
0
100
AcDbBlockEnd
  0
BLOCK
  5
24
330
23
100
AcDbEntity
 67
     1
  8
0
100
AcDbBlockBegin
  2
*Paper_Space0
 70
     0
 10
0.0
 20
0.0
 30
0.0
  3
*Paper_Space0
  1

  0
ENDBLK
  5
25
330
23
100
AcDbEntity
 67
     1
  8
0
100
AcDbBlockEnd
  0
BLOCK
  5
74
330
72
100
AcDbEntity
  8
0
100
AcDbBlockBegin
  2
GENAXEH
 70
     0
 10
0.0
 20
0.0
 30
0.0
  3
GENAXEH
  1

  0
LINE
  5
73
330
72
100
AcDbEntity
  8
0
100
AcDbLine
 10
-1.0
 20
0.0
 30
0.0
 11
1.0
 21
0.0
 31
0.0
  0
ENDBLK
  5
75
330
72
100
AcDbEntity
  8
0
100
AcDbBlockEnd
  0
BLOCK
  5
6C7
330
6C4
100
AcDbEntity
  8
0
100
AcDbBlockBegin
  2
_Dot
 70
     0
 10
0.0
 20
0.0
 30
0.0
  3
_Dot
  1

  0
LWPOLYLINE
  5
6C5
330
6C4
100
AcDbEntity
  8
0
  6
ByBlock
 62
     0
100
AcDbPolyline
 90
        2
 70
     1
 43
0.5
 10
-0.25
 20
0.0
 42
1.0
 10
0.25
 20
0.0
 42
1.0
  0
LINE
  5
6C6
330
6C4
100
AcDbEntity
  8
0
  6
ByBlock
 62
     0
370
    -2
100
AcDbLine
 10
-0.5
 20
0.0
 30
0.0
 11
-1.0
 21
0.0
 31
0.0
  0
ENDBLK
  5
6C8
330
6C4
100
AcDbEntity
  8
0
100
AcDbBlockEnd
  0
BLOCK
  5
A6A
330
A66
100
AcDbEntity
  8
0
100
AcDbBlockBegin
  2
_OPEN30
 70
     0
 10
0.0
 20
0.0
 30
0.0
  3
_OPEN30
  1

  0
LINE
  5
A67
330
A66
100
AcDbEntity
  8
0
  6
ByBlock
 62
     0
100
AcDbLine
 10
-1.0
 20
0.26794919
 30
0.0
 11
0.0
 21
0.0
 31
0.0
  0
LINE
  5
A68
330
A66
100
AcDbEntity
  8
0
  6
ByBlock
 62
     0
100
AcDbLine
 10
0.0
 20
0.0
 30
0.0
 11
-1.0
 21
-0.26794919
 31
0.0
  0
LINE
  5
A69
330
A66
100
AcDbEntity
  8
0
  6
ByBlock
 62
     0
100
AcDbLine
 10
0.0
 20
0.0
 30
0.0
 11
-1.0
 21
0.0
 31
0.0
  0
ENDBLK
  5
A6B
330
A66
100
AcDbEntity
  8
0
100
AcDbBlockEnd
  0
BLOCK
  5
B565
330
B50A
100
AcDbEntity
  8
0
100
AcDbBlockBegin
  2
SYS表題(AIS11)
 70
     2
 10
0.0
 20
0.0
 30
0.0
  3
SYS表題(AIS11)
  1

  0
LINE
  5
B50B
330
B50A
100
AcDbEntity
  8
waku
  6
Continuous
370
    40
100
AcDbLine
 10
-162.0
 20
0.0
 30
0.0
 11
0.0000000000004547
 21
0.0
 31
0.0
  0
LINE
  5
B50C
330
B50A
100
AcDbEntity
  8
hyosen2
  6
Continuous
370
    40
100
AcDbLine
 10
-115.0000000000004
 20
25.0
 30
0.0
 11
-115.0000000000004
 21
0.0
 31
0.0
  0
LINE
  5
B50D
330
B50A
100
AcDbEntity
  8
waku
  6
Continuous
370
    40
100
AcDbLine
 10
0.0
 20
25.0
 30
0.0
 11
0.0
 21
0.0
 31
0.0
  0
LINE
  5
B50E
330
B50A
100
AcDbEntity
  8
waku
  6
Continuous
370
    40
100
AcDbLine
 10
-162.0000000000007
 20
24.99999999999977
 30
0.0
 11
-162.0000000000013
 21
-0.0000000000002274
 31
0.0
  0
LINE
  5
B50F
330
B50A
100
AcDbEntity
  8
hyosen2
  6
Continuous
370
    40
100
AcDbLine
 10
-115.0000000000004
 20
14.0
 30
0.0
 11
-68.00000000000022
 21
14.0
 31
0.0
  0
LINE
  5
B510
330
B50A
100
AcDbEntity
  8
hyosen2
  6
Continuous
100
AcDbLine
 10
-62.99999999999977
 20
25.0
 30
0.0
 11
-62.99999999999977
 21
0.0
 31
0.0
  0
TEXT
  5
B511
330
B50A
100
AcDbEntity
  8
hyomoji
  6
Continuous
100
AcDbText
 10
-66.38199999999978
 20
3.88682935783594
 30
0.0
 40
2.7
  1
図
 41
0.7
 72
     4
 11
-65.49999999999977
 21
5.14682935783594
 31
0.0
100
AcDbText
  0
TEXT
  5
B512
330
B50A
100
AcDbEntity
  8
hyomoji
  6
Continuous
100
AcDbText
 10
-66.38199999999978
 20
0.6847767415209991
 30
0.0
 40
2.7
  1
番
 41
0.7
 72
     4
 11
-65.49999999999977
 21
2.034776741521
 31
0.0
100
AcDbText
  0
LINE
  5
B513
330
B50A
100
AcDbEntity
  8
hyosen2
  6
Continuous
100
AcDbLine
 10
-16.0
 20
6.935723472010067
 30
0.0
 11
-16.0
 21
-0.0642765279899322
 31
0.0
  0
LINE
  5
B514
330
B50A
100
AcDbEntity
  8
hyosen1
  6
Continuous
370
    40
100
AcDbLine
 10
-68.0
 20
7.0
 30
0.0
 11
0.0
 21
7.0
 31
0.0
  0
LINE
  5
B515
330
B50A
100
AcDbEntity
  8
hyosen2
  6
Continuous
370
    40
100
AcDbLine
 10
-68.0
 20
25.0
 30
0.0
 11
-68.0
 21
0.0
 31
0.0
  0
LINE
  5
B516
330
B50A
100
AcDbEntity
  8
hyosen2
  6
Continuous
100
AcDbLine
 10
-11.0
 20
6.935723472010067
 30
0.0
 11
-11.0
 21
-0.0642765279899322
 31
0.0
  0
TEXT
  5
B517
330
B50A
100
AcDbEntity
  8
hyomoji
  6
Continuous
100
AcDbText
 10
-15.46193093476272
 20
4.000214592721325
 30
0.0
 40
2.5
  1
図面
 41
0.7
 72
     4
 11
-13.53693093476272
 21
5.166881259387992
 31
0.0
100
AcDbText
  0
TEXT
  5
B518
330
B50A
100
AcDbEntity
  8
hyomoji
  6
Continuous
100
AcDbText
 10
-15.40359760142939
 20
0.6302759610207432
 30
0.0
 40
2.5
  1
枚数
 41
0.7
 72
     4
 11
-13.53693093476272
 21
1.880275961020743
 31
0.0
100
AcDbText
  0
LINE
  5
B519
330
B50A
100
AcDbEntity
  8
waku
  6
Continuous
370
    40
100
AcDbLine
 10
-162.0000000000007
 20
24.99999999999955
 30
0.0
 11
0.0
 21
25.00000000000114
 31
0.0
  0
LINE
  5
B51A
330
B50A
100
AcDbEntity
  8
hyosen2
  6
Continuous
370
    40
100
AcDbLine
 10
-162.0000000000002
 20
14.0
 30
0.0
 11
-115.0000000000004
 21
14.0
 31
0.0
  0
LINE
  5
B51B
330
B50A
100
AcDbEntity
  8
hyosen2
  6
Continuous
100
AcDbLine
 10
-150.0000000000002
 20
14.0
 30
0.0
 11
-150.0000000000002
 21
0.0
 31
0.0
  0
TEXT
  5
B51C
330
B50A
100
AcDbEntity
  8
hyomoji
  6
Continuous
100
AcDbText
 10
-158.2400000000002
 20
10.25
 30
0.0
 40
3.0
  1
承認
 41
0.7
 72
     4
 11
-156.0000000000002
 21
11.75
 31
0.0
100
AcDbText
  0
LINE
  5
B51D
330
B50A
100
AcDbEntity
  8
hyosen2
  6
Continuous
100
AcDbLine
 10
-127.0000000000002
 20
14.0
 30
0.0
 11
-127.0000000000002
 21
0.0
 31
0.0
  0
TEXT
  5
B51E
330
B50A
100
AcDbEntity
  8
hyomoji
  6
Continuous
100
AcDbText
 10
-140.7400000000002
 20
10.25
 30
0.0
 40
3.0
  1
確認
 41
0.7
 72
     4
 11
-138.5000000000002
 21
11.75
 31
0.0
100
AcDbText
  0
TEXT
  5
B51F
330
B50A
100
AcDbEntity
  8
hyomoji
  6
Continuous
100
AcDbText
 10
-123.5436856926269
 20
10.25
 30
0.0
 40
3.0
  1
作成
 41
0.7
 72
     4
 11
-121.3036856926269
 21
11.75
 31
0.0
100
AcDbText
  0
LINE
  5
B520
330
B50A
100
AcDbEntity
  8
hyosen2
  6
Continuous
100
AcDbLine
 10
-162.0000000000007
 20
9.5
 30
0.0
 11
-115.0000000000009
 21
9.5
 31
0.0
  0
LINE
  5
B521
330
B50A
100
AcDbEntity
  8
hyosen1
  6
Continuous
370
    40
100
AcDbLine
 10
-68.0
 20
14.0
 30
0.0
 11
0.0
 21
14.0
 31
0.0
  0
TEXT
  5
B522
330
B50A
100
AcDbEntity
  8
hyomoji
  6
Continuous
100
AcDbText
 10
-66.38200000000001
 20
10.83643685350829
 30
0.0
 40
2.7
  1
品
 41
0.7
 72
     4
 11
-65.5
 21
12.09643685350829
 31
0.0
100
AcDbText
  0
TEXT
  5
B523
330
B50A
100
AcDbEntity
  8
hyomoji
  6
Continuous
100
AcDbText
 10
-66.38200000000001
 20
7.751387192220043
 30
0.0
 40
2.7
  1
番
 41
0.7
 72
     4
 11
-65.5
 21
9.101387192220045
 31
0.0
100
AcDbText
  0
LINE
  5
B524
330
B50A
100
AcDbEntity
  8
hyosen2
  6
Continuous
100
AcDbLine
 10
-63.0
 20
18.0
 30
0.0
 11
0.0000000000004547
 21
18.0
 31
0.0
  0
TEXT
  5
B525
330
B50A
100
AcDbEntity
  8
hyomoji
  6
Continuous
100
AcDbText
 10
-66.38200000000001
 20
20.15681154346952
 30
0.0
 40
2.7
  1
品
 41
0.7
 72
     4
 11
-65.5
 21
21.41681154346952
 31
0.0
100
AcDbText
  0
TEXT
  5
B526
330
B50A
100
AcDbEntity
  8
hyomoji
  6
Continuous
100
AcDbText
 10
-66.319
 20
16.79718774654829
 30
0.0
 40
2.7
  1
名
 41
0.7
 72
     4
 11
-65.5
 21
18.1471877465483
 31
0.0
100
AcDbText
  0
LWPOLYLINE
  5
B527
330
B50A
100
AcDbEntity
  8
hyomoji
  6
Continuous
370
     9
100
AcDbPolyline
 90
        8
 70
   129
 43
0.0
 10
-94.71664269381063
 20
7.51672279306581
 42
-0.6021429256477856
 10
-94.74876257508389
 20
7.577406929225617
 10
-94.3643184158509
 20
8.142763822137112
 42
-0.2483280785897051
 10
-94.3000786533039
 20
8.17676568286356
 10
-93.49406859106215
 20
8.17676568286356
 42
-0.2483286500869998
 10
-93.42982873445725
 20
8.142763683815473
 10
-93.04538640247892
 20
7.577406860064911
 42
-0.6021421921708056
 10
-93.07750633078171
 20
7.51672279306581
  0
LWPOLYLINE
  5
B528
330
B50A
100
AcDbEntity
  8
hyomoji
  6
Continuous
370
     9
100
AcDbPolyline
 90
       12
 70
   129
 43
0.0
 10
-95.10066352813693
 20
7.206114336880773
 10
-95.10066352813693
 20
7.381138154179552
 42
0.4422835312456968
 10
-95.14318581001338
 20
7.419805994050648
 10
-95.48861490902391
 20
7.386933916044881
 10
-94.80150443173148
 20
8.397389580015442
 42
-0.251104977230494
 10
-94.64166799998498
 20
8.487374139048597
 10
-93.16046721299699
 20
8.487374139048597
 42
-0.2453004937928962
 10
-92.99950197713906
 20
8.407546927133807
 10
-92.30556057799777
 20
7.387044538439795
 10
-92.650906417339
 20
7.419908976284204
 42
0.4422837740584967
 10
-92.69342873062669
 20
7.381241139402163
 10
-92.69342873062669
 20
7.206114336880773
  0
LWPOLYLINE
  5
B529
330
B50A
100
AcDbEntity
  8
hyomoji
  6
Continuous
370
     9
100
AcDbPolyline
 90
       18
 70
   129
 43
0.0
 10
-93.52253906807527
 20
6.507245342302439
 10
-92.81460158919413
 20
6.507245342302439
 10
-92.46227902959139
 20
5.862752078807261
 42
-0.56960330458711
 10
-92.63269060855964
 20
5.575381194890269
 10
-95.16142443937724
 20
5.575381194890269
 42
-0.569603703070891
 10
-95.33183590623185
 20
5.862752283892632
 10
-94.92603195720221
 20
6.605075352594667
 42
0.569603703070901
 10
-94.9601142505735
 20
6.66254957039473
 10
-95.48894367882553
 20
6.66254957039473
 10
-95.48894367882553
 20
6.973158026579994
 10
-92.30514857993808
 20
6.973158026579994
 10
-92.30514857993808
 20
6.66254957039473
 10
-94.16361950950046
 20
6.66254957039473
 42
0.2742066828570859
 10
-94.1977017820227
 20
6.642338759809945
 10
-94.57975501613532
 20
5.943463907013665
 42
0.569604073583639
 10
-94.54567274361307
 20
5.885989651075306
 10
-93.24842050934785
 20
5.885989651075306
 42
0.5696036141370885
 10
-93.21433821097276
 20
5.943463859721532
  0
LWPOLYLINE
  5
B52A
330
B50A
100
AcDbEntity
  8
hyomoji
  6
Continuous
370
     9
100
AcDbPolyline
 90
       23
 70
   129
 43
0.0
 10
-113.7268241398469
 20
6.250351779631046
 42
0.0223985860000053
 10
-113.5470175960388
 20
6.069365314279821
 42
0.0223985860000067
 10
-113.3298184279569
 20
5.895937796930184
 42
0.0223985860000024
 10
-113.0769694554942
 20
5.731459981301895
 42
0.0220669162099173
 10
-112.7948354676327
 20
5.579344997231373
 42
0.4330144820686968
 10
-112.7627586028536
 20
5.591673044677008
 10
-112.5949318145867
 20
6.003944023309486
 42
0.1957402929298021
 10
-112.5949313315429
 20
6.414003627072816
 10
-113.0029292479371
 20
7.416268145310141
 42
-0.1957419841521856
 10
-113.0029276888965
 20
7.767750618383161
 10
-112.7323557985662
 20
8.432405278217402
 42
0.6213425724569266
 10
-112.7650957515457
 20
8.459104097606996
 42
0.0223985860000949
 10
-113.0542784116799
 20
8.305810639210903
 42
0.0223985859999093
 10
-113.3100201977245
 20
8.142141767095154
 42
0.0223985859999842
 10
-113.5302700965744
 20
7.969410104177995
 42
0.0223985860000033
 10
-113.7132623648729
 20
7.789000736989009
 42
0.0223985859999945
 10
-113.8575286275093
 20
7.602360390702187
 42
0.0223985860000046
 10
-113.9619125231659
 20
7.410985776373763
 42
0.0223985860000012
 10
-114.0255773454698
 20
7.216411492448287
 42
0.0223985859999998
 10
-114.0480117738614
 20
7.020197926266973
 42
0.0223985859999993
 10
-114.029036877982
 20
6.823918455131661
 42
0.0223985859999987
 10
-113.968803570624
 20
6.629147156783574
 42
0.0223985859999964
 10
-113.8677964283099
 20
6.437445819441563
 42
0.0223985860000002
  0
LWPOLYLINE
  5
B52B
330
B50A
100
AcDbEntity
  8
hyomoji
  6
Continuous
370
     9
100
AcDbPolyline
 90
       23
 70
   129
 43
0.0
 10
-103.8091594853931
 20
6.606475788939405
 42
-0.0225609849999951
 10
-103.9158153508642
 20
6.41386534529056
 42
-0.0225609850000035
 10
-104.0628916479152
 20
6.226121043267085
 42
-0.022560985000006
 10
-104.2491918991691
 20
6.04477022221863
 42
-0.0225609849999973
 10
-104.4732006090657
 20
5.871288388998891
 42
-0.0225609849999909
 10
-104.733094725593
 20
5.707086928443004
 42
-0.0225466705714752
 10
-105.0265696694339
 20
5.553590591288184
 42
-0.6820149919169938
 10
-105.0583583690729
 20
5.583821782525319
 10
-104.813222817605
 20
6.185992327983512
 42
0.1957433897416816
 10
-104.8132220528773
 20
6.596057940510036
 10
-105.2092974689358
 20
7.569019615279557
 42
-0.1957432007478236
 10
-105.2092968534884
 20
7.979084861101
 10
-105.0215968014395
 20
8.440167220227749
 42
-0.4317106519725617
 10
-104.9896131621474
 20
8.452539934886317
 42
-0.0225711483270752
 10
-104.6997818408374
 20
8.297536988598267
 42
-0.0225609850000041
 10
-104.4441260177748
 20
8.132138986989048
 42
-0.022560984999992
 10
-104.2245931138832
 20
7.957627826638145
 42
-0.0225609849999975
 10
-104.0429679754031
 20
7.775423170297017
 42
-0.0225609850000032
 10
-103.9007291656501
 20
7.5870074018585
 42
-0.0225609849999971
 10
-103.7990336827058
 20
7.393913464184606
 42
-0.0225609850000056
 10
-103.7387080447365
 20
7.197712251202119
 42
-0.0225609849999966
 10
-103.7202444694171
 20
7.0
 42
-0.0225609849999982
 10
-103.7437919592537
 20
6.802385300864671
 42
-0.0225609850000013
  0
LWPOLYLINE
  5
B52C
330
B50A
100
AcDbEntity
  8
hyomoji
  6
Continuous
370
     9
100
AcDbPolyline
 90
       46
 70
   129
 43
0.0
 10
-110.519768731164
 20
4.931233688523661
 42
0.0067740668000082
 10
-110.3864681614013
 20
4.913172228938265
 42
0.0067740667999966
 10
-110.2520640816365
 20
4.896651608074307
 42
0.00677406679999
 10
-110.1166558268724
 20
4.881683988101485
 42
0.0067740668000013
 10
-109.9803427321119
 20
4.868280257664764
 42
0.0067740668000002
 10
-109.8432247691212
 20
4.856450350263912
 42
0.0067636405007582
 10
-109.705614869343
 20
4.846215763771624
 42
0.3216815158956166
 10
-109.6823639763015
 20
4.860849479223816
 10
-109.0305054224016
 20
6.462145869264986
 42
0.6036079430413216
 10
-109.057350599905
 20
6.494047360847616
 42
-0.0968770041122301
 10
-110.2622835208153
 20
6.467861583611238
 42
-0.4787358622778684
 10
-110.8492829567522
 20
7.526226966682088
 10
-110.2098189151504
 20
9.097085087812047
 42
0.5685357036715337
 10
-110.2342375268879
 20
9.129384786912851
 42
0.0037682570573848
 10
-110.3092103627439
 20
9.120496988302875
 42
0.003796761400007
 10
-110.3844216056329
 20
9.111059971979784
 42
0.0037967614000019
 10
-110.4592877230613
 20
9.101138888545392
 42
0.0037967614000093
 10
-110.5337902489084
 20
9.090735902993856
 42
0.0037967613999978
 10
-110.6079119905773
 20
9.079853435023323
 42
0.0037967614000032
 10
-110.6816363922337
 20
9.068494095361756
 42
0.0037967614000015
 10
-110.754946261281
 20
9.056660431060208
 42
0.0037967613999987
 10
-110.827825041885
 20
9.044355180199318
 42
0.0037967613999957
 10
-110.9002549046868
 20
9.031581208211719
 42
0.0037967613999885
 10
-110.972219930615
 20
9.018341444206271
 42
0.0037967613999968
 10
-111.0437035638358
 20
9.004638880968059
 42
0.003796761399993
 10
-111.1146886117533
 20
8.990476765988205
 42
0.0037967614000086
 10
-111.1851597920581
 20
8.975858346757149
 42
0.0037967614000003
 10
-111.255099912154
 20
8.96078693444133
 42
0.0037967613999995
 10
-111.3244930529702
 20
8.945266094912994
 42
0.0038055234898925
 10
-111.3934824936702
 20
8.929261274685359
 42
0.2417074229057139
 10
-111.4098051015228
 20
8.915234771530322
 10
-111.8650382388573
 20
7.796940065814169
 42
0.1957404060663561
 10
-111.865038329053
 20
7.386880242530423
 10
-111.4689880787043
 20
6.41396895865364
 42
-0.1957405476044069
 10
-111.4689882806954
 20
6.00390886074274
 10
-111.7862250935463
 20
5.224607739534121
 42
0.4443455524912625
 10
-111.7710237743845
 20
5.193113677398741
 42
0.0067708198256604
 10
-111.6540216434309
 20
5.1605708935449
 42
0.0067740668000073
 10
-111.5349304364506
 20
5.129370851569774
 42
0.0067740668000071
 10
-111.4138932822307
 20
5.099552967015597
 42
0.0067740668000066
 10
-111.2909986908046
 20
5.07113908084807
 42
0.0067740667999989
 10
-111.1663370824974
 20
5.044150015212153
 42
0.0067740668000009
 10
-111.0400001511566
 20
5.018605637108294
 42
0.0067740668000062
 10
-110.9120802273951
 20
4.99452466736443
 42
0.0067740668000053
 10
-110.7826715521128
 20
4.971924807987306
 42
0.0067740668000071
 10
-110.6518690029729
 20
4.950822678486701
 42
0.0067740668000022
  0
LWPOLYLINE
  5
B52D
330
B50A
100
AcDbEntity
  8
hyomoji
  6
Continuous
370
     9
100
AcDbPolyline
 90
       42
 70
   129
 43
0.0
 10
-107.0325217536542
 20
4.964147322978988
 42
0.0068021948000069
 10
-106.9020636932109
 20
4.986304122771798
 42
0.0068021948000014
 10
-106.7730727343519
 20
5.009960371701254
 42
0.0068021947999925
 10
-106.6456443915033
 20
5.035098622465056
 42
0.0068021948000045
 10
-106.5198729055644
 20
5.061700281589082
 42
0.0067876847517197
 10
-106.3961149632876
 20
5.0896821989827
 42
0.2416094440683337
 10
-106.3798008370786
 20
5.10370666303288
 10
-105.9412231671285
 20
6.181086424920977
 42
0.1957413290603471
 10
-105.941223786604
 20
6.601231521413183
 10
-106.3352129692118
 20
7.569070096907807
 42
-0.1957413474957244
 10
-106.3352135592583
 20
7.979131746854136
 10
-105.9993061639691
 20
8.804298600408856
 42
0.4460668776922764
 10
-106.0146375343697
 20
8.835830324484732
 42
0.0028283786038634
 10
-106.0633916340969
 20
8.849503076646669
 42
0.0028494113000101
 10
-106.1128738376581
 20
8.863040909337769
 42
0.0028494112999968
 10
-106.1627164489871
 20
8.876338300380666
 42
0.0028494113000006
 10
-106.2129124636919
 20
8.889393466838782
 42
0.0028494113000024
 10
-106.2634555141451
 20
8.902204753128671
 42
0.002849411299989
 10
-106.3143385959552
 20
8.914770503667796
 42
0.0028494113000037
 10
-106.3655559782564
 20
8.927089062872255
 42
0.0028494112999894
 10
-106.4171000198944
 20
8.939158838834828
 42
0.0028494113000082
 10
-106.4689649900042
 20
8.950978239648975
 42
0.0028494112999955
 10
-106.5211432474314
 20
8.962545800759244
 42
0.0028494113000056
 10
-106.5736290613101
 20
8.973859930259095
 42
0.0028494113000083
 10
-106.6264147904874
 20
8.984919290946663
 42
0.0028494112999919
 10
-106.6794934305705
 20
8.9957222909145
 42
0.0028494112999998
 10
-106.7328586139322
 20
9.006267592961194
 42
0.0028494113000083
 10
-106.7865033361811
 20
9.016553859884425
 42
0.0028485312981507
 10
-106.8404039239449
 20
9.026576689379226
 42
0.3543993923517316
 10
-106.8664005303705
 20
9.012272432784357
 10
-108.5584562824822
 20
4.855704245478136
 42
0.5392714590992974
 10
-108.5361428249079
 20
4.823266086778858
 42
0.0068019099602671
 10
-108.3961118072659
 20
4.828097465976725
 42
0.0068021947999971
 10
-108.2564359679456
 20
4.834545517526748
 42
0.0068021947999996
 10
-108.1172249654992
 20
4.842605470531225
 42
0.0068021948000011
 10
-107.9785813187429
 20
4.85227127574285
 42
0.0068021947999982
 10
-107.8406081832579
 20
4.863535801417583
 42
0.0068021948000014
 10
-107.7034080778608
 20
4.876390769638646
 42
0.0068021947999974
 10
-107.567080974318
 20
4.890826565286943
 42
0.0068021948000009
 10
-107.4317293914466
 20
4.906832554423772
 42
0.0068021948000053
 10
-107.2974533010122
 20
4.924396829583201
 42
0.0068021947999869
 10
-107.164350764493
 20
4.943506528156149
 42
0.006802194800004
  0
LWPOLYLINE
  5
B52E
330
B50A
100
AcDbEntity
  8
hyomoji
  6
Continuous
370
     9
100
AcDbPolyline
 90
       23
 70
   129
 43
0.0
 10
-109.4231429740809
 20
6.882717884956718
 42
0.1173827961225227
 10
-108.8350126422351
 20
6.998518263554387
 42
0.1913082464585806
 10
-108.7953116152546
 20
7.039902503188159
 10
-107.9519330850698
 20
9.111683775963001
 42
0.5046897278906438
 10
-107.9716881113106
 20
9.144036257163861
 42
0.0053970181929799
 10
-108.0815331347714
 20
9.152514060678413
 42
0.0031368713999882
 10
-108.1455316208044
 20
9.156812146174615
 42
0.003136871399997
 10
-108.2096530020646
 20
9.160768799436027
 42
0.0031368714000045
 10
-108.2738858168229
 20
9.164383320022579
 42
0.0031368713999919
 10
-108.3382198768724
 20
9.167655262201833
 42
0.0031368714000049
 10
-108.402646267534
 20
9.170583989209717
 42
0.0031368713999963
 10
-108.4671535270758
 20
9.173169055312655
 42
0.0031368714000025
 10
-108.5317321040561
 20
9.175410142129067
 42
0.0031368714000093
 10
-108.5963718102691
 20
9.177306803925603
 42
0.003136871400002
 10
-108.6610624575091
 20
9.178858785996453
 42
0.0031368714000044
 10
-108.7257944943337
 20
9.18006583363649
 42
0.0031368714000004
 10
-108.7905564590121
 20
9.180927755817037
 42
0.0031368713999985
 10
-108.8553388001012
 20
9.181444361509647
 42
0.0031368713999931
 10
-108.9201313293958
 20
9.181615714389863
 42
0.0031368713999985
 10
-108.98492385869
 20
9.181441623429464
 42
0.0023783812883705
 10
-109.0340426873699
 20
9.181122365766441
 42
0.3019404427550624
 10
-109.0555989232341
 20
9.166446722909313
 10
-109.767645508102
 20
7.4172944292402
 42
0.5200087835236676
  0
LWPOLYLINE
  5
B52F
330
B50A
100
AcDbEntity
  8
hyomoji
  6
Continuous
370
     9
100
AcDbPolyline
 90
       70
 70
   128
 43
0.0
 10
-99.76233953213478
 20
6.306771465494875
 42
0.8374115646471505
 10
-99.83752001083463
 20
6.29291573978071
 10
-99.83752001083463
 20
5.575381194890269
 10
-100.3810849683493
 20
5.575381194890269
 10
-100.3810849683493
 20
6.281787728428298
 42
0.8134131176983945
 10
-100.455548825774
 20
6.297275260672904
 10
-100.769415810897
 20
5.575381194890269
 10
-101.1576200999968
 20
5.575381194890269
 10
-100.5509443035839
 20
7.03589334323874
 42
0.534832613937013
 10
-100.5868152422815
 20
7.089636149892385
 10
-101.0680049636264
 20
7.089636149892385
 42
0.5537200791098316
 10
-101.1032359636654
 20
7.034043017295516
 10
-100.8856723246893
 20
6.639085554925031
 10
-101.2351669936095
 20
6.662385730247024
 10
-101.2869971928119
 20
6.778995892082321
 42
0.810044809672172
 10
-101.3905813946451
 20
6.757012486332769
 10
-101.3905813946451
 20
5.575381194890269
 10
-101.8953203747317
 20
5.575381194890269
 10
-101.8953203747317
 20
6.414624213681008
 42
0.8775035382925871
 10
-101.9416452787266
 20
6.420694930355466
 10
-102.0117741193614
 20
6.15771765363479
 10
-102.3225133761698
 20
6.118874928028162
 10
-101.909605046741
 20
7.507745460299247
 42
0.4860089347694501
 10
-101.9475909800196
 20
7.555548834169712
 10
-102.2447745479931
 20
7.555548834169712
 10
-102.2447745479931
 20
7.827331185574394
 10
-101.9339469658978
 20
7.827331185574394
 42
0.4143902720061034
 10
-101.8953203747317
 20
7.866380099852449
 10
-101.8953203747317
 20
8.487374139048597
 10
-101.3905813946451
 20
8.487374139048597
 10
-101.3905813946451
 20
7.866380099852449
 42
0.4174020605283751
 10
-101.3515560309561
 20
7.827331185574394
 10
-101.2543221953897
 20
7.827331185574394
 42
0.2351357873419996
 10
-101.1307401709759
 20
7.889680286716384
 10
-101.1187989158877
 20
7.905032989719074
 10
-101.1187989158877
 20
7.555548834169712
 10
-101.3250916272889
 20
7.555548834169712
 42
0.5903409348321763
 10
-101.3576144516721
 20
7.495842772770402
 10
-101.1859875423436
 20
7.184273741280094
 42
0.7474984379804729
 10
-101.1576255300783
 20
7.193389032087452
 10
-101.1576255300783
 20
7.361418564973064
 10
-100.4196995232653
 20
7.361418564973064
 42
0.4142994654112848
 10
-100.3810849683493
 20
7.400467415574667
 10
-100.3810849683493
 20
7.788727953967963
 42
0.4109416450539159
 10
-100.4196995232653
 20
7.827331185574394
 10
-100.7912990946367
 20
7.827331185574394
 42
-0.3758657869825331
 10
-101.1576255300783
 20
8.09918460794438
 10
-101.1576255300783
 20
8.487374139048597
 10
-100.6528865499915
 20
8.487374139048597
 10
-100.6528865499915
 20
8.137956133917441
 42
0.4142135623730951
 10
-100.6140440167301
 20
8.099113600655527
 10
-100.4199275016105
 20
8.099113600655527
 42
0.4142135623730951
 10
-100.3810849683493
 20
8.137956133917441
 10
-100.3810849683493
 20
8.487374139048597
 10
-99.83752001083463
 20
8.487374139048597
 10
-99.83752001083463
 20
8.137956133917441
 42
0.4142135623730951
 10
-99.79867747757294
 20
8.099113600655527
 10
-99.13863140396074
 20
8.099113600655527
 10
-99.13863140396074
 20
7.827331185574394
 10
-99.79890545591866
 20
7.827331185574394
 42
0.4142994654112848
 10
-99.83752001083463
 20
7.788282334972791
 10
-99.83752001083463
 20
7.400021796579721
 42
0.414127664552564
 10
-99.798482610895
 20
7.361418564973064
 10
-99.13863140396074
 20
7.361418564973064
 10
-99.13863140396074
 20
7.089636149892385
 10
-99.63201946690425
 20
7.089636149892385
 42
0.5442124499672577
 10
-99.66712910962996
 20
7.034687810013565
 10
-99.06095619162488
 20
5.575381194890269
 10
-99.48806833688013
 20
5.575381194890269
 10
-99.76233928528541
 20
6.306771558063019
  0
LWPOLYLINE
  5
B530
330
B50A
100
AcDbEntity
  8
hyomoji
  6
Continuous
370
     9
100
AcDbPolyline
 90
       43
 70
   129
 43
0.0
 10
-97.74087392986144
 20
5.955563778585428
 42
0.4538928057970519
 10
-97.68002238129179
 20
5.900852078569414
 10
-96.92552713035276
 20
6.080493954769508
 10
-96.92552713035276
 20
5.76925577305974
 10
-98.04681412898071
 20
5.614595287471956
 10
-98.82802294777548
 20
5.575534718410835
 10
-98.82802294777548
 20
5.885989651075306
 10
-98.32330116028584
 20
5.885989651075306
 42
0.4142135623730951
 10
-98.28445862702416
 20
5.924832184336764
 10
-98.28445862702416
 20
7.051032918285727
 42
0.4109416450539176
 10
-98.32307318194011
 20
7.089636149892385
 10
-98.82802294777548
 20
7.089636149892385
 10
-98.82802294777548
 20
7.361418564973064
 10
-97.08909590725149
 20
7.361418564973064
 42
0.4890132124780574
 10
-97.01379679493015
 20
7.458208951288725
 10
-97.10002099772488
 20
7.798041312208852
 42
0.3431714260423211
 10
-97.13767055388576
 20
7.827331185574394
 10
-98.82802294777548
 20
7.827331185574394
 10
-98.82802294777548
 20
8.099113600655527
 10
-97.27627109140236
 20
8.099113600655527
 42
0.4890148091784922
 10
-97.20097207755612
 20
8.195904375080544
 10
-97.27492704572979
 20
8.487374139048597
 10
-96.7313603934831
 20
8.487374139048597
 10
-96.64027730647195
 20
8.128403185169645
 42
0.3431692821353876
 10
-96.60262782360156
 20
8.099113600655527
 10
-96.30432359000202
 20
8.099113600655527
 42
0.4142135623730951
 10
-96.22663852347887
 20
8.176798667178672
 10
-96.22663852347887
 20
8.487374139048597
 10
-95.72190018015522
 20
8.487374139048597
 10
-95.72190018015522
 20
8.105346657236623
 42
-0.3824524618302969
 10
-95.9651136815305
 20
7.827331185574394
 10
-96.51379435024182
 20
7.827331185574394
 42
0.4790978957378951
 10
-96.5519720678858
 20
7.780377008076584
 10
-96.07873821551971
 20
5.915279322624883
 42
0.3431699281256741
 10
-96.04108871056588
 20
5.885989651075306
 10
-95.72190018015522
 20
5.885989651075306
 10
-95.72190018015522
 20
5.575322530045923
 10
-96.34468932008145
 20
5.604666366295759
 42
-0.3300656182922443
 10
-96.59543910280399
 20
5.809392782018676
 10
-96.91284524296385
 20
7.060346475641381
 42
0.3431699481782171
 10
-96.95049474860343
 20
7.089636149892385
 10
-97.7022593749457
 20
7.089636149892385
 42
0.4109416450539143
 10
-97.74087392986144
 20
7.051032918285727
  0
LWPOLYLINE
  5
B531
330
B50A
100
AcDbEntity
  8
hyomoji
  6
Continuous
370
     9
100
AcDbPolyline
 90
       21
 70
   128
 43
0.0
 10
-69.43627218490224
 20
8.681543250778531
 10
-69.43627218490224
 20
8.254417828748273
 10
-73.08597964968567
 20
8.254417828748273
 10
-73.08597964968567
 20
8.914499624755535
 10
-69.63040270880378
 20
8.914499624755535
 42
-0.0245951489999901
 10
-69.61133802936365
 20
8.913441706972434
 42
-0.0245951489999939
 10
-69.59245801114708
 20
8.910142001933763
 42
-0.0245951490000111
 10
-69.57394413156362
 20
8.904632411457669
 42
-0.0245951489999948
 10
-69.55597659449745
 20
8.89696623259374
 42
-0.0245951490000167
 10
-69.53872859944067
 20
8.887217584536756
 42
-0.0245951489999851
 10
-69.52236634149494
 20
8.875480644510844
 42
-0.0245951489999982
 10
-69.5070490113701
 20
8.861868883653869
 42
-0.0245951490000079
 10
-69.49292370128296
 20
8.846513920845382
 42
-0.0245951489999929
 10
-69.48012731524318
 20
8.829564185503386
 42
-0.0245951490000121
 10
-69.46878402200468
 20
8.811183516706023
 42
-0.0245951489999839
 10
-69.45900334477688
 20
8.791549634962848
 42
-0.0245951490000097
 10
-69.45087888769717
 20
8.770852295599752
 42
-0.0245951489999972
 10
-69.44449024611959
 20
8.749291633178017
 42
-0.0245951490000035
 10
-69.43989918604052
 20
8.72707599649857
 42
-0.0245951490000047
 10
-69.43714900733311
 20
8.704420229343895
 42
-0.024595148999995
 10
-69.43626772756238
 20
8.681543250778531
  0
LWPOLYLINE
  5
B532
330
B50A
100
AcDbEntity
  8
hyomoji
  6
Continuous
370
     9
100
AcDbPolyline
 90
       21
 70
   128
 43
0.0
 10
-73.39658810587048
 20
6.19659804358389
 10
-69.24457124346441
 20
6.19659804358389
 42
-0.0277241649809473
 10
-69.22307761832303
 20
6.195540125801244
 42
-0.0245951490000116
 10
-69.20419696334374
 20
6.192240420762345
 42
-0.0245951489999535
 10
-69.18568372052323
 20
6.186730893962476
 42
-0.0245951490000357
 10
-69.16771618345683
 20
6.179064715098547
 42
-0.0245951489999617
 10
-69.15046755163712
 20
6.169316003365793
 42
-0.024595149000028
 10
-69.13410593045433
 20
6.157579063339653
 42
-0.0245951489999838
 10
-69.118787963567
 20
6.143967366158904
 42
-0.0245951490000106
 10
-69.10466329024257
 20
6.128612403350189
 42
-0.0245951489999761
 10
-69.09186690420233
 20
6.111662668008193
 42
-0.0245951490000292
 10
-69.08052361096451
 20
6.09328199921083
 42
-0.0245951489999958
 10
-69.07074229697378
 20
6.073648053791202
 42
-0.0245951489999834
 10
-69.06261847665632
 20
6.052950778104786
 42
-0.0245951490000133
 10
-69.05622983507919
 20
6.031390052006599
 42
-0.0245951489999937
 10
-69.05163813823719
 20
6.009174415327379
 42
-0.0245951490001447
 10
-69.04888859629295
 20
5.98651864817225
 42
-0.0188381928052038
 10
-69.04801177386161
 20
5.969001055394301
 10
-69.04801177386161
 20
5.342424884589718
 10
-73.39658810587048
 20
5.342424884589718
 10
-73.39658810587048
 20
6.196636949793855
  0
LWPOLYLINE
  5
B533
330
B50A
100
AcDbEntity
  8
hyomoji
  6
Continuous
370
     9
100
AcDbPolyline
 90
       46
 70
   128
 43
0.0
 10
-79.91946565752278
 20
8.526239086362011
 42
0.0246113600000082
 10
-79.9187754066038
 20
8.503347016517409
 42
0.0246113599999873
 10
-79.91658812624701
 20
8.480676540141303
 42
0.0246113599999939
 10
-79.9129254663892
 20
8.458447149384255
 42
0.0246113600000089
 10
-79.90782308574989
 20
8.436873942734791
 42
0.0246113600000195
 10
-79.90133001506638
 20
8.41616577840341
 42
0.0246113599999893
 10
-79.89350865709798
 20
8.396523109333202
 42
0.0246113599999934
 10
-79.88443542338609
 20
8.378136009231411
 42
0.0246113599999928
 10
-79.87419818720195
 20
8.361182580664262
 42
0.0246113599999958
 10
-79.86289564678577
 20
8.345826790064165
 42
0.0246113600000034
 10
-79.85063732534604
 20
8.332217385229796
 42
0.0246113599999883
 10
-79.83754229753412
 20
8.320486112393155
 42
0.0246113600000125
 10
-79.82373600562937
 20
8.310746442692106
 42
0.0246113599999954
 10
-79.80935408011737
 20
8.303092680703684
 42
0.024611359999985
 10
-79.79453406177071
 20
8.297598945622439
 42
0.024611360000015
 10
-79.77941985899201
 20
8.294318343469058
 42
0.0246113600000176
 10
-79.76415856399717
 20
8.293282712385234
 10
-79.22064009017026
 20
8.293282712385234
 42
-0.4142135623730951
 10
-79.06526995712352
 20
8.137912579338717
 10
-79.06526995712352
 20
7.748711594328597
 42
-0.0244511737842624
 10
-79.07462846058843
 20
7.506115916052522
 42
-0.0245486219999786
 10
-79.10258234927983
 20
7.264898435690156
 42
-0.0245486220000839
 10
-79.14887373424813
 20
7.028349636796065
 42
-0.0245486219998618
 10
-79.21305560797851
 20
6.798747602111006
 42
-0.0245486220001097
 10
-79.29451031051712
 20
6.578303617945721
 42
-0.024548621999966
 10
-79.39245335004329
 20
6.36914058793809
 42
-0.0245486220000008
 10
-79.50594231755395
 20
6.173272847655425
 42
-0.0245486220000017
 10
-79.63388325448909
 20
5.992586807012457
 42
-0.0245486219999997
 10
-79.77504402475346
 20
5.82882254782271
 42
-0.0245486220000006
 10
-79.92806577644433
 20
5.683557204289854
 42
-0.0245486219999995
 10
-80.09147440358743
 20
5.558189680697523
 42
-0.0245486219999993
 10
-80.26369646520402
 20
5.453927406743559
 42
-0.0245486219999995
 10
-80.44307255733224
 20
5.371774493750763
 42
-0.0245486220000024
 10
-80.62787641591103
 20
5.312522119548702
 42
-0.0245486220000146
 10
-80.81632765203995
 20
5.276740887318737
 42
-0.0245738278590478
 10
-81.00680723741584
 20
5.264772738705232
 10
-83.25856148230673
 20
5.264772738705232
 10
-83.25856148230673
 20
5.885989651075306
 10
-81.47239523142502
 20
5.885989651075306
 42
0.4142135623730951
 10
-80.23007092989315
 20
7.128313952606958
 10
-80.23007092989315
 20
7.904857379768827
 42
0.4142135623730951
 10
-80.61849626250978
 20
8.293282712385234
 10
-83.4915179836364
 20
8.293282712385234
 10
-83.4915179836364
 20
8.914499624755535
 10
-79.91946247370856
 20
8.914499624755535
 10
-79.91946247370856
 20
8.526239086362011
  0
LWPOLYLINE
  5
B534
330
B50A
100
AcDbEntity
  8
hyomoji
  6
Continuous
370
     9
100
AcDbPolyline
 90
       23
 70
   129
 43
0.0
 10
-91.60627971271242
 20
5.575381194890269
 10
-91.60627971271242
 20
6.349339719704175
 42
0.435256697587034
 10
-91.64788966816946
 20
6.388083541980449
 10
-92.14958015254069
 20
6.352248425560446
 10
-91.28410272412839
 20
7.650464568178676
 42
0.5990215383385383
 10
-91.31642166536153
 20
7.710853062262458
 10
-92.07219271537132
 20
7.710853062262458
 10
-92.07219271537132
 20
7.982635413666912
 10
-91.64531711265727
 20
7.982635413666912
 42
0.4141276645926778
 10
-91.60627971271242
 20
8.02123864527357
 10
-91.60627971271242
 20
8.526239086362011
 10
-91.06269565231263
 20
8.526239086362011
 10
-91.06269565231263
 20
8.021684264268515
 42
0.4142994653711661
 10
-91.02408109740213
 20
7.982635413666912
 10
-90.86551748421447
 20
7.982635413666912
 42
-0.5990232472207202
 10
-90.7039233199814
 20
7.680692130354145
 10
-90.88163173258704
 20
7.414132416776737
 42
0.2779035425008352
 10
-90.88608304644868
 20
7.374314542745196
 10
-90.40242475165451
 20
6.50706549938468
 10
-90.9130461012187
 20
6.545888321219763
 10
-90.98992940035373
 20
6.683748944059061
 42
0.7732509487775636
 10
-91.06269565231263
 20
6.664830072530094
 10
-91.06269565231263
 20
5.575381194890269
  0
LWPOLYLINE
  5
B535
330
B50A
100
AcDbEntity
  8
hyomoji
  6
Continuous
370
     9
100
AcDbPolyline
 90
       22
 70
   129
 43
0.0
 10
-90.67443524127179
 20
5.575381194890269
 10
-90.67443524127179
 20
5.885989651075306
 10
-90.05323488473596
 20
5.885989651075306
 42
0.4142135623730951
 10
-90.01439235147428
 20
5.924832184336764
 10
-90.01439235147428
 20
7.400021796579721
 42
0.4142994653711524
 10
-90.05300690638478
 20
7.439070647181551
 10
-90.48030471737048
 20
7.439070647181551
 10
-90.48030471737048
 20
7.710853062262458
 10
-90.05342975141662
 20
7.710853062262458
 42
0.4141276645726239
 10
-90.01439235147428
 20
7.749456293868661
 10
-90.01439235147428
 20
8.526239086362011
 10
-89.47080765431133
 20
8.526239086362011
 10
-89.47080765431133
 20
7.749901912863606
 42
0.4142994653912224
 10
-89.43219309939832
 20
7.710853062262458
 10
-89.00489528841536
 20
7.710853062262458
 10
-89.00489528841536
 20
7.439070647181551
 10
-89.43177025436671
 20
7.439070647181551
 42
0.4141276645926918
 10
-89.47080765431133
 20
7.400467415574667
 10
-89.47080765431133
 20
5.924832184336764
 42
0.4142135623730951
 10
-89.43196512104988
 20
5.885989651075306
 10
-88.81076476451381
 20
5.885989651075306
 10
-88.81076476451381
 20
5.575381194890269
  0
LWPOLYLINE
  5
B536
330
B50A
100
AcDbEntity
  8
hyomoji
  6
Continuous
370
     9
100
AcDbPolyline
 90
       24
 70
   129
 43
0.0
 10
-85.58827868192066
 20
5.264772738705232
 10
-88.07305081697496
 20
5.264772738705232
 10
-88.07305081697496
 20
5.885989651075306
 10
-86.17042573669506
 20
5.885989651075306
 42
0.4142135623730951
 10
-84.92810143516363
 20
7.128313952606958
 10
-84.92810143516363
 20
8.060326402084683
 10
-83.88050297316818
 20
8.060326402084683
 42
-0.0257155487687808
 10
-83.86455466869007
 20
8.059188443213088
 42
-0.024549926000034
 10
-83.84947803491854
 20
8.055833594512023
 42
-0.0245499260000084
 10
-83.83469303852871
 20
8.050278093435053
 42
-0.0245499259999808
 10
-83.82034231439524
 20
8.042575491736442
 42
-0.0245499260000123
 10
-83.80656404005618
 20
8.03279990861165
 42
-0.0245499259999841
 10
-83.79349066218059
 20
8.021045521283667
 42
-0.0245499259999858
 10
-83.78124889657465
 20
8.007425546186368
 42
-0.0245499260000007
 10
-83.76995527083863
 20
7.992071156464135
 42
-0.024549925999996
 10
-83.75971994494262
 20
7.975130272125625
 42
-0.02454992599999
 10
-83.75064098036455
 20
7.956766031809593
 42
-0.0245499260000124
 10
-83.74280625037682
 20
7.937155328233757
 42
-0.0245499259999989
 10
-83.73629025623131
 20
7.916487025256401
 42
-0.0245499259999953
 10
-83.73115603744986
 20
7.894960174941388
 42
-0.0245499260000016
 10
-83.72745389829606
 20
7.872782170945811
 42
-0.0245499260000116
 10
-83.72521886072627
 20
7.850166583526288
 42
-0.024673292203941
 10
-83.72447384820317
 20
7.82721638994576
 10
-83.72447384820317
 20
7.128577572422955
 42
-0.4142135623730951
  0
LWPOLYLINE
  5
B537
330
B50A
100
AcDbEntity
  8
hyomoji
  6
Continuous
370
     9
100
AcDbPolyline
 90
       21
 70
   128
 43
0.0
 10
-85.4328397784875
 20
8.914502872245975
 42
-0.0246113600000175
 10
-85.40994815437693
 20
8.913812430298321
 42
-0.0246113599999931
 10
-85.38727748697169
 20
8.911625340970431
 42
-0.0246113599999957
 10
-85.36504809621442
 20
8.907962808465299
 42
-0.0246113600000006
 10
-85.34347457118384
 20
8.902860173120188
 42
-0.0246113599999799
 10
-85.32276640685267
 20
8.896366911408222
 42
-0.0246113600000132
 10
-85.30312418351604
 20
8.888545871821634
 42
-0.0246113600000103
 10
-85.2847370197378
 20
8.879472765461969
 42
-0.0246113599999903
 10
-85.26778320911352
 20
8.869235338248927
 42
-0.02461135999999
 10
-85.25242767321833
 20
8.857932797832518
 42
-0.0246113599999982
 10
-85.23881814103152
 20
8.845674540069012
 42
-0.0246113600000129
 10
-85.22708705922378
 20
8.832579130199292
 42
-0.024611360000001
 10
-85.21734713481761
 20
8.818773411381471
 42
-0.0246113599999927
 10
-85.20969388223944
 20
8.804390912782764
 42
-0.0246113599999869
 10
-85.2041998924526
 20
8.789571021788788
 42
-0.024611360000012
 10
-85.20091929029922
 20
8.774457073715211
 42
-0.0246113600013111
 10
-85.19988391392121
 20
8.759195396662107
 10
-85.19988391392121
 20
8.254417828748273
 10
-88.07305081697496
 20
8.254417828748273
 10
-88.07305081697496
 20
8.914499624755535
 10
-85.4328397784875
 20
8.914499624755535
  0
LWPOLYLINE
  5
B538
330
B50A
100
AcDbEntity
  8
hyomoji
  6
Continuous
370
     9
100
AcDbPolyline
 90
        4
 70
   129
 43
0.0
 10
-88.07305081697496
 20
7.128462254672513
 10
-88.07305081697496
 20
7.788505144470263
 10
-85.19988391392121
 20
7.788505144470263
 10
-85.19988391392121
 20
7.128462254672513
  0
LWPOLYLINE
  5
B539
330
B50A
100
AcDbEntity
  8
hyomoji
  6
Continuous
370
     9
100
AcDbPolyline
 90
       44
 70
   128
 43
0.0
 10
-74.37174773276343
 20
5.963681151450373
 42
0.2129151059966407
 10
-74.40063715169867
 20
5.950794998102537
 42
-0.220358021742929
 10
-75.88149459788451
 20
5.264772738705232
 10
-78.28874849827935
 20
5.264772738705232
 10
-78.28874849827935
 20
5.885989651075306
 10
-76.50273061313964
 20
5.885989651075306
 42
0.0137554371945167
 10
-76.43015365812153
 20
5.888354842969647
 42
0.0137524419998822
 10
-76.35779511275882
 20
5.895394574551119
 42
0.0137524420004598
 10
-76.28587593375232
 20
5.907103879070064
 42
0.013752441999331
 10
-76.21461262047751
 20
5.923447225158724
 42
0.0137524420003075
 10
-76.1442203987633
 20
5.944375263699384
 42
0.0137524420000012
 10
-76.07491258416757
 20
5.969824636787052
 42
0.0137524419999966
 10
-76.00689930842668
 20
5.999718359795224
 42
0.0137524419999995
 10
-75.94038560917443
 20
6.033966076077376
 42
0.0137524420000046
 10
-75.87557334023177
 20
6.072464056966282
 42
0.0137524419999986
 10
-75.81265798779054
 20
6.115095965890532
 42
0.0137524419999979
 10
-75.75182994394026
 20
6.161732858375899
 42
0.0137524419999975
 10
-75.6932732331411
 20
6.212233564100188
 42
0.013752441999999
 10
-75.63716551222615
 20
6.266445323658217
 42
0.0137524419999975
 10
-75.58367552334766
 20
6.324204234294484
 42
0.0137524420000003
 10
-75.53296564103016
 20
6.385335568285654
 42
0.0138047286378086
 10
-75.48501449973173
 20
6.449903806133306
 42
0.4326750878113178
 10
-75.5081279300357
 20
6.560768619332975
 10
-76.01857653173261
 20
6.872710173877521
 42
0.1380038353994479
 10
-76.09959442946615
 20
6.895505880695736
 10
-77.04629557065437
 20
6.895505880695736
 10
-77.04629557065437
 20
7.462633158448625
 42
0.483124814362098
 10
-77.0937344731376
 20
7.500715229543402
 10
-77.39202878477204
 20
7.401283899550207
 42
-0.080611490271625
 10
-77.63769029675723
 20
7.361418564973064
 10
-78.44405304475367
 20
7.361418564973064
 10
-78.44405304475367
 20
7.982635413666912
 10
-78.0728225926191
 20
7.982635413666912
 42
0.2403459008079929
 10
-77.94703331635242
 20
8.046808308710978
 10
-77.36448237994363
 20
8.850326729711241
 42
-0.2403459008079905
 10
-77.23869310367695
 20
8.914499624755535
 10
-74.33052273826319
 20
8.914499624755535
 42
-0.4142866644357847
 10
-73.94017216627048
 20
8.528231708575958
 10
-73.94017216627048
 20
7.20040165387104
 42
-0.073920925025852
 10
-74.02577777181159
 20
6.635956043364558
 42
0.5098120014094599
 10
-73.98913988271079
 20
6.584897488186925
 10
-73.86252021141467
 20
6.584897488186925
 10
-73.86252021141467
 20
5.963641733283566
 10
-74.37174773276343
 20
5.963641733283566
  0
LWPOLYLINE
  5
B53A
330
B50A
100
AcDbEntity
  8
hyomoji
  6
Continuous
370
     9
100
AcDbPolyline
 90
        8
 70
   129
 43
0.0
 10
-79.64764688328364
 20
8.487374139048597
 42
-0.4142135623730951
 10
-79.72533194980655
 20
8.565059205571969
 10
-79.72533194980655
 20
9.069770868532941
 42
-0.4142135623730951
 10
-79.64764688328364
 20
9.147455935055859
 10
-79.14295502364712
 20
9.147455935055859
 42
-0.4142135623730951
 10
-79.06526995712352
 20
9.069770868532941
 10
-79.06526995712352
 20
8.565059205571969
 42
-0.4142135623730951
 10
-79.14295502364712
 20
8.487374139048597
  0
LWPOLYLINE
  5
B53B
330
B50A
100
AcDbEntity
  8
hyomoji
  6
Continuous
370
     9
100
AcDbPolyline
 90
        8
 70
   129
 43
0.0
 10
-78.75462838927091
 20
8.487374139048597
 42
-0.4142135623730951
 10
-78.83231345579407
 20
8.565059205571969
 10
-78.83231345579407
 20
9.069770868532941
 42
-0.4142135623730951
 10
-78.75462838927091
 20
9.147455935055859
 10
-78.24993652963439
 20
9.147455935055859
 42
-0.4142135623730951
 10
-78.17225146311102
 20
9.069770868532941
 10
-78.17225146311102
 20
8.565059205571969
 42
-0.4142135623730951
 10
-78.24993652963439
 20
8.487374139048597
  0
LWPOLYLINE
  5
B53C
330
B50A
100
AcDbEntity
  8
hyomoji
  6
Continuous
370
     9
100
AcDbPolyline
 90
       26
 70
   129
 43
0.0
 10
-75.25867901228753
 20
7.136315150465861
 10
-75.84386225628009
 20
7.493927168456366
 42
0.1380035768931157
 10
-75.92488001949027
 20
7.51672279306581
 10
-76.91275368502374
 20
7.51672279306581
 42
-0.5877959702502288
 10
-76.9454333722108
 20
7.576180874061492
 10
-76.47548726699483
 20
8.22438360138949
 42
-0.2488102192010769
 10
-76.3472702891056
 20
8.293282712385234
 10
-75.33876402902683
 20
8.293282712385234
 42
-0.4141055155693935
 10
-75.1826257306584
 20
8.138870166012111
 10
-75.1826257306584
 20
7.439070647185872
 42
-0.0027675332005429
 10
-75.18270659953964
 20
7.421878432550101
 42
-0.0027675332004465
 10
-75.18294920618155
 20
7.404688319233173
 42
-0.0027675331990674
 10
-75.18335355058525
 20
7.387502408559157
 42
-0.0027675332013063
 10
-75.1839196327503
 20
7.370322801823249
 42
-0.0027675331985318
 10
-75.1846474526767
 20
7.353151600374303
 42
-0.0027675332011082
 10
-75.18553637360196
 20
7.335990969172598
 42
-0.0027675332007225
 10
-75.18658703228926
 20
7.318842945877122
 42
-0.0027675331990705
 10
-75.18779879197359
 20
7.301709695490217
 42
-0.0027675331994759
 10
-75.18917228942019
 20
7.284593191963267
 42
-0.0027675332004882
 10
-75.19070625110271
 20
7.267495727639243
 42
-0.0027675331980648
 10
-75.19240067701957
 20
7.250419212827409
 42
-0.0027675332032427
 10
-75.19425620393872
 20
7.233365876150855
 42
-0.0027675331997779
 10
-75.19627219509129
 20
7.216337691627813
 42
-0.0027675331988507
 10
-75.19844801371573
 20
7.199336824236979
 42
-0.0027675331998305
 10
-75.20078365981408
 20
7.182365311606417
 42
-0.0029245593357009
 10
-75.20342566968747
 20
7.164465011015636
 42
-0.498504514683721
  0
LINE
  5
B53D
330
B50A
100
AcDbEntity
  8
hyosen2
  6
Continuous
370
    40
100
AcDbLine
 10
-99.00000000000023
 20
25.0
 30
0.0
 11
-99.00000000000023
 21
14.0
 31
0.0
  0
LINE
  5
B53E
330
B50A
100
AcDbEntity
  8
AM_2
100
AcDbLine
 10
-115.0000000000004
 20
20.5
 30
0.0
 11
-68.0
 21
20.49999999999977
 31
0.0
  0
TEXT
  5
B53F
330
B50A
100
AcDbEntity
  8
hyomoji
  6
Continuous
100
AcDbText
 10
-108.80846541418
 20
21.23246297775404
 30
0.0
 40
3.0
  1
尺度
 41
0.7
 72
     4
 11
-106.5684654141801
 21
22.73246297775404
 31
0.0
100
AcDbText
  0
TEXT
  5
B540
330
B50A
100
AcDbEntity
  8
hyomoji
  6
Continuous
100
AcDbText
 10
-79.51999999999999
 20
21.25
 30
0.0
 40
3.0
  1
投影法
 41
0.7
 72
     4
 11
-76.0
 21
22.75
 31
0.0
100
AcDbText
  0
LINE
  5
B541
330
B50A
100
AcDbEntity
  8
hyosen2
  6
Continuous
370
    40
100
AcDbLine
 10
-84.0
 20
25.0
 30
0.0
 11
-84.0
 21
14.0
 31
0.0
  0
TEXT
  5
B542
330
B50A
100
AcDbEntity
  8
hyomoji
  6
Continuous
100
AcDbText
 10
-95.14000000000022
 20
21.15
 30
0.0
 40
3.0
  1
サイズ
 41
0.7
 72
     4
 11
-91.50000000000023
 21
22.75
 31
0.0
100
AcDbText
  0
CIRCLE
  5
B543
330
B50A
100
AcDbEntity
  8
AM_0
370
    25
100
AcDbCircle
 10
-79.26619211742923
 20
17.25
 30
0.0
 40
1.25
  0
CIRCLE
  5
B544
330
B50A
100
AcDbEntity
  8
AM_0
370
    25
100
AcDbCircle
 10
-79.26619211742923
 20
17.25
 30
0.0
 40
1.9
  0
LINE
  5
B545
330
B50A
100
AcDbEntity
  8
AM_0
370
    25
100
AcDbLine
 10
-75.56619211742918
 20
18.5
 30
0.0
 11
-75.56619211742918
 21
16.0
 31
0.0
  0
LINE
  5
B546
330
B50A
100
AcDbEntity
  8
AM_0
370
    25
100
AcDbLine
 10
-75.56619211742918
 20
16.0
 30
0.0
 11
-71.56619211742918
 21
15.34999999999991
 31
0.0
  0
LINE
  5
B547
330
B50A
100
AcDbEntity
  8
AM_0
370
    25
100
AcDbLine
 10
-71.56619211742918
 20
15.34999999999991
 30
0.0
 11
-71.56619211742918
 21
19.14999999999986
 31
0.0
  0
LINE
  5
B548
330
B50A
100
AcDbEntity
  8
AM_0
370
    25
100
AcDbLine
 10
-71.56619211742918
 20
19.14999999999986
 30
0.0
 11
-75.56619211742918
 21
18.5
 31
0.0
  0
LINE
  5
B549
330
B50A
100
AcDbEntity
  8
AM_2
370
     9
100
AcDbLine
 10
-73.76970082765684
 20
17.25
 30
0.0
 11
-73.03098608735286
 21
17.25
 31
0.0
  0
LINE
  5
B54A
330
B50A
100
AcDbEntity
  8
AM_2
370
     9
100
AcDbLine
 10
-70.28729095201743
 20
17.25
 30
0.0
 11
-72.34381719255157
 21
17.25
 31
0.0
  0
LINE
  5
B54B
330
B50A
100
AcDbEntity
  8
AM_2
370
     9
100
AcDbLine
 10
-79.6355494875811
 20
17.25
 30
0.0
 11
-78.89683474727712
 21
17.25
 31
0.0
  0
LINE
  5
B54C
330
B50A
100
AcDbEntity
  8
AM_2
370
     9
100
AcDbLine
 10
-74.45686972245835
 20
17.25
 30
0.0
 11
-78.20966585247584
 21
17.25
 31
0.0
  0
LINE
  5
B54D
330
B50A
100
AcDbEntity
  8
AM_2
370
     9
100
AcDbLine
 10
-79.26619211742923
 20
16.8806426298479
 30
0.0
 11
-79.26619211742923
 21
17.6193573701521
 31
0.0
  0
LINE
  5
B54E
330
B50A
100
AcDbEntity
  8
AM_2
370
     9
100
AcDbLine
 10
-79.26619211742923
 20
20.10439489183659
 30
0.0
 11
-79.26619211742923
 21
18.30652626495339
 31
0.0
  0
LINE
  5
B54F
330
B50A
100
AcDbEntity
  8
AM_2
370
     9
100
AcDbLine
 10
-79.26619211743013
 20
14.39560510816341
 30
0.0
 11
-79.26619211742945
 21
16.19347373504638
 31
0.0
  0
LINE
  5
B550
330
B50A
100
AcDbEntity
  8
AM_2
370
     9
100
AcDbLine
 10
-82.12058700926581
 20
17.25000000000045
 30
0.0
 11
-80.32271838238262
 21
17.25
 31
0.0
  0
LINE
  5
B551
330
B50A
100
AcDbEntity
  8
AM_2
100
AcDbLine
 10
-162.0000000000009
 20
19.49999999999977
 30
0.0
 11
-115.0000000000011
 21
19.49999999999977
 31
0.0
  0
TEXT
  5
B552
330
B50A
100
AcDbEntity
  8
hyomoji
  6
Continuous
100
AcDbText
 10
-158.8197690813725
 20
20.74999999999954
 30
0.0
 40
3.0
  1
作成日
 41
0.7
 72
     4
 11
-155.4597690813725
 21
22.24999999999955
 31
0.0
100
AcDbText
  0
LINE
  5
B553
330
B50A
100
AcDbEntity
  8
hyosen2
  6
Continuous
100
AcDbLine
 10
-150.0000000000002
 20
24.99999999999977
 30
0.0
 11
-150.0000000000002
 21
14.0
 31
0.0
  0
TEXT
  5
B554
330
B50A
100
AcDbEntity
  8
hyomoji
  6
Continuous
100
AcDbText
 10
-158.8197690813725
 20
15.25
 30
0.0
 40
3.0
  1
更新日
 41
0.7
 72
     4
 11
-155.4597690813725
 21
16.75
 31
0.0
100
AcDbText
  0
LWPOLYLINE
  5
B555
330
B50A
100
AcDbEntity
  8
hyosen2
100
AcDbPolyline
 90
        3
 70
     1
 43
0.0
 10
-144.104867507461
 20
19.44306130048881
 10
-146.8328475293819
 20
14.7180613004889
 10
-141.37688748554
 20
14.7180613004889
  0
ATTDEF
  5
B556
330
B50A
100
AcDbEntity
  8
hyomoji
100
AcDbText
 10
-39.49999999999988
 20
1.5
 30
0.0
 40
4.0
  1

 41
0.7
 72
     1
 11
-39.49999999999988
 21
3.5
 31
0.0
100
AcDbAttributeDefinition
  3
図番
  2
XXX000000-00-00
 70
     0
 74
     2
1001
AcDbAttr
1070
     0
1070
     1
  0
ATTDEF
  5
B557
330
B50A
100
AcDbEntity
  8
hyomoji
100
AcDbText
 10
-31.49999999999977
 20
19.50000000000057
 30
0.0
 40
4.0
  1

 41
0.7
 72
     1
 11
-31.49999999999977
 21
21.50000000000057
 31
0.0
100
AcDbAttributeDefinition
  3
品名
  2
品名
 70
     0
 74
     2
1001
AcDbAttr
1070
     0
1070
     1
  0
ATTDEF
  5
B558
330
B50A
100
AcDbEntity
  8
hyomoji
100
AcDbText
 10
-121.0000000000003
 20
2.75
 30
0.0
 40
4.0
  1

 41
0.7
 72
     1
 11
-121.0000000000003
 21
4.75
 31
0.0
100
AcDbAttributeDefinition
  3
作成
  2
作成
 70
     0
 74
     2
1001
AcDbAttr
1070
     0
1070
     1
  0
ATTDEF
  5
B559
330
B50A
100
AcDbEntity
  8
hyomoji
100
AcDbText
 10
-133.0000000000001
 20
2.75
 30
0.0
 40
4.0
  1

 41
0.7
 72
     1
 11
-133.0000000000001
 21
4.75
 31
0.0
100
AcDbAttributeDefinition
  3
確認1
  2
確認1
 70
     0
 74
     2
1001
AcDbAttr
1070
     0
1070
     1
  0
ATTDEF
  5
B55A
330
B50A
100
AcDbEntity
  8
hyomoji
100
AcDbText
 10
-144.0000000000007
 20
2.75
 30
0.0
 40
4.0
  1

 41
0.7
 72
     1
 11
-144.0000000000007
 21
4.75
 31
0.0
100
AcDbAttributeDefinition
  3
確認2
  2
確認2
 70
     0
 74
     2
1001
AcDbAttr
1070
     0
1070
     1
  0
ATTDEF
  5
B55B
330
B50A
100
AcDbEntity
  8
hyomoji
100
AcDbText
 10
-156.0000000000004
 20
2.75
 30
0.0
 40
4.0
  1

 41
0.7
 72
     1
 11
-156.0000000000004
 21
4.75
 31
0.0
100
AcDbAttributeDefinition
  3
承認
  2
承認
 70
     0
 74
     2
1001
AcDbAttr
1070
     0
1070
     1
  0
ATTDEF
  5
B55C
330
B50A
100
AcDbEntity
  8
hyomoji
100
AcDbText
 10
-107.0000000000003
 20
15.25
 30
0.0
 40
4.0
  1

 41
0.7
 72
     1
 11
-107.0000000000003
 21
17.25
 31
0.0
100
AcDbAttributeDefinition
  3
尺度
  2
1:1
 70
     0
 74
     2
1001
AcDbAttr
1070
     0
1070
     1
  0
ATTDEF
  5
B55D
330
B50A
100
AcDbEntity
  8
hyomoji
100
AcDbText
 10
-127.0214335782293
 20
20.75000000000001
 30
0.0
 40
3.0
  1

 41
0.7
 72
     1
 11
-127.0214335782293
 21
22.25000000000001
 31
0.0
100
AcDbAttributeDefinition
  3
作成日
  2
2011.01.01
 70
     0
 74
     2
1001
AcDbAttr
1070
     0
1070
     1
  0
ATTDEF
  5
B55E
330
B50A
100
AcDbEntity
  8
hyomoji
100
AcDbText
 10
-144.2211531119989
 20
14.90156448787789
 30
0.0
 40
3.0
  1

 41
0.7
 72
     1
 11
-144.2211531119989
 21
16.40156448787789
 31
0.0
100
AcDbAttributeDefinition
  3
△
  2
1
 70
     0
 74
     2
1001
AcDbAttr
1070
     0
1070
     1
  0
ATTDEF
  5
B55F
330
B50A
100
AcDbEntity
  8
hyomoji
100
AcDbText
 10
-127.0214335782293
 20
15.24999999999988
 30
0.0
 40
3.0
  1

 41
0.7
 72
     1
 11
-127.0214335782293
 21
16.74999999999988
 31
0.0
100
AcDbAttributeDefinition
  3
更新日
  2
2011.01.10
 70
     0
 74
     2
1001
AcDbAttr
1070
     0
1070
     1
  0
ATTDEF
  5
B560
330
B50A
100
AcDbEntity
  8
hyomoji
100
AcDbText
 10
-5.5
 20
1.5
 30
0.0
 40
4.0
  1

 41
0.7
 72
     1
 11
-5.5
 21
3.5
 31
0.0
100
AcDbAttributeDefinition
  3
図面枚数
  2
10
 70
     0
 74
     2
1001
AcDbAttr
1070
     0
1070
     1
  0
ATTDEF
  5
B561
330
B50A
100
AcDbEntity
  8
hyomoji
100
AcDbText
 10
-31.49999999999989
 20
8.5
 30
0.0
 40
4.0
  1

 41
0.7
 72
     1
 11
-31.49999999999989
 21
10.5
 31
0.0
100
AcDbAttributeDefinition
  3
品番
  2
品番
 70
     0
 74
     2
1001
AcDbAttr
1070
     0
1070
     1
  0
ATTDEF
  5
B562
330
B50A
100
AcDbEntity
  8
hyomoji
100
AcDbText
 10
-31.49999999999989
 20
14.5
 30
0.0
 40
3.0
  1

 41
0.7
 72
     1
 11
-31.49999999999989
 21
16.0
 31
0.0
100
AcDbAttributeDefinition
  3
現場名／部品名
  2
現場名／部品名
 70
     0
 74
     2
1001
AcDbAttr
1070
     0
1070
     1
  0
ENDBLK
  5
B566
330
B50A
100
AcDbEntity
  8
0
100
AcDbBlockEnd
  0
BLOCK
  5
B61B
330
B60A
100
AcDbEntity
  8
0
100
AcDbBlockBegin
  2
SYS図枠A4(AIS11)
 70
     0
 10
0.0
 20
0.0
 30
0.0
  3
SYS図枠A4(AIS11)
  1

  0
TEXT
  5
B60B
330
B60A
100
AcDbEntity
  8
AM_6
 60
     1
100
AcDbText
 10
285.5
 20
8.5
 30
0.0
 40
2.5
  1
!GENTITLE-INSERT
100
AcDbText
  0
TEXT
  5
B60C
330
B60A
100
AcDbEntity
  8
AM_6
 60
     1
100
AcDbText
 10
297.0
 20
210.0
 30
0.0
 40
2.5
  1
!GENTITLE-MAX
100
AcDbText
  0
TEXT
  5
B60D
330
B60A
100
AcDbEntity
  8
AM_6
 60
     1
100
AcDbText
 10
297.0
 20
210.0
 30
0.0
 40
2.5
  1
!GENTITLE-RU
100
AcDbText
  0
LINE
  5
B60E
330
B60A
100
AcDbEntity
  8
size
100
AcDbLine
 10
0.0
 20
210.0
 30
0.0
 11
297.0
 21
210.0
 31
0.0
1001
GENIUS_GENREC_14
1002
{
1000
PYDIR
1011
0.0000000000000142
1021
297.0
1031
0.0
1002
}
1002
{
1000
PXDIR
1011
420.0
1021
0.0
1031
0.0
1002
}
1002
{
1000
PORI
1011
0.0
1021
0.0
1031
0.0
1002
}
1002
{
1000
PINS
1011
210.0
1021
148.4999999999999
1031
0.0
1002
}
1002
{
1000
HVAL
1000
297
1002
}
1002
{
1000
H
1070
     2
1002
}
1002
{
1000
WVAL
1000
420
1002
}
1002
{
1000
W
1070
     2
1002
}
1002
{
1000
C
1070
     4
1002
}
1001
GENIUS_GENOBJ-N-REC_13
1002
{
1000
OWNER
1000
GEN
1002
}
1001
GENIUS_GENODEF_13
1002
{
1000
HIER
1070
     0
1002
}
1002
{
1000
MANEDIT
1070
     0
1002
}
1002
{
1000
NOSEL
1070
     0
1002
}
1002
{
1000
BEHIND
1070
     0
1002
}
1002
{
1000
OTHER
1070
     0
1002
}
1002
{
1000
REACTOR
1002
}
  0
TEXT
  5
B60F
330
B60A
100
AcDbEntity
  8
AM_6
 60
     1
100
AcDbText
 10
0.0
 20
0.0
 30
0.0
 40
2.5
  1
!GENTITLE-LL
100
AcDbText
  0
LINE
  5
B610
330
B60A
100
AcDbEntity
  8
size
100
AcDbLine
 10
297.0
 20
210.0
 30
0.0
 11
297.0
 21
-0.0000000000000284
 31
0.0
1001
GENIUS_GENREC_14
1002
{
1000
PYDIR
1011
0.0000000000000142
1021
297.0
1031
0.0
1002
}
1002
{
1000
PXDIR
1011
420.0
1021
0.0
1031
0.0
1002
}
1002
{
1000
PORI
1011
0.0
1021
0.0
1031
0.0
1002
}
1002
{
1000
PINS
1011
210.0
1021
148.4999999999999
1031
0.0
1002
}
1002
{
1000
HVAL
1000
297
1002
}
1002
{
1000
H
1070
     2
1002
}
1002
{
1000
WVAL
1000
420
1002
}
1002
{
1000
W
1070
     2
1002
}
1002
{
1000
C
1070
     4
1002
}
1001
GENIUS_GENOBJ-N-REC_13
1002
{
1000
OWNER
1000
GEN
1002
}
1001
GENIUS_GENODEF_13
1002
{
1000
HIER
1070
     0
1002
}
1002
{
1000
MANEDIT
1070
     0
1002
}
1002
{
1000
NOSEL
1070
     0
1002
}
1002
{
1000
BEHIND
1070
     0
1002
}
1002
{
1000
OTHER
1070
     0
1002
}
1002
{
1000
REACTOR
1002
}
  0
LINE
  5
B611
330
B60A
100
AcDbEntity
  8
waku
100
AcDbLine
 10
11.5
 20
8.5
 30
0.0
 11
285.5
 21
8.5
 31
0.0
1001
GENIUS_GENREC_14
1002
{
1000
PYDIR
1011
0.0000000000000142
1021
297.0
1031
0.0
1002
}
1002
{
1000
PXDIR
1011
420.0
1021
0.0
1031
0.0
1002
}
1002
{
1000
PORI
1011
0.0
1021
0.0
1031
0.0
1002
}
1002
{
1000
PINS
1011
210.0
1021
148.4999999999999
1031
0.0
1002
}
1002
{
1000
HVAL
1000
297
1002
}
1002
{
1000
H
1070
     2
1002
}
1002
{
1000
WVAL
1000
420
1002
}
1002
{
1000
W
1070
     2
1002
}
1002
{
1000
C
1070
     4
1002
}
  0
LINE
  5
B612
330
B60A
100
AcDbEntity
  8
waku
100
AcDbLine
 10
285.5
 20
201.5
 30
0.0
 11
11.5
 21
201.5
 31
0.0
1001
GENIUS_GENREC_14
1002
{
1000
PYDIR
1011
-123.0
1021
210.0
1031
0.0
1002
}
1002
{
1000
PXDIR
1011
297.0
1021
-87.0
1031
0.0
1002
}
1002
{
1000
PORI
1011
-123.0
1021
-87.0
1031
0.0
1002
}
1002
{
1000
PINS
1011
87.00000000000002
1021
61.49999999999997
1031
0.0
1002
}
1002
{
1000
HVAL
1000
297
1002
}
1002
{
1000
H
1070
     2
1002
}
1002
{
1000
WVAL
1000
420
1002
}
1002
{
1000
W
1070
     2
1002
}
1002
{
1000
C
1070
     4
1002
}
1001
GENIUS_GENOBJ-N-REC_13
1002
{
1000
OWNER
1000
GEN
1002
}
1001
GENIUS_GENODEF_13
1002
{
1000
HIER
1070
     0
1002
}
1002
{
1000
MANEDIT
1070
     0
1002
}
1002
{
1000
NOSEL
1070
     0
1002
}
1002
{
1000
BEHIND
1070
     0
1002
}
1002
{
1000
OTHER
1070
     0
1002
}
1002
{
1000
REACTOR
1002
}
  0
LINE
  5
B613
330
B60A
100
AcDbEntity
  8
waku
100
AcDbLine
 10
11.50000000000002
 20
201.5
 30
0.0
 11
11.5
 21
8.5
 31
0.0
1001
GENIUS_GENREC_14
1002
{
1000
PYDIR
1011
0.0000000000000142
1021
297.0
1031
0.0
1002
}
1002
{
1000
PXDIR
1011
420.0
1021
0.0
1031
0.0
1002
}
1002
{
1000
PORI
1011
0.0
1021
0.0
1031
0.0
1002
}
1002
{
1000
PINS
1011
210.0
1021
148.4999999999999
1031
0.0
1002
}
1002
{
1000
HVAL
1000
297
1002
}
1002
{
1000
H
1070
     2
1002
}
1002
{
1000
WVAL
1000
420
1002
}
1002
{
1000
W
1070
     2
1002
}
1002
{
1000
C
1070
     4
1002
}
1001
GENIUS_GENOBJ-N-REC_13
1002
{
1000
OWNER
1000
GEN
1002
}
1001
GENIUS_GENODEF_13
1002
{
1000
HIER
1070
     0
1002
}
1002
{
1000
MANEDIT
1070
     0
1002
}
1002
{
1000
NOSEL
1070
     0
1002
}
1002
{
1000
BEHIND
1070
     0
1002
}
1002
{
1000
OTHER
1070
     0
1002
}
1002
{
1000
REACTOR
1002
}
  0
LINE
  5
B614
330
B60A
100
AcDbEntity
  8
waku
100
AcDbLine
 10
285.5
 20
8.5
 30
0.0
 11
285.5
 21
201.5
 31
0.0
1001
GENIUS_GENREC_14
1002
{
1000
PYDIR
1011
-123.0
1021
216.0
1031
0.0
1002
}
1002
{
1000
PXDIR
1011
297.0
1021
-81.0
1031
0.0
1002
}
1002
{
1000
PORI
1011
-123.0
1021
-81.0
1031
0.0
1002
}
1002
{
1000
PINS
1011
87.00000000000002
1021
67.49999999999997
1031
0.0
1002
}
1002
{
1000
HVAL
1000
297
1002
}
1002
{
1000
H
1070
     2
1002
}
1002
{
1000
WVAL
1000
420
1002
}
1002
{
1000
W
1070
     2
1002
}
1002
{
1000
C
1070
     4
1002
}
1001
GENIUS_GENOBJ-N-REC_13
1002
{
1000
OWNER
1000
GEN
1002
}
1001
GENIUS_GENODEF_13
1002
{
1000
HIER
1070
     0
1002
}
1002
{
1000
MANEDIT
1070
     0
1002
}
1002
{
1000
NOSEL
1070
     0
1002
}
1002
{
1000
BEHIND
1070
     0
1002
}
1002
{
1000
OTHER
1070
     0
1002
}
1002
{
1000
REACTOR
1002
}
  0
LINE
  5
B615
330
B60A
100
AcDbEntity
  8
size
100
AcDbLine
 10
0.0000000000000213
 20
210.0
 30
0.0
 11
0.0
 21
0.0
 31
0.0
1001
GENIUS_GENREC_14
1002
{
1000
PYDIR
1011
0.0000000000000142
1021
297.0
1031
0.0
1002
}
1002
{
1000
PXDIR
1011
420.0
1021
0.0
1031
0.0
1002
}
1002
{
1000
PORI
1011
0.0
1021
0.0
1031
0.0
1002
}
1002
{
1000
PINS
1011
210.0
1021
148.4999999999999
1031
0.0
1002
}
1002
{
1000
HVAL
1000
297
1002
}
1002
{
1000
H
1070
     2
1002
}
1002
{
1000
WVAL
1000
420
1002
}
1002
{
1000
W
1070
     2
1002
}
1002
{
1000
C
1070
     4
1002
}
1001
GENIUS_GENOBJ-N-REC_13
1002
{
1000
OWNER
1000
GEN
1002
}
1001
GENIUS_GENODEF_13
1002
{
1000
HIER
1070
     0
1002
}
1002
{
1000
MANEDIT
1070
     0
1002
}
1002
{
1000
NOSEL
1070
     0
1002
}
1002
{
1000
BEHIND
1070
     0
1002
}
1002
{
1000
OTHER
1070
     0
1002
}
1002
{
1000
REACTOR
1002
}
  0
LINE
  5
B616
330
B60A
100
AcDbEntity
  8
size
100
AcDbLine
 10
0.0
 20
0.0
 30
0.0
 11
297.0
 21
0.0
 31
0.0
1001
GENIUS_GENREC_14
1002
{
1000
PYDIR
1011
0.0000000000000142
1021
297.0
1031
0.0
1002
}
1002
{
1000
PXDIR
1011
420.0
1021
0.0
1031
0.0
1002
}
1002
{
1000
PORI
1011
0.0
1021
0.0
1031
0.0
1002
}
1002
{
1000
PINS
1011
210.0
1021
148.4999999999999
1031
0.0
1002
}
1002
{
1000
HVAL
1000
297
1002
}
1002
{
1000
H
1070
     2
1002
}
1002
{
1000
WVAL
1000
420
1002
}
1002
{
1000
W
1070
     2
1002
}
1002
{
1000
C
1070
     4
1002
}
1001
GENIUS_GENOBJ-N-REC_13
1002
{
1000
OWNER
1000
GEN
1002
}
1001
GENIUS_GENODEF_13
1002
{
1000
HIER
1070
     0
1002
}
1002
{
1000
MANEDIT
1070
     0
1002
}
1002
{
1000
NOSEL
1070
     0
1002
}
1002
{
1000
BEHIND
1070
     0
1002
}
1002
{
1000
OTHER
1070
     0
1002
}
1002
{
1000
REACTOR
1002
}
  0
LINE
  5
B617
330
B60A
100
AcDbEntity
  8
waku
100
AcDbLine
 10
123.4999999999991
 20
33.49999999999332
 30
0.0
 11
285.5
 21
33.49999999999982
 31
0.0
  0
LINE
  5
B618
330
B60A
100
AcDbEntity
  8
waku
100
AcDbLine
 10
123.4999999999984
 20
8.500000000000007
 30
0.0
 11
123.4999999999974
 21
33.49999999999332
 31
0.0
  0
MTEXT
  5
B619
330
B60A
100
AcDbEntity
  8
AM_6
100
AcDbMText
 10
193.9999999999996
 20
25.74999999999989
 30
0.0
 40
4.0
 41
9.015095283510618
 71
     5
 72
     5
  1
A4
 73
     1
 44
1.0
1001
ACAD
1000
MTEXTBEGIN
1070
    73
1070
     1
1070
    44
1040
1.0
1070
    74
1070
     0
1000
MTEXTEND
  0
ENDBLK
  5
B61C
330
B60A
100
AcDbEntity
  8
0
100
AcDbBlockEnd
  0
BLOCK
  5
C53E
330
C53D
100
AcDbEntity
  8
0
100
AcDbBlockBegin
  2
GENDOT
 70
     0
 10
0.0
 20
0.0
 30
0.0
  3
GENDOT
  1

  0
LINE
  5
C53F
330
C53D
100
AcDbEntity
  8
0
100
AcDbLine
 10
0.0
 20
0.0
 30
0.0
 11
-1.0
 21
0.0
 31
0.0
  0
LWPOLYLINE
  5
C540
330
C53D
100
AcDbEntity
  8
0
100
AcDbPolyline
 90
        2
 70
     1
 43
0.25
 10
-0.125
 20
0.0
 42
1.0
 10
0.125
 20
0.0
 42
1.0
  0
ENDBLK
  5
C541
330
C53D
100
AcDbEntity
  8
0
100
AcDbBlockEnd
  0
BLOCK
  5
C84E
330
C844
100
AcDbEntity
  8
0
100
AcDbBlockBegin
  2
*D8
 70
     1
 10
0.0
 20
0.0
 30
0.0
  3
*D8
  1

  0
LINE
  5
CF70
330
C844
100
AcDbEntity
  8
AM_5
100
AcDbLine
 10
116.9330245395113
 20
74.10969497351721
 30
0.0
 11
116.9330245395113
 21
61.60969497351743
 31
0.0
  0
LINE
  5
CF71
330
C844
100
AcDbEntity
  8
AM_5
100
AcDbLine
 10
146.9330245395113
 20
73.90969497351716
 30
0.0
 11
146.9330245395113
 21
61.60969497351743
 31
0.0
  0
LINE
  5
CF72
330
C844
100
AcDbEntity
  8
AM_5
100
AcDbLine
 10
117.9330245395113
 20
62.60969497351744
 30
0.0
 11
145.9330245395113
 21
62.60969497351744
 31
0.0
  0
INSERT
  5
CF73
330
C844
100
AcDbEntity
  8
AM_5
100
AcDbBlockReference
  2
_Dot
 10
116.9330245395113
 20
62.60969497351744
 30
0.0
 50
180.0
  0
INSERT
  5
CF74
330
C844
100
AcDbEntity
  8
AM_5
100
AcDbBlockReference
  2
_Dot
 10
146.9330245395113
 20
62.60969497351744
 30
0.0
  0
MTEXT
  5
CF75
330
C844
100
AcDbEntity
  8
AM_5
 62
     2
100
AcDbMText
 10
131.9330245395117
 20
65.20969497351742
 30
0.0
 40
3.200000000000001
 41
0.0
 71
     5
 72
     1
  1
M
 73
     1
 44
1.0
1001
ACAD
1000
MTEXTBEGIN
1070
    73
1070
     1
1070
    44
1040
1.0
1070
    74
1070
     0
1000
MTEXTEND
  0
POINT
  5
CF76
330
C844
100
AcDbEntity
  8
Defpoints
 62
     0
100
AcDbPoint
 10
116.9330245395113
 20
75.1096949735172
 30
0.0
  0
POINT
  5
CF77
330
C844
100
AcDbEntity
  8
Defpoints
 62
     0
100
AcDbPoint
 10
146.9330245395113
 20
74.90969497351716
 30
0.0
  0
POINT
  5
CF78
330
C844
100
AcDbEntity
  8
Defpoints
 62
     0
100
AcDbPoint
 10
146.9330245395113
 20
62.60969497351744
 30
0.0
  0
ENDBLK
  5
C84F
330
C844
100
AcDbEntity
  8
0
100
AcDbBlockEnd
  0
BLOCK
  5
C85B
330
C850
100
AcDbEntity
  8
0
100
AcDbBlockBegin
  2
*D9
 70
     1
 10
0.0
 20
0.0
 30
0.0
  3
*D9
  1

  0
LINE
  5
CF13
330
C850
100
AcDbEntity
  8
AM_5
100
AcDbLine
 10
96.43302453951129
 20
150.4581353136821
 30
0.0
 11
85.94185486994048
 21
150.4581353136821
 31
0.0
  0
LINE
  5
CF14
330
C850
100
AcDbEntity
  8
AM_5
100
AcDbLine
 10
96.43302453951129
 20
154.4581353136821
 30
0.0
 11
85.94185486994048
 21
154.4581353136821
 31
0.0
  0
LINE
  5
CF15
330
C850
100
AcDbEntity
  8
AM_5
100
AcDbLine
 10
86.94185486994049
 20
151.4581353136821
 30
0.0
 11
86.94185486994049
 21
153.4581353136821
 31
0.0
  0
LINE
  5
CF16
330
C850
100
AcDbEntity
  8
AM_5
100
AcDbLine
 10
86.94185486994049
 20
154.4581353136821
 30
0.0
 11
86.94185486994049
 21
159.7586353136826
 31
0.0
  0
INSERT
  5
CF17
330
C850
100
AcDbEntity
  8
AM_5
100
AcDbBlockReference
  2
_Dot
 10
86.94185486994049
 20
150.4581353136821
 30
0.0
 50
270.0
  0
INSERT
  5
CF18
330
C850
100
AcDbEntity
  8
AM_5
100
AcDbBlockReference
  2
_Dot
 10
86.94185486994049
 20
154.4581353136821
 30
0.0
 50
90.0
  0
MTEXT
  5
CF19
330
C850
100
AcDbEntity
  8
AM_5
 62
     2
100
AcDbMText
 10
84.34185486994048
 20
158.7581353136826
 30
0.0
 40
3.200000000000001
 41
0.0
 71
     5
 72
     1
  1
I
 11
0.0000000000000001
 21
1.0
 31
0.0
 73
     1
 44
1.0
1001
ACAD
1000
MTEXTBEGIN
1070
    73
1070
     1
1070
    44
1040
1.0
1070
    74
1070
     0
1000
MTEXTEND
  0
POINT
  5
CF1A
330
C850
100
AcDbEntity
  8
Defpoints
 62
     0
100
AcDbPoint
 10
97.43302453951129
 20
150.4581353136821
 30
0.0
  0
POINT
  5
CF1B
330
C850
100
AcDbEntity
  8
Defpoints
 62
     0
100
AcDbPoint
 10
97.43302453951129
 20
154.4581353136821
 30
0.0
  0
POINT
  5
CF1C
330
C850
100
AcDbEntity
  8
Defpoints
 62
     0
100
AcDbPoint
 10
86.94185486994049
 20
154.4581353136821
 30
0.0
  0
ENDBLK
  5
C85C
330
C850
100
AcDbEntity
  8
0
100
AcDbBlockEnd
  0
BLOCK
  5
C868
330
C85D
100
AcDbEntity
  8
0
100
AcDbBlockBegin
  2
*D10
 70
     1
 10
0.0
 20
0.0
 30
0.0
  3
*D10
  1

  0
LINE
  5
CF1D
330
C85D
100
AcDbEntity
  8
AM_5
100
AcDbLine
 10
110.4330245395113
 20
135.458135313682
 30
0.0
 11
95.96392167245996
 21
135.458135313682
 31
0.0
  0
LINE
  5
CF1E
330
C85D
100
AcDbEntity
  8
AM_5
100
AcDbLine
 10
110.4330245395113
 20
131.4581353136821
 30
0.0
 11
95.96392167245996
 21
131.4581353136821
 31
0.0
  0
LINE
  5
CF1F
330
C85D
100
AcDbEntity
  8
AM_5
100
AcDbLine
 10
96.96392167245996
 20
134.458135313682
 30
0.0
 11
96.96392167245996
 21
132.4581353136821
 31
0.0
  0
LINE
  5
CF20
330
C85D
100
AcDbEntity
  8
AM_5
100
AcDbLine
 10
96.96392167245996
 20
131.4581353136821
 30
0.0
 11
96.96392167245996
 21
125.6781353136826
 31
0.0
  0
INSERT
  5
CF21
330
C85D
100
AcDbEntity
  8
AM_5
100
AcDbBlockReference
  2
_Dot
 10
96.96392167245996
 20
135.458135313682
 30
0.0
 50
90.0
  0
INSERT
  5
CF22
330
C85D
100
AcDbEntity
  8
AM_5
100
AcDbBlockReference
  2
_Dot
 10
96.96392167245996
 20
131.4581353136821
 30
0.0
 50
270.0
  0
MTEXT
  5
CF23
330
C85D
100
AcDbEntity
  8
AM_5
 62
     2
100
AcDbMText
 10
94.36392167245996
 20
127.211468647016
 30
0.0
 40
3.200000000000001
 41
0.0
 71
     5
 72
     1
  1
J
 11
0.0000000000000001
 21
1.0
 31
0.0
 73
     1
 44
1.0
1001
ACAD
1000
MTEXTBEGIN
1070
    73
1070
     1
1070
    44
1040
1.0
1070
    74
1070
     0
1000
MTEXTEND
  0
POINT
  5
CF24
330
C85D
100
AcDbEntity
  8
Defpoints
 62
     0
100
AcDbPoint
 10
111.4330245395112
 20
135.458135313682
 30
0.0
  0
POINT
  5
CF25
330
C85D
100
AcDbEntity
  8
Defpoints
 62
     0
100
AcDbPoint
 10
111.4330245395112
 20
131.4581353136821
 30
0.0
  0
POINT
  5
CF26
330
C85D
100
AcDbEntity
  8
Defpoints
 62
     0
100
AcDbPoint
 10
96.96392167245996
 20
131.4581353136821
 30
0.0
  0
ENDBLK
  5
C869
330
C85D
100
AcDbEntity
  8
0
100
AcDbBlockEnd
  0
BLOCK
  5
C875
330
C86A
100
AcDbEntity
  8
0
100
AcDbBlockBegin
  2
*D11
 70
     1
 10
0.0
 20
0.0
 30
0.0
  3
*D11
  1

  0
LINE
  5
CF27
330
C86A
100
AcDbEntity
  8
AM_5
100
AcDbLine
 10
112.4330245395112
 20
131.4581353136821
 30
0.0
 11
115.9330245395113
 21
131.4581353136821
 31
0.0
  0
LINE
  5
CF28
330
C86A
100
AcDbEntity
  8
AM_5
100
AcDbLine
 10
123.9330245395112
 20
150.4581353136821
 30
0.0
 11
113.9330245395113
 21
150.4581353136821
 31
0.0
  0
LINE
  5
CF29
330
C86A
100
AcDbEntity
  8
AM_5
100
AcDbLine
 10
114.9330245395113
 20
149.4581353136821
 30
0.0
 11
114.9330245395113
 21
132.4581353136821
 31
0.0
  0
LINE
  5
CF2A
330
C86A
100
AcDbEntity
  8
AM_5
100
AcDbLine
 10
114.9330245395113
 20
131.4581353136821
 30
0.0
 11
114.9330245395113
 21
125.4810106293482
 31
0.0
  0
INSERT
  5
CF2B
330
C86A
100
AcDbEntity
  8
AM_5
100
AcDbBlockReference
  2
_Dot
 10
114.9330245395113
 20
150.4581353136821
 30
0.0
 50
90.0
  0
INSERT
  5
CF2C
330
C86A
100
AcDbEntity
  8
AM_5
100
AcDbBlockReference
  2
_Dot
 10
114.9330245395113
 20
131.4581353136821
 30
0.0
 50
270.0
  0
MTEXT
  5
CF2D
330
C86A
100
AcDbEntity
  8
AM_5
 62
     2
100
AcDbMText
 10
112.3330245395113
 20
127.2276772960149
 30
0.0
 40
3.200000000000001
 41
0.0
 71
     5
 72
     1
  1
H
 11
0.0000000000000001
 21
1.0
 31
0.0
 73
     1
 44
1.0
1001
ACAD
1000
MTEXTBEGIN
1070
    73
1070
     1
1070
    44
1040
1.0
1070
    74
1070
     0
1000
MTEXTEND
  0
POINT
  5
CF2E
330
C86A
100
AcDbEntity
  8
Defpoints
 62
     0
100
AcDbPoint
 10
111.4330245395112
 20
131.4581353136821
 30
0.0
  0
POINT
  5
CF2F
330
C86A
100
AcDbEntity
  8
Defpoints
 62
     0
100
AcDbPoint
 10
124.9330245395112
 20
150.4581353136821
 30
0.0
  0
POINT
  5
CF30
330
C86A
100
AcDbEntity
  8
Defpoints
 62
     0
100
AcDbPoint
 10
114.9330245395113
 20
150.4581353136821
 30
0.0
  0
ENDBLK
  5
C876
330
C86A
100
AcDbEntity
  8
0
100
AcDbBlockEnd
  0
BLOCK
  5
C881
330
C877
100
AcDbEntity
  8
0
100
AcDbBlockBegin
  2
*D12
 70
     1
 10
0.0
 20
0.0
 30
0.0
  3
*D12
  1

  0
LINE
  5
CF31
330
C877
100
AcDbEntity
  8
AM_5
100
AcDbLine
 10
110.4330245395113
 20
131.4581353136821
 30
0.0
 11
65.93302453951129
 21
131.4581353136821
 31
0.0
  0
LINE
  5
CF32
330
C877
100
AcDbEntity
  8
AM_5
100
AcDbLine
 10
96.43302453951129
 20
154.4581353136821
 30
0.0
 11
65.93302453951129
 21
154.4581353136821
 31
0.0
  0
LINE
  5
CF33
330
C877
100
AcDbEntity
  8
AM_5
100
AcDbLine
 10
66.9330245395113
 20
132.4581353136821
 30
0.0
 11
66.9330245395113
 21
153.4581353136821
 31
0.0
  0
INSERT
  5
CF34
330
C877
100
AcDbEntity
  8
AM_5
100
AcDbBlockReference
  2
_Dot
 10
66.9330245395113
 20
131.4581353136821
 30
0.0
 50
270.0
  0
INSERT
  5
CF35
330
C877
100
AcDbEntity
  8
AM_5
100
AcDbBlockReference
  2
_Dot
 10
66.9330245395113
 20
154.4581353136821
 30
0.0
 50
90.0
  0
MTEXT
  5
CF36
330
C877
100
AcDbEntity
  8
AM_5
 62
     2
100
AcDbMText
 10
64.33302453951128
 20
142.9581353136826
 30
0.0
 40
3.200000000000001
 41
0.0
 71
     5
 72
     1
  1
（K）
 11
0.0000000000000001
 21
1.0
 31
0.0
 73
     1
 44
1.0
1001
ACAD
1000
MTEXTBEGIN
1070
    73
1070
     1
1070
    44
1040
1.0
1070
    74
1070
     0
1000
MTEXTEND
  0
POINT
  5
CF37
330
C877
100
AcDbEntity
  8
Defpoints
 62
     0
100
AcDbPoint
 10
111.4330245395112
 20
131.4581353136821
 30
0.0
  0
POINT
  5
CF38
330
C877
100
AcDbEntity
  8
Defpoints
 62
     0
100
AcDbPoint
 10
97.43302453951129
 20
154.4581353136821
 30
0.0
  0
POINT
  5
CF39
330
C877
100
AcDbEntity
  8
Defpoints
 62
     0
100
AcDbPoint
 10
66.9330245395113
 20
154.4581353136821
 30
0.0
  0
ENDBLK
  5
C882
330
C877
100
AcDbEntity
  8
0
100
AcDbBlockEnd
  0
BLOCK
  5
C88D
330
C883
100
AcDbEntity
  8
0
100
AcDbBlockBegin
  2
*D13
 70
     1
 10
0.0
 20
0.0
 30
0.0
  3
*D13
  1

  0
LINE
  5
CF3A
330
C883
100
AcDbEntity
  8
AM_5
100
AcDbLine
 10
96.43302453951129
 20
154.4581353136821
 30
0.0
 11
75.93302453951129
 21
154.4581353136821
 31
0.0
  0
LINE
  5
CF3B
330
C883
100
AcDbEntity
  8
AM_5
100
AcDbLine
 10
105.9330245395113
 20
137.458135313682
 30
0.0
 11
75.93302453951129
 21
137.458135313682
 31
0.0
  0
LINE
  5
CF3C
330
C883
100
AcDbEntity
  8
AM_5
100
AcDbLine
 10
76.9330245395113
 20
153.4581353136821
 30
0.0
 11
76.9330245395113
 21
138.458135313682
 31
0.0
  0
INSERT
  5
CF3D
330
C883
100
AcDbEntity
  8
AM_5
100
AcDbBlockReference
  2
_Dot
 10
76.9330245395113
 20
154.4581353136821
 30
0.0
 50
90.0
  0
INSERT
  5
CF3E
330
C883
100
AcDbEntity
  8
AM_5
100
AcDbBlockReference
  2
_Dot
 10
76.9330245395113
 20
137.458135313682
 30
0.0
 50
270.0
  0
MTEXT
  5
CF3F
330
C883
100
AcDbEntity
  8
AM_5
 62
     2
100
AcDbMText
 10
74.33302453951128
 20
145.9581353136826
 30
0.0
 40
3.200000000000001
 41
0.0
 71
     5
 72
     1
  1
G
 11
0.0000000000000001
 21
1.0
 31
0.0
 73
     1
 44
1.0
1001
ACAD
1000
MTEXTBEGIN
1070
    73
1070
     1
1070
    44
1040
1.0
1070
    74
1070
     0
1000
MTEXTEND
  0
POINT
  5
CF40
330
C883
100
AcDbEntity
  8
Defpoints
 62
     0
100
AcDbPoint
 10
97.43302453951129
 20
154.4581353136821
 30
0.0
  0
POINT
  5
CF41
330
C883
100
AcDbEntity
  8
Defpoints
 62
     0
100
AcDbPoint
 10
106.9330245395113
 20
137.458135313682
 30
0.0
  0
POINT
  5
CF42
330
C883
100
AcDbEntity
  8
Defpoints
 62
     0
100
AcDbPoint
 10
76.9330245395113
 20
137.458135313682
 30
0.0
  0
ENDBLK
  5
C88E
330
C883
100
AcDbEntity
  8
0
100
AcDbBlockEnd
  0
BLOCK
  5
C899
330
C88F
100
AcDbEntity
  8
0
100
AcDbBlockBegin
  2
*D14
 70
     1
 10
0.0
 20
0.0
 30
0.0
  3
*D14
  1

  0
LINE
  5
CF43
330
C88F
100
AcDbEntity
  8
AM_5
100
AcDbLine
 10
160.9330245395113
 20
143.9581353136821
 30
0.0
 11
177.9161951612268
 21
143.9581353136821
 31
0.0
  0
LINE
  5
CF44
330
C88F
100
AcDbEntity
  8
AM_5
100
AcDbLine
 10
153.4330245395113
 20
131.4581353136821
 30
0.0
 11
177.9161951612268
 21
131.4581353136821
 31
0.0
  0
LINE
  5
CF45
330
C88F
100
AcDbEntity
  8
AM_5
100
AcDbLine
 10
176.9161951612268
 20
142.9581353136821
 30
0.0
 11
176.9161951612268
 21
132.4581353136821
 31
0.0
  0
INSERT
  5
CF46
330
C88F
100
AcDbEntity
  8
AM_5
100
AcDbBlockReference
  2
_Dot
 10
176.9161951612268
 20
143.9581353136821
 30
0.0
 50
90.0
  0
INSERT
  5
CF47
330
C88F
100
AcDbEntity
  8
AM_5
100
AcDbBlockReference
  2
_Dot
 10
176.9161951612268
 20
131.4581353136821
 30
0.0
 50
270.0
  0
MTEXT
  5
CF48
330
C88F
100
AcDbEntity
  8
AM_5
 62
     2
100
AcDbMText
 10
174.3161951612268
 20
137.7081353136821
 30
0.0
 40
3.200000000000001
 41
0.0
 71
     5
 72
     1
  1
F
 11
0.0000000000000001
 21
1.0
 31
0.0
 73
     1
 44
1.0
1001
ACAD
1000
MTEXTBEGIN
1070
    73
1070
     1
1070
    44
1040
1.0
1070
    74
1070
     0
1000
MTEXTEND
  0
POINT
  5
CF49
330
C88F
100
AcDbEntity
  8
Defpoints
 62
     0
100
AcDbPoint
 10
159.9330245395113
 20
143.9581353136821
 30
0.0
  0
POINT
  5
CF4A
330
C88F
100
AcDbEntity
  8
Defpoints
 62
     0
100
AcDbPoint
 10
152.4330245395113
 20
131.4581353136821
 30
0.0
  0
POINT
  5
CF4B
330
C88F
100
AcDbEntity
  8
Defpoints
 62
     0
100
AcDbPoint
 10
176.9161951612268
 20
131.4581353136821
 30
0.0
  0
ENDBLK
  5
C89A
330
C88F
100
AcDbEntity
  8
0
100
AcDbBlockEnd
  0
BLOCK
  5
C8A5
330
C89B
100
AcDbEntity
  8
0
100
AcDbBlockBegin
  2
*D15
 70
     1
 10
0.0
 20
0.0
 30
0.0
  3
*D15
  1

  0
LINE
  5
CF4C
330
C89B
100
AcDbEntity
  8
AM_5
100
AcDbLine
 10
160.9330245395113
 20
143.9581353136821
 30
0.0
 11
177.9161951612268
 21
143.9581353136821
 31
0.0
  0
LINE
  5
CF4D
330
C89B
100
AcDbEntity
  8
AM_5
100
AcDbLine
 10
167.4330245395112
 20
154.4581353136821
 30
0.0
 11
177.9161951612268
 21
154.4581353136821
 31
0.0
  0
LINE
  5
CF4E
330
C89B
100
AcDbEntity
  8
AM_5
100
AcDbLine
 10
176.9161951612268
 20
144.9581353136821
 30
0.0
 11
176.9161951612268
 21
153.4581353136821
 31
0.0
  0
INSERT
  5
CF4F
330
C89B
100
AcDbEntity
  8
AM_5
100
AcDbBlockReference
  2
_Dot
 10
176.9161951612268
 20
143.9581353136821
 30
0.0
 50
270.0
  0
INSERT
  5
CF50
330
C89B
100
AcDbEntity
  8
AM_5
100
AcDbBlockReference
  2
_Dot
 10
176.9161951612268
 20
154.4581353136821
 30
0.0
 50
90.0
  0
MTEXT
  5
CF51
330
C89B
100
AcDbEntity
  8
AM_5
 62
     2
100
AcDbMText
 10
174.3161951612268
 20
149.2081353136826
 30
0.0
 40
3.200000000000001
 41
0.0
 71
     5
 72
     1
  1
（K）
 11
0.0000000000000001
 21
1.0
 31
0.0
 73
     1
 44
1.0
1001
ACAD
1000
MTEXTBEGIN
1070
    73
1070
     1
1070
    44
1040
1.0
1070
    74
1070
     0
1000
MTEXTEND
  0
POINT
  5
CF52
330
C89B
100
AcDbEntity
  8
Defpoints
 62
     0
100
AcDbPoint
 10
159.9330245395113
 20
143.9581353136821
 30
0.0
  0
POINT
  5
CF53
330
C89B
100
AcDbEntity
  8
Defpoints
 62
     0
100
AcDbPoint
 10
166.4330245395112
 20
154.4581353136821
 30
0.0
  0
POINT
  5
CF54
330
C89B
100
AcDbEntity
  8
Defpoints
 62
     0
100
AcDbPoint
 10
176.9161951612268
 20
154.4581353136821
 30
0.0
  0
ENDBLK
  5
C8A6
330
C89B
100
AcDbEntity
  8
0
100
AcDbBlockEnd
  0
BLOCK
  5
C8B1
330
C8A7
100
AcDbEntity
  8
0
100
AcDbBlockBegin
  2
*D16
 70
     1
 10
0.0
 20
0.0
 30
0.0
  3
*D16
  1

  0
LINE
  5
CF55
330
C8A7
100
AcDbEntity
  8
AM_5
100
AcDbLine
 10
96.43302453951129
 20
85.6096949735172
 30
0.0
 11
85.9330245395113
 21
85.60969497351722
 31
0.0
  0
LINE
  5
CF56
330
C8A7
100
AcDbEntity
  8
AM_5
100
AcDbLine
 10
96.43302453951129
 20
72.6096949735172
 30
0.0
 11
85.9330245395113
 21
72.60969497351722
 31
0.0
  0
LINE
  5
CF57
330
C8A7
100
AcDbEntity
  8
AM_5
100
AcDbLine
 10
86.9330245395113
 20
84.60969497351722
 30
0.0
 11
86.9330245395113
 21
73.60969497351722
 31
0.0
  0
INSERT
  5
CF58
330
C8A7
100
AcDbEntity
  8
AM_5
100
AcDbBlockReference
  2
_Dot
 10
86.9330245395113
 20
85.60969497351722
 30
0.0
 50
90.0
  0
INSERT
  5
CF59
330
C8A7
100
AcDbEntity
  8
AM_5
100
AcDbBlockReference
  2
_Dot
 10
86.9330245395113
 20
72.60969497351722
 30
0.0
 50
270.0
  0
MTEXT
  5
CF5A
330
C8A7
100
AcDbEntity
  8
AM_5
 62
     2
100
AcDbMText
 10
84.33302453951128
 20
79.10969497351721
 30
0.0
 40
3.200000000000001
 41
0.0
 71
     5
 72
     1
  1
C
 11
0.0000000000000001
 21
1.0
 31
0.0
 73
     1
 44
1.0
1001
ACAD
1000
MTEXTBEGIN
1070
    73
1070
     1
1070
    44
1040
1.0
1070
    74
1070
     0
1000
MTEXTEND
  0
POINT
  5
CF5B
330
C8A7
100
AcDbEntity
  8
Defpoints
 62
     0
100
AcDbPoint
 10
97.43302453951129
 20
85.6096949735172
 30
0.0
  0
POINT
  5
CF5C
330
C8A7
100
AcDbEntity
  8
Defpoints
 62
     0
100
AcDbPoint
 10
97.43302453951129
 20
72.6096949735172
 30
0.0
  0
POINT
  5
CF5D
330
C8A7
100
AcDbEntity
  8
Defpoints
 62
     0
100
AcDbPoint
 10
86.9330245395113
 20
72.60969497351722
 30
0.0
  0
ENDBLK
  5
C8B2
330
C8A7
100
AcDbEntity
  8
0
100
AcDbBlockEnd
  0
BLOCK
  5
C8BD
330
C8B3
100
AcDbEntity
  8
0
100
AcDbBlockBegin
  2
*D17
 70
     1
 10
0.0
 20
0.0
 30
0.0
  3
*D17
  1

  0
LINE
  5
CF5E
330
C8B3
100
AcDbEntity
  8
AM_5
100
AcDbLine
 10
96.93302453951128
 20
86.10969497351721
 30
0.0
 11
96.93302453951128
 21
106.6262648516699
 31
0.0
  0
LINE
  5
CF5F
330
C8B3
100
AcDbEntity
  8
AM_5
100
AcDbLine
 10
166.9330245395113
 20
86.10969497351721
 30
0.0
 11
166.9330245395113
 21
106.6262648516699
 31
0.0
  0
LINE
  5
CF60
330
C8B3
100
AcDbEntity
  8
AM_5
100
AcDbLine
 10
97.93302453951127
 20
105.6262648516699
 30
0.0
 11
165.9330245395113
 21
105.6262648516699
 31
0.0
  0
INSERT
  5
CF61
330
C8B3
100
AcDbEntity
  8
AM_5
100
AcDbBlockReference
  2
_Dot
 10
96.93302453951128
 20
105.6262648516699
 30
0.0
 50
180.0
  0
INSERT
  5
CF62
330
C8B3
100
AcDbEntity
  8
AM_5
100
AcDbBlockReference
  2
_Dot
 10
166.9330245395113
 20
105.6262648516699
 30
0.0
  0
MTEXT
  5
CF63
330
C8B3
100
AcDbEntity
  8
AM_5
 62
     2
100
AcDbMText
 10
131.9330245395113
 20
108.2262648516699
 30
0.0
 40
3.200000000000001
 41
0.0
 71
     5
 72
     1
  1
A
 73
     1
 44
1.0
1001
ACAD
1000
MTEXTBEGIN
1070
    73
1070
     1
1070
    44
1040
1.0
1070
    74
1070
     0
1000
MTEXTEND
  0
POINT
  5
CF64
330
C8B3
100
AcDbEntity
  8
Defpoints
 62
     0
100
AcDbPoint
 10
96.93302453951128
 20
85.10969497351721
 30
0.0
  0
POINT
  5
CF65
330
C8B3
100
AcDbEntity
  8
Defpoints
 62
     0
100
AcDbPoint
 10
166.9330245395113
 20
85.10969497351721
 30
0.0
  0
POINT
  5
CF66
330
C8B3
100
AcDbEntity
  8
Defpoints
 62
     0
100
AcDbPoint
 10
166.9330245395113
 20
105.6262648516699
 30
0.0
  0
ENDBLK
  5
C8BE
330
C8B3
100
AcDbEntity
  8
0
100
AcDbBlockEnd
  0
BLOCK
  5
C8C9
330
C8BF
100
AcDbEntity
  8
0
100
AcDbBlockBegin
  2
*D18
 70
     1
 10
0.0
 20
0.0
 30
0.0
  3
*D18
  1

  0
LINE
  5
CF67
330
C8BF
100
AcDbEntity
  8
AM_5
100
AcDbLine
 10
101.9330245395112
 20
86.10969497351721
 30
0.0
 11
101.9330245395112
 21
96.60969497351722
 31
0.0
  0
LINE
  5
CF68
330
C8BF
100
AcDbEntity
  8
AM_5
100
AcDbLine
 10
161.9330245395113
 20
86.10969497351721
 30
0.0
 11
161.9330245395113
 21
96.60969497351722
 31
0.0
  0
LINE
  5
CF69
330
C8BF
100
AcDbEntity
  8
AM_5
100
AcDbLine
 10
102.9330245395112
 20
95.6096949735172
 30
0.0
 11
160.9330245395113
 21
95.6096949735172
 31
0.0
  0
INSERT
  5
CF6A
330
C8BF
100
AcDbEntity
  8
AM_5
100
AcDbBlockReference
  2
_Dot
 10
101.9330245395112
 20
95.6096949735172
 30
0.0
 50
180.0
  0
INSERT
  5
CF6B
330
C8BF
100
AcDbEntity
  8
AM_5
100
AcDbBlockReference
  2
_Dot
 10
161.9330245395113
 20
95.6096949735172
 30
0.0
  0
MTEXT
  5
CF6C
330
C8BF
100
AcDbEntity
  8
AM_5
 62
     2
100
AcDbMText
 10
131.9330245395113
 20
98.2096949735172
 30
0.0
 40
3.200000000000001
 41
0.0
 71
     5
 72
     1
  1
L
 73
     1
 44
1.0
1001
ACAD
1000
MTEXTBEGIN
1070
    73
1070
     1
1070
    44
1040
1.0
1070
    74
1070
     0
1000
MTEXTEND
  0
POINT
  5
CF6D
330
C8BF
100
AcDbEntity
  8
Defpoints
 62
     0
100
AcDbPoint
 10
101.9330245395112
 20
85.10969497351721
 30
0.0
  0
POINT
  5
CF6E
330
C8BF
100
AcDbEntity
  8
Defpoints
 62
     0
100
AcDbPoint
 10
161.9330245395113
 20
85.10969497351721
 30
0.0
  0
POINT
  5
CF6F
330
C8BF
100
AcDbEntity
  8
Defpoints
 62
     0
100
AcDbPoint
 10
161.9330245395113
 20
95.6096949735172
 30
0.0
  0
ENDBLK
  5
C8CA
330
C8BF
100
AcDbEntity
  8
0
100
AcDbBlockEnd
  0
BLOCK
  5
C8DE
330
C8D4
100
AcDbEntity
  8
0
100
AcDbBlockBegin
  2
*D19
 70
     1
 10
0.0
 20
0.0
 30
0.0
  3
*D19
  1

  0
LINE
  5
CF79
330
C8D4
100
AcDbEntity
  8
AM_5
100
AcDbLine
 10
110.9330245395113
 20
73.60969497351721
 30
0.0
 11
110.9330245395113
 21
51.61910595909512
 31
0.0
  0
LINE
  5
CF7A
330
C8D4
100
AcDbEntity
  8
AM_5
100
AcDbLine
 10
152.9330245395112
 20
73.60969497351721
 30
0.0
 11
152.9330245395112
 21
51.61910595909512
 31
0.0
  0
LINE
  5
CF7B
330
C8D4
100
AcDbEntity
  8
AM_5
100
AcDbLine
 10
111.9330245395113
 20
52.61910595909512
 30
0.0
 11
151.9330245395113
 21
52.61910595909512
 31
0.0
  0
INSERT
  5
CF7C
330
C8D4
100
AcDbEntity
  8
AM_5
100
AcDbBlockReference
  2
_Dot
 10
110.9330245395113
 20
52.61910595909512
 30
0.0
 50
180.0
  0
INSERT
  5
CF7D
330
C8D4
100
AcDbEntity
  8
AM_5
100
AcDbBlockReference
  2
_Dot
 10
152.9330245395112
 20
52.61910595909512
 30
0.0
  0
MTEXT
  5
CF7E
330
C8D4
100
AcDbEntity
  8
AM_5
 62
     2
100
AcDbMText
 10
131.9330245395113
 20
55.21910595909512
 30
0.0
 40
3.200000000000001
 41
0.0
 71
     5
 72
     1
  1
B\P
 73
     1
 44
1.0
1001
ACAD
1000
MTEXTBEGIN
1070
    73
1070
     1
1070
    44
1040
1.0
1070
    74
1070
     0
1000
MTEXTEND
  0
POINT
  5
CF7F
330
C8D4
100
AcDbEntity
  8
Defpoints
 62
     0
100
AcDbPoint
 10
110.9330245395113
 20
74.60969497351721
 30
0.0
  0
POINT
  5
CF80
330
C8D4
100
AcDbEntity
  8
Defpoints
 62
     0
100
AcDbPoint
 10
152.9330245395112
 20
74.60969497351721
 30
0.0
  0
POINT
  5
CF81
330
C8D4
100
AcDbEntity
  8
Defpoints
 62
     0
100
AcDbPoint
 10
152.9330245395112
 20
52.61910595909512
 30
0.0
  0
ENDBLK
  5
C8DF
330
C8D4
100
AcDbEntity
  8
0
100
AcDbBlockEnd
  0
BLOCK
  5
C8EA
330
C8E0
100
AcDbEntity
  8
0
100
AcDbBlockBegin
  2
*D20
 70
     1
 10
0.0
 20
0.0
 30
0.0
  3
*D20
  1

  0
LINE
  5
CF82
330
C8E0
100
AcDbEntity
  8
AM_5
100
AcDbLine
 10
153.4330245395113
 20
74.10969497351721
 30
0.0
 11
177.9330245395113
 21
74.10969497351719
 31
0.0
  0
LINE
  5
CF83
330
C8E0
100
AcDbEntity
  8
AM_5
100
AcDbLine
 10
153.4330245395113
 20
84.1096949735172
 30
0.0
 11
177.9330245395113
 21
84.1096949735172
 31
0.0
  0
LINE
  5
CF84
330
C8E0
100
AcDbEntity
  8
AM_5
100
AcDbLine
 10
176.9330245395113
 20
75.1096949735172
 30
0.0
 11
176.9330245395113
 21
83.10969497351718
 31
0.0
  0
INSERT
  5
CF85
330
C8E0
100
AcDbEntity
  8
AM_5
100
AcDbBlockReference
  2
_Dot
 10
176.9330245395113
 20
74.10969497351719
 30
0.0
 50
270.0
  0
INSERT
  5
CF86
330
C8E0
100
AcDbEntity
  8
AM_5
100
AcDbBlockReference
  2
_Dot
 10
176.9330245395113
 20
84.1096949735172
 30
0.0
 50
90.0
  0
MTEXT
  5
CF87
330
C8E0
100
AcDbEntity
  8
AM_5
 62
     2
100
AcDbMText
 10
174.3330245395113
 20
79.10969497351721
 30
0.0
 40
3.200000000000001
 41
0.0
 71
     5
 72
     1
  1
D
 11
0.0000000000000001
 21
1.0
 31
0.0
 73
     1
 44
1.0
1001
ACAD
1000
MTEXTBEGIN
1070
    73
1070
     1
1070
    44
1040
1.0
1070
    74
1070
     0
1000
MTEXTEND
  0
POINT
  5
CF88
330
C8E0
100
AcDbEntity
  8
Defpoints
 62
     0
100
AcDbPoint
 10
152.4330245395113
 20
74.10969497351721
 30
0.0
  0
POINT
  5
CF89
330
C8E0
100
AcDbEntity
  8
Defpoints
 62
     0
100
AcDbPoint
 10
152.4330245395113
 20
84.1096949735172
 30
0.0
  0
POINT
  5
CF8A
330
C8E0
100
AcDbEntity
  8
Defpoints
 62
     0
100
AcDbPoint
 10
176.9330245395113
 20
84.1096949735172
 30
0.0
  0
ENDBLK
  5
C8EB
330
C8E0
100
AcDbEntity
  8
0
100
AcDbBlockEnd
  0
BLOCK
  5
C8F6
330
C8EC
100
AcDbEntity
  8
0
100
AcDbBlockBegin
  2
*D21
 70
     1
 10
0.0
 20
0.0
 30
0.0
  3
*D21
  1

  0
LINE
  5
CF94
330
C8EC
100
AcDbEntity
  8
AM_5
100
AcDbLine
 10
185.4182343340435
 20
95.60261620160602
 30
0.0
 11
172.5049010007059
 21
95.60261620160602
 31
0.0
  0
LINE
  5
CF95
330
C8EC
100
AcDbEntity
  8
AM_5
100
AcDbLine
 10
172.5049010007059
 20
95.60261620160602
 30
0.0
 11
164.1995448860172
 21
82.64563692989524
 31
0.0
  0
LINE
  5
CF96
330
C8EC
100
AcDbEntity
  8
AM_5
100
AcDbLine
 10
159.6665041930057
 20
75.57375301713985
 30
0.0
 11
158.5872087899076
 21
73.88997113315031
 31
0.0
  0
MTEXT
  5
CF97
330
C8EC
100
AcDbEntity
  8
AM_5
 62
     2
100
AcDbMText
 10
179.7115676673768
 20
98.202616201606
 30
0.0
 40
3.2
 41
0.0
 71
     5
 72
     1
  1
4-Nサラ
 73
     1
 44
1.0
1001
ACAD
1000
MTEXTBEGIN
1070
    73
1070
     1
1070
    44
1040
1.0
1070
    74
1070
     0
1000
MTEXTEND
  0
LINE
  5
CF98
330
C8EC
100
AcDbEntity
  8
AM_5
100
AcDbLine
 10
160.7457995961038
 20
77.25753490112939
 30
0.0
 11
163.1202494829191
 21
80.96185504590568
 31
0.0
  0
INSERT
  5
CF99
330
C8EC
100
AcDbEntity
  8
AM_5
100
AcDbBlockReference
  2
GENDOT
 10
160.7457995961038
 20
77.25753490112939
 30
0.0
 41
2.0
 42
2.0
 43
2.0
 50
57.34034041498687
  0
INSERT
  5
CF9A
330
C8EC
100
AcDbEntity
  8
AM_5
100
AcDbBlockReference
  2
GENDOT
 10
163.1202494829191
 20
80.96185504590568
 30
0.0
 41
2.0
 42
2.0
 43
2.0
 50
237.3403404149868
  0
POINT
  5
CF9B
330
C8EC
100
AcDbEntity
  8
Defpoints
 62
     0
100
AcDbPoint
 10
163.1202494829191
 20
80.96185504590568
 30
0.0
  0
POINT
  5
CF9C
330
C8EC
100
AcDbEntity
  8
Defpoints
 62
     0
100
AcDbPoint
 10
160.7457995961038
 20
77.25753490112939
 30
0.0
  0
ENDBLK
  5
C8F7
330
C8EC
100
AcDbEntity
  8
0
100
AcDbBlockEnd
  0
BLOCK
  5
CC6F
330
CC65
100
AcDbEntity
  8
0
100
AcDbBlockBegin
  2
*D22
 70
     1
 10
0.0
 20
0.0
 30
0.0
  3
*D22
  1

  0
LINE
  5
CD7D
330
CC65
100
AcDbEntity
  8
AM_5
100
AcDbLine
 10
116.9330245395113
 20
70.32992226029327
 30
0.0
 11
116.9330245395113
 21
57.8299222602935
 31
0.0
  0
LINE
  5
CD7E
330
CC65
100
AcDbEntity
  8
AM_5
100
AcDbLine
 10
146.9330245395113
 20
70.12992226029322
 30
0.0
 11
146.9330245395113
 21
57.8299222602935
 31
0.0
  0
LINE
  5
CD7F
330
CC65
100
AcDbEntity
  8
AM_5
100
AcDbLine
 10
117.9330245395113
 20
58.8299222602935
 30
0.0
 11
145.9330245395113
 21
58.8299222602935
 31
0.0
  0
INSERT
  5
CD80
330
CC65
100
AcDbEntity
  8
AM_5
100
AcDbBlockReference
  2
_Dot
 10
116.9330245395113
 20
58.8299222602935
 30
0.0
 50
180.0
  0
INSERT
  5
CD81
330
CC65
100
AcDbEntity
  8
AM_5
100
AcDbBlockReference
  2
_Dot
 10
146.9330245395113
 20
58.8299222602935
 30
0.0
  0
MTEXT
  5
CD82
330
CC65
100
AcDbEntity
  8
AM_5
 62
     2
100
AcDbMText
 10
131.9330245395117
 20
61.4299222602935
 30
0.0
 40
3.200000000000001
 41
0.0
 71
     5
 72
     1
  1
M
 73
     1
 44
1.0
1001
ACAD
1000
MTEXTBEGIN
1070
    73
1070
     1
1070
    44
1040
1.0
1070
    74
1070
     0
1000
MTEXTEND
  0
POINT
  5
CD83
330
CC65
100
AcDbEntity
  8
Defpoints
 62
     0
100
AcDbPoint
 10
116.9330245395113
 20
71.32992226029327
 30
0.0
  0
POINT
  5
CD84
330
CC65
100
AcDbEntity
  8
Defpoints
 62
     0
100
AcDbPoint
 10
146.9330245395113
 20
71.12992226029323
 30
0.0
  0
POINT
  5
CD85
330
CC65
100
AcDbEntity
  8
Defpoints
 62
     0
100
AcDbPoint
 10
146.9330245395113
 20
58.8299222602935
 30
0.0
  0
ENDBLK
  5
CC70
330
CC65
100
AcDbEntity
  8
0
100
AcDbBlockEnd
  0
BLOCK
  5
CC7C
330
CC71
100
AcDbEntity
  8
0
100
AcDbBlockBegin
  2
*D23
 70
     1
 10
0.0
 20
0.0
 30
0.0
  3
*D23
  1

  0
LINE
  5
CDEC
330
CC71
100
AcDbEntity
  8
AM_5
100
AcDbLine
 10
96.43302453951129
 20
141.6783626004581
 30
0.0
 11
85.94185486994048
 21
141.6783626004581
 31
0.0
  0
LINE
  5
CDED
330
CC71
100
AcDbEntity
  8
AM_5
100
AcDbLine
 10
96.43302453951129
 20
145.6783626004581
 30
0.0
 11
85.94185486994048
 21
145.6783626004581
 31
0.0
  0
LINE
  5
CDEE
330
CC71
100
AcDbEntity
  8
AM_5
100
AcDbLine
 10
86.94185486994049
 20
142.6783626004581
 30
0.0
 11
86.94185486994049
 21
144.6783626004581
 31
0.0
  0
LINE
  5
CDEF
330
CC71
100
AcDbEntity
  8
AM_5
100
AcDbLine
 10
86.94185486994049
 20
145.6783626004581
 30
0.0
 11
86.94185486994049
 21
150.9788626004587
 31
0.0
  0
INSERT
  5
CDF0
330
CC71
100
AcDbEntity
  8
AM_5
100
AcDbBlockReference
  2
_Dot
 10
86.94185486994049
 20
141.6783626004581
 30
0.0
 50
270.0
  0
INSERT
  5
CDF1
330
CC71
100
AcDbEntity
  8
AM_5
100
AcDbBlockReference
  2
_Dot
 10
86.94185486994049
 20
145.6783626004581
 30
0.0
 50
90.0
  0
MTEXT
  5
CDF2
330
CC71
100
AcDbEntity
  8
AM_5
 62
     2
100
AcDbMText
 10
84.34185486994048
 20
149.9783626004587
 30
0.0
 40
3.200000000000001
 41
0.0
 71
     5
 72
     1
  1
I
 11
0.0000000000000001
 21
1.0
 31
0.0
 73
     1
 44
1.0
1001
ACAD
1000
MTEXTBEGIN
1070
    73
1070
     1
1070
    44
1040
1.0
1070
    74
1070
     0
1000
MTEXTEND
  0
POINT
  5
CDF3
330
CC71
100
AcDbEntity
  8
Defpoints
 62
     0
100
AcDbPoint
 10
97.43302453951129
 20
141.6783626004581
 30
0.0
  0
POINT
  5
CDF4
330
CC71
100
AcDbEntity
  8
Defpoints
 62
     0
100
AcDbPoint
 10
97.43302453951129
 20
145.6783626004581
 30
0.0
  0
POINT
  5
CDF5
330
CC71
100
AcDbEntity
  8
Defpoints
 62
     0
100
AcDbPoint
 10
86.94185486994049
 20
145.6783626004581
 30
0.0
  0
ENDBLK
  5
CC7D
330
CC71
100
AcDbEntity
  8
0
100
AcDbBlockEnd
  0
BLOCK
  5
CC89
330
CC7E
100
AcDbEntity
  8
0
100
AcDbBlockBegin
  2
*D24
 70
     1
 10
0.0
 20
0.0
 30
0.0
  3
*D24
  1

  0
LINE
  5
CDF6
330
CC7E
100
AcDbEntity
  8
AM_5
100
AcDbLine
 10
110.4330245395113
 20
126.6783626004581
 30
0.0
 11
95.96392167245996
 21
126.6783626004581
 31
0.0
  0
LINE
  5
CDF7
330
CC7E
100
AcDbEntity
  8
AM_5
100
AcDbLine
 10
110.4330245395113
 20
122.6783626004581
 30
0.0
 11
95.96392167245996
 21
122.6783626004581
 31
0.0
  0
LINE
  5
CDF8
330
CC7E
100
AcDbEntity
  8
AM_5
100
AcDbLine
 10
96.96392167245996
 20
125.6783626004581
 30
0.0
 11
96.96392167245996
 21
123.6783626004581
 31
0.0
  0
LINE
  5
CDF9
330
CC7E
100
AcDbEntity
  8
AM_5
100
AcDbLine
 10
96.96392167245996
 20
122.6783626004581
 30
0.0
 11
96.96392167245996
 21
116.8983626004587
 31
0.0
  0
INSERT
  5
CDFA
330
CC7E
100
AcDbEntity
  8
AM_5
100
AcDbBlockReference
  2
_Dot
 10
96.96392167245996
 20
126.6783626004581
 30
0.0
 50
90.0
  0
INSERT
  5
CDFB
330
CC7E
100
AcDbEntity
  8
AM_5
100
AcDbBlockReference
  2
_Dot
 10
96.96392167245996
 20
122.6783626004581
 30
0.0
 50
270.0
  0
MTEXT
  5
CDFC
330
CC7E
100
AcDbEntity
  8
AM_5
 62
     2
100
AcDbMText
 10
94.36392167245996
 20
118.431695933792
 30
0.0
 40
3.200000000000001
 41
0.0
 71
     5
 72
     1
  1
J
 11
0.0000000000000001
 21
1.0
 31
0.0
 73
     1
 44
1.0
1001
ACAD
1000
MTEXTBEGIN
1070
    73
1070
     1
1070
    44
1040
1.0
1070
    74
1070
     0
1000
MTEXTEND
  0
POINT
  5
CDFD
330
CC7E
100
AcDbEntity
  8
Defpoints
 62
     0
100
AcDbPoint
 10
111.4330245395112
 20
126.6783626004581
 30
0.0
  0
POINT
  5
CDFE
330
CC7E
100
AcDbEntity
  8
Defpoints
 62
     0
100
AcDbPoint
 10
111.4330245395112
 20
122.6783626004581
 30
0.0
  0
POINT
  5
CDFF
330
CC7E
100
AcDbEntity
  8
Defpoints
 62
     0
100
AcDbPoint
 10
96.96392167245996
 20
122.6783626004581
 30
0.0
  0
ENDBLK
  5
CC8A
330
CC7E
100
AcDbEntity
  8
0
100
AcDbBlockEnd
  0
BLOCK
  5
CC96
330
CC8B
100
AcDbEntity
  8
0
100
AcDbBlockBegin
  2
*D25
 70
     1
 10
0.0
 20
0.0
 30
0.0
  3
*D25
  1

  0
LINE
  5
CE00
330
CC8B
100
AcDbEntity
  8
AM_5
100
AcDbLine
 10
112.4330245395112
 20
122.6783626004581
 30
0.0
 11
115.9330245395113
 21
122.6783626004581
 31
0.0
  0
LINE
  5
CE01
330
CC8B
100
AcDbEntity
  8
AM_5
100
AcDbLine
 10
123.9330245395112
 20
141.6783626004581
 30
0.0
 11
113.9330245395113
 21
141.6783626004581
 31
0.0
  0
LINE
  5
CE02
330
CC8B
100
AcDbEntity
  8
AM_5
100
AcDbLine
 10
114.9330245395113
 20
140.6783626004581
 30
0.0
 11
114.9330245395113
 21
123.6783626004581
 31
0.0
  0
LINE
  5
CE03
330
CC8B
100
AcDbEntity
  8
AM_5
100
AcDbLine
 10
114.9330245395113
 20
122.6783626004581
 30
0.0
 11
114.9330245395113
 21
116.7012379161243
 31
0.0
  0
INSERT
  5
CE04
330
CC8B
100
AcDbEntity
  8
AM_5
100
AcDbBlockReference
  2
_Dot
 10
114.9330245395113
 20
141.6783626004581
 30
0.0
 50
90.0
  0
INSERT
  5
CE05
330
CC8B
100
AcDbEntity
  8
AM_5
100
AcDbBlockReference
  2
_Dot
 10
114.9330245395113
 20
122.6783626004581
 30
0.0
 50
270.0
  0
MTEXT
  5
CE06
330
CC8B
100
AcDbEntity
  8
AM_5
 62
     2
100
AcDbMText
 10
112.3330245395113
 20
118.4479045827909
 30
0.0
 40
3.200000000000001
 41
0.0
 71
     5
 72
     1
  1
H
 11
0.0000000000000001
 21
1.0
 31
0.0
 73
     1
 44
1.0
1001
ACAD
1000
MTEXTBEGIN
1070
    73
1070
     1
1070
    44
1040
1.0
1070
    74
1070
     0
1000
MTEXTEND
  0
POINT
  5
CE07
330
CC8B
100
AcDbEntity
  8
Defpoints
 62
     0
100
AcDbPoint
 10
111.4330245395112
 20
122.6783626004581
 30
0.0
  0
POINT
  5
CE08
330
CC8B
100
AcDbEntity
  8
Defpoints
 62
     0
100
AcDbPoint
 10
124.9330245395112
 20
141.6783626004581
 30
0.0
  0
POINT
  5
CE09
330
CC8B
100
AcDbEntity
  8
Defpoints
 62
     0
100
AcDbPoint
 10
114.9330245395113
 20
141.6783626004581
 30
0.0
  0
ENDBLK
  5
CC97
330
CC8B
100
AcDbEntity
  8
0
100
AcDbBlockEnd
  0
BLOCK
  5
CCA2
330
CC98
100
AcDbEntity
  8
0
100
AcDbBlockBegin
  2
*D26
 70
     1
 10
0.0
 20
0.0
 30
0.0
  3
*D26
  1

  0
LINE
  5
CE0A
330
CC98
100
AcDbEntity
  8
AM_5
100
AcDbLine
 10
110.4330245395113
 20
122.6783626004581
 30
0.0
 11
65.93302453951129
 21
122.6783626004581
 31
0.0
  0
LINE
  5
CE0B
330
CC98
100
AcDbEntity
  8
AM_5
100
AcDbLine
 10
96.43302453951129
 20
145.6783626004581
 30
0.0
 11
65.93302453951129
 21
145.6783626004581
 31
0.0
  0
LINE
  5
CE0C
330
CC98
100
AcDbEntity
  8
AM_5
100
AcDbLine
 10
66.9330245395113
 20
123.6783626004581
 30
0.0
 11
66.9330245395113
 21
144.6783626004581
 31
0.0
  0
INSERT
  5
CE0D
330
CC98
100
AcDbEntity
  8
AM_5
100
AcDbBlockReference
  2
_Dot
 10
66.9330245395113
 20
122.6783626004581
 30
0.0
 50
270.0
  0
INSERT
  5
CE0E
330
CC98
100
AcDbEntity
  8
AM_5
100
AcDbBlockReference
  2
_Dot
 10
66.9330245395113
 20
145.6783626004581
 30
0.0
 50
90.0
  0
MTEXT
  5
CE0F
330
CC98
100
AcDbEntity
  8
AM_5
 62
     2
100
AcDbMText
 10
64.33302453951128
 20
134.1783626004587
 30
0.0
 40
3.200000000000001
 41
0.0
 71
     5
 72
     1
  1
（K）
 11
0.0000000000000001
 21
1.0
 31
0.0
 73
     1
 44
1.0
1001
ACAD
1000
MTEXTBEGIN
1070
    73
1070
     1
1070
    44
1040
1.0
1070
    74
1070
     0
1000
MTEXTEND
  0
POINT
  5
CE10
330
CC98
100
AcDbEntity
  8
Defpoints
 62
     0
100
AcDbPoint
 10
111.4330245395112
 20
122.6783626004581
 30
0.0
  0
POINT
  5
CE11
330
CC98
100
AcDbEntity
  8
Defpoints
 62
     0
100
AcDbPoint
 10
97.43302453951129
 20
145.6783626004581
 30
0.0
  0
POINT
  5
CE12
330
CC98
100
AcDbEntity
  8
Defpoints
 62
     0
100
AcDbPoint
 10
66.9330245395113
 20
145.6783626004581
 30
0.0
  0
ENDBLK
  5
CCA3
330
CC98
100
AcDbEntity
  8
0
100
AcDbBlockEnd
  0
BLOCK
  5
CCAE
330
CCA4
100
AcDbEntity
  8
0
100
AcDbBlockBegin
  2
*D27
 70
     1
 10
0.0
 20
0.0
 30
0.0
  3
*D27
  1

  0
LINE
  5
CE13
330
CCA4
100
AcDbEntity
  8
AM_5
100
AcDbLine
 10
96.43302453951129
 20
145.6783626004581
 30
0.0
 11
75.93302453951129
 21
145.6783626004581
 31
0.0
  0
LINE
  5
CE14
330
CCA4
100
AcDbEntity
  8
AM_5
100
AcDbLine
 10
105.9330245395113
 20
128.6783626004581
 30
0.0
 11
75.93302453951129
 21
128.6783626004581
 31
0.0
  0
LINE
  5
CE15
330
CCA4
100
AcDbEntity
  8
AM_5
100
AcDbLine
 10
76.9330245395113
 20
144.6783626004581
 30
0.0
 11
76.9330245395113
 21
129.6783626004581
 31
0.0
  0
INSERT
  5
CE16
330
CCA4
100
AcDbEntity
  8
AM_5
100
AcDbBlockReference
  2
_Dot
 10
76.9330245395113
 20
145.6783626004581
 30
0.0
 50
90.0
  0
INSERT
  5
CE17
330
CCA4
100
AcDbEntity
  8
AM_5
100
AcDbBlockReference
  2
_Dot
 10
76.9330245395113
 20
128.6783626004581
 30
0.0
 50
270.0
  0
MTEXT
  5
CE18
330
CCA4
100
AcDbEntity
  8
AM_5
 62
     2
100
AcDbMText
 10
74.33302453951128
 20
137.1783626004587
 30
0.0
 40
3.200000000000001
 41
0.0
 71
     5
 72
     1
  1
G
 11
0.0000000000000001
 21
1.0
 31
0.0
 73
     1
 44
1.0
1001
ACAD
1000
MTEXTBEGIN
1070
    73
1070
     1
1070
    44
1040
1.0
1070
    74
1070
     0
1000
MTEXTEND
  0
POINT
  5
CE19
330
CCA4
100
AcDbEntity
  8
Defpoints
 62
     0
100
AcDbPoint
 10
97.43302453951129
 20
145.6783626004581
 30
0.0
  0
POINT
  5
CE1A
330
CCA4
100
AcDbEntity
  8
Defpoints
 62
     0
100
AcDbPoint
 10
106.9330245395113
 20
128.6783626004581
 30
0.0
  0
POINT
  5
CE1B
330
CCA4
100
AcDbEntity
  8
Defpoints
 62
     0
100
AcDbPoint
 10
76.9330245395113
 20
128.6783626004581
 30
0.0
  0
ENDBLK
  5
CCAF
330
CCA4
100
AcDbEntity
  8
0
100
AcDbBlockEnd
  0
BLOCK
  5
CCBA
330
CCB0
100
AcDbEntity
  8
0
100
AcDbBlockBegin
  2
*D28
 70
     1
 10
0.0
 20
0.0
 30
0.0
  3
*D28
  1

  0
LINE
  5
CE1C
330
CCB0
100
AcDbEntity
  8
AM_5
100
AcDbLine
 10
160.9330245395113
 20
135.1783626004581
 30
0.0
 11
177.9161951612268
 21
135.1783626004581
 31
0.0
  0
LINE
  5
CE1D
330
CCB0
100
AcDbEntity
  8
AM_5
100
AcDbLine
 10
153.4330245395113
 20
122.6783626004581
 30
0.0
 11
177.9161951612268
 21
122.6783626004581
 31
0.0
  0
LINE
  5
CE1E
330
CCB0
100
AcDbEntity
  8
AM_5
100
AcDbLine
 10
176.9161951612268
 20
134.1783626004581
 30
0.0
 11
176.9161951612268
 21
123.6783626004581
 31
0.0
  0
INSERT
  5
CE1F
330
CCB0
100
AcDbEntity
  8
AM_5
100
AcDbBlockReference
  2
_Dot
 10
176.9161951612268
 20
135.1783626004581
 30
0.0
 50
90.0
  0
INSERT
  5
CE20
330
CCB0
100
AcDbEntity
  8
AM_5
100
AcDbBlockReference
  2
_Dot
 10
176.9161951612268
 20
122.6783626004581
 30
0.0
 50
270.0
  0
MTEXT
  5
CE21
330
CCB0
100
AcDbEntity
  8
AM_5
 62
     2
100
AcDbMText
 10
174.3161951612268
 20
128.9283626004581
 30
0.0
 40
3.200000000000001
 41
0.0
 71
     5
 72
     1
  1
F
 11
0.0000000000000001
 21
1.0
 31
0.0
 73
     1
 44
1.0
1001
ACAD
1000
MTEXTBEGIN
1070
    73
1070
     1
1070
    44
1040
1.0
1070
    74
1070
     0
1000
MTEXTEND
  0
POINT
  5
CE22
330
CCB0
100
AcDbEntity
  8
Defpoints
 62
     0
100
AcDbPoint
 10
159.9330245395113
 20
135.1783626004581
 30
0.0
  0
POINT
  5
CE23
330
CCB0
100
AcDbEntity
  8
Defpoints
 62
     0
100
AcDbPoint
 10
152.4330245395113
 20
122.6783626004581
 30
0.0
  0
POINT
  5
CE24
330
CCB0
100
AcDbEntity
  8
Defpoints
 62
     0
100
AcDbPoint
 10
176.9161951612268
 20
122.6783626004581
 30
0.0
  0
ENDBLK
  5
CCBB
330
CCB0
100
AcDbEntity
  8
0
100
AcDbBlockEnd
  0
BLOCK
  5
CCC6
330
CCBC
100
AcDbEntity
  8
0
100
AcDbBlockBegin
  2
*D29
 70
     1
 10
0.0
 20
0.0
 30
0.0
  3
*D29
  1

  0
LINE
  5
CE25
330
CCBC
100
AcDbEntity
  8
AM_5
100
AcDbLine
 10
160.9330245395113
 20
135.1783626004581
 30
0.0
 11
177.9161951612268
 21
135.1783626004581
 31
0.0
  0
LINE
  5
CE26
330
CCBC
100
AcDbEntity
  8
AM_5
100
AcDbLine
 10
167.4330245395112
 20
145.6783626004581
 30
0.0
 11
177.9161951612268
 21
145.6783626004581
 31
0.0
  0
LINE
  5
CE27
330
CCBC
100
AcDbEntity
  8
AM_5
100
AcDbLine
 10
176.9161951612268
 20
136.1783626004581
 30
0.0
 11
176.9161951612268
 21
144.6783626004581
 31
0.0
  0
INSERT
  5
CE28
330
CCBC
100
AcDbEntity
  8
AM_5
100
AcDbBlockReference
  2
_Dot
 10
176.9161951612268
 20
135.1783626004581
 30
0.0
 50
270.0
  0
INSERT
  5
CE29
330
CCBC
100
AcDbEntity
  8
AM_5
100
AcDbBlockReference
  2
_Dot
 10
176.9161951612268
 20
145.6783626004581
 30
0.0
 50
90.0
  0
MTEXT
  5
CE2A
330
CCBC
100
AcDbEntity
  8
AM_5
 62
     2
100
AcDbMText
 10
174.3161951612268
 20
140.4283626004587
 30
0.0
 40
3.200000000000001
 41
0.0
 71
     5
 72
     1
  1
（K）
 11
0.0000000000000001
 21
1.0
 31
0.0
 73
     1
 44
1.0
1001
ACAD
1000
MTEXTBEGIN
1070
    73
1070
     1
1070
    44
1040
1.0
1070
    74
1070
     0
1000
MTEXTEND
  0
POINT
  5
CE2B
330
CCBC
100
AcDbEntity
  8
Defpoints
 62
     0
100
AcDbPoint
 10
159.9330245395113
 20
135.1783626004581
 30
0.0
  0
POINT
  5
CE2C
330
CCBC
100
AcDbEntity
  8
Defpoints
 62
     0
100
AcDbPoint
 10
166.4330245395112
 20
145.6783626004581
 30
0.0
  0
POINT
  5
CE2D
330
CCBC
100
AcDbEntity
  8
Defpoints
 62
     0
100
AcDbPoint
 10
176.9161951612268
 20
145.6783626004581
 30
0.0
  0
ENDBLK
  5
CCC7
330
CCBC
100
AcDbEntity
  8
0
100
AcDbBlockEnd
  0
BLOCK
  5
CCD2
330
CCC8
100
AcDbEntity
  8
0
100
AcDbBlockBegin
  2
*D30
 70
     1
 10
0.0
 20
0.0
 30
0.0
  3
*D30
  1

  0
LINE
  5
CD62
330
CCC8
100
AcDbEntity
  8
AM_5
100
AcDbLine
 10
96.43302453951129
 20
81.82992226029327
 30
0.0
 11
85.9330245395113
 21
81.82992226029329
 31
0.0
  0
LINE
  5
CD63
330
CCC8
100
AcDbEntity
  8
AM_5
100
AcDbLine
 10
96.43302453951129
 20
68.82992226029327
 30
0.0
 11
85.9330245395113
 21
68.82992226029329
 31
0.0
  0
LINE
  5
CD64
330
CCC8
100
AcDbEntity
  8
AM_5
100
AcDbLine
 10
86.9330245395113
 20
80.82992226029329
 30
0.0
 11
86.9330245395113
 21
69.82992226029328
 31
0.0
  0
INSERT
  5
CD65
330
CCC8
100
AcDbEntity
  8
AM_5
100
AcDbBlockReference
  2
_Dot
 10
86.9330245395113
 20
81.82992226029329
 30
0.0
 50
90.0
  0
INSERT
  5
CD66
330
CCC8
100
AcDbEntity
  8
AM_5
100
AcDbBlockReference
  2
_Dot
 10
86.9330245395113
 20
68.82992226029329
 30
0.0
 50
270.0
  0
MTEXT
  5
CD67
330
CCC8
100
AcDbEntity
  8
AM_5
 62
     2
100
AcDbMText
 10
84.33302453951128
 20
75.32992226029327
 30
0.0
 40
3.200000000000001
 41
0.0
 71
     5
 72
     1
  1
C
 11
0.0000000000000001
 21
1.0
 31
0.0
 73
     1
 44
1.0
1001
ACAD
1000
MTEXTBEGIN
1070
    73
1070
     1
1070
    44
1040
1.0
1070
    74
1070
     0
1000
MTEXTEND
  0
POINT
  5
CD68
330
CCC8
100
AcDbEntity
  8
Defpoints
 62
     0
100
AcDbPoint
 10
97.43302453951129
 20
81.82992226029327
 30
0.0
  0
POINT
  5
CD69
330
CCC8
100
AcDbEntity
  8
Defpoints
 62
     0
100
AcDbPoint
 10
97.43302453951129
 20
68.82992226029327
 30
0.0
  0
POINT
  5
CD6A
330
CCC8
100
AcDbEntity
  8
Defpoints
 62
     0
100
AcDbPoint
 10
86.9330245395113
 20
68.82992226029329
 30
0.0
  0
ENDBLK
  5
CCD3
330
CCC8
100
AcDbEntity
  8
0
100
AcDbBlockEnd
  0
BLOCK
  5
CCDE
330
CCD4
100
AcDbEntity
  8
0
100
AcDbBlockBegin
  2
*D31
 70
     1
 10
0.0
 20
0.0
 30
0.0
  3
*D31
  1

  0
LINE
  5
CD6B
330
CCD4
100
AcDbEntity
  8
AM_5
100
AcDbLine
 10
96.93302453951128
 20
82.32992226029328
 30
0.0
 11
96.93302453951128
 21
102.846492138446
 31
0.0
  0
LINE
  5
CD6C
330
CCD4
100
AcDbEntity
  8
AM_5
100
AcDbLine
 10
166.9330245395113
 20
82.32992226029328
 30
0.0
 11
166.9330245395113
 21
102.846492138446
 31
0.0
  0
LINE
  5
CD6D
330
CCD4
100
AcDbEntity
  8
AM_5
100
AcDbLine
 10
97.93302453951127
 20
101.846492138446
 30
0.0
 11
165.9330245395113
 21
101.846492138446
 31
0.0
  0
INSERT
  5
CD6E
330
CCD4
100
AcDbEntity
  8
AM_5
100
AcDbBlockReference
  2
_Dot
 10
96.93302453951128
 20
101.846492138446
 30
0.0
 50
180.0
  0
INSERT
  5
CD6F
330
CCD4
100
AcDbEntity
  8
AM_5
100
AcDbBlockReference
  2
_Dot
 10
166.9330245395113
 20
101.846492138446
 30
0.0
  0
MTEXT
  5
CD70
330
CCD4
100
AcDbEntity
  8
AM_5
 62
     2
100
AcDbMText
 10
131.9330245395113
 20
104.446492138446
 30
0.0
 40
3.200000000000001
 41
0.0
 71
     5
 72
     1
  1
A
 73
     1
 44
1.0
1001
ACAD
1000
MTEXTBEGIN
1070
    73
1070
     1
1070
    44
1040
1.0
1070
    74
1070
     0
1000
MTEXTEND
  0
POINT
  5
CD71
330
CCD4
100
AcDbEntity
  8
Defpoints
 62
     0
100
AcDbPoint
 10
96.93302453951128
 20
81.32992226029328
 30
0.0
  0
POINT
  5
CD72
330
CCD4
100
AcDbEntity
  8
Defpoints
 62
     0
100
AcDbPoint
 10
166.9330245395113
 20
81.32992226029328
 30
0.0
  0
POINT
  5
CD73
330
CCD4
100
AcDbEntity
  8
Defpoints
 62
     0
100
AcDbPoint
 10
166.9330245395113
 20
101.846492138446
 30
0.0
  0
ENDBLK
  5
CCDF
330
CCD4
100
AcDbEntity
  8
0
100
AcDbBlockEnd
  0
BLOCK
  5
CCEA
330
CCE0
100
AcDbEntity
  8
0
100
AcDbBlockBegin
  2
*D32
 70
     1
 10
0.0
 20
0.0
 30
0.0
  3
*D32
  1

  0
LINE
  5
CD74
330
CCE0
100
AcDbEntity
  8
AM_5
100
AcDbLine
 10
101.9330245395112
 20
82.32992226029328
 30
0.0
 11
101.9330245395112
 21
92.82992226029326
 31
0.0
  0
LINE
  5
CD75
330
CCE0
100
AcDbEntity
  8
AM_5
100
AcDbLine
 10
161.9330245395113
 20
82.32992226029328
 30
0.0
 11
161.9330245395113
 21
92.82992226029326
 31
0.0
  0
LINE
  5
CD76
330
CCE0
100
AcDbEntity
  8
AM_5
100
AcDbLine
 10
102.9330245395112
 20
91.82992226029327
 30
0.0
 11
160.9330245395113
 21
91.82992226029327
 31
0.0
  0
INSERT
  5
CD77
330
CCE0
100
AcDbEntity
  8
AM_5
100
AcDbBlockReference
  2
_Dot
 10
101.9330245395112
 20
91.82992226029327
 30
0.0
 50
180.0
  0
INSERT
  5
CD78
330
CCE0
100
AcDbEntity
  8
AM_5
100
AcDbBlockReference
  2
_Dot
 10
161.9330245395113
 20
91.82992226029327
 30
0.0
  0
MTEXT
  5
CD79
330
CCE0
100
AcDbEntity
  8
AM_5
 62
     2
100
AcDbMText
 10
131.9330245395113
 20
94.42992226029327
 30
0.0
 40
3.200000000000001
 41
0.0
 71
     5
 72
     1
  1
L
 73
     1
 44
1.0
1001
ACAD
1000
MTEXTBEGIN
1070
    73
1070
     1
1070
    44
1040
1.0
1070
    74
1070
     0
1000
MTEXTEND
  0
POINT
  5
CD7A
330
CCE0
100
AcDbEntity
  8
Defpoints
 62
     0
100
AcDbPoint
 10
101.9330245395112
 20
81.32992226029328
 30
0.0
  0
POINT
  5
CD7B
330
CCE0
100
AcDbEntity
  8
Defpoints
 62
     0
100
AcDbPoint
 10
161.9330245395113
 20
81.32992226029328
 30
0.0
  0
POINT
  5
CD7C
330
CCE0
100
AcDbEntity
  8
Defpoints
 62
     0
100
AcDbPoint
 10
161.9330245395113
 20
91.82992226029327
 30
0.0
  0
ENDBLK
  5
CCEB
330
CCE0
100
AcDbEntity
  8
0
100
AcDbBlockEnd
  0
BLOCK
  5
CCFF
330
CCF5
100
AcDbEntity
  8
0
100
AcDbBlockBegin
  2
*D33
 70
     1
 10
0.0
 20
0.0
 30
0.0
  3
*D33
  1

  0
LINE
  5
CD86
330
CCF5
100
AcDbEntity
  8
AM_5
100
AcDbLine
 10
110.9330245395113
 20
69.82992226029328
 30
0.0
 11
110.9330245395113
 21
47.83933324587119
 31
0.0
  0
LINE
  5
CD87
330
CCF5
100
AcDbEntity
  8
AM_5
100
AcDbLine
 10
152.9330245395112
 20
69.82992226029328
 30
0.0
 11
152.9330245395112
 21
47.83933324587119
 31
0.0
  0
LINE
  5
CD88
330
CCF5
100
AcDbEntity
  8
AM_5
100
AcDbLine
 10
111.9330245395113
 20
48.83933324587118
 30
0.0
 11
151.9330245395113
 21
48.83933324587118
 31
0.0
  0
INSERT
  5
CD89
330
CCF5
100
AcDbEntity
  8
AM_5
100
AcDbBlockReference
  2
_Dot
 10
110.9330245395113
 20
48.83933324587118
 30
0.0
 50
180.0
  0
INSERT
  5
CD8A
330
CCF5
100
AcDbEntity
  8
AM_5
100
AcDbBlockReference
  2
_Dot
 10
152.9330245395112
 20
48.83933324587118
 30
0.0
  0
MTEXT
  5
CD8B
330
CCF5
100
AcDbEntity
  8
AM_5
 62
     2
100
AcDbMText
 10
131.9330245395113
 20
51.43933324587119
 30
0.0
 40
3.200000000000001
 41
0.0
 71
     5
 72
     1
  1
B\P
 73
     1
 44
1.0
1001
ACAD
1000
MTEXTBEGIN
1070
    73
1070
     1
1070
    44
1040
1.0
1070
    74
1070
     0
1000
MTEXTEND
  0
POINT
  5
CD8C
330
CCF5
100
AcDbEntity
  8
Defpoints
 62
     0
100
AcDbPoint
 10
110.9330245395113
 20
70.82992226029327
 30
0.0
  0
POINT
  5
CD8D
330
CCF5
100
AcDbEntity
  8
Defpoints
 62
     0
100
AcDbPoint
 10
152.9330245395112
 20
70.82992226029327
 30
0.0
  0
POINT
  5
CD8E
330
CCF5
100
AcDbEntity
  8
Defpoints
 62
     0
100
AcDbPoint
 10
152.9330245395112
 20
48.83933324587118
 30
0.0
  0
ENDBLK
  5
CD00
330
CCF5
100
AcDbEntity
  8
0
100
AcDbBlockEnd
  0
BLOCK
  5
CD0B
330
CD01
100
AcDbEntity
  8
0
100
AcDbBlockBegin
  2
*D34
 70
     1
 10
0.0
 20
0.0
 30
0.0
  3
*D34
  1

  0
LINE
  5
CD8F
330
CD01
100
AcDbEntity
  8
AM_5
100
AcDbLine
 10
153.4330245395113
 20
70.32992226029327
 30
0.0
 11
177.9330245395113
 21
70.32992226029326
 31
0.0
  0
LINE
  5
CD90
330
CD01
100
AcDbEntity
  8
AM_5
100
AcDbLine
 10
153.4330245395113
 20
80.32992226029326
 30
0.0
 11
177.9330245395113
 21
80.32992226029326
 31
0.0
  0
LINE
  5
CD91
330
CD01
100
AcDbEntity
  8
AM_5
100
AcDbLine
 10
176.9330245395113
 20
71.32992226029326
 30
0.0
 11
176.9330245395113
 21
79.32992226029326
 31
0.0
  0
INSERT
  5
CD92
330
CD01
100
AcDbEntity
  8
AM_5
100
AcDbBlockReference
  2
_Dot
 10
176.9330245395113
 20
70.32992226029326
 30
0.0
 50
270.0
  0
INSERT
  5
CD93
330
CD01
100
AcDbEntity
  8
AM_5
100
AcDbBlockReference
  2
_Dot
 10
176.9330245395113
 20
80.32992226029326
 30
0.0
 50
90.0
  0
MTEXT
  5
CD94
330
CD01
100
AcDbEntity
  8
AM_5
 62
     2
100
AcDbMText
 10
174.3330245395113
 20
75.32992226029327
 30
0.0
 40
3.200000000000001
 41
0.0
 71
     5
 72
     1
  1
D
 11
0.0000000000000001
 21
1.0
 31
0.0
 73
     1
 44
1.0
1001
ACAD
1000
MTEXTBEGIN
1070
    73
1070
     1
1070
    44
1040
1.0
1070
    74
1070
     0
1000
MTEXTEND
  0
POINT
  5
CD95
330
CD01
100
AcDbEntity
  8
Defpoints
 62
     0
100
AcDbPoint
 10
152.4330245395113
 20
70.32992226029327
 30
0.0
  0
POINT
  5
CD96
330
CD01
100
AcDbEntity
  8
Defpoints
 62
     0
100
AcDbPoint
 10
152.4330245395113
 20
80.32992226029326
 30
0.0
  0
POINT
  5
CD97
330
CD01
100
AcDbEntity
  8
Defpoints
 62
     0
100
AcDbPoint
 10
176.9330245395113
 20
80.32992226029326
 30
0.0
  0
ENDBLK
  5
CD0C
330
CD01
100
AcDbEntity
  8
0
100
AcDbBlockEnd
  0
BLOCK
  5
CD17
330
CD0D
100
AcDbEntity
  8
0
100
AcDbBlockBegin
  2
*D35
 70
     1
 10
0.0
 20
0.0
 30
0.0
  3
*D35
  1

  0
LINE
  5
CDA1
330
CD0D
100
AcDbEntity
  8
AM_5
100
AcDbLine
 10
185.4182343340435
 20
91.82284348838214
 30
0.0
 11
172.5049010007058
 21
91.82284348838212
 31
0.0
  0
LINE
  5
CDA2
330
CD0D
100
AcDbEntity
  8
AM_5
100
AcDbLine
 10
172.5049010007058
 20
91.82284348838212
 30
0.0
 11
164.1995448860172
 21
78.86586421667136
 31
0.0
  0
LINE
  5
CDA3
330
CD0D
100
AcDbEntity
  8
AM_5
100
AcDbLine
 10
159.6665041930058
 20
71.79398030391595
 30
0.0
 11
158.5872087899077
 21
70.11019841992641
 31
0.0
  0
MTEXT
  5
CDA4
330
CD0D
100
AcDbEntity
  8
AM_5
 62
     2
100
AcDbMText
 10
179.7115676673768
 20
94.42284348838212
 30
0.0
 40
3.2
 41
0.0
 71
     5
 72
     1
  1
4-Nサラ
 73
     1
 44
1.0
1001
ACAD
1000
MTEXTBEGIN
1070
    73
1070
     1
1070
    44
1040
1.0
1070
    74
1070
     0
1000
MTEXTEND
  0
LINE
  5
CDA5
330
CD0D
100
AcDbEntity
  8
AM_5
100
AcDbLine
 10
160.7457995961038
 20
73.47776218790548
 30
0.0
 11
163.1202494829192
 21
77.1820823326818
 31
0.0
  0
INSERT
  5
CDA6
330
CD0D
100
AcDbEntity
  8
AM_5
100
AcDbBlockReference
  2
GENDOT
 10
160.7457995961038
 20
73.47776218790548
 30
0.0
 41
2.0
 42
2.0
 43
2.0
 50
57.34034041498695
  0
INSERT
  5
CDA7
330
CD0D
100
AcDbEntity
  8
AM_5
100
AcDbBlockReference
  2
GENDOT
 10
163.1202494829192
 20
77.1820823326818
 30
0.0
 41
2.0
 42
2.0
 43
2.0
 50
237.3403404149869
  0
POINT
  5
CDA8
330
CD0D
100
AcDbEntity
  8
Defpoints
 62
     0
100
AcDbPoint
 10
163.1202494829192
 20
77.1820823326818
 30
0.0
  0
POINT
  5
CDA9
330
CD0D
100
AcDbEntity
  8
Defpoints
 62
     0
100
AcDbPoint
 10
160.7457995961038
 20
73.47776218790548
 30
0.0
  0
ENDBLK
  5
CD18
330
CD0D
100
AcDbEntity
  8
0
100
AcDbBlockEnd
  0
BLOCK
  5
CFA4
330
CF9D
100
AcDbEntity
  8
0
100
AcDbBlockBegin
  2
*S36
 70
     1
 10
0.0
 20
0.0
 30
0.0
  3
*S36
  1

  0
LINE
  5
CF9E
330
CF9D
100
AcDbEntity
  8
AM_5
 62
     3
100
AcDbLine
 10
190.1657930774503
 20
154.4458141812333
 30
0.0
 11
213.8031264107835
 21
154.4458141812333
 31
0.0
  0
LINE
  5
CF9F
330
CF9D
100
AcDbEntity
  8
AM_5
 62
     3
100
AcDbLine
 10
213.8031264107835
 20
154.4458141812333
 30
0.0
 11
217.6140614716466
 21
150.4119502652013
 31
0.0
  0
LINE
  5
CFA0
330
CF9D
100
AcDbEntity
  8
AM_5
  6
Continuous
 62
     3
100
AcDbLine
 10
217.6140614716466
 20
150.4119502652013
 30
0.0
 11
218.9875322892249
 21
148.958135313682
 31
0.0
  0
LINE
  5
CFA1
330
CF9D
100
AcDbEntity
  8
AM_5
  6
Continuous
 62
     3
100
AcDbLine
 10
217.2245129329772
 20
150.0439298721426
 30
0.0
 11
218.9875322892249
 21
148.958135313682
 31
0.0
  0
LINE
  5
CFA2
330
CF9D
100
AcDbEntity
  8
AM_5
  6
Continuous
 62
     3
100
AcDbLine
 10
218.9875322892249
 20
148.958135313682
 30
0.0
 11
218.0036100103161
 21
150.77997065826
 31
0.0
  0
MTEXT
  5
CFA3
330
CF9D
100
AcDbEntity
  8
AM_5
 62
     2
100
AcDbMText
 10
210.6031264107837
 20
156.0458141812333
 30
0.0
 40
3.2
 41
0.0
 71
     9
 72
     5
  1
90°で使用の場合
 73
     1
 44
1.0
1001
ACAD
1000
MTEXTBEGIN
1070
    73
1070
     1
1070
    44
1040
1.0
1070
    74
1070
     0
1000
MTEXTEND
  0
ENDBLK
  5
CFA5
330
CF9D
100
AcDbEntity
  8
0
100
AcDbBlockEnd
  0
ENDSEC
  0
SECTION
  2
ENTITIES
  0
LINE
  5
C71E
330
1F
100
AcDbEntity
  8
size
100
AcDbLine
 10
0.0
 20
0.0
 30
0.0
 11
297.0
 21
0.0
 31
0.0
1001
GENIUS_GENREC_14
1002
{
1000
PYDIR
1011
0.0
1021
297.0
1031
0.0
1002
}
1002
{
1000
PXDIR
1011
420.0
1021
0.0
1031
0.0
1002
}
1002
{
1000
PORI
1011
0.0
1021
0.0
1031
0.0
1002
}
1002
{
1000
PINS
1011
210.0
1021
148.5
1031
0.0
1002
}
1002
{
1000
HVAL
1000
297
1002
}
1002
{
1000
H
1070
     2
1002
}
1002
{
1000
WVAL
1000
420
1002
}
1002
{
1000
W
1070
     2
1002
}
1002
{
1000
C
1070
     4
1002
}
1001
GENIUS_GENOBJ-N-REC_13
1002
{
1000
OWNER
1000
GEN
1002
}
1001
GENIUS_GENODEF_13
1002
{
1000
HIER
1070
     0
1002
}
1002
{
1000
MANEDIT
1070
     0
1002
}
1002
{
1000
NOSEL
1070
     0
1002
}
1002
{
1000
BEHIND
1070
     0
1002
}
1002
{
1000
OTHER
1070
     0
1002
}
1002
{
1000
REACTOR
1002
}
  0
LINE
  5
C71F
330
1F
100
AcDbEntity
  8
size
100
AcDbLine
 10
0.0
 20
210.0
 30
0.0
 11
0.0
 21
0.0
 31
0.0
1001
GENIUS_GENREC_14
1002
{
1000
PYDIR
1011
0.0
1021
297.0
1031
0.0
1002
}
1002
{
1000
PXDIR
1011
420.0
1021
0.0
1031
0.0
1002
}
1002
{
1000
PORI
1011
0.0
1021
0.0
1031
0.0
1002
}
1002
{
1000
PINS
1011
210.0
1021
148.5
1031
0.0
1002
}
1002
{
1000
HVAL
1000
297
1002
}
1002
{
1000
H
1070
     2
1002
}
1002
{
1000
WVAL
1000
420
1002
}
1002
{
1000
W
1070
     2
1002
}
1002
{
1000
C
1070
     4
1002
}
1001
GENIUS_GENOBJ-N-REC_13
1002
{
1000
OWNER
1000
GEN
1002
}
1001
GENIUS_GENODEF_13
1002
{
1000
HIER
1070
     0
1002
}
1002
{
1000
MANEDIT
1070
     0
1002
}
1002
{
1000
NOSEL
1070
     0
1002
}
1002
{
1000
BEHIND
1070
     0
1002
}
1002
{
1000
OTHER
1070
     0
1002
}
1002
{
1000
REACTOR
1002
}
  0
LINE
  5
C720
330
1F
100
AcDbEntity
  8
waku
100
AcDbLine
 10
285.5
 20
8.5
 30
0.0
 11
285.5
 21
201.5
 31
0.0
1001
GENIUS_GENREC_14
1002
{
1000
PYDIR
1011
-123.0
1021
216.0
1031
0.0
1002
}
1002
{
1000
PXDIR
1011
297.0
1021
-81.0
1031
0.0
1002
}
1002
{
1000
PORI
1011
-123.0
1021
-81.0
1031
0.0
1002
}
1002
{
1000
PINS
1011
87.0
1021
67.5
1031
0.0
1002
}
1002
{
1000
HVAL
1000
297
1002
}
1002
{
1000
H
1070
     2
1002
}
1002
{
1000
WVAL
1000
420
1002
}
1002
{
1000
W
1070
     2
1002
}
1002
{
1000
C
1070
     4
1002
}
1001
GENIUS_GENOBJ-N-REC_13
1002
{
1000
OWNER
1000
GEN
1002
}
1001
GENIUS_GENODEF_13
1002
{
1000
HIER
1070
     0
1002
}
1002
{
1000
MANEDIT
1070
     0
1002
}
1002
{
1000
NOSEL
1070
     0
1002
}
1002
{
1000
BEHIND
1070
     0
1002
}
1002
{
1000
OTHER
1070
     0
1002
}
1002
{
1000
REACTOR
1002
}
  0
LINE
  5
C721
330
1F
100
AcDbEntity
  8
waku
100
AcDbLine
 10
11.5
 20
201.5
 30
0.0
 11
11.5
 21
8.5
 31
0.0
1001
GENIUS_GENREC_14
1002
{
1000
PYDIR
1011
0.0
1021
297.0
1031
0.0
1002
}
1002
{
1000
PXDIR
1011
420.0
1021
0.0
1031
0.0
1002
}
1002
{
1000
PORI
1011
0.0
1021
0.0
1031
0.0
1002
}
1002
{
1000
PINS
1011
210.0
1021
148.5
1031
0.0
1002
}
1002
{
1000
HVAL
1000
297
1002
}
1002
{
1000
H
1070
     2
1002
}
1002
{
1000
WVAL
1000
420
1002
}
1002
{
1000
W
1070
     2
1002
}
1002
{
1000
C
1070
     4
1002
}
1001
GENIUS_GENOBJ-N-REC_13
1002
{
1000
OWNER
1000
GEN
1002
}
1001
GENIUS_GENODEF_13
1002
{
1000
HIER
1070
     0
1002
}
1002
{
1000
MANEDIT
1070
     0
1002
}
1002
{
1000
NOSEL
1070
     0
1002
}
1002
{
1000
BEHIND
1070
     0
1002
}
1002
{
1000
OTHER
1070
     0
1002
}
1002
{
1000
REACTOR
1002
}
  0
LINE
  5
C722
330
1F
100
AcDbEntity
  8
waku
100
AcDbLine
 10
285.5
 20
201.5
 30
0.0
 11
11.5
 21
201.5
 31
0.0
1001
GENIUS_GENREC_14
1002
{
1000
PYDIR
1011
-123.0
1021
210.0
1031
0.0
1002
}
1002
{
1000
PXDIR
1011
297.0
1021
-87.0
1031
0.0
1002
}
1002
{
1000
PORI
1011
-123.0
1021
-87.0
1031
0.0
1002
}
1002
{
1000
PINS
1011
87.0
1021
61.5
1031
0.0
1002
}
1002
{
1000
HVAL
1000
297
1002
}
1002
{
1000
H
1070
     2
1002
}
1002
{
1000
WVAL
1000
420
1002
}
1002
{
1000
W
1070
     2
1002
}
1002
{
1000
C
1070
     4
1002
}
1001
GENIUS_GENOBJ-N-REC_13
1002
{
1000
OWNER
1000
GEN
1002
}
1001
GENIUS_GENODEF_13
1002
{
1000
HIER
1070
     0
1002
}
1002
{
1000
MANEDIT
1070
     0
1002
}
1002
{
1000
NOSEL
1070
     0
1002
}
1002
{
1000
BEHIND
1070
     0
1002
}
1002
{
1000
OTHER
1070
     0
1002
}
1002
{
1000
REACTOR
1002
}
  0
LINE
  5
C723
330
1F
100
AcDbEntity
  8
waku
100
AcDbLine
 10
11.5
 20
8.5
 30
0.0
 11
285.5
 21
8.5
 31
0.0
1001
GENIUS_GENREC_14
1002
{
1000
PYDIR
1011
0.0
1021
297.0
1031
0.0
1002
}
1002
{
1000
PXDIR
1011
420.0
1021
0.0
1031
0.0
1002
}
1002
{
1000
PORI
1011
0.0
1021
0.0
1031
0.0
1002
}
1002
{
1000
PINS
1011
210.0
1021
148.5
1031
0.0
1002
}
1002
{
1000
HVAL
1000
297
1002
}
1002
{
1000
H
1070
     2
1002
}
1002
{
1000
WVAL
1000
420
1002
}
1002
{
1000
W
1070
     2
1002
}
1002
{
1000
C
1070
     4
1002
}
  0
LINE
  5
C724
330
1F
100
AcDbEntity
  8
size
100
AcDbLine
 10
297.0
 20
210.0
 30
0.0
 11
297.0
 21
0.0
 31
0.0
1001
GENIUS_GENREC_14
1002
{
1000
PYDIR
1011
0.0
1021
297.0
1031
0.0
1002
}
1002
{
1000
PXDIR
1011
420.0
1021
0.0
1031
0.0
1002
}
1002
{
1000
PORI
1011
0.0
1021
0.0
1031
0.0
1002
}
1002
{
1000
PINS
1011
210.0
1021
148.5
1031
0.0
1002
}
1002
{
1000
HVAL
1000
297
1002
}
1002
{
1000
H
1070
     2
1002
}
1002
{
1000
WVAL
1000
420
1002
}
1002
{
1000
W
1070
     2
1002
}
1002
{
1000
C
1070
     4
1002
}
1001
GENIUS_GENOBJ-N-REC_13
1002
{
1000
OWNER
1000
GEN
1002
}
1001
GENIUS_GENODEF_13
1002
{
1000
HIER
1070
     0
1002
}
1002
{
1000
MANEDIT
1070
     0
1002
}
1002
{
1000
NOSEL
1070
     0
1002
}
1002
{
1000
BEHIND
1070
     0
1002
}
1002
{
1000
OTHER
1070
     0
1002
}
1002
{
1000
REACTOR
1002
}
  0
LINE
  5
C725
330
1F
100
AcDbEntity
  8
size
100
AcDbLine
 10
0.0
 20
210.0
 30
0.0
 11
297.0
 21
210.0
 31
0.0
1001
GENIUS_GENREC_14
1002
{
1000
PYDIR
1011
0.0
1021
297.0
1031
0.0
1002
}
1002
{
1000
PXDIR
1011
420.0
1021
0.0
1031
0.0
1002
}
1002
{
1000
PORI
1011
0.0
1021
0.0
1031
0.0
1002
}
1002
{
1000
PINS
1011
210.0
1021
148.5
1031
0.0
1002
}
1002
{
1000
HVAL
1000
297
1002
}
1002
{
1000
H
1070
     2
1002
}
1002
{
1000
WVAL
1000
420
1002
}
1002
{
1000
W
1070
     2
1002
}
1002
{
1000
C
1070
     4
1002
}
1001
GENIUS_GENOBJ-N-REC_13
1002
{
1000
OWNER
1000
GEN
1002
}
1001
GENIUS_GENODEF_13
1002
{
1000
HIER
1070
     0
1002
}
1002
{
1000
MANEDIT
1070
     0
1002
}
1002
{
1000
NOSEL
1070
     0
1002
}
1002
{
1000
BEHIND
1070
     0
1002
}
1002
{
1000
OTHER
1070
     0
1002
}
1002
{
1000
REACTOR
1002
}
  0
LINE
  5
C726
330
1F
100
AcDbEntity
  8
AM_2
100
AcDbLine
 10
31.5
 20
201.5
 30
0.0
 11
31.5
 21
169.499999999997
 31
0.0
  0
LINE
  5
C727
330
1F
100
AcDbEntity
  8
AM_2
100
AcDbLine
 10
11.5
 20
193.5
 30
0.0
 11
91.50000000000005
 21
193.5
 31
0.0
  0
LINE
  5
C728
330
1F
100
AcDbEntity
  8
AM_2
100
AcDbLine
 10
11.5
 20
185.5
 30
0.0
 11
91.50000000000018
 21
185.5
 31
0.0
  0
LINE
  5
C729
330
1F
100
AcDbEntity
  8
AM_2
100
AcDbLine
 10
11.5
 20
177.5
 30
0.0
 11
91.50000000000034
 21
177.5
 31
0.0
  0
LINE
  5
C72B
330
1F
100
AcDbEntity
  8
AM_0
100
AcDbLine
 10
11.5
 20
201.5
 30
0.0
 11
91.5
 21
201.4999999999996
 31
0.0
  0
LINE
  5
C72C
330
1F
100
AcDbEntity
  8
AM_1
100
AcDbLine
 10
91.5
 20
201.5
 30
0.0
 11
91.50000000000046
 21
169.5
 31
0.0
  0
TEXT
  5
C72D
330
1F
100
AcDbEntity
  8
AM_6
100
AcDbText
 10
17.15700000000015
 20
195.8999999999996
 30
0.0
 40
3.2
  1
品　名
 41
0.85537027
100
AcDbText
  0
TEXT
  5
C72E
330
1F
100
AcDbEntity
  8
AM_6
100
AcDbText
 10
17.15700000000015
 20
187.8999999999996
 30
0.0
 40
3.2
  1
品　番
 41
0.85537027
100
AcDbText
  0
TEXT
  5
C72F
330
1F
100
AcDbEntity
  8
AM_6
100
AcDbText
 10
17.15700000000015
 20
179.8999999999996
 30
0.0
 40
3.2
  1
材　質
 41
0.85537027
100
AcDbText
  0
TEXT
  5
C730
330
1F
100
AcDbEntity
  8
AM_6
100
AcDbText
 10
17.15700000000061
 20
171.8999999999996
 30
0.0
 40
3.2
  1
仕上げ
 41
0.85537027
100
AcDbText
  0
TEXT
  5
C731
330
1F
100
AcDbEntity
  8
AM_6
100
AcDbText
 10
34.15700000000015
 20
195.8999999999996
 30
0.0
 40
3.2
  1
ボールキャッチ
 41
0.85537027
100
AcDbText
  0
TEXT
  5
C732
330
1F
100
AcDbEntity
  8
AM_6
100
AcDbText
 10
34.15700000000015
 20
187.8999999999996
 30
0.0
 40
3.2
  1
SC-201
 41
0.85537027
100
AcDbText
  0
TEXT
  5
C733
330
1F
100
AcDbEntity
  8
AM_6
100
AcDbText
 10
34.15700000000015
 20
179.8999999999996
 30
0.0
 40
3.2
  1
亜鉛ダイキャスト
 41
0.85537027
100
AcDbText
  0
LINE
  5
C734
330
1F
100
AcDbEntity
  8
AM_1
100
AcDbLine
 10
11.5
 20
169.4999999999964
 30
0.0
 11
91.50000000000046
 21
169.499999999999
 31
0.0
  0
TEXT
  5
C735
330
1F
100
AcDbEntity
  8
AM_6
100
AcDbText
 10
34.15700000000061
 20
171.8999999999996
 30
0.0
 40
3.2
  1
クロームメッキ
 41
0.85537027
100
AcDbText
  0
LINE
  5
C736
330
1F
100
AcDbEntity
  8
AM_0
100
AcDbLine
 10
235.9769036596576
 20
154.4581353136821
 30
0.0
 11
222.9769036596576
 21
154.4581353136821
 31
0.0
  0
LINE
  5
C737
330
1F
100
AcDbEntity
  8
AM_0
100
AcDbLine
 10
235.9769036596576
 20
150.4581353136821
 30
0.0
 11
222.9769036596576
 21
150.4581353136821
 31
0.0
  0
LINE
  5
C738
330
1F
100
AcDbEntity
  8
AM_0
100
AcDbLine
 10
234.4769036596576
 20
137.458135313682
 30
0.0
 11
224.4769036596576
 21
137.458135313682
 31
0.0
  0
LINE
  5
C739
330
1F
100
AcDbEntity
  8
AM_0
100
AcDbLine
 10
224.4769036596576
 20
135.458135313682
 30
0.0
 11
234.4769036596576
 21
135.458135313682
 31
0.0
  0
LINE
  5
C73A
330
1F
100
AcDbEntity
  8
AM_0
100
AcDbLine
 10
234.4769036596576
 20
131.4581353136821
 30
0.0
 11
224.4769036596576
 21
131.4581353136821
 31
0.0
  0
LINE
  5
C73B
330
1F
100
AcDbEntity
  8
AM_0
100
AcDbLine
 10
222.9769036596576
 20
143.9581353136821
 30
0.0
 11
222.9769036596576
 21
154.4581353136821
 31
0.0
  0
LINE
  5
C73C
330
1F
100
AcDbEntity
  8
AM_0
100
AcDbLine
 10
235.9769036596576
 20
143.9581353136821
 30
0.0
 11
235.9769036596576
 21
154.4581353136821
 31
0.0
  0
CIRCLE
  5
C73D
330
1F
100
AcDbEntity
  8
AM_0
100
AcDbCircle
 10
229.4769036596576
 20
143.9581353136821
 30
0.0
 40
5.5
  0
ARC
  5
C73E
330
1F
100
AcDbEntity
  8
AM_0
100
AcDbCircle
 10
229.4769036596576
 20
143.9581353136821
 30
0.0
 40
6.5
100
AcDbArc
 50
180.0
 51
0.0
  0
LINE
  5
C73F
330
1F
100
AcDbEntity
  8
AM_0
100
AcDbLine
 10
224.4769036596576
 20
131.4581353136821
 30
0.0
 11
224.4769036596576
 21
139.8048233136821
 31
0.0
  0
LINE
  5
C740
330
1F
100
AcDbEntity
  8
AM_0
100
AcDbLine
 10
234.4769036596576
 20
131.4581353136821
 30
0.0
 11
234.4769036596576
 21
139.8048233136821
 31
0.0
  0
ARC
  5
C741
330
1F
100
AcDbEntity
  8
AM_0
100
AcDbCircle
 10
229.4769036596576
 20
143.9581353136821
 30
0.0
 40
4.5
100
AcDbArc
 50
186.3793699999993
 51
353.6206300000007
  0
LINE
  5
C742
330
1F
100
AcDbEntity
  8
AM_0
100
AcDbLine
 10
233.9490396596575
 20
144.4581353136821
 30
0.0
 11
225.0047676596578
 21
144.4581353136821
 31
0.0
  0
LINE
  5
C743
330
1F
100
AcDbEntity
  8
AM_0
100
AcDbLine
 10
233.9490396596575
 20
143.458135313682
 30
0.0
 11
225.0047676596578
 21
143.458135313682
 31
0.0
  0
ARC
  5
C744
330
1F
100
AcDbEntity
  8
AM_0
100
AcDbCircle
 10
229.4769036596576
 20
143.9581353136821
 30
0.0
 40
4.5
100
AcDbArc
 50
6.37936999999933
 51
173.6206300000006
  0
LINE
  5
C745
102
{ACAD_REACTORS
330
C7AD
102
}
330
1F
100
AcDbEntity
  8
AM_0
100
AcDbLine
 10
166.9330245395113
 20
85.10969497351721
 30
0.0
 11
166.9330245395113
 21
73.1096949735172
 31
0.0
  0
LINE
  5
C746
102
{ACAD_REACTORS
330
C7AA
102
}
330
1F
100
AcDbEntity
  8
AM_0
100
AcDbLine
 10
166.4330245395112
 20
72.6096949735172
 30
0.0
 11
97.43302453951129
 21
72.6096949735172
 31
0.0
  0
LINE
  5
C747
102
{ACAD_REACTORS
330
C7AD
102
}
330
1F
100
AcDbEntity
  8
AM_0
100
AcDbLine
 10
96.93302453951128
 20
73.1096949735172
 30
0.0
 11
96.93302453951128
 21
85.10969497351721
 31
0.0
  0
LINE
  5
C748
102
{ACAD_REACTORS
330
C7AA
102
}
330
1F
100
AcDbEntity
  8
AM_0
100
AcDbLine
 10
97.43302453951129
 20
85.6096949735172
 30
0.0
 11
166.4330245395112
 21
85.6096949735172
 31
0.0
  0
CIRCLE
  5
C749
102
{ACAD_REACTORS
330
C7BA
102
}
330
1F
100
AcDbEntity
  8
AM_0
100
AcDbCircle
 10
161.9330245395113
 20
79.10969497351721
 30
0.0
 40
2.2
  0
CIRCLE
  5
C74A
330
1F
100
AcDbEntity
  8
AM_0
100
AcDbCircle
 10
146.9330245395113
 20
79.10969497351721
 30
0.0
 40
2.2
  0
LINE
  5
C74B
330
1F
100
AcDbEntity
  8
AM_0
100
AcDbLine
 10
156.9330245395113
 20
72.6096949735172
 30
0.0
 11
156.9330245395113
 21
85.6096949735172
 31
0.0
  0
LINE
  5
C74C
102
{ACAD_REACTORS
330
C7B4
102
}
330
1F
100
AcDbEntity
  8
AM_0
100
AcDbLine
 10
152.9330245395112
 20
83.60969497351721
 30
0.0
 11
152.9330245395112
 21
74.60969497351721
 31
0.0
  0
LINE
  5
C74D
102
{ACAD_REACTORS
330
C7B4
102
}
330
1F
100
AcDbEntity
  8
AM_0
100
AcDbLine
 10
110.9330245395113
 20
83.60969497351721
 30
0.0
 11
110.9330245395113
 21
74.60969497351721
 31
0.0
  0
LINE
  5
C74E
330
1F
100
AcDbEntity
  8
AM_0
100
AcDbLine
 10
106.9330245395113
 20
85.6096949735172
 30
0.0
 11
106.9330245395113
 21
72.6096949735172
 31
0.0
  0
LINE
  5
C74F
330
1F
100
AcDbEntity
  8
AM_0
100
AcDbLine
 10
124.9330245395112
 20
85.6096949735172
 30
0.0
 11
124.9330245395112
 21
84.1096949735172
 31
0.0
  0
LINE
  5
C750
330
1F
100
AcDbEntity
  8
AM_0
100
AcDbLine
 10
138.9330245395113
 20
72.6096949735172
 30
0.0
 11
138.9330245395113
 21
74.10969497351721
 31
0.0
  0
LINE
  5
C751
102
{ACAD_REACTORS
330
C7B7
102
}
330
1F
100
AcDbEntity
  8
AM_0
100
AcDbLine
 10
152.4330245395113
 20
84.1096949735172
 30
0.0
 11
111.4330245395112
 21
84.1096949735172
 31
0.0
  0
LINE
  5
C752
102
{ACAD_REACTORS
330
C7B7
102
}
330
1F
100
AcDbEntity
  8
AM_0
100
AcDbLine
 10
152.4330245395113
 20
74.10969497351721
 30
0.0
 11
111.4330245395112
 21
74.10969497351721
 31
0.0
  0
LINE
  5
C753
330
1F
100
AcDbEntity
  8
AM_0
100
AcDbLine
 10
124.9330245395112
 20
74.10969497351721
 30
0.0
 11
124.9330245395112
 21
72.6096949735172
 31
0.0
  0
LINE
  5
C754
330
1F
100
AcDbEntity
  8
AM_0
100
AcDbLine
 10
138.9330245395113
 20
84.1096949735172
 30
0.0
 11
138.9330245395113
 21
85.6096949735172
 31
0.0
  0
CIRCLE
  5
C755
330
1F
100
AcDbEntity
  8
AM_0
100
AcDbCircle
 10
161.9330245395113
 20
79.10969497351721
 30
0.0
 40
4.2
  0
ARC
  5
C756
330
1F
100
AcDbEntity
  8
AM_0
100
AcDbCircle
 10
166.4330245395112
 20
85.10969497351721
 30
0.0
 40
0.5
100
AcDbArc
 50
0.0
 51
90.0
  0
ARC
  5
C757
330
1F
100
AcDbEntity
  8
AM_0
100
AcDbCircle
 10
166.4330245395112
 20
73.1096949735172
 30
0.0
 40
0.5
100
AcDbArc
 50
270.0
 51
0.0
  0
ARC
  5
C758
330
1F
100
AcDbEntity
  8
AM_0
100
AcDbCircle
 10
97.43302453951129
 20
73.1096949735172
 30
0.0
 40
0.5
100
AcDbArc
 50
180.0
 51
270.0
  0
ARC
  5
C759
330
1F
100
AcDbEntity
  8
AM_0
100
AcDbCircle
 10
97.43302453951129
 20
85.10969497351721
 30
0.0
 40
0.5
100
AcDbArc
 50
90.0
 51
180.0
  0
ARC
  5
C75A
330
1F
100
AcDbEntity
  8
AM_0
100
AcDbCircle
 10
111.4330245395112
 20
83.60969497351721
 30
0.0
 40
0.5
100
AcDbArc
 50
90.0
 51
180.0
  0
ARC
  5
C75B
330
1F
100
AcDbEntity
  8
AM_0
100
AcDbCircle
 10
111.4330245395112
 20
74.60969497351721
 30
0.0
 40
0.5
100
AcDbArc
 50
180.0
 51
270.0
  0
ARC
  5
C75C
330
1F
100
AcDbEntity
  8
AM_0
100
AcDbCircle
 10
152.4330245395113
 20
74.60969497351721
 30
0.0
 40
0.5
100
AcDbArc
 50
270.0
 51
0.0
  0
ARC
  5
C75D
330
1F
100
AcDbEntity
  8
AM_0
100
AcDbCircle
 10
152.4330245395113
 20
83.60969497351721
 30
0.0
 40
0.5
100
AcDbArc
 50
0.0
 51
90.0
  0
LINE
  5
C75E
102
{ACAD_REACTORS
330
C795
330
C7A1
330
C7A7
330
C79E
102
}
330
1F
100
AcDbEntity
  8
AM_0
100
AcDbLine
 10
166.4330245395112
 20
154.4581353136821
 30
0.0
 11
97.43302453951129
 21
154.4581353136821
 31
0.0
  0
LINE
  5
C75F
330
1F
100
AcDbEntity
  8
AM_0
100
AcDbLine
 10
96.93302453951128
 20
153.9581353136821
 30
0.0
 11
96.93302453951128
 21
150.958135313682
 31
0.0
  0
LINE
  5
C760
330
1F
100
AcDbEntity
  8
AM_0
100
AcDbLine
 10
166.9330245395113
 20
150.958135313682
 30
0.0
 11
166.9330245395113
 21
153.9581353136821
 31
0.0
  0
LINE
  5
C761
330
1F
100
AcDbEntity
  8
AM_0
100
AcDbLine
 10
156.9330245395113
 20
137.458135313682
 30
0.0
 11
140.9330245395113
 21
137.458135313682
 31
0.0
  0
LINE
  5
C762
330
1F
100
AcDbEntity
  8
AM_0
100
AcDbLine
 10
166.4330245395112
 20
150.4581353136821
 30
0.0
 11
156.9330245395113
 21
150.4581353136821
 31
0.0
  0
LINE
  5
C763
102
{ACAD_REACTORS
330
C7A1
102
}
330
1F
100
AcDbEntity
  8
AM_0
100
AcDbLine
 10
106.9330245395113
 20
150.4581353136821
 30
0.0
 11
106.9330245395113
 21
137.458135313682
 31
0.0
  0
LINE
  5
C764
330
1F
100
AcDbEntity
  8
AM_0
100
AcDbLine
 10
156.9330245395113
 20
137.458135313682
 30
0.0
 11
156.9330245395113
 21
150.4581353136821
 31
0.0
  0
LINE
  5
C765
330
1F
100
AcDbEntity
  8
AM_0
100
AcDbLine
 10
124.9330245395112
 20
150.4581353136821
 30
0.0
 11
124.9330245395112
 21
139.458135313682
 31
0.0
  0
LINE
  5
C766
330
1F
100
AcDbEntity
  8
AM_0
100
AcDbLine
 10
138.9330245395113
 20
139.458135313682
 30
0.0
 11
138.9330245395113
 21
150.4581353136821
 31
0.0
  0
LINE
  5
C767
330
1F
100
AcDbEntity
  8
AM_0
100
AcDbLine
 10
122.9330245395113
 20
137.458135313682
 30
0.0
 11
106.9330245395113
 21
137.458135313682
 31
0.0
  0
LINE
  5
C768
102
{ACAD_REACTORS
330
C79B
102
}
330
1F
100
AcDbEntity
  8
AM_0
100
AcDbLine
 10
138.9330245395113
 20
150.4581353136821
 30
0.0
 11
124.9330245395112
 21
150.4581353136821
 31
0.0
  0
LINE
  5
C769
102
{ACAD_REACTORS
330
C795
102
}
330
1F
100
AcDbEntity
  8
AM_0
100
AcDbLine
 10
106.9330245395113
 20
150.4581353136821
 30
0.0
 11
97.43302453951129
 21
150.4581353136821
 31
0.0
  0
LINE
  5
C76A
102
{ACAD_REACTORS
330
C798
330
C7A4
330
C79E
102
}
330
1F
100
AcDbEntity
  8
AM_0
100
AcDbLine
 10
152.4330245395113
 20
131.4581353136821
 30
0.0
 11
111.4330245395112
 21
131.4581353136821
 31
0.0
  0
LINE
  5
C76B
330
1F
100
AcDbEntity
  8
AM_0
100
AcDbLine
 10
152.4330245395113
 20
135.458135313682
 30
0.0
 11
142.9330245395113
 21
135.458135313682
 31
0.0
  0
LINE
  5
C76C
330
1F
100
AcDbEntity
  8
AM_0
100
AcDbLine
 10
110.9330245395113
 20
134.9581353136821
 30
0.0
 11
110.9330245395113
 21
131.9581353136821
 31
0.0
  0
LINE
  5
C76D
330
1F
100
AcDbEntity
  8
AM_0
100
AcDbLine
 10
152.9330245395112
 20
134.9581353136821
 30
0.0
 11
152.9330245395112
 21
131.9581353136821
 31
0.0
  0
ARC
  5
C76E
330
1F
100
AcDbEntity
  8
AM_0
100
AcDbCircle
 10
129.9330245395112
 20
147.458135313682
 30
0.0
 40
3.0
100
AcDbArc
 50
90.0
 51
208.9398810000099
  0
ARC
  5
C76F
330
1F
100
AcDbEntity
  8
AM_0
100
AcDbCircle
 10
133.9330245395113
 20
147.458135313682
 30
0.0
 40
3.0
100
AcDbArc
 50
331.0601189999901
 51
90.0
  0
LINE
  5
C770
330
1F
100
AcDbEntity
  8
AM_0
100
AcDbLine
 10
127.9330245395112
 20
143.5851523136821
 30
0.0
 11
127.9330245395112
 21
142.458135313682
 31
0.0
  0
LINE
  5
C771
330
1F
100
AcDbEntity
  8
AM_0
100
AcDbLine
 10
135.9330245395113
 20
143.5851523136821
 30
0.0
 11
135.9330245395113
 21
142.458135313682
 31
0.0
  0
ARC
  5
C772
330
1F
100
AcDbEntity
  8
AM_0
100
AcDbCircle
 10
122.9330245395113
 20
143.5851523136821
 30
0.0
 40
5.0
100
AcDbArc
 50
0.0
 51
28.9641070000048
  0
ARC
  5
C773
330
1F
100
AcDbEntity
  8
AM_0
100
AcDbCircle
 10
140.9330245395113
 20
143.5851523136821
 30
0.0
 40
5.0
100
AcDbArc
 50
151.0358929999952
 51
180.0
  0
ARC
  5
C774
330
1F
100
AcDbEntity
  8
AM_0
100
AcDbCircle
 10
120.9330245395113
 20
142.458135313682
 30
0.0
 40
7.0
100
AcDbArc
 50
270.0
 51
0.0
  0
ARC
  5
C775
330
1F
100
AcDbEntity
  8
AM_0
100
AcDbCircle
 10
142.9330245395113
 20
142.458135313682
 30
0.0
 40
7.0
100
AcDbArc
 50
180.0
 51
270.0
  0
LINE
  5
C776
102
{ACAD_REACTORS
330
C798
102
}
330
1F
100
AcDbEntity
  8
AM_0
100
AcDbLine
 10
111.4330245395112
 20
135.458135313682
 30
0.0
 11
120.9330245395113
 21
135.458135313682
 31
0.0
  0
ARC
  5
C777
330
1F
100
AcDbEntity
  8
AM_0
100
AcDbCircle
 10
139.9330245395113
 20
143.9581353136821
 30
0.0
 40
3.5
100
AcDbArc
 50
106.6015499999917
 51
253.3984500000083
  0
ARC
  5
C778
330
1F
100
AcDbEntity
  8
AM_0
100
AcDbCircle
 10
123.9330245395112
 20
143.9581353136821
 30
0.0
 40
3.5
100
AcDbArc
 50
286.6015499999917
 51
73.39845000000827
  0
ARC
  5
C779
330
1F
100
AcDbEntity
  8
AM_0
100
AcDbCircle
 10
166.4330245395112
 20
150.958135313682
 30
0.0
 40
0.5
100
AcDbArc
 50
270.0
 51
0.0
  0
ARC
  5
C77A
330
1F
100
AcDbEntity
  8
AM_0
100
AcDbCircle
 10
166.4330245395112
 20
153.9581353136821
 30
0.0
 40
0.5
100
AcDbArc
 50
0.0
 51
90.0
  0
ARC
  5
C77B
330
1F
100
AcDbEntity
  8
AM_0
100
AcDbCircle
 10
97.43302453951129
 20
150.958135313682
 30
0.0
 40
0.5
100
AcDbArc
 50
180.0
 51
270.0
  0
ARC
  5
C77C
330
1F
100
AcDbEntity
  8
AM_0
100
AcDbCircle
 10
97.43302453951129
 20
153.9581353136821
 30
0.0
 40
0.5
100
AcDbArc
 50
90.0
 51
180.0
  0
ARC
  5
C77D
330
1F
100
AcDbEntity
  8
AM_0
100
AcDbCircle
 10
111.4330245395112
 20
134.9581353136821
 30
0.0
 40
0.5
100
AcDbArc
 50
90.0
 51
180.0
  0
ARC
  5
C77E
330
1F
100
AcDbEntity
  8
AM_0
100
AcDbCircle
 10
111.4330245395112
 20
131.9581353136821
 30
0.0
 40
0.5
100
AcDbArc
 50
180.0
 51
270.0
  0
ARC
  5
C77F
330
1F
100
AcDbEntity
  8
AM_0
100
AcDbCircle
 10
152.4330245395113
 20
131.9581353136821
 30
0.0
 40
0.5
100
AcDbArc
 50
270.0
 51
0.0
  0
ARC
  5
C780
330
1F
100
AcDbEntity
  8
AM_0
100
AcDbCircle
 10
152.4330245395113
 20
134.9581353136821
 30
0.0
 40
0.5
100
AcDbArc
 50
0.0
 51
90.0
  0
ARC
  5
C781
330
1F
100
AcDbEntity
  8
AM_0
100
AcDbCircle
 10
122.9330245395113
 20
139.458135313682
 30
0.0
 40
2.0
100
AcDbArc
 50
270.0
 51
0.0
  0
ARC
  5
C782
330
1F
100
AcDbEntity
  8
AM_0
100
AcDbCircle
 10
140.9330245395113
 20
139.458135313682
 30
0.0
 40
2.0
100
AcDbArc
 50
180.0
 51
270.0
  0
LINE
  5
C783
330
1F
100
AcDbEntity
  8
AM_11
 48
0.3
370
     9
100
AcDbLine
 10
216.9769036596576
 20
138.9581353136821
 30
0.0
 11
224.4769036596576
 21
138.9648093136822
 31
0.0
  0
LINE
  5
C784
330
1F
100
AcDbEntity
  8
AM_11
 48
0.3
370
     9
100
AcDbLine
 10
216.9769036596576
 20
148.958135313682
 30
0.0
 11
222.9769036596576
 21
148.958135313682
 31
0.0
  0
LINE
  5
C785
330
1F
100
AcDbEntity
  8
AM_11
 48
0.3
370
     9
100
AcDbLine
 10
216.9769036596576
 20
138.9581353136821
 30
0.0
 11
216.9769036596576
 21
148.958135313682
 31
0.0
  0
LINE
  5
C786
330
1F
100
AcDbEntity
  8
AM_11
 48
0.3
370
     9
100
AcDbLine
 10
220.9769036596576
 20
148.958135313682
 30
0.0
 11
220.9769036596576
 21
138.9581353136821
 31
0.0
  0
LINE
  5
C787
330
1F
100
AcDbEntity
  8
AM_11
 48
0.3
370
     9
100
AcDbLine
 10
222.9769036596576
 20
138.9581353136821
 30
0.0
 11
222.9769036596576
 21
148.958135313682
 31
0.0
  0
LINE
  5
C788
330
1F
100
AcDbEntity
  8
AM_7
 48
0.4
370
     9
100
AcDbLine
 10
131.9330245395113
 20
157.4581353136821
 30
0.0
 11
131.9330245395113
 21
128.4581353136821
 31
0.0
1001
GENIUS_GENODEF_13
1002
{
1000
HIER
1070
     0
1002
}
1002
{
1000
MANEDIT
1070
     0
1002
}
1002
{
1000
NOSEL
1070
     0
1002
}
1002
{
1000
BEHIND
1070
     0
1002
}
1002
{
1000
OTHER
1070
     0
1002
}
1002
{
1000
REACTOR
1002
}
1001
GENIUS_GENOBJ-N-CEN_13
1002
{
1000
OWNER
1000
GEN
1002
}
1001
GENIUS_GENCEN_19
1002
{
1040
3.0
1002
}
  0
LINE
  5
C789
102
{ACAD_REACTORS
330
C7A4
330
C7A7
102
}
330
1F
100
AcDbEntity
  8
AM_7
 48
0.4
370
     9
100
AcDbLine
 10
103.9330245395112
 20
143.9581353136821
 30
0.0
 11
159.9330245395113
 21
143.9581353136821
 31
0.0
1001
GENIUS_GENODEF_13
1002
{
1000
HIER
1070
     0
1002
}
1002
{
1000
MANEDIT
1070
     0
1002
}
1002
{
1000
NOSEL
1070
     0
1002
}
1002
{
1000
BEHIND
1070
     0
1002
}
1002
{
1000
OTHER
1070
     0
1002
}
1002
{
1000
REACTOR
1002
}
1001
GENIUS_GENOBJ-N-CEN_13
1002
{
1000
OWNER
1000
GEN
1002
}
1001
GENIUS_GENCEN_19
1002
{
1040
3.0
1002
}
  0
LINE
  5
C78A
330
1F
100
AcDbEntity
  8
AM_7
 48
0.4
370
     9
100
AcDbLine
 10
229.4769036596576
 20
157.4581353136821
 30
0.0
 11
229.4769036596576
 21
128.4581353136821
 31
0.0
1001
GENIUS_GENODEF_13
1002
{
1000
HIER
1070
     0
1002
}
1002
{
1000
MANEDIT
1070
     0
1002
}
1002
{
1000
NOSEL
1070
     0
1002
}
1002
{
1000
BEHIND
1070
     0
1002
}
1002
{
1000
OTHER
1070
     0
1002
}
1002
{
1000
REACTOR
1002
}
1001
GENIUS_GENOBJ-N-CEN_13
1002
{
1000
OWNER
1000
GEN
1002
}
1001
GENIUS_GENCEN_19
1002
{
1040
3.0
1002
}
  0
LINE
  5
C78B
330
1F
100
AcDbEntity
  8
AM_7
 48
0.4
370
     9
100
AcDbLine
 10
219.9769036596576
 20
143.9581353136821
 30
0.0
 11
238.9769036596576
 21
143.9581353136821
 31
0.0
1001
GENIUS_GENODEF_13
1002
{
1000
HIER
1070
     0
1002
}
1002
{
1000
MANEDIT
1070
     0
1002
}
1002
{
1000
NOSEL
1070
     0
1002
}
1002
{
1000
BEHIND
1070
     0
1002
}
1002
{
1000
OTHER
1070
     0
1002
}
1002
{
1000
REACTOR
1002
}
1001
GENIUS_GENOBJ-N-CEN_13
1002
{
1000
OWNER
1000
GEN
1002
}
1001
GENIUS_GENCEN_19
1002
{
1040
3.0
1002
}
  0
LINE
  5
C78C
330
1F
100
AcDbEntity
  8
AM_7
 48
0.4
370
     9
100
AcDbLine
 10
93.93302453951127
 20
79.10969497351721
 30
0.0
 11
169.9330245395113
 21
79.10969497351721
 31
0.0
1001
GENIUS_GENODEF_13
1002
{
1000
HIER
1070
     0
1002
}
1002
{
1000
MANEDIT
1070
     0
1002
}
1002
{
1000
NOSEL
1070
     0
1002
}
1002
{
1000
BEHIND
1070
     0
1002
}
1002
{
1000
OTHER
1070
     0
1002
}
1002
{
1000
REACTOR
1002
}
1001
GENIUS_GENOBJ-N-CEN_13
1002
{
1000
OWNER
1000
GEN
1002
}
1001
GENIUS_GENCEN_19
1002
{
1040
3.0
1002
}
  0
LINE
  5
C78D
330
1F
100
AcDbEntity
  8
AM_7
 48
0.4
370
     9
100
AcDbLine
 10
131.9330245395113
 20
88.60969497351721
 30
0.0
 11
131.9330245395113
 21
69.60969497351721
 31
0.0
1001
GENIUS_GENODEF_13
1002
{
1000
HIER
1070
     0
1002
}
1002
{
1000
MANEDIT
1070
     0
1002
}
1002
{
1000
NOSEL
1070
     0
1002
}
1002
{
1000
BEHIND
1070
     0
1002
}
1002
{
1000
OTHER
1070
     0
1002
}
1002
{
1000
REACTOR
1002
}
1001
GENIUS_GENOBJ-N-CEN_13
1002
{
1000
OWNER
1000
GEN
1002
}
1001
GENIUS_GENCEN_19
1002
{
1040
3.0
1002
}
  0
LINE
  5
C78E
102
{ACAD_REACTORS
330
C7B0
102
}
330
1F
100
AcDbEntity
  8
AM_7
 48
0.4
370
     9
100
AcDbLine
 10
101.9330245395112
 20
85.10969497351721
 30
0.0
 11
101.9330245395112
 21
73.1096949735172
 31
0.0
1001
GENIUS_GENOBJ-N-CEN_13
1002
{
1000
OWNER
1000
GEN
1002
}
1001
GENIUS_GENODEF_13
1002
{
1000
HIER
1070
     0
1002
}
1002
{
1000
MANEDIT
1070
     0
1002
}
1002
{
1000
NOSEL
1070
     0
1002
}
1002
{
1000
BEHIND
1070
     0
1002
}
1002
{
1000
OTHER
1070
     0
1002
}
1002
{
1000
REACTOR
1002
}
1001
GENIUS_GENCEN_19
1002
{
1040
3.0
1002
}
  0
LINE
  5
C78F
330
1F
100
AcDbEntity
  8
AM_7
 48
0.4
370
     9
100
AcDbLine
 10
116.9330245395113
 20
138.458135313682
 30
0.0
 11
116.9330245395113
 21
128.4581353136821
 31
0.0
1001
GENIUS_GENOBJ-N-CEN_13
1002
{
1000
OWNER
1000
GEN
1002
}
1001
GENIUS_GENODEF_13
1002
{
1000
HIER
1070
     0
1002
}
1002
{
1000
MANEDIT
1070
     0
1002
}
1002
{
1000
NOSEL
1070
     0
1002
}
1002
{
1000
BEHIND
1070
     0
1002
}
1002
{
1000
OTHER
1070
     0
1002
}
1002
{
1000
REACTOR
1002
}
1001
GENIUS_GENCEN_19
1002
{
1040
3.0
1002
}
  0
LINE
  5
C790
330
1F
100
AcDbEntity
  8
AM_7
 48
0.4
370
     9
100
AcDbLine
 10
146.9330245395113
 20
138.458135313682
 30
0.0
 11
146.9330245395113
 21
128.4581353136821
 31
0.0
1001
GENIUS_GENOBJ-N-CEN_13
1002
{
1000
OWNER
1000
GEN
1002
}
1001
GENIUS_GENODEF_13
1002
{
1000
HIER
1070
     0
1002
}
1002
{
1000
MANEDIT
1070
     0
1002
}
1002
{
1000
NOSEL
1070
     0
1002
}
1002
{
1000
BEHIND
1070
     0
1002
}
1002
{
1000
OTHER
1070
     0
1002
}
1002
{
1000
REACTOR
1002
}
1001
GENIUS_GENCEN_19
1002
{
1040
3.0
1002
}
  0
LINE
  5
C791
330
1F
100
AcDbEntity
  8
AM_7
 48
0.4
370
     9
100
AcDbLine
 10
101.9330245395112
 20
157.4581353136821
 30
0.0
 11
101.9330245395112
 21
147.458135313682
 31
0.0
1001
GENIUS_GENOBJ-N-CEN_13
1002
{
1000
OWNER
1000
GEN
1002
}
1001
GENIUS_GENODEF_13
1002
{
1000
HIER
1070
     0
1002
}
1002
{
1000
MANEDIT
1070
     0
1002
}
1002
{
1000
NOSEL
1070
     0
1002
}
1002
{
1000
BEHIND
1070
     0
1002
}
1002
{
1000
OTHER
1070
     0
1002
}
1002
{
1000
REACTOR
1002
}
1001
GENIUS_GENCEN_19
1002
{
1040
3.0
1002
}
  0
LINE
  5
C792
330
1F
100
AcDbEntity
  8
AM_7
 48
0.4
370
     9
100
AcDbLine
 10
161.9330245395113
 20
157.4581353136821
 30
0.0
 11
161.9330245395113
 21
147.458135313682
 31
0.0
1001
GENIUS_GENOBJ-N-CEN_13
1002
{
1000
OWNER
1000
GEN
1002
}
1001
GENIUS_GENODEF_13
1002
{
1000
HIER
1070
     0
1002
}
1002
{
1000
MANEDIT
1070
     0
1002
}
1002
{
1000
NOSEL
1070
     0
1002
}
1002
{
1000
BEHIND
1070
     0
1002
}
1002
{
1000
OTHER
1070
     0
1002
}
1002
{
1000
REACTOR
1002
}
1001
GENIUS_GENCEN_19
1002
{
1040
3.0
1002
}
  0
DIMENSION
  5
C793
102
{ACAD_XDICTIONARY
360
C794
102
}
102
{ACAD_REACTORS
330
C795
102
}
330
1F
100
AcDbEntity
  8
AM_5
100
AcDbDimension
  2
*D9
 10
86.94185486994049
 20
154.4581353136821
 30
0.0
 11
86.94185486994047
 21
158.7581353136826
 31
0.0
 70
   160
  1
I
 71
     5
 42
4.0
  3
SYS$0
100
AcDbAlignedDimension
 13
97.43302453951129
 23
150.4581353136821
 33
0.0
 14
97.43302453951129
 24
154.4581353136821
 34
0.0
 50
90.0
100
AcDbRotatedDimension
1001
ACAD
1000
DSTYLE
1002
{
1070
    47
1040
0.2
1070
    48
1040
0.2
1070
   271
1070
     1
1002
}
1001
ACAD_DSTYLE_DIMINSPECT
1070
   396
1000
100%
1070
   395
1000

1070
   394
1070
    33
1070
   393
1070
     0
  0
DIMENSION
  5
C796
102
{ACAD_XDICTIONARY
360
C797
102
}
102
{ACAD_REACTORS
330
C798
102
}
330
1F
100
AcDbEntity
  8
AM_5
100
AcDbDimension
  2
*D10
 10
96.96392167245996
 20
131.4581353136821
 30
0.0
 11
96.96392167245996
 21
127.211468647016
 31
0.0
 70
   160
  1
J
 71
     5
 42
4.0
  3
SYS$0
100
AcDbAlignedDimension
 13
111.4330245395112
 23
135.458135313682
 33
0.0
 14
111.4330245395112
 24
131.4581353136821
 34
0.0
 50
90.0
100
AcDbRotatedDimension
1001
ACAD
1000
DSTYLE
1002
{
1070
    47
1040
0.2
1070
    48
1040
0.2
1070
   271
1070
     1
1002
}
1001
ACAD_DSTYLE_DIMINSPECT
1070
   396
1000
100%
1070
   395
1000

1070
   394
1070
    33
1070
   393
1070
     0
  0
DIMENSION
  5
C799
102
{ACAD_XDICTIONARY
360
C79A
102
}
102
{ACAD_REACTORS
330
C79B
102
}
330
1F
100
AcDbEntity
  8
AM_5
100
AcDbDimension
  2
*D11
 10
114.9330245395113
 20
150.4581353136821
 30
0.0
 11
114.9330245395113
 21
127.2276772960149
 31
0.0
 70
   160
  1
H
 71
     5
 42
19.0
  3
SYS$0
100
AcDbAlignedDimension
 13
111.4330245395112
 23
131.4581353136821
 33
0.0
 14
124.9330245395112
 24
150.4581353136821
 34
0.0
 50
90.0
100
AcDbRotatedDimension
1001
ACAD
1000
DSTYLE
1002
{
1070
    47
1040
0.2
1070
    48
1040
0.2
1070
   271
1070
     1
1002
}
1001
ACAD_DSTYLE_DIMINSPECT
1070
   396
1000
100%
1070
   395
1000

1070
   394
1070
    33
1070
   393
1070
     0
  0
DIMENSION
  5
C79C
102
{ACAD_XDICTIONARY
360
C79D
102
}
102
{ACAD_REACTORS
330
C79E
102
}
330
1F
100
AcDbEntity
  8
AM_5
100
AcDbDimension
  2
*D12
 10
66.9330245395113
 20
154.4581353136821
 30
0.0
 11
66.93302453951128
 21
142.9581353136826
 31
0.0
 70
   160
  1
（K）
 71
     5
 42
23.0
  3
SYS$0
100
AcDbAlignedDimension
 13
111.4330245395112
 23
131.4581353136821
 33
0.0
 14
97.43302453951129
 24
154.4581353136821
 34
0.0
 50
90.0
100
AcDbRotatedDimension
1001
ACAD
1000
DSTYLE
1002
{
1070
    47
1040
0.2
1070
    48
1040
0.2
1070
   271
1070
     1
1002
}
1001
ACAD_DSTYLE_DIMINSPECT
1070
   396
1000
100%
1070
   395
1000

1070
   394
1070
    33
1070
   393
1070
     0
  0
DIMENSION
  5
C79F
102
{ACAD_XDICTIONARY
360
C7A0
102
}
102
{ACAD_REACTORS
330
C7A1
102
}
330
1F
100
AcDbEntity
  8
AM_5
100
AcDbDimension
  2
*D13
 10
76.9330245395113
 20
137.458135313682
 30
0.0
 11
76.93302453951128
 21
145.9581353136826
 31
0.0
 70
   160
  1
G
 71
     5
 42
17.0
  3
SYS$0
100
AcDbAlignedDimension
 13
97.43302453951129
 23
154.4581353136821
 33
0.0
 14
106.9330245395113
 24
137.458135313682
 34
0.0
 50
90.0
100
AcDbRotatedDimension
1001
ACAD
1000
DSTYLE
1002
{
1070
    47
1040
0.2
1070
    48
1040
0.2
1070
   271
1070
     1
1002
}
1001
ACAD_DSTYLE_DIMINSPECT
1070
   396
1000
100%
1070
   395
1000

1070
   394
1070
    33
1070
   393
1070
     0
  0
DIMENSION
  5
C7A2
102
{ACAD_XDICTIONARY
360
C7A3
102
}
102
{ACAD_REACTORS
330
C7A4
102
}
330
1F
100
AcDbEntity
  8
AM_5
100
AcDbDimension
  2
*D14
 10
176.9161951612268
 20
131.4581353136821
 30
0.0
 11
174.3161951612268
 21
137.7081353136821
 31
0.0
 70
    32
  1
F
 71
     5
 42
12.5
  3
SYS$0
100
AcDbAlignedDimension
 13
159.9330245395113
 23
143.9581353136821
 33
0.0
 14
152.4330245395113
 24
131.4581353136821
 34
0.0
 50
90.0
100
AcDbRotatedDimension
1001
ACAD
1000
DSTYLE
1002
{
1070
    47
1040
0.2
1070
    48
1040
0.2
1070
   271
1070
     1
1002
}
1001
ACAD_DSTYLE_DIMINSPECT
1070
   396
1000
100%
1070
   395
1000

1070
   394
1070
    33
1070
   393
1070
     0
  0
DIMENSION
  5
C7A5
102
{ACAD_XDICTIONARY
360
C7A6
102
}
102
{ACAD_REACTORS
330
C7A7
102
}
330
1F
100
AcDbEntity
  8
AM_5
100
AcDbDimension
  2
*D15
 10
176.9161951612268
 20
154.4581353136821
 30
0.0
 11
176.9161951612268
 21
149.2081353136826
 31
0.0
 70
   160
  1
（K）
 71
     5
 42
10.5
  3
SYS$0
100
AcDbAlignedDimension
 13
159.9330245395113
 23
143.9581353136821
 33
0.0
 14
166.4330245395112
 24
154.4581353136821
 34
0.0
 50
90.0
100
AcDbRotatedDimension
1001
ACAD
1000
DSTYLE
1002
{
1070
    47
1040
0.2
1070
    48
1040
0.2
1070
   271
1070
     1
1002
}
1001
ACAD_DSTYLE_DIMINSPECT
1070
   396
1000
100%
1070
   395
1000

1070
   394
1070
    33
1070
   393
1070
     0
  0
DIMENSION
  5
C7A8
102
{ACAD_XDICTIONARY
360
C7A9
102
}
102
{ACAD_REACTORS
330
C7AA
102
}
330
1F
100
AcDbEntity
  8
AM_5
100
AcDbDimension
  2
*D16
 10
86.9330245395113
 20
72.60969497351722
 30
0.0
 11
86.93302453951128
 21
79.10969497351721
 31
0.0
 70
   160
  1
C
 71
     5
 42
13.0
  3
SYS$0
100
AcDbAlignedDimension
 13
97.43302453951129
 23
85.6096949735172
 33
0.0
 14
97.43302453951129
 24
72.6096949735172
 34
0.0
 50
90.0
100
AcDbRotatedDimension
1001
ACAD
1000
DSTYLE
1002
{
1070
    47
1040
0.2
1070
    48
1040
0.2
1070
   271
1070
     1
1002
}
1001
ACAD_DSTYLE_DIMINSPECT
1070
   396
1000
100%
1070
   395
1000

1070
   394
1070
    33
1070
   393
1070
     0
  0
DIMENSION
  5
C7AB
102
{ACAD_XDICTIONARY
360
C7AC
102
}
102
{ACAD_REACTORS
330
C7AD
102
}
330
1F
100
AcDbEntity
  8
AM_5
100
AcDbDimension
  2
*D17
 10
166.9330245395113
 20
105.6262648516699
 30
0.0
 11
131.9330245395113
 21
105.6262648516699
 31
0.0
 70
   160
  1
A
 71
     5
 42
70.0
  3
SYS$0
100
AcDbAlignedDimension
 13
96.93302453951128
 23
85.10969497351721
 33
0.0
 14
166.9330245395113
 24
85.10969497351721
 34
0.0
100
AcDbRotatedDimension
1001
ACAD
1000
DSTYLE
1002
{
1070
    47
1040
0.2
1070
    48
1040
0.2
1070
   271
1070
     1
1002
}
1001
ACAD_DSTYLE_DIMINSPECT
1070
   396
1000
100%
1070
   395
1000

1070
   394
1070
    33
1070
   393
1070
     0
  0
DIMENSION
  5
C7AE
102
{ACAD_XDICTIONARY
360
C7AF
102
}
102
{ACAD_REACTORS
330
C7B0
102
}
330
1F
100
AcDbEntity
  8
AM_5
100
AcDbDimension
  2
*D18
 10
161.9330245395113
 20
95.6096949735172
 30
0.0
 11
131.9330245395113
 21
95.6096949735172
 31
0.0
 70
   160
  1
L
 71
     5
 42
60.0
  3
SYS$0
100
AcDbAlignedDimension
 13
101.9330245395112
 23
85.10969497351721
 33
0.0
 14
161.9330245395113
 24
85.10969497351721
 34
0.0
100
AcDbRotatedDimension
1001
ACAD
1000
DSTYLE
1002
{
1070
    47
1040
0.2
1070
    48
1040
0.2
1070
   271
1070
     1
1002
}
1001
ACAD_DSTYLE_DIMINSPECT
1070
   396
1000
100%
1070
   395
1000

1070
   394
1070
    33
1070
   393
1070
     0
  0
DIMENSION
  5
C7B1
330
1F
100
AcDbEntity
  8
AM_5
100
AcDbDimension
  2
*D8
 10
146.9330245395113
 20
62.60969497351744
 30
0.0
 11
131.9330245395117
 21
62.60969497351744
 31
0.0
 70
   160
  1
M
 71
     5
 42
30.0
  3
SYS$0
100
AcDbAlignedDimension
 13
116.9330245395113
 23
75.1096949735172
 33
0.0
 14
146.9330245395113
 24
74.90969497351716
 34
0.0
100
AcDbRotatedDimension
1001
ACAD
1000
DSTYLE
1002
{
1070
    47
1040
0.2
1070
    48
1040
0.2
1070
   271
1070
     1
1002
}
1001
ACAD_DSTYLE_DIMINSPECT
1070
   396
1000
100%
1070
   395
1000

1070
   394
1070
    33
1070
   393
1070
     0
  0
DIMENSION
  5
C7B2
102
{ACAD_XDICTIONARY
360
C7B3
102
}
102
{ACAD_REACTORS
330
C7B4
102
}
330
1F
100
AcDbEntity
  8
AM_5
100
AcDbDimension
  2
*D19
 10
152.9330245395112
 20
52.61910595909512
 30
0.0
 11
131.9330245395113
 21
52.61910595909512
 31
0.0
 70
   160
  1
B\P
 71
     5
 42
42.0
  3
SYS$0
100
AcDbAlignedDimension
 13
110.9330245395113
 23
74.60969497351721
 33
0.0
 14
152.9330245395112
 24
74.60969497351721
 34
0.0
100
AcDbRotatedDimension
1001
ACAD
1000
DSTYLE
1002
{
1070
    47
1040
0.2
1070
    48
1040
0.2
1070
   271
1070
     1
1002
}
1001
ACAD_DSTYLE_DIMINSPECT
1070
   396
1000
100%
1070
   395
1000

1070
   394
1070
    33
1070
   393
1070
     0
  0
DIMENSION
  5
C7B5
102
{ACAD_XDICTIONARY
360
C7B6
102
}
102
{ACAD_REACTORS
330
C7B7
102
}
330
1F
100
AcDbEntity
  8
AM_5
100
AcDbDimension
  2
*D20
 10
176.9330245395113
 20
84.1096949735172
 30
0.0
 11
176.9330245395113
 21
79.10969497351721
 31
0.0
 70
   160
  1
D
 71
     5
 42
10.0
  3
SYS$0
100
AcDbAlignedDimension
 13
152.4330245395113
 23
74.10969497351721
 33
0.0
 14
152.4330245395113
 24
84.1096949735172
 34
0.0
 50
90.0
100
AcDbRotatedDimension
1001
ACAD
1000
DSTYLE
1002
{
1070
    47
1040
0.2
1070
    48
1040
0.2
1070
   271
1070
     1
1002
}
1001
ACAD_DSTYLE_DIMINSPECT
1070
   396
1000
100%
1070
   395
1000

1070
   394
1070
    33
1070
   393
1070
     0
  0
DIMENSION
  5
C7B8
102
{ACAD_XDICTIONARY
360
C7B9
102
}
102
{ACAD_REACTORS
330
C7BA
102
}
330
1F
100
AcDbEntity
  8
AM_5
100
AcDbDimension
  2
*D21
 10
160.7457995961038
 20
77.25753490112939
 30
0.0
 11
179.7115676673768
 21
95.602616201606
 31
0.0
 70
   163
  1
4-Nサラ
 71
     5
 42
4.399999999999181
  3
SYS$3
100
AcDbDiametricDimension
 15
163.1202494829191
 25
80.96185504590568
 35
0.0
 40
0.0
1001
ACAD_DSTYLE_DIMRADIAL_EXTENSION
1070
   387
1070
     1
1070
   388
1040
0.0
1070
   390
1040
0.0
1001
ACAD
1000
DSTYLE
1002
{
1070
    47
1040
0.2
1070
    48
1040
0.2
1070
   172
1070
     1
1070
   342
1005
C53D
1002
}
1001
ACAD_DSTYLE_DIMINSPECT
1070
   396
1000
100%
1070
   395
1000

1070
   394
1070
    33
1070
   393
1070
     0
  0
INSERT
  5
C7BB
330
1F
100
AcDbEntity
  8
AM_5
100
AcDbBlockReference
  2
*S36
 10
0.0
 20
0.0
 30
0.0
  0
MTEXT
  5
C7BC
330
1F
100
AcDbEntity
  8
AM_6
100
AcDbMText
 10
39.75
 20
39.67710336451592
 30
0.0
 40
3.200000000000001
 41
0.0
 71
     5
 72
     1
  1
品番
 73
     1
 44
1.0
1001
ACAD
1000
MTEXTBEGIN
1070
    73
1070
     1
1070
    44
1040
1.0
1070
    74
1070
     0
1000
MTEXTEND
  0
LINE
  5
C7BD
330
1F
100
AcDbEntity
  8
AM_0
100
AcDbLine
 10
28.5
 20
36.17710336451592
 30
0.0
 11
268.5
 21
36.17710336451592
 31
0.0
  0
LINE
  5
C7BE
330
1F
100
AcDbEntity
  8
AM_0
100
AcDbLine
 10
28.5
 20
43.17710336451591
 30
0.0
 11
268.5
 21
43.17710336451591
 31
0.0
  0
LINE
  5
C7BF
330
1F
100
AcDbEntity
  8
AM_0
100
AcDbLine
 10
51.0
 20
43.17710336451591
 30
0.0
 11
51.0
 21
36.17710336451592
 31
0.0
  0
LINE
  5
C7C0
330
1F
100
AcDbEntity
  8
AM_0
100
AcDbLine
 10
28.5
 20
43.17710336451591
 30
0.0
 11
28.5
 21
36.17710336451592
 31
0.0
  0
MTEXT
  5
C7C1
330
1F
100
AcDbEntity
  8
AM_6
100
AcDbMText
 10
39.75
 20
32.67710336451592
 30
0.0
 40
3.200000000000001
 41
0.0
 71
     5
 72
     1
  1
SC-201-1
 73
     1
 44
1.0
1001
ACAD
1000
MTEXTBEGIN
1070
    73
1070
     1
1070
    44
1040
1.0
1070
    74
1070
     0
1000
MTEXTEND
  0
LINE
  5
C7C2
330
1F
100
AcDbEntity
  8
AM_2
100
AcDbLine
 10
28.5
 20
29.17710336451591
 30
0.0
 11
268.5
 21
29.17710336451591
 31
0.0
  0
LINE
  5
C7C3
330
1F
100
AcDbEntity
  8
AM_0
100
AcDbLine
 10
51.0
 20
36.17710336451592
 30
0.0
 11
51.0
 21
29.17710336451591
 31
0.0
  0
LINE
  5
C7C4
330
1F
100
AcDbEntity
  8
AM_0
100
AcDbLine
 10
28.5
 20
36.17710336451592
 30
0.0
 11
28.5
 21
29.17710336451591
 31
0.0
  0
LINE
  5
C7C5
330
1F
100
AcDbEntity
  8
AM_2
100
AcDbLine
 10
28.5
 20
22.17710336451592
 30
0.0
 11
268.5
 21
22.17710336451592
 31
0.0
  0
LINE
  5
C7C6
330
1F
100
AcDbEntity
  8
AM_0
100
AcDbLine
 10
51.0
 20
29.17710336451591
 30
0.0
 11
51.0
 21
22.17710336451592
 31
0.0
  0
LINE
  5
C7C7
330
1F
100
AcDbEntity
  8
AM_0
100
AcDbLine
 10
28.5
 20
29.17710336451591
 30
0.0
 11
28.5
 21
22.17710336451592
 31
0.0
  0
LINE
  5
C7C8
330
1F
100
AcDbEntity
  8
AM_0
100
AcDbLine
 10
66.0
 20
43.17710336451591
 30
0.0
 11
66.0
 21
36.17710336451592
 31
0.0
  0
LINE
  5
C7C9
330
1F
100
AcDbEntity
  8
AM_0
100
AcDbLine
 10
66.0
 20
36.17710336451592
 30
0.0
 11
66.0
 21
29.17710336451591
 31
0.0
  0
LINE
  5
C7CA
330
1F
100
AcDbEntity
  8
AM_0
100
AcDbLine
 10
66.0
 20
29.17710336451591
 30
0.0
 11
66.0
 21
22.17710336451592
 31
0.0
  0
MTEXT
  5
C7CB
330
1F
100
AcDbEntity
  8
AM_6
100
AcDbMText
 10
58.5
 20
39.67710336451592
 30
0.0
 40
3.200000000000001
 41
0.0
 71
     5
 72
     1
  1
A
 73
     1
 44
1.0
1001
ACAD
1000
MTEXTBEGIN
1070
    73
1070
     1
1070
    44
1040
1.0
1070
    74
1070
     0
1000
MTEXTEND
  0
MTEXT
  5
C7CC
330
1F
100
AcDbEntity
  8
AM_6
100
AcDbMText
 10
58.5
 20
32.67710336451592
 30
0.0
 40
3.200000000000001
 41
0.0
 71
     5
 72
     1
  1
42.5
 73
     1
 44
1.0
1001
ACAD
1000
MTEXTBEGIN
1070
    73
1070
     1
1070
    44
1040
1.0
1070
    74
1070
     0
1000
MTEXTEND
  0
MTEXT
  5
C7CD
330
1F
100
AcDbEntity
  8
AM_6
100
AcDbMText
 10
58.5
 20
25.67710336451592
 30
0.0
 40
3.200000000000001
 41
0.0
 71
     5
 72
     1
  1
50
 73
     1
 44
1.0
1001
ACAD
1000
MTEXTBEGIN
1070
    73
1070
     1
1070
    44
1040
1.0
1070
    74
1070
     0
1000
MTEXTEND
  0
LINE
  5
C7CE
330
1F
100
AcDbEntity
  8
AM_0
100
AcDbLine
 10
81.0
 20
43.17710336451591
 30
0.0
 11
81.0
 21
36.17710336451592
 31
0.0
  0
LINE
  5
C7CF
330
1F
100
AcDbEntity
  8
AM_0
100
AcDbLine
 10
81.0
 20
36.17710336451592
 30
0.0
 11
81.0
 21
29.17710336451591
 31
0.0
  0
LINE
  5
C7D0
330
1F
100
AcDbEntity
  8
AM_0
100
AcDbLine
 10
81.0
 20
29.17710336451591
 30
0.0
 11
81.0
 21
22.17710336451592
 31
0.0
  0
MTEXT
  5
C7D1
330
1F
100
AcDbEntity
  8
AM_6
100
AcDbMText
 10
73.5
 20
39.67710336451592
 30
0.0
 40
3.200000000000001
 41
0.0
 71
     5
 72
     1
  1
B
 73
     1
 44
1.0
1001
ACAD
1000
MTEXTBEGIN
1070
    73
1070
     1
1070
    44
1040
1.0
1070
    74
1070
     0
1000
MTEXTEND
  0
MTEXT
  5
C7D2
330
1F
100
AcDbEntity
  8
AM_6
100
AcDbMText
 10
73.5
 20
32.67710336451592
 30
0.0
 40
3.200000000000001
 41
0.0
 71
     5
 72
     1
  1
25
 73
     1
 44
1.0
1001
ACAD
1000
MTEXTBEGIN
1070
    73
1070
     1
1070
    44
1040
1.0
1070
    74
1070
     0
1000
MTEXTEND
  0
MTEXT
  5
C7D3
330
1F
100
AcDbEntity
  8
AM_6
100
AcDbMText
 10
73.5
 20
25.67710336451592
 30
0.0
 40
3.200000000000001
 41
0.0
 71
     5
 72
     1
  1
30.2
 73
     1
 44
1.0
1001
ACAD
1000
MTEXTBEGIN
1070
    73
1070
     1
1070
    44
1040
1.0
1070
    74
1070
     0
1000
MTEXTEND
  0
LINE
  5
C7D4
330
1F
100
AcDbEntity
  8
AM_0
100
AcDbLine
 10
96.0
 20
43.17710336451591
 30
0.0
 11
96.0
 21
36.17710336451592
 31
0.0
  0
LINE
  5
C7D5
330
1F
100
AcDbEntity
  8
AM_0
100
AcDbLine
 10
96.0
 20
36.17710336451592
 30
0.0
 11
96.0
 21
29.17710336451591
 31
0.0
  0
LINE
  5
C7D6
330
1F
100
AcDbEntity
  8
AM_0
100
AcDbLine
 10
96.0
 20
29.17710336451591
 30
0.0
 11
96.0
 21
22.17710336451592
 31
0.0
  0
MTEXT
  5
C7D7
330
1F
100
AcDbEntity
  8
AM_6
100
AcDbMText
 10
88.49999999999999
 20
39.67710336451592
 30
0.0
 40
3.200000000000001
 41
0.0
 71
     5
 72
     1
  1
C
 73
     1
 44
1.0
1001
ACAD
1000
MTEXTBEGIN
1070
    73
1070
     1
1070
    44
1040
1.0
1070
    74
1070
     0
1000
MTEXTEND
  0
MTEXT
  5
C7D8
330
1F
100
AcDbEntity
  8
AM_6
100
AcDbMText
 10
88.49999999999999
 20
32.67710336451592
 30
0.0
 40
3.200000000000001
 41
0.0
 71
     5
 72
     1
  1
8
 73
     1
 44
1.0
1001
ACAD
1000
MTEXTBEGIN
1070
    73
1070
     1
1070
    44
1040
1.0
1070
    74
1070
     0
1000
MTEXTEND
  0
MTEXT
  5
C7D9
330
1F
100
AcDbEntity
  8
AM_6
100
AcDbMText
 10
88.49999999999999
 20
25.67710336451592
 30
0.0
 40
3.200000000000001
 41
0.0
 71
     5
 72
     1
  1
10.2
 73
     1
 44
1.0
1001
ACAD
1000
MTEXTBEGIN
1070
    73
1070
     1
1070
    44
1040
1.0
1070
    74
1070
     0
1000
MTEXTEND
  0
LINE
  5
C7DA
330
1F
100
AcDbEntity
  8
AM_0
100
AcDbLine
 10
111.0
 20
43.17710336451591
 30
0.0
 11
111.0
 21
36.17710336451592
 31
0.0
  0
LINE
  5
C7DB
330
1F
100
AcDbEntity
  8
AM_0
100
AcDbLine
 10
111.0
 20
36.17710336451592
 30
0.0
 11
111.0
 21
29.17710336451591
 31
0.0
  0
LINE
  5
C7DC
330
1F
100
AcDbEntity
  8
AM_0
100
AcDbLine
 10
111.0
 20
29.17710336451591
 30
0.0
 11
111.0
 21
22.17710336451592
 31
0.0
  0
MTEXT
  5
C7DD
330
1F
100
AcDbEntity
  8
AM_6
100
AcDbMText
 10
103.5
 20
39.67710336451592
 30
0.0
 40
3.200000000000001
 41
0.0
 71
     5
 72
     1
  1
D
 73
     1
 44
1.0
1001
ACAD
1000
MTEXTBEGIN
1070
    73
1070
     1
1070
    44
1040
1.0
1070
    74
1070
     0
1000
MTEXTEND
  0
MTEXT
  5
C7DE
330
1F
100
AcDbEntity
  8
AM_6
100
AcDbMText
 10
103.5
 20
32.67710336451592
 30
0.0
 40
3.200000000000001
 41
0.0
 71
     5
 72
     1
  1
7.5
 73
     1
 44
1.0
1001
ACAD
1000
MTEXTBEGIN
1070
    73
1070
     1
1070
    44
1040
1.0
1070
    74
1070
     0
1000
MTEXTEND
  0
MTEXT
  5
C7DF
330
1F
100
AcDbEntity
  8
AM_6
100
AcDbMText
 10
103.5
 20
25.67710336451592
 30
0.0
 40
3.200000000000001
 41
0.0
 71
     5
 72
     1
  1
9
 73
     1
 44
1.0
1001
ACAD
1000
MTEXTBEGIN
1070
    73
1070
     1
1070
    44
1040
1.0
1070
    74
1070
     0
1000
MTEXTEND
  0
LINE
  5
C7E0
330
1F
100
AcDbEntity
  8
AM_0
100
AcDbLine
 10
126.0
 20
43.17710336451591
 30
0.0
 11
126.0
 21
36.17710336451592
 31
0.0
  0
LINE
  5
C7E1
330
1F
100
AcDbEntity
  8
AM_0
100
AcDbLine
 10
126.0
 20
36.17710336451592
 30
0.0
 11
126.0
 21
29.17710336451591
 31
0.0
  0
LINE
  5
C7E2
330
1F
100
AcDbEntity
  8
AM_0
100
AcDbLine
 10
126.0
 20
29.17710336451591
 30
0.0
 11
126.0
 21
22.17710336451592
 31
0.0
  0
MTEXT
  5
C7E3
330
1F
100
AcDbEntity
  8
AM_6
100
AcDbMText
 10
118.5
 20
39.67710336451592
 30
0.0
 40
3.200000000000001
 41
0.0
 71
     5
 72
     1
  1
E
 73
     1
 44
1.0
1001
ACAD
1000
MTEXTBEGIN
1070
    73
1070
     1
1070
    44
1040
1.0
1070
    74
1070
     0
1000
MTEXTEND
  0
MTEXT
  5
C7E4
330
1F
100
AcDbEntity
  8
AM_6
100
AcDbMText
 10
118.5
 20
32.67710336451592
 30
0.0
 40
3.200000000000001
 41
0.0
 71
     5
 72
     1
  1
6.4
 73
     1
 44
1.0
1001
ACAD
1000
MTEXTBEGIN
1070
    73
1070
     1
1070
    44
1040
1.0
1070
    74
1070
     0
1000
MTEXTEND
  0
MTEXT
  5
C7E5
330
1F
100
AcDbEntity
  8
AM_6
100
AcDbMText
 10
118.5
 20
25.67710336451592
 30
0.0
 40
3.200000000000001
 41
0.0
 71
     5
 72
     1
  1
7.2
 73
     1
 44
1.0
1001
ACAD
1000
MTEXTBEGIN
1070
    73
1070
     1
1070
    44
1040
1.0
1070
    74
1070
     0
1000
MTEXTEND
  0
LINE
  5
C7E6
330
1F
100
AcDbEntity
  8
AM_0
100
AcDbLine
 10
141.0
 20
43.17710336451591
 30
0.0
 11
141.0
 21
36.17710336451592
 31
0.0
  0
LINE
  5
C7E7
330
1F
100
AcDbEntity
  8
AM_0
100
AcDbLine
 10
141.0
 20
36.17710336451592
 30
0.0
 11
141.0
 21
29.17710336451591
 31
0.0
  0
LINE
  5
C7E8
330
1F
100
AcDbEntity
  8
AM_0
100
AcDbLine
 10
141.0
 20
29.17710336451591
 30
0.0
 11
141.0
 21
22.17710336451592
 31
0.0
  0
MTEXT
  5
C7E9
330
1F
100
AcDbEntity
  8
AM_6
100
AcDbMText
 10
133.5
 20
39.67710336451592
 30
0.0
 40
3.200000000000001
 41
0.0
 71
     5
 72
     1
  1
F
 73
     1
 44
1.0
1001
ACAD
1000
MTEXTBEGIN
1070
    73
1070
     1
1070
    44
1040
1.0
1070
    74
1070
     0
1000
MTEXTEND
  0
MTEXT
  5
C7EA
330
1F
100
AcDbEntity
  8
AM_6
100
AcDbMText
 10
133.5
 20
32.67710336451592
 30
0.0
 40
3.200000000000001
 41
0.0
 71
     5
 72
     1
  1
7.3
 73
     1
 44
1.0
1001
ACAD
1000
MTEXTBEGIN
1070
    73
1070
     1
1070
    44
1040
1.0
1070
    74
1070
     0
1000
MTEXTEND
  0
MTEXT
  5
C7EB
330
1F
100
AcDbEntity
  8
AM_6
100
AcDbMText
 10
133.5
 20
25.67710336451592
 30
0.0
 40
3.200000000000001
 41
0.0
 71
     5
 72
     1
  1
8.1
 73
     1
 44
1.0
1001
ACAD
1000
MTEXTBEGIN
1070
    73
1070
     1
1070
    44
1040
1.0
1070
    74
1070
     0
1000
MTEXTEND
  0
LINE
  5
C7EC
330
1F
100
AcDbEntity
  8
AM_0
100
AcDbLine
 10
156.0
 20
43.17710336451591
 30
0.0
 11
156.0
 21
36.17710336451592
 31
0.0
  0
LINE
  5
C7ED
330
1F
100
AcDbEntity
  8
AM_0
100
AcDbLine
 10
156.0
 20
36.17710336451592
 30
0.0
 11
156.0
 21
29.17710336451591
 31
0.0
  0
LINE
  5
C7EE
330
1F
100
AcDbEntity
  8
AM_0
100
AcDbLine
 10
156.0
 20
29.17710336451591
 30
0.0
 11
156.0
 21
22.17710336451592
 31
0.0
  0
MTEXT
  5
C7EF
330
1F
100
AcDbEntity
  8
AM_6
100
AcDbMText
 10
148.5
 20
39.67710336451592
 30
0.0
 40
3.200000000000001
 41
0.0
 71
     5
 72
     1
  1
G
 73
     1
 44
1.0
1001
ACAD
1000
MTEXTBEGIN
1070
    73
1070
     1
1070
    44
1040
1.0
1070
    74
1070
     0
1000
MTEXTEND
  0
MTEXT
  5
C7F0
330
1F
100
AcDbEntity
  8
AM_6
100
AcDbMText
 10
148.5
 20
32.67710336451592
 30
0.0
 40
3.200000000000001
 41
0.0
 71
     5
 72
     1
  1
10
 73
     1
 44
1.0
1001
ACAD
1000
MTEXTBEGIN
1070
    73
1070
     1
1070
    44
1040
1.0
1070
    74
1070
     0
1000
MTEXTEND
  0
MTEXT
  5
C7F1
330
1F
100
AcDbEntity
  8
AM_6
100
AcDbMText
 10
148.5
 20
25.67710336451592
 30
0.0
 40
3.200000000000001
 41
0.0
 71
     5
 72
     1
  1
12
 73
     1
 44
1.0
1001
ACAD
1000
MTEXTBEGIN
1070
    73
1070
     1
1070
    44
1040
1.0
1070
    74
1070
     0
1000
MTEXTEND
  0
LINE
  5
C7F2
330
1F
100
AcDbEntity
  8
AM_0
100
AcDbLine
 10
171.0
 20
43.17710336451591
 30
0.0
 11
171.0
 21
36.17710336451592
 31
0.0
  0
LINE
  5
C7F3
330
1F
100
AcDbEntity
  8
AM_0
100
AcDbLine
 10
171.0
 20
36.17710336451592
 30
0.0
 11
171.0
 21
29.17710336451591
 31
0.0
  0
LINE
  5
C7F4
330
1F
100
AcDbEntity
  8
AM_0
100
AcDbLine
 10
171.0
 20
29.17710336451591
 30
0.0
 11
171.0
 21
22.17710336451592
 31
0.0
  0
MTEXT
  5
C7F5
330
1F
100
AcDbEntity
  8
AM_6
100
AcDbMText
 10
163.5
 20
39.67710336451592
 30
0.0
 40
3.200000000000001
 41
0.0
 71
     5
 72
     1
  1
H
 73
     1
 44
1.0
1001
ACAD
1000
MTEXTBEGIN
1070
    73
1070
     1
1070
    44
1040
1.0
1070
    74
1070
     0
1000
MTEXTEND
  0
MTEXT
  5
C7F6
330
1F
100
AcDbEntity
  8
AM_6
100
AcDbMText
 10
163.5
 20
32.67710336451592
 30
0.0
 40
3.200000000000001
 41
0.0
 71
     5
 72
     1
  1
11.3
 73
     1
 44
1.0
1001
ACAD
1000
MTEXTBEGIN
1070
    73
1070
     1
1070
    44
1040
1.0
1070
    74
1070
     0
1000
MTEXTEND
  0
MTEXT
  5
C7F7
330
1F
100
AcDbEntity
  8
AM_6
100
AcDbMText
 10
163.5
 20
25.67710336451592
 30
0.0
 40
3.200000000000001
 41
0.0
 71
     5
 72
     1
  1
12.8
 73
     1
 44
1.0
1001
ACAD
1000
MTEXTBEGIN
1070
    73
1070
     1
1070
    44
1040
1.0
1070
    74
1070
     0
1000
MTEXTEND
  0
LINE
  5
C7F8
330
1F
100
AcDbEntity
  8
AM_0
100
AcDbLine
 10
186.0
 20
43.17710336451591
 30
0.0
 11
186.0
 21
36.17710336451592
 31
0.0
  0
LINE
  5
C7F9
330
1F
100
AcDbEntity
  8
AM_0
100
AcDbLine
 10
186.0
 20
36.17710336451592
 30
0.0
 11
186.0
 21
29.17710336451591
 31
0.0
  0
LINE
  5
C7FA
330
1F
100
AcDbEntity
  8
AM_0
100
AcDbLine
 10
186.0
 20
29.17710336451591
 30
0.0
 11
186.0
 21
22.17710336451592
 31
0.0
  0
MTEXT
  5
C7FB
330
1F
100
AcDbEntity
  8
AM_6
100
AcDbMText
 10
178.5
 20
39.67710336451592
 30
0.0
 40
3.200000000000001
 41
0.0
 71
     5
 72
     1
  1
I
 73
     1
 44
1.0
1001
ACAD
1000
MTEXTBEGIN
1070
    73
1070
     1
1070
    44
1040
1.0
1070
    74
1070
     0
1000
MTEXTEND
  0
MTEXT
  5
C7FC
330
1F
100
AcDbEntity
  8
AM_6
100
AcDbMText
 10
178.5
 20
32.67710336451592
 30
0.0
 40
3.200000000000001
 41
0.0
 71
     5
 72
     1
  1
2.5
 73
     1
 44
1.0
1001
ACAD
1000
MTEXTBEGIN
1070
    73
1070
     1
1070
    44
1040
1.0
1070
    74
1070
     0
1000
MTEXTEND
  0
MTEXT
  5
C7FD
330
1F
100
AcDbEntity
  8
AM_6
100
AcDbMText
 10
178.5
 20
25.67710336451592
 30
0.0
 40
3.200000000000001
 41
0.0
 71
     5
 72
     1
  1
2.5
 73
     1
 44
1.0
1001
ACAD
1000
MTEXTBEGIN
1070
    73
1070
     1
1070
    44
1040
1.0
1070
    74
1070
     0
1000
MTEXTEND
  0
LINE
  5
C7FE
330
1F
100
AcDbEntity
  8
AM_0
100
AcDbLine
 10
201.0
 20
43.17710336451591
 30
0.0
 11
201.0
 21
36.17710336451592
 31
0.0
  0
LINE
  5
C7FF
330
1F
100
AcDbEntity
  8
AM_0
100
AcDbLine
 10
201.0
 20
36.17710336451592
 30
0.0
 11
201.0
 21
29.17710336451591
 31
0.0
  0
LINE
  5
C800
330
1F
100
AcDbEntity
  8
AM_0
100
AcDbLine
 10
201.0
 20
29.17710336451591
 30
0.0
 11
201.0
 21
22.17710336451592
 31
0.0
  0
MTEXT
  5
C801
330
1F
100
AcDbEntity
  8
AM_6
100
AcDbMText
 10
193.5
 20
39.67710336451592
 30
0.0
 40
3.200000000000001
 41
0.0
 71
     5
 72
     1
  1
J
 73
     1
 44
1.0
1001
ACAD
1000
MTEXTBEGIN
1070
    73
1070
     1
1070
    44
1040
1.0
1070
    74
1070
     0
1000
MTEXTEND
  0
LINE
  5
C802
330
1F
100
AcDbEntity
  8
AM_0
100
AcDbLine
 10
216.0
 20
43.17710336451591
 30
0.0
 11
216.0
 21
36.17710336451592
 31
0.0
  0
LINE
  5
C803
330
1F
100
AcDbEntity
  8
AM_0
100
AcDbLine
 10
216.0
 20
36.17710336451592
 30
0.0
 11
216.0
 21
29.17710336451591
 31
0.0
  0
LINE
  5
C804
330
1F
100
AcDbEntity
  8
AM_0
100
AcDbLine
 10
216.0
 20
29.17710336451591
 30
0.0
 11
216.0
 21
22.17710336451592
 31
0.0
  0
MTEXT
  5
C805
330
1F
100
AcDbEntity
  8
AM_6
100
AcDbMText
 10
208.5
 20
39.67710336451592
 30
0.0
 40
3.200000000000001
 41
0.0
 71
     5
 72
     1
  1
K
 73
     1
 44
1.0
1001
ACAD
1000
MTEXTBEGIN
1070
    73
1070
     1
1070
    44
1040
1.0
1070
    74
1070
     0
1000
MTEXTEND
  0
MTEXT
  5
C806
330
1F
100
AcDbEntity
  8
AM_6
100
AcDbMText
 10
208.5
 20
32.67710336451592
 30
0.0
 40
3.200000000000001
 41
0.0
 71
     5
 72
     1
  1
13.7
 73
     1
 44
1.0
1001
ACAD
1000
MTEXTBEGIN
1070
    73
1070
     1
1070
    44
1040
1.0
1070
    74
1070
     0
1000
MTEXTEND
  0
MTEXT
  5
C807
330
1F
100
AcDbEntity
  8
AM_6
100
AcDbMText
 10
208.5
 20
25.67710336451592
 30
0.0
 40
3.200000000000001
 41
0.0
 71
     5
 72
     1
  1
15.3
 73
     1
 44
1.0
1001
ACAD
1000
MTEXTBEGIN
1070
    73
1070
     1
1070
    44
1040
1.0
1070
    74
1070
     0
1000
MTEXTEND
  0
LINE
  5
C808
330
1F
100
AcDbEntity
  8
AM_0
100
AcDbLine
 10
231.0
 20
43.17710336451591
 30
0.0
 11
231.0
 21
36.17710336451592
 31
0.0
  0
LINE
  5
C809
330
1F
100
AcDbEntity
  8
AM_0
100
AcDbLine
 10
231.0
 20
36.17710336451592
 30
0.0
 11
231.0
 21
29.17710336451591
 31
0.0
  0
LINE
  5
C80A
330
1F
100
AcDbEntity
  8
AM_0
100
AcDbLine
 10
231.0
 20
29.17710336451591
 30
0.0
 11
231.0
 21
22.17710336451592
 31
0.0
  0
MTEXT
  5
C80B
330
1F
100
AcDbEntity
  8
AM_6
100
AcDbMText
 10
223.5
 20
39.67710336451592
 30
0.0
 40
3.200000000000001
 41
0.0
 71
     5
 72
     1
  1
L
 73
     1
 44
1.0
1001
ACAD
1000
MTEXTBEGIN
1070
    73
1070
     1
1070
    44
1040
1.0
1070
    74
1070
     0
1000
MTEXTEND
  0
MTEXT
  5
C80C
330
1F
100
AcDbEntity
  8
AM_6
100
AcDbMText
 10
223.5
 20
32.67710336451592
 30
0.0
 40
3.200000000000001
 41
0.0
 71
     5
 72
     1
  1
35
 73
     1
 44
1.0
1001
ACAD
1000
MTEXTBEGIN
1070
    73
1070
     1
1070
    44
1040
1.0
1070
    74
1070
     0
1000
MTEXTEND
  0
MTEXT
  5
C80D
330
1F
100
AcDbEntity
  8
AM_6
100
AcDbMText
 10
223.5
 20
25.67710336451592
 30
0.0
 40
3.200000000000001
 41
0.0
 71
     5
 72
     1
  1
40
 73
     1
 44
1.0
1001
ACAD
1000
MTEXTBEGIN
1070
    73
1070
     1
1070
    44
1040
1.0
1070
    74
1070
     0
1000
MTEXTEND
  0
LINE
  5
C80E
330
1F
100
AcDbEntity
  8
AM_0
100
AcDbLine
 10
246.0
 20
43.17710336451591
 30
0.0
 11
246.0
 21
36.17710336451592
 31
0.0
  0
LINE
  5
C80F
330
1F
100
AcDbEntity
  8
AM_0
100
AcDbLine
 10
246.0
 20
36.17710336451592
 30
0.0
 11
246.0
 21
29.17710336451591
 31
0.0
  0
LINE
  5
C810
330
1F
100
AcDbEntity
  8
AM_0
100
AcDbLine
 10
246.0
 20
29.17710336451591
 30
0.0
 11
246.0
 21
22.17710336451592
 31
0.0
  0
MTEXT
  5
C811
330
1F
100
AcDbEntity
  8
AM_6
100
AcDbMText
 10
238.5
 20
39.67710336451592
 30
0.0
 40
3.200000000000001
 41
0.0
 71
     5
 72
     1
  1
M
 73
     1
 44
1.0
1001
ACAD
1000
MTEXTBEGIN
1070
    73
1070
     1
1070
    44
1040
1.0
1070
    74
1070
     0
1000
MTEXTEND
  0
MTEXT
  5
C812
330
1F
100
AcDbEntity
  8
AM_6
100
AcDbMText
 10
238.5
 20
32.67710336451592
 30
0.0
 40
3.200000000000001
 41
0.0
 71
     5
 72
     1
  1
16
 73
     1
 44
1.0
1001
ACAD
1000
MTEXTBEGIN
1070
    73
1070
     1
1070
    44
1040
1.0
1070
    74
1070
     0
1000
MTEXTEND
  0
MTEXT
  5
C813
330
1F
100
AcDbEntity
  8
AM_6
100
AcDbMText
 10
238.5
 20
25.67710336451592
 30
0.0
 40
3.200000000000001
 41
0.0
 71
     5
 72
     1
  1
20
 73
     1
 44
1.0
1001
ACAD
1000
MTEXTBEGIN
1070
    73
1070
     1
1070
    44
1040
1.0
1070
    74
1070
     0
1000
MTEXTEND
  0
LINE
  5
C814
330
1F
100
AcDbEntity
  8
AM_0
100
AcDbLine
 10
268.5
 20
43.17710336451591
 30
0.0
 11
268.5
 21
36.17710336451592
 31
0.0
  0
LINE
  5
C815
330
1F
100
AcDbEntity
  8
AM_0
100
AcDbLine
 10
268.5
 20
36.17710336451592
 30
0.0
 11
268.5
 21
29.17710336451591
 31
0.0
  0
LINE
  5
C816
330
1F
100
AcDbEntity
  8
AM_0
100
AcDbLine
 10
268.5
 20
29.17710336451591
 30
0.0
 11
268.5
 21
22.17710336451592
 31
0.0
  0
MTEXT
  5
C817
330
1F
100
AcDbEntity
  8
AM_6
100
AcDbMText
 10
257.25
 20
39.67710336451592
 30
0.0
 40
3.200000000000001
 41
0.0
 71
     5
 72
     1
  1
N
 73
     1
 44
1.0
1001
ACAD
1000
MTEXTBEGIN
1070
    73
1070
     1
1070
    44
1040
1.0
1070
    74
1070
     0
1000
MTEXTEND
  0
MTEXT
  5
C818
330
1F
100
AcDbEntity
  8
AM_6
100
AcDbMText
 10
257.25
 20
32.67710336451592
 30
0.0
 40
3.200000000000001
 41
0.0
 71
     5
 72
     1
  1
%%C3.4×%%C6.1
 73
     1
 44
1.0
1001
ACAD
1000
MTEXTBEGIN
1070
    73
1070
     1
1070
    44
1040
1.0
1070
    74
1070
     0
1000
MTEXTEND
  0
LINE
  5
C819
330
1F
100
AcDbEntity
  8
AM_0
100
AcDbLine
 10
28.5
 20
15.17710336451591
 30
0.0
 11
268.5
 21
15.17710336451591
 31
0.0
  0
LINE
  5
C81A
330
1F
100
AcDbEntity
  8
AM_0
100
AcDbLine
 10
51.0
 20
22.17710336451592
 30
0.0
 11
51.0
 21
15.17710336451591
 31
0.0
  0
LINE
  5
C81B
330
1F
100
AcDbEntity
  8
AM_0
100
AcDbLine
 10
28.5
 20
22.17710336451592
 30
0.0
 11
28.5
 21
15.17710336451591
 31
0.0
  0
LINE
  5
C81C
330
1F
100
AcDbEntity
  8
AM_0
100
AcDbLine
 10
66.0
 20
22.17710336451592
 30
0.0
 11
66.0
 21
15.17710336451591
 31
0.0
  0
MTEXT
  5
C81D
330
1F
100
AcDbEntity
  8
AM_6
100
AcDbMText
 10
58.5
 20
18.67710336451591
 30
0.0
 40
3.200000000000001
 41
0.0
 71
     5
 72
     1
  1
70
 73
     1
 44
1.0
1001
ACAD
1000
MTEXTBEGIN
1070
    73
1070
     1
1070
    44
1040
1.0
1070
    74
1070
     0
1000
MTEXTEND
  0
LINE
  5
C81E
330
1F
100
AcDbEntity
  8
AM_0
100
AcDbLine
 10
81.0
 20
22.17710336451592
 30
0.0
 11
81.0
 21
15.17710336451591
 31
0.0
  0
MTEXT
  5
C81F
330
1F
100
AcDbEntity
  8
AM_6
100
AcDbMText
 10
73.5
 20
18.67710336451591
 30
0.0
 40
3.200000000000001
 41
0.0
 71
     5
 72
     1
  1
42
 73
     1
 44
1.0
1001
ACAD
1000
MTEXTBEGIN
1070
    73
1070
     1
1070
    44
1040
1.0
1070
    74
1070
     0
1000
MTEXTEND
  0
LINE
  5
C820
330
1F
100
AcDbEntity
  8
AM_0
100
AcDbLine
 10
96.0
 20
22.17710336451592
 30
0.0
 11
96.0
 21
15.17710336451591
 31
0.0
  0
MTEXT
  5
C821
330
1F
100
AcDbEntity
  8
AM_6
100
AcDbMText
 10
88.49999999999999
 20
18.67710336451591
 30
0.0
 40
3.200000000000001
 41
0.0
 71
     5
 72
     1
  1
13.5
 73
     1
 44
1.0
1001
ACAD
1000
MTEXTBEGIN
1070
    73
1070
     1
1070
    44
1040
1.0
1070
    74
1070
     0
1000
MTEXTEND
  0
LINE
  5
C822
330
1F
100
AcDbEntity
  8
AM_0
100
AcDbLine
 10
111.0
 20
22.17710336451592
 30
0.0
 11
111.0
 21
15.17710336451591
 31
0.0
  0
LINE
  5
C824
330
1F
100
AcDbEntity
  8
AM_0
100
AcDbLine
 10
126.0
 20
22.17710336451592
 30
0.0
 11
126.0
 21
15.17710336451591
 31
0.0
  0
MTEXT
  5
C825
330
1F
100
AcDbEntity
  8
AM_6
100
AcDbMText
 10
118.5
 20
18.67710336451591
 30
0.0
 40
3.200000000000001
 41
0.0
 71
     5
 72
     1
  1
10.5
 73
     1
 44
1.0
1001
ACAD
1000
MTEXTBEGIN
1070
    73
1070
     1
1070
    44
1040
1.0
1070
    74
1070
     0
1000
MTEXTEND
  0
LINE
  5
C826
330
1F
100
AcDbEntity
  8
AM_0
100
AcDbLine
 10
141.0
 20
22.17710336451592
 30
0.0
 11
141.0
 21
15.17710336451591
 31
0.0
  0
MTEXT
  5
C827
330
1F
100
AcDbEntity
  8
AM_6
100
AcDbMText
 10
133.5
 20
18.67710336451591
 30
0.0
 40
3.200000000000001
 41
0.0
 71
     5
 72
     1
  1
10.8
 73
     1
 44
1.0
1001
ACAD
1000
MTEXTBEGIN
1070
    73
1070
     1
1070
    44
1040
1.0
1070
    74
1070
     0
1000
MTEXTEND
  0
LINE
  5
C828
330
1F
100
AcDbEntity
  8
AM_0
100
AcDbLine
 10
156.0
 20
22.17710336451592
 30
0.0
 11
156.0
 21
15.17710336451591
 31
0.0
  0
MTEXT
  5
C829
330
1F
100
AcDbEntity
  8
AM_6
100
AcDbMText
 10
148.5
 20
18.67710336451591
 30
0.0
 40
3.200000000000001
 41
0.0
 71
     5
 72
     1
  1
17
 73
     1
 44
1.0
1001
ACAD
1000
MTEXTBEGIN
1070
    73
1070
     1
1070
    44
1040
1.0
1070
    74
1070
     0
1000
MTEXTEND
  0
LINE
  5
C82A
330
1F
100
AcDbEntity
  8
AM_0
100
AcDbLine
 10
171.0
 20
22.17710336451592
 30
0.0
 11
171.0
 21
15.17710336451591
 31
0.0
  0
MTEXT
  5
C82B
330
1F
100
AcDbEntity
  8
AM_6
100
AcDbMText
 10
163.5
 20
18.67710336451591
 30
0.0
 40
3.200000000000001
 41
0.0
 71
     5
 72
     1
  1
17
 73
     1
 44
1.0
1001
ACAD
1000
MTEXTBEGIN
1070
    73
1070
     1
1070
    44
1040
1.0
1070
    74
1070
     0
1000
MTEXTEND
  0
LINE
  5
C82C
330
1F
100
AcDbEntity
  8
AM_0
100
AcDbLine
 10
186.0
 20
22.17710336451592
 30
0.0
 11
186.0
 21
15.17710336451591
 31
0.0
  0
MTEXT
  5
C82D
330
1F
100
AcDbEntity
  8
AM_6
100
AcDbMText
 10
178.5
 20
18.67710336451591
 30
0.0
 40
3.200000000000001
 41
0.0
 71
     5
 72
     1
  1
4.2
 73
     1
 44
1.0
1001
ACAD
1000
MTEXTBEGIN
1070
    73
1070
     1
1070
    44
1040
1.0
1070
    74
1070
     0
1000
MTEXTEND
  0
LINE
  5
C82E
330
1F
100
AcDbEntity
  8
AM_0
100
AcDbLine
 10
201.0
 20
22.17710336451592
 30
0.0
 11
201.0
 21
15.17710336451591
 31
0.0
  0
LINE
  5
C82F
330
1F
100
AcDbEntity
  8
AM_0
100
AcDbLine
 10
216.0
 20
22.17710336451592
 30
0.0
 11
216.0
 21
15.17710336451591
 31
0.0
  0
MTEXT
  5
C830
330
1F
100
AcDbEntity
  8
AM_6
100
AcDbMText
 10
208.5
 20
18.67710336451591
 30
0.0
 40
3.200000000000001
 41
0.0
 71
     5
 72
     1
  1
21.3
 73
     1
 44
1.0
1001
ACAD
1000
MTEXTBEGIN
1070
    73
1070
     1
1070
    44
1040
1.0
1070
    74
1070
     0
1000
MTEXTEND
  0
LINE
  5
C831
330
1F
100
AcDbEntity
  8
AM_0
100
AcDbLine
 10
231.0
 20
22.17710336451592
 30
0.0
 11
231.0
 21
15.17710336451591
 31
0.0
  0
MTEXT
  5
C832
330
1F
100
AcDbEntity
  8
AM_6
100
AcDbMText
 10
223.5
 20
18.67710336451591
 30
0.0
 40
3.200000000000001
 41
0.0
 71
     5
 72
     1
  1
60
 73
     1
 44
1.0
1001
ACAD
1000
MTEXTBEGIN
1070
    73
1070
     1
1070
    44
1040
1.0
1070
    74
1070
     0
1000
MTEXTEND
  0
LINE
  5
C833
330
1F
100
AcDbEntity
  8
AM_0
100
AcDbLine
 10
246.0
 20
22.17710336451592
 30
0.0
 11
246.0
 21
15.17710336451591
 31
0.0
  0
MTEXT
  5
C834
330
1F
100
AcDbEntity
  8
AM_6
100
AcDbMText
 10
238.5
 20
18.67710336451591
 30
0.0
 40
3.200000000000001
 41
0.0
 71
     5
 72
     1
  1
30
 73
     1
 44
1.0
1001
ACAD
1000
MTEXTBEGIN
1070
    73
1070
     1
1070
    44
1040
1.0
1070
    74
1070
     0
1000
MTEXTEND
  0
LINE
  5
C835
330
1F
100
AcDbEntity
  8
AM_0
100
AcDbLine
 10
268.5
 20
22.17710336451592
 30
0.0
 11
268.5
 21
15.17710336451591
 31
0.0
  0
MTEXT
  5
C836
330
1F
100
AcDbEntity
  8
AM_6
100
AcDbMText
 10
193.5
 20
32.67710336451592
 30
0.0
 40
3.200000000000001
 41
0.0
 71
     5
 72
     1
  1
2.7
 73
     1
 44
1.0
1001
ACAD
1000
MTEXTBEGIN
1070
    73
1070
     1
1070
    44
1040
1.0
1070
    74
1070
     0
1000
MTEXTEND
  0
MTEXT
  5
C837
330
1F
100
AcDbEntity
  8
AM_6
100
AcDbMText
 10
193.5
 20
25.67710336451592
 30
0.0
 40
3.200000000000001
 41
0.0
 71
     5
 72
     1
  1
2.9
 73
     1
 44
1.0
1001
ACAD
1000
MTEXTBEGIN
1070
    73
1070
     1
1070
    44
1040
1.0
1070
    74
1070
     0
1000
MTEXTEND
  0
MTEXT
  5
C838
330
1F
100
AcDbEntity
  8
AM_6
100
AcDbMText
 10
193.5
 20
18.67710336451591
 30
0.0
 40
3.200000000000001
 41
0.0
 71
     5
 72
     1
  1
4
 73
     1
 44
1.0
1001
ACAD
1000
MTEXTBEGIN
1070
    73
1070
     1
1070
    44
1040
1.0
1070
    74
1070
     0
1000
MTEXTEND
  0
CIRCLE
  5
C839
330
1F
100
AcDbEntity
  8
AM_0
100
AcDbCircle
 10
101.9330245395112
 20
79.10969497351721
 30
0.0
 40
2.2
  0
CIRCLE
  5
C83A
330
1F
100
AcDbEntity
  8
AM_0
100
AcDbCircle
 10
116.9330245395113
 20
79.10969497351721
 30
0.0
 40
2.2
  0
CIRCLE
  5
C83B
330
1F
100
AcDbEntity
  8
AM_0
100
AcDbCircle
 10
101.9330245395112
 20
79.10969497351721
 30
0.0
 40
4.2
  0
MTEXT
  5
C83C
330
1F
100
AcDbEntity
  8
AM_6
100
AcDbMText
 10
39.75
 20
25.67710336451592
 30
0.0
 40
3.200000000000001
 41
0.0
 71
     5
 72
     1
  1
SC-201-2
 73
     1
 44
1.0
1001
ACAD
1000
MTEXTBEGIN
1070
    73
1070
     1
1070
    44
1040
1.0
1070
    74
1070
     0
1000
MTEXTEND
  0
MTEXT
  5
C83D
330
1F
100
AcDbEntity
  8
AM_6
100
AcDbMText
 10
39.75
 20
18.67710336451591
 30
0.0
 40
3.200000000000001
 41
0.0
 71
     5
 72
     1
  1
SC-201-3
 73
     1
 44
1.0
1001
ACAD
1000
MTEXTBEGIN
1070
    73
1070
     1
1070
    44
1040
1.0
1070
    74
1070
     0
1000
MTEXTEND
  0
LINE
  5
C83E
330
1F
100
AcDbEntity
  8
AM_7
 48
0.4
370
     9
100
AcDbLine
 10
116.9330245395113
 20
83.1096949735172
 30
0.0
 11
116.9330245395113
 21
75.1096949735172
 31
0.0
1001
GENIUS_GENODEF_13
1002
{
1000
HIER
1070
     0
1002
}
1002
{
1000
MANEDIT
1070
     0
1002
}
1002
{
1000
NOSEL
1070
     0
1002
}
1002
{
1000
BEHIND
1070
     0
1002
}
1002
{
1000
OTHER
1070
     0
1002
}
1002
{
1000
REACTOR
1002
}
1001
GENIUS_GENOBJ-N-CEN_13
1002
{
1000
OWNER
1000
GEN
1002
}
1001
GENIUS_GENCEN_19
1002
{
1040
3.0
1002
}
  0
LINE
  5
C83F
330
1F
100
AcDbEntity
  8
AM_7
 48
0.4
370
     9
100
AcDbLine
 10
161.9330245395113
 20
85.10969497351721
 30
0.0
 11
161.9330245395113
 21
73.1096949735172
 31
0.0
1001
GENIUS_GENOBJ-N-CEN_13
1002
{
1000
OWNER
1000
GEN
1002
}
1001
GENIUS_GENODEF_13
1002
{
1000
HIER
1070
     0
1002
}
1002
{
1000
MANEDIT
1070
     0
1002
}
1002
{
1000
NOSEL
1070
     0
1002
}
1002
{
1000
BEHIND
1070
     0
1002
}
1002
{
1000
OTHER
1070
     0
1002
}
1002
{
1000
REACTOR
1002
}
1001
GENIUS_GENCEN_19
1002
{
1040
3.0
1002
}
  0
LINE
  5
C840
330
1F
100
AcDbEntity
  8
AM_7
 48
0.4
370
     9
100
AcDbLine
 10
146.9330245395113
 20
83.1096949735172
 30
0.0
 11
146.9330245395113
 21
75.1096949735172
 31
0.0
1001
GENIUS_GENODEF_13
1002
{
1000
HIER
1070
     0
1002
}
1002
{
1000
MANEDIT
1070
     0
1002
}
1002
{
1000
NOSEL
1070
     0
1002
}
1002
{
1000
BEHIND
1070
     0
1002
}
1002
{
1000
OTHER
1070
     0
1002
}
1002
{
1000
REACTOR
1002
}
1001
GENIUS_GENOBJ-N-CEN_13
1002
{
1000
OWNER
1000
GEN
1002
}
1001
GENIUS_GENCEN_19
1002
{
1040
3.0
1002
}
  0
MTEXT
  5
C842
330
1F
100
AcDbEntity
  8
AM_6
100
AcDbMText
 10
257.25
 20
25.67710336451592
 30
0.0
 40
3.200000000000001
 41
0.0
 71
     5
 72
     1
  1
%%C4.6×%%C8.1
 73
     1
 44
1.0
1001
ACAD
1000
MTEXTBEGIN
1070
    73
1070
     1
1070
    44
1040
1.0
1070
    74
1070
     0
1000
MTEXTEND
  0
MTEXT
  5
C843
330
1F
100
AcDbEntity
  8
AM_6
100
AcDbMText
 10
257.25
 20
18.67710336451591
 30
0.0
 40
3.200000000000001
 41
0.0
 71
     5
 72
     1
  1
%%C4.3×%%C8.1
 73
     1
 44
1.0
1001
ACAD
1000
MTEXTBEGIN
1070
    73
1070
     1
1070
    44
1040
1.0
1070
    74
1070
     0
1000
MTEXTEND
  0
MTEXT
  5
CE6A
330
1F
100
AcDbEntity
  8
AM_6
100
AcDbMText
 10
103.5
 20
18.67710336451591
 30
0.0
 40
3.200000000000001
 41
0.0
 71
     5
 72
     1
  1
10.5
 73
     1
 44
1.0
1001
ACAD
1000
MTEXTBEGIN
1070
    73
1070
     1
1070
    44
1040
1.0
1070
    74
1070
     0
1000
MTEXTEND
  0
ENDSEC
  0
SECTION
  2
OBJECTS
  0
DICTIONARY
  5
C
330
0
100
AcDbDictionary
281
     1
  3
ACAD_2007HEADERVARS_RT
350
CFA8
  3
ACAD_BGPLOT_KEY
350
AB06
  3
ACAD_COLOR
350
A91D
  3
ACAD_GROUP
350
D
  3
ACAD_LAYOUT
350
1A
  3
ACAD_MATERIAL
350
A91C
  3
ACAD_MLINESTYLE
350
17
  3
ACAD_PLOTSETTINGS
350
19
  3
ACAD_PLOTSTYLENAME
350
E
  3
ACAD_TABLESTYLE
350
AAB9
  3
ACAD_VISUALSTYLE
350
B0F1
  3
AcAsAppObject
350
3DA1
  3
ACASGREF_MASTER
350
3DE9
  3
AcDbVariableDictionary
350
34
  3
AcmDictionary
350
47
  3
AD_GREF_MODULE
350
3DEA
  3
AD_MAPI_MODULE
350
3E06
  3
AMG
350
2B
  3
AMGSNAPSETTINGS
350
7D
  3
ASE_INDEX_DICTIONARY
350
B331
  3
DWGPROPS
350
CFA7
  3
MAPISURF_MODULE
350
3DEB
  0
DICTIONARY
  5
3F95
330
2
100
AcDbDictionary
280
     1
281
     1
  3
ACAD_LAYERFILTERS
360
C51B
  3
ACAD_LAYERSTATES
360
3F96
  3
ACLYDICTIONARY
360
C51A
  3
AMLAYER_GROUPCOLORS
360
AAB4
  0
DICTIONARY
  5
8A
330
1F
100
AcDbDictionary
280
     1
281
     1
  3
ACAD_SORTENTS
360
B1BA
  0
DICTIONARY
  5
B563
330
B50A
100
AcDbDictionary
280
     1
281
     1
  3
ACAD_SORTENTS
360
B564
  0
DICTIONARY
  5
B61A
330
B60A
100
AcDbDictionary
280
     1
281
     1
  0
DICTIONARY
  5
C794
330
C793
100
AcDbDictionary
280
     1
281
     1
  3
ACAD_DIMASSOC
360
C795
  0
DICTIONARY
  5
C797
330
C796
100
AcDbDictionary
280
     1
281
     1
  3
ACAD_DIMASSOC
360
C798
  0
DICTIONARY
  5
C79A
330
C799
100
AcDbDictionary
280
     1
281
     1
  3
ACAD_DIMASSOC
360
C79B
  0
DICTIONARY
  5
C79D
330
C79C
100
AcDbDictionary
280
     1
281
     1
  3
ACAD_DIMASSOC
360
C79E
  0
DICTIONARY
  5
C7A0
330
C79F
100
AcDbDictionary
280
     1
281
     1
  3
ACAD_DIMASSOC
360
C7A1
  0
DICTIONARY
  5
C7A3
330
C7A2
100
AcDbDictionary
280
     1
281
     1
  3
ACAD_DIMASSOC
360
C7A4
  0
DICTIONARY
  5
C7A6
330
C7A5
100
AcDbDictionary
280
     1
281
     1
  3
ACAD_DIMASSOC
360
C7A7
  0
DICTIONARY
  5
C7A9
330
C7A8
100
AcDbDictionary
280
     1
281
     1
  3
ACAD_DIMASSOC
360
C7AA
  0
DICTIONARY
  5
C7AC
330
C7AB
100
AcDbDictionary
280
     1
281
     1
  3
ACAD_DIMASSOC
360
C7AD
  0
DICTIONARY
  5
C7AF
330
C7AE
100
AcDbDictionary
280
     1
281
     1
  3
ACAD_DIMASSOC
360
C7B0
  0
DICTIONARY
  5
C7B3
330
C7B2
100
AcDbDictionary
280
     1
281
     1
  3
ACAD_DIMASSOC
360
C7B4
  0
DICTIONARY
  5
C7B6
330
C7B5
100
AcDbDictionary
280
     1
281
     1
  3
ACAD_DIMASSOC
360
C7B7
  0
DICTIONARY
  5
C7B9
330
C7B8
100
AcDbDictionary
280
     1
281
     1
  3
ACAD_DIMASSOC
360
C7BA
  0
DICTIONARY
  5
CFA8
102
{ACAD_REACTORS
330
C
102
}
330
C
100
AcDbDictionary
281
     1
  3
DIMARCSYM
350
CFA9
  0
DICTIONARY
  5
AB06
102
{ACAD_REACTORS
330
C
102
}
330
C
100
AcDbDictionary
280
     1
281
     1
  0
DICTIONARY
  5
A91D
102
{ACAD_REACTORS
330
C
102
}
330
C
100
AcDbDictionary
281
     1
  0
DICTIONARY
  5
D
102
{ACAD_REACTORS
330
C
102
}
330
C
100
AcDbDictionary
281
     1
  0
DICTIONARY
  5
1A
102
{ACAD_REACTORS
330
C
102
}
330
C
100
AcDbDictionary
281
     1
  3
Model
350
22
  3
ﾚｲｱｳﾄ1
350
1E
  3
ﾚｲｱｳﾄ2
350
26
  0
DICTIONARY
  5
A91C
102
{ACAD_REACTORS
330
C
102
}
330
C
100
AcDbDictionary
281
     1
  3
ByBlock
350
B0EF
  3
ByLayer
350
B0EE
  3
Global
350
B0F0
  0
DICTIONARY
  5
17
102
{ACAD_REACTORS
330
C
102
}
330
C
100
AcDbDictionary
281
     1
  3
Standard
350
18
  0
DICTIONARY
  5
19
102
{ACAD_REACTORS
330
C
102
}
330
C
100
AcDbDictionary
281
     1
  0
ACDBDICTIONARYWDFLT
  5
E
102
{ACAD_REACTORS
330
C
102
}
330
C
100
AcDbDictionary
281
     1
  3
Normal
350
F
100
AcDbDictionaryWithDefault
340
F
  0
DICTIONARY
  5
AAB9
102
{ACAD_REACTORS
330
C
102
}
330
C
100
AcDbDictionary
281
     1
  3
Standard
350
AABA
  0
DICTIONARY
  5
B0F1
102
{ACAD_REACTORS
330
C
102
}
330
C
100
AcDbDictionary
281
     1
  3
2dWireframe
350
B0F7
  3
3D Hidden
350
B0F9
  3
3dWireframe
350
B0F8
  3
Basic
350
B0F6
  3
Brighten
350
B0FD
  3
ColorChange
350
B101
  3
Conceptual
350
B0FA
  3
Dim
350
B0FC
  3
Facepattern
350
B100
  3
Flat
350
B0F2
  3
FlatWithEdges
350
B0F3
  3
Gouraud
350
B0F4
  3
GouraudWithEdges
350
B0F5
  3
Linepattern
350
B0FF
  3
Realistic
350
B0FB
  3
Thicken
350
B0FE
  0
ACAD_PROXY_OBJECT
  5
3DA1
102
{ACAD_REACTORS
330
C
102
}
330
C
100
AcDbProxyObject
 90
      499
 91
      576
 95
   917527
 70
     0
 93
       10
310
407F
 94
        0
1001
ACAD
1000
AcRTDxfName
1000
ASAPP
  0
ACAD_PROXY_OBJECT
  5
3DE9
102
{ACAD_REACTORS
330
C
102
}
330
C
100
AcDbProxyObject
 90
      499
 91
      581
 95
   917527
 70
     0
 93
       34
310
010000407F
 94
        0
1001
ACAD
1000
AcRTDxfName
1000
ACASGREFMASTER
  0
DICTIONARY
  5
34
102
{ACAD_REACTORS
330
C
102
}
330
C
100
AcDbDictionary
281
     1
  3
CTABLESTYLE
350
AAF3
  3
DIMASSOC
350
A10C
  3
FIELDEVAL
350
AB07
  3
INDEXCTL
350
35
  3
SORTENTS
350
194C
  0
DICTIONARY
  5
47
102
{ACAD_REACTORS
330
C
102
}
330
C
100
AcDbDictionary
281
     1
  3
AcmBOM
350
7E8
  3
AcmStdDictionary
350
4C
  3
AMDTSECTSYM_ARROWCOLOR
350
A929
  0
ACAD_PROXY_OBJECT
  5
3DEA
102
{ACAD_REACTORS
330
C
102
}
330
C
100
AcDbProxyObject
 90
      499
 91
      582
 95
   917527
 70
     0
 93
      114
310
00000043800000000000000000003F
 94
        0
1001
ACAD
1000
AcRTDxfName
1000
ACADGREFMODULE
  0
ACAD_PROXY_OBJECT
  5
3E06
102
{ACAD_REACTORS
330
C
102
}
330
C
100
AcDbProxyObject
 90
      499
 91
      594
 95
   917527
 70
     0
 93
       34
310
05000044FF
 94
        0
1001
ACAD
1000
AcRTDxfName
1000
MAPIADMODULE
  0
DICTIONARY
  5
2B
102
{ACAD_REACTORS
330
C
102
}
330
C
100
AcDbDictionary
281
     1
  0
DICTIONARY
  5
7D
102
{ACAD_REACTORS
330
C
102
}
330
C
100
AcDbDictionary
281
     1
  0
DICTIONARY
  5
B331
102
{ACAD_REACTORS
330
C
102
}
330
C
100
AcDbDictionary
281
     1
  3
ASEBlockHierarchyIndexRecord
350
B332
1001
DCO15
1040
1594111214.218
  0
XRECORD
  5
CFA7
102
{ACAD_REACTORS
330
C
102
}
330
C
100
AcDbXrecord
280
     1
  1
DWGPROPS COOKIE
  2

  3

  4

  6

  7

  8
Administrator
  9

300
AmdtFileType=84
301
=
302
=
303
=
304
=
305
=
306
=
307
=
308
=
309
=
 40
0.0878060069444445
 41
2455567.561054317
 42
2456268.50245816
  1

 90
        1
  0
ACAD_PROXY_OBJECT
  5
3DEB
102
{ACAD_REACTORS
330
C
102
}
330
C
100
AcDbProxyObject
 90
      499
 91
      583
 95
   917527
 70
     0
 93
        8
310
047E
 94
        0
1001
ACAD
1000
AcRTDxfName
1000
AMDTMAPISURFMOUDULE
  0
DICTIONARY
  5
C51B
102
{ACAD_REACTORS
330
3F95
102
}
330
3F95
100
AcDbDictionary
281
     1
  0
DICTIONARY
  5
3F96
102
{ACAD_REACTORS
330
3F95
102
}
330
3F95
100
AcDbDictionary
281
     1
  3
20011210
350
3FB7
  0
DICTIONARY
  5
C51A
102
{ACAD_REACTORS
330
3F95
102
}
330
3F95
100
AcDbDictionary
281
     1
1001
ACAD
1000
<All
  0
DICTIONARY
  5
AAB4
102
{ACAD_REACTORS
330
3F95
102
}
330
3F95
100
AcDbDictionary
280
     1
281
     1
  0
SORTENTSTABLE
  5
B1BA
102
{ACAD_REACTORS
330
8A
102
}
330
8A
100
AcDbSortentsTable
330
1F
  0
SORTENTSTABLE
  5
B564
102
{ACAD_REACTORS
330
B563
102
}
330
B563
100
AcDbSortentsTable
330
B50A
  0
DIMASSOC
  5
C795
102
{ACAD_REACTORS
330
C794
102
}
330
C794
100
AcDbDimAssoc
330
C793
 90
        3
 70
     0
 71
     0
  1
AcDbOsnapPointRef
 72
     1
331
C769
 73
     0
 91
        0
 40
0.0
 10
0.0
 20
0.0
 30
2.000000000000000E+50
 75
     0
  1
AcDbOsnapPointRef
 72
     1
331
C75E
 73
     0
 91
        0
 40
0.0
 10
0.0
 20
0.0
 30
2.000000000000000E+50
 75
     0
  0
DIMASSOC
  5
C798
102
{ACAD_REACTORS
330
C797
102
}
330
C797
100
AcDbDimAssoc
330
C796
 90
        3
 70
     0
 71
     0
  1
AcDbOsnapPointRef
 72
    13
331
C776
 73
     0
 91
        0
 40
0.0
 10
0.0
 20
0.0
 30
2.000000000000000E+50
 75
     0
  1
AcDbOsnapPointRef
 72
     1
331
C76A
 73
     0
 91
        0
 40
0.0
 10
0.0
 20
0.0
 30
2.000000000000000E+50
 75
     0
  0
DIMASSOC
  5
C79B
102
{ACAD_REACTORS
330
C79A
102
}
330
C79A
100
AcDbDimAssoc
330
C799
 90
        2
 70
     0
 71
     0
  1
AcDbOsnapPointRef
 72
     1
331
C768
 73
     0
 91
        0
 40
0.0
 10
0.0
 20
0.0
 30
2.000000000000000E+50
 75
     0
  0
DIMASSOC
  5
C79E
102
{ACAD_REACTORS
330
C79D
102
}
330
C79D
100
AcDbDimAssoc
330
C79C
 90
        3
 70
     0
 71
     0
  1
AcDbOsnapPointRef
 72
     1
331
C76A
 73
     0
 91
        0
 40
0.0
 10
0.0
 20
0.0
 30
2.000000000000000E+50
 75
     0
  1
AcDbOsnapPointRef
 72
     1
331
C75E
 73
     0
 91
        0
 40
0.0
 10
0.0
 20
0.0
 30
2.000000000000000E+50
 75
     0
  0
DIMASSOC
  5
C7A1
102
{ACAD_REACTORS
330
C7A0
102
}
330
C7A0
100
AcDbDimAssoc
330
C79F
 90
        3
 70
     0
 71
     0
  1
AcDbOsnapPointRef
 72
     1
331
C75E
 73
     0
 91
        0
 40
0.0
 10
0.0
 20
0.0
 30
2.000000000000000E+50
 75
     0
  1
AcDbOsnapPointRef
 72
     1
331
C763
 73
     0
 91
        0
 40
0.0
 10
0.0
 20
0.0
 30
2.000000000000000E+50
 75
     0
  0
DIMASSOC
  5
C7A4
102
{ACAD_REACTORS
330
C7A3
102
}
330
C7A3
100
AcDbDimAssoc
330
C7A2
 90
        3
 70
     0
 71
     0
  1
AcDbOsnapPointRef
 72
     1
331
C789
 73
     0
 91
        0
 40
0.0
 10
0.0
 20
0.0
 30
2.000000000000000E+50
 75
     0
  1
AcDbOsnapPointRef
 72
    13
331
C76A
 73
     0
 91
        0
 40
0.0
 10
0.0
 20
0.0
 30
2.000000000000000E+50
 75
     0
  0
DIMASSOC
  5
C7A7
102
{ACAD_REACTORS
330
C7A6
102
}
330
C7A6
100
AcDbDimAssoc
330
C7A5
 90
        3
 70
     0
 71
     0
  1
AcDbOsnapPointRef
 72
     1
331
C789
 73
     0
 91
        0
 40
0.0
 10
0.0
 20
0.0
 30
2.000000000000000E+50
 75
     0
  1
AcDbOsnapPointRef
 72
    13
331
C75E
 73
     0
 91
        0
 40
0.0
 10
0.0
 20
0.0
 30
2.000000000000000E+50
 75
     0
  0
DIMASSOC
  5
C7AA
102
{ACAD_REACTORS
330
C7A9
102
}
330
C7A9
100
AcDbDimAssoc
330
C7A8
 90
        3
 70
     0
 71
     0
  1
AcDbOsnapPointRef
 72
    13
331
C748
 73
     0
 91
        0
 40
0.0
 10
0.0
 20
0.0
 30
2.000000000000000E+50
 75
     0
  1
AcDbOsnapPointRef
 72
     1
331
C746
 73
     0
 91
        0
 40
0.0
 10
0.0
 20
0.0
 30
2.000000000000000E+50
 75
     0
  0
DIMASSOC
  5
C7AD
102
{ACAD_REACTORS
330
C7AC
102
}
330
C7AC
100
AcDbDimAssoc
330
C7AB
 90
        3
 70
     0
 71
     0
  1
AcDbOsnapPointRef
 72
     1
331
C747
 73
     0
 91
        0
 40
0.0
 10
0.0
 20
0.0
 30
2.000000000000000E+50
 75
     0
  1
AcDbOsnapPointRef
 72
    13
331
C745
 73
     0
 91
        0
 40
0.0
 10
0.0
 20
0.0
 30
2.000000000000000E+50
 75
     0
  0
DIMASSOC
  5
C7B0
102
{ACAD_REACTORS
330
C7AF
102
}
330
C7AF
100
AcDbDimAssoc
330
C7AE
 90
        1
 70
     0
 71
     0
  1
AcDbOsnapPointRef
 72
    13
331
C78E
 73
     0
 91
        0
 40
0.0
 10
0.0
 20
0.0
 30
2.000000000000000E+50
 75
     0
  0
DIMASSOC
  5
C7B4
102
{ACAD_REACTORS
330
C7B3
102
}
330
C7B3
100
AcDbDimAssoc
330
C7B2
 90
        3
 70
     0
 71
     0
  1
AcDbOsnapPointRef
 72
     1
331
C74D
 73
     0
 91
        0
 40
0.0
 10
0.0
 20
0.0
 30
2.000000000000000E+50
 75
     0
  1
AcDbOsnapPointRef
 72
     1
331
C74C
 73
     0
 91
        0
 40
0.0
 10
0.0
 20
0.0
 30
2.000000000000000E+50
 75
     0
  0
DIMASSOC
  5
C7B7
102
{ACAD_REACTORS
330
C7B6
102
}
330
C7B6
100
AcDbDimAssoc
330
C7B5
 90
        3
 70
     0
 71
     0
  1
AcDbOsnapPointRef
 72
    13
331
C752
 73
     0
 91
        0
 40
0.0
 10
0.0
 20
0.0
 30
2.000000000000000E+50
 75
     0
  1
AcDbOsnapPointRef
 72
    13
331
C751
 73
     0
 91
        0
 40
0.0
 10
0.0
 20
0.0
 30
2.000000000000000E+50
 75
     0
  0
DIMASSOC
  5
C7BA
102
{ACAD_REACTORS
330
C7B9
102
}
330
C7B9
100
AcDbDimAssoc
330
C7B8
 90
        2
 70
     0
 71
     0
  1
AcDbOsnapPointRef
 72
     3
331
C749
 73
     2
 91
        0
 40
0.0
 10
0.0
 20
0.0
 30
0.0
 75
     0
  0
XRECORD
  5
CFA9
102
{ACAD_REACTORS
330
CFA8
102
}
330
CFA8
100
AcDbXrecord
280
     1
 70
     1
  0
LAYOUT
  5
22
102
{ACAD_XDICTIONARY
360
CFAC
102
}
102
{ACAD_REACTORS
330
1A
102
}
330
1A
100
AcDbPlotSettings
  1

  2
Adobe PDF
  4
A4
  6

 40
3.174999952316284
 41
3.174999952316284
 42
3.175003051757812
 43
3.17498779296875
 44
209.9733276367187
 45
297.0318298339844
 46
-3.188337683677673
 47
-3.159078955650329
 48
0.0
 49
0.0000000000000284
140
297.0
141
210.0
142
1.0
143
1.0
 70
  3748
 72
     1
 73
     1
 74
     4
  7
monochrome.ctb
 75
     0
147
0.6857429891323
148
0.0
149
-0.0000000000000284
100
AcDbLayout
  1
Model
 70
     1
 71
     0
 10
0.0
 20
0.0
 11
12.0
 21
9.0
 12
0.0
 22
0.0
 32
0.0
 14
0.0
 24
0.0
 34
0.0
 15
0.0
 25
0.0
 35
0.0
146
0.0
 13
0.0
 23
0.0
 33
0.0
 16
1.0
 26
0.0
 36
0.0
 17
0.0
 27
1.0
 37
0.0
 76
     0
330
1F
331
B0EC
1001
ACAD_PSEXT
1000
Adobe PDF
1000
Adobe PDF Converter
1000
My Documents\*.pdf
1000

1070
     0
  0
LAYOUT
  5
1E
102
{ACAD_XDICTIONARY
360
CFAA
102
}
102
{ACAD_REACTORS
330
1A
102
}
330
1A
100
AcDbPlotSettings
  1

  2
\\ML370\XEROX
  4
A4
  6

 40
3.174999952316284
 41
3.174999952316284
 42
3.175003051757812
 43
3.17498779296875
 44
209.8674926757813
 45
296.6719970703125
 46
0.0
 47
0.0
 48
0.0
 49
0.0
140
0.0
141
0.0
142
1.0
143
1.0
 70
   688
 72
     1
 73
     1
 74
     5
  7
monochrome.ctb
 75
    16
147
1.0
148
0.0
149
0.0
100
AcDbLayout
  1
ﾚｲｱｳﾄ1
 70
     1
 71
     1
 10
-3.17498779296875
 20
-3.174999952316284
 11
293.4970092773438
 21
206.692492723465
 12
0.0
 22
0.0
 32
0.0
 14
1.000000000000000E+20
 24
1.000000000000000E+20
 34
1.000000000000000E+20
 15
-1.000000000000000E+20
 25
-1.000000000000000E+20
 35
-1.000000000000000E+20
146
0.0
 13
0.0
 23
0.0
 33
0.0
 16
1.0
 26
0.0
 36
0.0
 17
0.0
 27
1.0
 37
0.0
 76
     0
330
1B
  0
LAYOUT
  5
26
102
{ACAD_XDICTIONARY
360
CFAE
102
}
102
{ACAD_REACTORS
330
1A
102
}
330
1A
100
AcDbPlotSettings
  1

  2
\\ML370\XEROX
  4

  6

 40
0.0
 41
0.0
 42
0.0
 43
0.0
 44
0.0
 45
0.0
 46
0.0
 47
0.0
 48
0.0
 49
0.0
140
0.0
141
0.0
142
1.0
143
1.0
 70
   688
 72
     0
 73
     0
 74
     5
  7
monochrome.ctb
 75
    16
147
1.0
148
0.0
149
0.0
100
AcDbLayout
  1
ﾚｲｱｳﾄ2
 70
     1
 71
     2
 10
0.0
 20
0.0
 11
12.0
 21
9.0
 12
0.0
 22
0.0
 32
0.0
 14
0.0
 24
0.0
 34
0.0
 15
0.0
 25
0.0
 35
0.0
146
0.0
 13
0.0
 23
0.0
 33
0.0
 16
1.0
 26
0.0
 36
0.0
 17
0.0
 27
1.0
 37
0.0
 76
     0
330
23
  0
MATERIAL
  5
B0EF
102
{ACAD_XDICTIONARY
360
CFB4
102
}
102
{ACAD_REACTORS
330
A91C
102
}
330
A91C
100
AcDbMaterial
  1
ByBlock
  0
MATERIAL
  5
B0EE
102
{ACAD_XDICTIONARY
360
CFB2
102
}
102
{ACAD_REACTORS
330
A91C
102
}
330
A91C
100
AcDbMaterial
  1
ByLayer
  0
MATERIAL
  5
B0F0
102
{ACAD_XDICTIONARY
360
CFB6
102
}
102
{ACAD_REACTORS
330
A91C
102
}
330
A91C
100
AcDbMaterial
  1
Global
  0
MLINESTYLE
  5
18
102
{ACAD_REACTORS
330
17
102
}
330
17
100
AcDbMlineStyle
  2
STANDARD
 70
     0
  3

 62
   256
 51
90.0
 52
90.0
 71
     2
 49
0.5
 62
   256
  6
BYLAYER
 49
-0.5
 62
   256
  6
BYLAYER
  0
ACDBPLACEHOLDER
  5
F
102
{ACAD_REACTORS
330
E
102
}
330
E
  0
TABLESTYLE
  5
AABA
102
{ACAD_XDICTIONARY
360
CFB0
102
}
102
{ACAD_REACTORS
330
AAB9
102
}
330
AAB9
100
AcDbTableStyle
  3
Standard
 70
     0
 71
     0
 40
1.5
 41
1.5
280
     0
281
     0
  7
STANDARD
140
4.5
170
     2
 62
     0
 63
     7
283
     0
274
    -2
284
     1
 64
     0
275
    -2
285
     1
 65
     0
276
    -2
286
     1
 66
     0
277
    -2
287
     1
 67
     0
278
    -2
288
     1
 68
     0
279
    -2
289
     1
 69
     0
  7
STANDARD
140
6.0
170
     5
 62
     0
 63
     7
283
     0
274
    -2
284
     1
 64
     0
275
    -2
285
     1
 65
     0
276
    -2
286
     1
 66
     0
277
    -2
287
     1
 67
     0
278
    -2
288
     1
 68
     0
279
    -2
289
     1
 69
     0
  7
STANDARD
140
4.5
170
     5
 62
     0
 63
     7
283
     0
274
    -2
284
     1
 64
     0
275
    -2
285
     1
 65
     0
276
    -2
286
     1
 66
     0
277
    -2
287
     1
 67
     0
278
    -2
288
     1
 68
     0
279
    -2
289
     1
 69
     0
  0
VISUALSTYLE
  5
B0F7
102
{ACAD_REACTORS
330
B0F1
102
}
330
B0F1
100
AcDbVisualStyle
  2
2dWireframe
 70
     4
 71
     0
 72
     2
 73
     0
 90
        0
 40
-0.6
 41
-30.0
 62
     5
 63
     7
 74
     1
 91
        4
 64
     7
 65
   257
 75
     1
175
     1
 42
1.0
 92
        0
 66
   257
 43
1.0
 76
     1
 77
     6
 78
     2
 67
     7
 79
     5
170
     0
171
     0
290
     0
174
     0
 93
        1
 44
0.0
173
     0
291
     0
 45
0.0
1001
ACAD
1000
AcDbSavedByObjectVersion
1070
     0
  0
VISUALSTYLE
  5
B0F9
102
{ACAD_REACTORS
330
B0F1
102
}
330
B0F1
100
AcDbVisualStyle
  2
3D Hidden
 70
     6
 71
     1
 72
     2
 73
     2
 90
        0
 40
-0.6
 41
-30.0
 62
     5
 63
     7
 74
     2
 91
        2
 64
     7
 65
   257
 75
     2
175
     1
 42
40.0
 92
        0
 66
   257
 43
1.0
 76
     1
 77
     6
 78
     2
 67
     7
 79
     3
170
     0
171
     0
290
     0
174
     0
 93
        1
 44
0.0
173
     0
291
     0
 45
0.0
1001
ACAD
1000
AcDbSavedByObjectVersion
1070
     0
  0
VISUALSTYLE
  5
B0F8
102
{ACAD_REACTORS
330
B0F1
102
}
330
B0F1
100
AcDbVisualStyle
  2
3dWireframe
 70
     5
 71
     0
 72
     2
 73
     0
 90
        0
 40
-0.6
 41
-30.0
 62
     5
 63
     7
 74
     1
 91
        4
 64
     7
 65
   257
 75
     1
175
     1
 42
1.0
 92
        0
 66
   257
 43
1.0
 76
     1
 77
     6
 78
     2
 67
     7
 79
     5
170
     0
171
     0
290
     0
174
     0
 93
        1
 44
0.0
173
     0
291
     0
 45
0.0
1001
ACAD
1000
AcDbSavedByObjectVersion
1070
     0
  0
VISUALSTYLE
  5
B0F6
102
{ACAD_REACTORS
330
B0F1
102
}
330
B0F1
100
AcDbVisualStyle
  2
Basic
 70
     7
 71
     1
 72
     0
 73
     1
 90
        0
 40
-0.6
 41
-30.0
 62
     5
 63
     7
 74
     0
 91
        4
 64
     7
 65
   257
 75
     1
175
     1
 42
1.0
 92
        8
 66
     7
 43
1.0
 76
     1
 77
     6
 78
     2
 67
     7
 79
     5
170
     0
171
     0
290
     0
174
     0
 93
        1
 44
0.0
173
     0
291
     1
 45
0.0
1001
ACAD
1000
AcDbSavedByObjectVersion
1070
     0
  0
VISUALSTYLE
  5
B0FD
102
{ACAD_REACTORS
330
B0F1
102
}
330
B0F1
100
AcDbVisualStyle
  2
Brighten
 70
    12
 71
     2
 72
     2
 73
     0
 90
        0
 40
-0.6
 41
-30.0
 62
     5
 63
     7
 74
     1
 91
        4
 64
     7
 65
   257
 75
     1
175
     1
 42
1.0
 92
        8
 66
     7
 43
1.0
 76
     1
 77
     6
 78
     2
 67
     7
 79
     5
170
     0
171
     0
290
     0
174
     0
 93
        1
 44
50.0
173
     0
291
     1
 45
0.0
1001
ACAD
1000
AcDbSavedByObjectVersion
1070
     0
  0
VISUALSTYLE
  5
B101
102
{ACAD_REACTORS
330
B0F1
102
}
330
B0F1
100
AcDbVisualStyle
  2
ColorChange
 70
    16
 71
     2
 72
     2
 73
     3
 90
        0
 40
-0.6
 41
-30.0
 62
     5
 63
     8
 74
     1
 91
        4
 64
     7
 65
   257
 75
     1
175
     1
 42
1.0
 92
        8
 66
     8
 43
1.0
 76
     1
 77
     6
 78
     2
 67
     7
 79
     5
170
     0
171
     0
290
     0
174
     0
 93
        1
 44
0.0
173
     0
291
     1
 45
0.0
1001
ACAD
1000
AcDbSavedByObjectVersion
1070
     0
  0
VISUALSTYLE
  5
B0FA
102
{ACAD_REACTORS
330
B0F1
102
}
330
B0F1
100
AcDbVisualStyle
  2
Conceptual
 70
     9
 71
     3
 72
     2
 73
     0
 90
        0
 40
-0.6
 41
-30.0
 62
     5
 63
     7
 74
     2
 91
        2
 64
     7
 65
   257
 75
     1
175
     1
 42
40.0
 92
        8
 66
     7
 43
1.0
 76
     1
 77
     6
 78
     2
 67
     7
 79
     3
170
     0
171
     0
290
     0
174
     0
 93
        1
 44
0.0
173
     0
291
     0
 45
0.0
1001
ACAD
1000
AcDbSavedByObjectVersion
1070
     0
  0
VISUALSTYLE
  5
B0FC
102
{ACAD_REACTORS
330
B0F1
102
}
330
B0F1
100
AcDbVisualStyle
  2
Dim
 70
    11
 71
     2
 72
     2
 73
     0
 90
        0
 40
-0.6
 41
-30.0
 62
     5
 63
     7
 74
     1
 91
        4
 64
     7
 65
   257
 75
     1
175
     1
 42
1.0
 92
        8
 66
     7
 43
1.0
 76
     1
 77
     6
 78
     2
 67
     7
 79
     5
170
     0
171
     0
290
     0
174
     0
 93
        1
 44
-50.0
173
     0
291
     1
 45
0.0
1001
ACAD
1000
AcDbSavedByObjectVersion
1070
     0
  0
VISUALSTYLE
  5
B100
102
{ACAD_REACTORS
330
B0F1
102
}
330
B0F1
100
AcDbVisualStyle
  2
Facepattern
 70
    15
 71
     2
 72
     2
 73
     0
 90
        0
 40
-0.6
 41
-30.0
 62
     5
 63
     7
 74
     1
 91
        4
 64
     7
 65
   257
 75
     1
175
     1
 42
1.0
 92
        8
 66
     7
 43
1.0
 76
     1
 77
     6
 78
     2
 67
     7
 79
     5
170
     0
171
     0
290
     0
174
     0
 93
        1
 44
0.0
173
     0
291
     1
 45
0.0
1001
ACAD
1000
AcDbSavedByObjectVersion
1070
     0
  0
VISUALSTYLE
  5
B0F2
102
{ACAD_REACTORS
330
B0F1
102
}
330
B0F1
100
AcDbVisualStyle
  2
Flat
 70
     0
 71
     2
 72
     1
 73
     1
 90
        2
 40
-0.6
 41
30.0
 62
     5
 63
     7
 74
     0
 91
        4
 64
     7
 65
   257
 75
     1
175
     1
 42
1.0
 92
        8
 66
     7
 43
1.0
 76
     1
 77
     6
 78
     2
 67
     7
 79
     5
170
     0
171
     0
290
     0
174
     0
 93
       13
 44
0.0
173
     0
291
     1
 45
0.0
1001
ACAD
1000
AcDbSavedByObjectVersion
1070
     0
  0
VISUALSTYLE
  5
B0F3
102
{ACAD_REACTORS
330
B0F1
102
}
330
B0F1
100
AcDbVisualStyle
  2
FlatWithEdges
 70
     1
 71
     2
 72
     1
 73
     1
 90
        2
 40
-0.6
 41
30.0
 62
     5
 63
     7
 74
     1
 91
        4
 64
     7
 65
   257
 75
     1
175
     1
 42
1.0
 92
        0
 66
   257
 43
1.0
 76
     1
 77
     6
 78
     2
 67
     7
 79
     5
170
     0
171
     0
290
     0
174
     0
 93
       13
 44
0.0
173
     0
291
     1
 45
0.0
1001
ACAD
1000
AcDbSavedByObjectVersion
1070
     0
  0
VISUALSTYLE
  5
B0F4
102
{ACAD_REACTORS
330
B0F1
102
}
330
B0F1
100
AcDbVisualStyle
  2
Gouraud
 70
     2
 71
     2
 72
     2
 73
     1
 90
        2
 40
-0.6
 41
30.0
 62
     5
 63
     7
 74
     0
 91
        4
 64
     7
 65
   257
 75
     1
175
     1
 42
1.0
 92
        0
 66
     7
 43
1.0
 76
     1
 77
     6
 78
     2
 67
     7
 79
     5
170
     0
171
     0
290
     0
174
     0
 93
       13
 44
0.0
173
     0
291
     1
 45
0.0
1001
ACAD
1000
AcDbSavedByObjectVersion
1070
     0
  0
VISUALSTYLE
  5
B0F5
102
{ACAD_REACTORS
330
B0F1
102
}
330
B0F1
100
AcDbVisualStyle
  2
GouraudWithEdges
 70
     3
 71
     2
 72
     2
 73
     1
 90
        2
 40
-0.6
 41
30.0
 62
     5
 63
     7
 74
     1
 91
        4
 64
     7
 65
   257
 75
     1
175
     1
 42
1.0
 92
        0
 66
   257
 43
1.0
 76
     1
 77
     6
 78
     2
 67
     7
 79
     5
170
     0
171
     0
290
     0
174
     0
 93
       13
 44
0.0
173
     0
291
     1
 45
0.0
1001
ACAD
1000
AcDbSavedByObjectVersion
1070
     0
  0
VISUALSTYLE
  5
B0FF
102
{ACAD_REACTORS
330
B0F1
102
}
330
B0F1
100
AcDbVisualStyle
  2
Linepattern
 70
    14
 71
     2
 72
     2
 73
     0
 90
        0
 40
-0.6
 41
-30.0
 62
     5
 63
     7
 74
     1
 91
        4
 64
     7
 65
   257
 75
     7
175
     7
 42
1.0
 92
        8
 66
     7
 43
1.0
 76
     1
 77
     6
 78
     2
 67
     7
 79
     5
170
     0
171
     0
290
     0
174
     0
 93
        1
 44
0.0
173
     0
291
     1
 45
0.0
1001
ACAD
1000
AcDbSavedByObjectVersion
1070
     0
  0
VISUALSTYLE
  5
B0FB
102
{ACAD_REACTORS
330
B0F1
102
}
330
B0F1
100
AcDbVisualStyle
  2
Realistic
 70
     8
 71
     2
 72
     2
 73
     0
 90
        0
 40
-0.6
 41
-30.0
 62
     5
 63
     7
 74
     1
 91
        0
 64
     7
 65
   257
 75
     1
175
     1
 42
1.0
 92
        8
 66
     8
 43
1.0
 76
     1
 77
     6
 78
     2
 67
     7
 79
     5
170
     0
171
     0
290
     0
174
     0
 93
       13
 44
0.0
173
     0
291
     0
 45
0.0
1001
ACAD
1000
AcDbSavedByObjectVersion
1070
     0
  0
VISUALSTYLE
  5
B0FE
102
{ACAD_REACTORS
330
B0F1
102
}
330
B0F1
100
AcDbVisualStyle
  2
Thicken
 70
    13
 71
     2
 72
     2
 73
     0
 90
        0
 40
-0.6
 41
-30.0
 62
     5
 63
     7
 74
     1
 91
        4
 64
     7
 65
   257
 75
     1
175
     1
 42
1.0
 92
       12
 66
     7
 43
1.0
 76
     1
 77
     6
 78
     2
 67
     7
 79
     5
170
     0
171
     0
290
     0
174
     0
 93
        1
 44
0.0
173
     0
291
     1
 45
0.0
1001
ACAD
1000
AcDbSavedByObjectVersion
1070
     0
  0
DICTIONARYVAR
  5
AAF3
102
{ACAD_REACTORS
330
34
102
}
330
34
100
DictionaryVariables
280
     0
  1
STANDARD
  0
DICTIONARYVAR
  5
A10C
102
{ACAD_REACTORS
330
34
102
}
330
34
100
DictionaryVariables
280
     0
  1
1
  0
DICTIONARYVAR
  5
AB07
102
{ACAD_REACTORS
330
34
102
}
330
34
100
DictionaryVariables
280
     0
  1
4
  0
DICTIONARYVAR
  5
35
102
{ACAD_REACTORS
330
34
102
}
330
34
100
DictionaryVariables
280
     0
  1
0
  0
DICTIONARYVAR
  5
194C
102
{ACAD_REACTORS
330
34
102
}
330
34
100
DictionaryVariables
280
     0
  1
96
  0
DICTIONARY
  5
7E8
102
{ACAD_REACTORS
330
47
102
}
330
47
100
AcDbDictionary
281
     1
  0
DICTIONARY
  5
4C
102
{ACAD_REACTORS
330
47
102
}
330
47
100
AcDbDictionary
281
     1
  0
XRECORD
  5
A929
102
{ACAD_REACTORS
330
47
102
}
330
47
100
AcDbXrecord
280
     1
 90
-1023410169
  0
XRECORD
  5
B332
102
{ACAD_REACTORS
330
B331
102
}
330
B331
100
AcDbXrecord
280
     1
  0
XRECORD
  5
3FB7
102
{ACAD_REACTORS
330
3F96
102
}
330
3F96
100
AcDbXrecord
280
     1
 91
        3
330
0
 90
        8
 62
     7
370
    40
331
16
  1
Color_7
330
0
 90
        0
 62
    14
370
    -3
331
16
  1
Color_14
330
0
 90
        8
 62
     7
370
    20
331
16
  1
Color_7
330
6D1
 90
        0
 62
     7
370
    -3
331
16
  1
Color_7
330
0
 90
        8
 62
     7
370
    50
331
16
  1
Color_7
330
0
 90
        8
 62
     2
370
    35
331
16
  1
Color_2
330
0
 90
        8
 62
     7
370
    -3
331
16
  1
Color_7
330
10
 90
        8
 62
     7
370
    -3
331
16
  1
Color_7
  0
DICTIONARY
  5
CFAC
330
22
100
AcDbDictionary
280
     1
281
     1
  3
ACAD_XREC_ROUNDTRIP
360
CFAD
  0
DICTIONARY
  5
CFAA
330
1E
100
AcDbDictionary
280
     1
281
     1
  3
ACAD_XREC_ROUNDTRIP
360
CFAB
  0
DICTIONARY
  5
CFAE
330
26
100
AcDbDictionary
280
     1
281
     1
  3
ACAD_XREC_ROUNDTRIP
360
CFAF
  0
DICTIONARY
  5
CFB4
330
B0EF
100
AcDbDictionary
280
     1
281
     1
  3
ACAD_XREC_ROUNDTRIP
360
CFB5
  0
DICTIONARY
  5
CFB2
330
B0EE
100
AcDbDictionary
280
     1
281
     1
  3
ACAD_XREC_ROUNDTRIP
360
CFB3
  0
DICTIONARY
  5
CFB6
330
B0F0
100
AcDbDictionary
280
     1
281
     1
  3
ACAD_XREC_ROUNDTRIP
360
CFB7
  0
DICTIONARY
  5
CFB0
330
AABA
100
AcDbDictionary
280
     1
281
     1
  3
ACAD_XREC_ROUNDTRIP
360
CFB1
  0
XRECORD
  5
CFAD
102
{ACAD_REACTORS
330
CFAC
102
}
330
CFAC
100
AcDbXrecord
280
     1
102
SHADEPLOT
 70
     1
102
SHADEPLOTRESLEVEL
 70
     2
102
SHADEPLOTCUSTOMDPI
 70
   300
  0
XRECORD
  5
CFAB
102
{ACAD_REACTORS
330
CFAA
102
}
330
CFAA
100
AcDbXrecord
280
     1
102
SHADEPLOT
 70
     0
102
SHADEPLOTRESLEVEL
 70
     2
102
SHADEPLOTCUSTOMDPI
 70
   300
  0
XRECORD
  5
CFAF
102
{ACAD_REACTORS
330
CFAE
102
}
330
CFAE
100
AcDbXrecord
280
     1
102
SHADEPLOT
 70
     0
102
SHADEPLOTRESLEVEL
 70
     2
102
SHADEPLOTCUSTOMDPI
 70
   300
  0
XRECORD
  5
CFB5
102
{ACAD_REACTORS
330
CFB4
102
}
330
CFB4
100
AcDbXrecord
280
     1
102
MATERIAL
148
0.0
149
0.0
149
0.0
 93
        0
 94
       63
282
     0
 72
     1
 77
     1
171
     1
175
     1
179
     1
273
     0
  0
XRECORD
  5
CFB3
102
{ACAD_REACTORS
330
CFB2
102
}
330
CFB2
100
AcDbXrecord
280
     1
102
MATERIAL
148
0.0
149
0.0
149
0.0
 93
        0
 94
       63
282
     0
 72
     1
 77
     1
171
     1
175
     1
179
     1
273
     0
  0
XRECORD
  5
CFB7
102
{ACAD_REACTORS
330
CFB6
102
}
330
CFB6
100
AcDbXrecord
280
     1
102
MATERIAL
148
0.0
149
0.0
149
0.0
 93
        0
 94
       63
282
     0
 72
     1
 77
     1
171
     1
175
     1
179
     1
273
     0
  0
XRECORD
  5
CFB1
102
{ACAD_REACTORS
330
CFB0
102
}
330
CFB0
100
AcDbXrecord
280
     1
102
ACAD_ROUNDTRIP_PRE2007_TABLESTYLE
 90
        4
 91
        0
  1

 92
        4
 93
        0
  2

 94
        4
 95
        0
  3

  0
ENDSEC
  0
EOF
