  0
SECTION
  2
HEADER
  9
$ACADVER
  1
AC1015
  9
$ACADMAINTVER
 70
    20
  9
$DWGCODEPAGE
  3
ANSI_932
  9
$INSBASE
 10
0.0
 20
0.0
 30
0.0
  9
$EXTMIN
 10
0.0
 20
0.0
 30
0.0
  9
$EXTMAX
 10
296.969696969697
 20
210.0
 30
0.0
  9
$LIMMIN
 10
0.0
 20
0.0
  9
$LIMMAX
 10
420.0
 20
297.0
  9
$ORTHOMODE
 70
     0
  9
$REGENMODE
 70
     1
  9
$FILLMODE
 70
     1
  9
$QTEXTMODE
 70
     0
  9
$MIRRTEXT
 70
     0
  9
$LTSCALE
 40
1.0
  9
$ATTMODE
 70
     1
  9
$TEXTSIZE
 40
3.2
  9
$TRACEWID
 40
1.0
  9
$TEXTSTYLE
  7
STANDARD
  9
$CLAYER
  8
AM_0
  9
$CELTYPE
  6
ByLayer
  9
$CECOLOR
 62
   256
  9
$CELTSCALE
 40
10.0
  9
$DISPSILH
 70
     0
  9
$DIMSCALE
 40
1.0
  9
$DIMASZ
 40
1.0
  9
$DIMEXO
 40
1.0
  9
$DIMDLI
 40
10.0
  9
$DIMRND
 40
0.0
  9
$DIMDLE
 40
0.0
  9
$DIMEXE
 40
1.0
  9
$DIMTP
 40
0.1
  9
$DIMTM
 40
0.1
  9
$DIMTXT
 40
3.5
  9
$DIMCEN
 40
0.0
  9
$DIMTSZ
 40
0.0
  9
$DIMTOL
 70
     0
  9
$DIMLIM
 70
     0
  9
$DIMTIH
 70
     0
  9
$DIMTOH
 70
     0
  9
$DIMSE1
 70
     0
  9
$DIMSE2
 70
     0
  9
$DIMTAD
 70
     1
  9
$DIMZIN
 70
     8
  9
$DIMBLK
  1

  9
$DIMASO
 70
     1
  9
$DIMSHO
 70
     1
  9
$DIMPOST
  1

  9
$DIMAPOST
  1
"
  9
$DIMALT
 70
     0
  9
$DIMALTD
 70
     2
  9
$DIMALTF
 40
0.0393701
  9
$DIMLFAC
 40
1.0
  9
$DIMTOFL
 70
     1
  9
$DIMTVP
 40
0.0
  9
$DIMTIX
 70
     0
  9
$DIMSOXD
 70
     0
  9
$DIMSAH
 70
     0
  9
$DIMBLK1
  1

  9
$DIMBLK2
  1

  9
$DIMSTYLE
  2
SYS
  9
$DIMCLRD
 70
   256
  9
$DIMCLRE
 70
   256
  9
$DIMCLRT
 70
     7
  9
$DIMTFAC
 40
0.71
  9
$DIMGAP
 40
1.5
  9
$DIMJUST
 70
     0
  9
$DIMSD1
 70
     0
  9
$DIMSD2
 70
     0
  9
$DIMTOLJ
 70
     0
  9
$DIMTZIN
 70
     8
  9
$DIMALTZ
 70
     0
  9
$DIMALTTZ
 70
     0
  9
$DIMUPT
 70
     0
  9
$DIMDEC
 70
     2
  9
$DIMTDEC
 70
     2
  9
$DIMALTU
 70
     2
  9
$DIMALTTD
 70
     2
  9
$DIMTXSTY
  7
STANDARD
  9
$DIMAUNIT
 70
     0
  9
$DIMADEC
 70
     0
  9
$DIMALTRND
 40
0.0
  9
$DIMAZIN
 70
     2
  9
$DIMDSEP
 70
    46
  9
$DIMATFIT
 70
     3
  9
$DIMFRAC
 70
     0
  9
$DIMLDRBLK
  1

  9
$DIMLUNIT
 70
     2
  9
$DIMLWD
 70
    -1
  9
$DIMLWE
 70
    -1
  9
$DIMTMOVE
 70
     0
  9
$LUNITS
 70
     2
  9
$LUPREC
 70
     2
  9
$SKETCHINC
 40
1.0
  9
$FILLETRAD
 40
1.0
  9
$AUNITS
 70
     0
  9
$AUPREC
 70
     0
  9
$MENU
  1
.
  9
$ELEVATION
 40
0.0
  9
$PELEVATION
 40
0.0
  9
$THICKNESS
 40
0.0
  9
$LIMCHECK
 70
     0
  9
$CHAMFERA
 40
0.0
  9
$CHAMFERB
 40
0.0
  9
$CHAMFERC
 40
20.0
  9
$CHAMFERD
 40
0.0
  9
$SKPOLY
 70
     0
  9
$TDCREATE
 40
2454123.447246817
  9
$TDUCREATE
 40
2454123.072246817
  9
$TDUPDATE
 40
2455268.588999202
  9
$TDUUPDATE
 40
2455268.213999202
  9
$TDINDWG
 40
0.0671858912
  9
$TDUSRTIMER
 40
0.0671858912
  9
$USRTIMER
 70
     1
  9
$ANGBASE
 50
0.0
  9
$ANGDIR
 70
     0
  9
$PDMODE
 70
     0
  9
$PDSIZE
 40
-3.0
  9
$PLINEWID
 40
0.0
  9
$SPLFRAME
 70
     0
  9
$SPLINETYPE
 70
     6
  9
$SPLINESEGS
 70
     8
  9
$HANDSEED
  5
CB0A
  9
$SURFTAB1
 70
     6
  9
$SURFTAB2
 70
     6
  9
$SURFTYPE
 70
     6
  9
$SURFU
 70
     6
  9
$SURFV
 70
     6
  9
$UCSBASE
  2

  9
$UCSNAME
  2

  9
$UCSORG
 10
0.0
 20
0.0
 30
0.0
  9
$UCSXDIR
 10
1.0
 20
0.0
 30
0.0
  9
$UCSYDIR
 10
0.0
 20
1.0
 30
0.0
  9
$UCSORTHOREF
  2

  9
$UCSORTHOVIEW
 70
     0
  9
$UCSORGTOP
 10
0.0
 20
0.0
 30
0.0
  9
$UCSORGBOTTOM
 10
0.0
 20
0.0
 30
0.0
  9
$UCSORGLEFT
 10
0.0
 20
0.0
 30
0.0
  9
$UCSORGRIGHT
 10
0.0
 20
0.0
 30
0.0
  9
$UCSORGFRONT
 10
0.0
 20
0.0
 30
0.0
  9
$UCSORGBACK
 10
0.0
 20
0.0
 30
0.0
  9
$PUCSBASE
  2

  9
$PUCSNAME
  2

  9
$PUCSORG
 10
0.0
 20
0.0
 30
0.0
  9
$PUCSXDIR
 10
1.0
 20
0.0
 30
0.0
  9
$PUCSYDIR
 10
0.0
 20
1.0
 30
0.0
  9
$PUCSORTHOREF
  2

  9
$PUCSORTHOVIEW
 70
     0
  9
$PUCSORGTOP
 10
0.0
 20
0.0
 30
0.0
  9
$PUCSORGBOTTOM
 10
0.0
 20
0.0
 30
0.0
  9
$PUCSORGLEFT
 10
0.0
 20
0.0
 30
0.0
  9
$PUCSORGRIGHT
 10
0.0
 20
0.0
 30
0.0
  9
$PUCSORGFRONT
 10
0.0
 20
0.0
 30
0.0
  9
$PUCSORGBACK
 10
0.0
 20
0.0
 30
0.0
  9
$USERI1
 70
     0
  9
$USERI2
 70
     0
  9
$USERI3
 70
     0
  9
$USERI4
 70
     0
  9
$USERI5
 70
     0
  9
$USERR1
 40
0.0
  9
$USERR2
 40
0.0
  9
$USERR3
 40
0.0
  9
$USERR4
 40
0.0
  9
$USERR5
 40
0.0
  9
$WORLDVIEW
 70
     1
  9
$SHADEDGE
 70
     3
  9
$SHADEDIF
 70
    70
  9
$TILEMODE
 70
     1
  9
$MAXACTVP
 70
    64
  9
$PINSBASE
 10
0.0
 20
0.0
 30
0.0
  9
$PLIMCHECK
 70
     0
  9
$PEXTMIN
 10
1.000000000000000E+20
 20
1.000000000000000E+20
 30
1.000000000000000E+20
  9
$PEXTMAX
 10
-1.000000000000000E+20
 20
-1.000000000000000E+20
 30
-1.000000000000000E+20
  9
$PLIMMIN
 10
-3.17498779296875
 20
-3.174999952316284
  9
$PLIMMAX
 10
293.4970092773438
 20
206.692492723465
  9
$UNITMODE
 70
     0
  9
$VISRETAIN
 70
     1
  9
$PLINEGEN
 70
     0
  9
$PSLTSCALE
 70
     1
  9
$TREEDEPTH
 70
  3020
  9
$CMLSTYLE
  2
Standard
  9
$CMLJUST
 70
     0
  9
$CMLSCALE
 40
20.0
  9
$PROXYGRAPHICS
 70
     1
  9
$MEASUREMENT
 70
     1
  9
$CELWEIGHT
370
    -1
  9
$ENDCAPS
280
     0
  9
$JOINSTYLE
280
     0
  9
$LWDISPLAY
290
     0
  9
$INSUNITS
 70
     4
  9
$HYPERLINKBASE
  1

  9
$STYLESHEET
  1
monochrome.ctb
  9
$XEDIT
290
     1
  9
$CEPSNTYPE
380
     0
  9
$PSTYLEMODE
290
     1
  9
$FINGERPRINTGUID
  2
{85A85AB9-09C0-4C05-9FB8-B4F7807E4A17}
  9
$VERSIONGUID
  2
{D1430FF9-CE12-4F91-890F-8D04B820C0FA}
  9
$EXTNAMES
290
     1
  9
$PSVPSCALE
 40
0.0
  9
$OLESTARTUP
290
     0
  0
ENDSEC
  0
SECTION
  2
CLASSES
  0
CLASS
  1
ACDBDICTIONARYWDFLT
  2
AcDbDictionaryWithDefault
  3
ObjectDBX Classes
 90
        0
280
     0
281
     0
  0
CLASS
  1
ACDBPLACEHOLDER
  2
AcDbPlaceHolder
  3
ObjectDBX Classes
 90
        0
280
     0
281
     0
  0
CLASS
  1
LAYOUT
  2
AcDbLayout
  3
ObjectDBX Classes
 90
        0
280
     0
281
     0
  0
CLASS
  1
AMGSETTINGSOBJ
  2
AmgSettingsObj
  3
"AcadM|Product Description: AutoCAD Mechanical|Company: Autodesk"
 90
        0
280
     0
281
     0
  0
CLASS
  1
ACME_DOCUMENT
  2
AcMeDbDoc
  3
AcMeServices
 90
        0
280
     0
281
     0
  0
CLASS
  1
ACMESCOPE
  2
AcMeScope
  3
AcMeServices
 90
        0
280
     0
281
     0
  0
CLASS
  1
ACMECOMMANDHISTORY
  2
AcMeCommandHistory
  3
AcMeServices
 90
        0
280
     0
281
     0
  0
CLASS
  1
DICTIONARYVAR
  2
AcDbDictionaryVar
  3
ObjectDBX Classes
 90
        0
280
     0
281
     0
  0
CLASS
  1
ACIMSYSVARMAN
  2
AcImSysVarManager
  3
AcMeServices
 90
        0
280
     0
281
     0
  0
CLASS
  1
ACIMREALSYSVAR
  2
AcImRealSysVar
  3
AcMeServices
 90
        0
280
     0
281
     0
  0
CLASS
  1
ACIMINTSYSVAR
  2
AcImIntSysVar
  3
AcMeServices
 90
        0
280
     0
281
     0
  0
CLASS
  1
ACMEDRAWINGMAN
  2
AcMeDrawingMan
  3
AcMeServices
 90
        0
280
     0
281
     0
  0
CLASS
  1
ACMEVIEW
  2
AcMeView
  3
AcMeServices
 90
        0
280
     0
281
     0
  0
CLASS
  1
ACDBENTITYCACHE
  2
AcMeEntityCache
  3
AcMeServices
 90
        0
280
     0
281
     0
  0
CLASS
  1
GSMANAGER
  2
AcMeGSManager
  3
AcMeServices
 90
        0
280
     0
281
     0
  0
CLASS
  1
AMDTINTERNALREACTOR
  2
AmdtInternalReactor
  3
AcMeServices
 90
        0
280
     0
281
     0
  0
CLASS
  1
ACMESTATEMGR
  2
AcMeStateMgr
  3
AcMeServices
 90
        0
280
     0
281
     0
  0
CLASS
  1
ACGREFMASTER
  2
AcGrefMaster
  3
AcAttribServices
 90
        0
280
     0
281
     0
  0
CLASS
  1
ACME_DATABASE
  2
AcMeDbDatabase
  3
AcMeServices
 90
        0
280
     0
281
     0
  0
CLASS
  1
ACRFINSADJUSTERMGR
  2
AcRfInsAdjusterMgr
  3
AcMeServices
 90
        0
280
     0
281
     0
  0
CLASS
  1
ACGREFACADMASTER
  2
AcGrefacadMaster
  3
AcGrefServices
 90
        0
280
     0
281
     0
  0
CLASS
  1
AMIMASTER
  2
AmiMaster
  3
AmiServices
 90
        0
280
     0
281
     0
  0
CLASS
  1
ACMDATADICTIONARY
  2
AcmDataDictionary
  3
"AcmSymBB|Product Description: AutoCAD Mechanical|Company: Autodesk"
 90
        0
280
     0
281
     0
  0
CLASS
  1
ACMDATAENTRYBLOCK
  2
AcmDataEntryBlock
  3
"AcmSymBB|Product Description: AutoCAD Mechanical|Company: Autodesk"
 90
        0
280
     0
281
     0
  0
CLASS
  1
ACIMSTRSYSVAR
  2
AcImStrSysVar
  3
AcMeServices
 90
        0
280
     0
281
     0
  0
CLASS
  1
ACMSTANDARDISO
  2
AcmStandardISO
  3
"Amdt_StdImp|Product Description: AutoCAD Mechanical|Company: Autodesk"
 90
        0
280
     0
281
     0
  0
CLASS
  1
AMGOBJPROPCFG
  2
AmgObjPropCfg
  3
"AmgLay|Product Description: AutoCAD Mechanical|Company: Autodesk"
 90
        1
280
     0
281
     0
  0
CLASS
  1
AMDTEDGESTANDARDISO
  2
AmdtEdgeStdISO
  3
"Amdt_StdImp|Product Description: AutoCAD Mechanical|Company: Autodesk"
 90
        0
280
     0
281
     0
  0
CLASS
  1
ACMSURFSTANDARDISO
  2
AcmSurfTextStdISO
  3
"Amdt_StdImp|Product Description: AutoCAD Mechanical|Company: Autodesk"
 90
        0
280
     0
281
     0
  0
CLASS
  1
ACMFCFSTANDARDISO
  2
AcmFCFStdISO
  3
"Amdt_StdImp|Product Description: AutoCAD Mechanical|Company: Autodesk"
 90
        0
280
     0
281
     0
  0
CLASS
  1
ACMWELDSTANDARDISO
  2
AcmWeldingStdISO
  3
"Amdt_StdImp|Product Description: AutoCAD Mechanical|Company: Autodesk"
 90
        0
280
     0
281
     0
  0
CLASS
  1
ACMIDSTANDARDISO
  2
AcmIdStdISO
  3
"Amdt_StdImp|Product Description: AutoCAD Mechanical|Company: Autodesk"
 90
        0
280
     0
281
     0
  0
CLASS
  1
ACMDATUMSTANDARDISO
  2
AcmDatumStdISO
  3
"Amdt_StdImp|Product Description: AutoCAD Mechanical|Company: Autodesk"
 90
        0
280
     0
281
     0
  0
CLASS
  1
ACMBOMSTANDARDISO
  2
AcmBOMStdISO
  3
"Amdt_StdImp|Product Description: AutoCAD Mechanical|Company: Autodesk"
 90
        0
280
     0
281
     0
  0
CLASS
  1
ACMDETAILSTANDARDISO
  2
AmdtDetailSymStdISO
  3
"Amdt_StdImp|Product Description: AutoCAD Mechanical|Company: Autodesk"
 90
        0
280
     0
281
     0
  0
CLASS
  1
ACMSECTIONSTANDARDISO
  2
AmdtSectionSymStdISO
  3
"Amdt_StdImp|Product Description: AutoCAD Mechanical|Company: Autodesk"
 90
        0
280
     0
281
     0
  0
CLASS
  1
ACMCENTERLINESTANDARDISO
  2
AmdtCenterLineStdISO
  3
"Amdt_StdImp|Product Description: AutoCAD Mechanical|Company: Autodesk"
 90
        0
280
     0
281
     0
  0
CLASS
  1
ACAMGLAYSTD
  2
AcAmgLayStd
  3
"AmgLay|Product Description: AutoCAD Mechanical|Company: Autodesk"
 90
        0
280
     0
281
     0
  0
CLASS
  1
ACAMGDIMSTD
  2
AcAmgDimStd
  3
"AmgDim|Product Description: AutoCAD Mechanical|Company: Autodesk"
 90
        0
280
     0
281
     0
  0
CLASS
  1
ACAMGTITLESTD
  2
AcAmgTitleStd
  3
"AmgTitle|Product Description: AutoCAD Mechanical|Company: Autodesk"
 90
        0
280
     0
281
     0
  0
CLASS
  1
ACAMGFILTERDAT
  2
AcAmgFilterDat
  3
"AcadM|Product Description: AutoCAD Mechanical|Company: Autodesk"
 90
        0
280
     0
281
     0
  0
CLASS
  1
LAYER_INDEX
  2
AcDbLayerIndex
  3
ObjectDBX Classes
 90
    32768
280
     0
281
     0
  0
CLASS
  1
IDBUFFER
  2
AcDbIdBuffer
  3
ObjectDBX Classes
 90
    32768
280
     0
281
     0
  0
CLASS
  1
PLOTSETTINGS
  2
AcDbPlotSettings
  3
ObjectDBX Classes
 90
        0
280
     0
281
     0
  0
CLASS
  1
AMDTFORMULAUPDATEDISPATCHER
  2
AmdtFormulaUpdateDispatcher
  3
AcMeServices
 90
        0
280
     0
281
     0
  0
CLASS
  1
ACMSTANDARDANSI
  2
AcmStandardANSI
  3
"Amdt_StdImp|Product Description: AutoCAD Mechanical|Company: Autodesk"
 90
        0
280
     0
281
     0
  0
CLASS
  1
ACMSURFSTANDARDANSI
  2
AcmSurfTextStdANSI
  3
"Amdt_StdImp|Product Description: AutoCAD Mechanical|Company: Autodesk"
 90
        0
280
     0
281
     0
  0
CLASS
  1
ACMFCFSTANDARDANSI
  2
AcmFCFStdANSI
  3
"Amdt_StdImp|Product Description: AutoCAD Mechanical|Company: Autodesk"
 90
        0
280
     0
281
     0
  0
CLASS
  1
ACMWELDSTANDARDANSI
  2
AcmWeldingStdANSI
  3
"Amdt_StdImp|Product Description: AutoCAD Mechanical|Company: Autodesk"
 90
        0
280
     0
281
     0
  0
CLASS
  1
ACMIDSTANDARDANSI
  2
AcmIdStdANSI
  3
"Amdt_StdImp|Product Description: AutoCAD Mechanical|Company: Autodesk"
 90
        0
280
     0
281
     0
  0
CLASS
  1
ACMDATUMSTANDARDANSI
  2
AcmDatumStdANSI
  3
"Amdt_StdImp|Product Description: AutoCAD Mechanical|Company: Autodesk"
 90
        0
280
     0
281
     0
  0
CLASS
  1
ACMBOMSTANDARDANSI
  2
AcmBOMStdANSI
  3
"Amdt_StdImp|Product Description: AutoCAD Mechanical|Company: Autodesk"
 90
        0
280
     0
281
     0
  0
CLASS
  1
ACMDETAILSTANDARDANSI
  2
AmdtDetailSymStdANSI
  3
"Amdt_StdImp|Product Description: AutoCAD Mechanical|Company: Autodesk"
 90
        0
280
     0
281
     0
  0
CLASS
  1
ACMSECTIONSTANDARDANSI
  2
AmdtSectionSymStdANSI
  3
"Amdt_StdImp|Product Description: AutoCAD Mechanical|Company: Autodesk"
 90
        0
280
     0
281
     0
  0
CLASS
  1
ACMCENTERLINESTANDARDANSI
  2
AmdtCenterLineStdANSI
  3
"Amdt_StdImp|Product Description: AutoCAD Mechanical|Company: Autodesk"
 90
        0
280
     0
281
     0
  0
CLASS
  1
ACMBOM
  2
AcmBom
  3
"AcmSymBB|Product Description: AutoCAD Mechanical|Company: Autodesk"
 90
        0
280
     0
281
     0
  0
CLASS
  1
ACMDATAENTRYPART
  2
AcmDataEntryPart
  3
"AcmSymBB|Product Description: AutoCAD Mechanical|Company: Autodesk"
 90
    32768
280
     0
281
     0
  0
CLASS
  1
ACMPARTREF
  2
AcmPartRef
  3
"AcmSymBB|Product Description: AutoCAD Mechanical|Company: Autodesk"
 90
    35839
280
     0
281
     1
  0
CLASS
  1
ACDBCIRCARCRES
  2
AcDbCircArcRes
  3
AcGrefServices
 90
    32768
280
     0
281
     0
  0
CLASS
  1
ACMBOMROW
  2
AcmBomRow
  3
"AcmSymBB|Product Description: AutoCAD Mechanical|Company: Autodesk"
 90
    32768
280
     0
281
     0
  0
CLASS
  1
ACMBALLOON
  2
AcmBalloon
  3
"AcmSymBB|Product Description: AutoCAD Mechanical|Company: Autodesk"
 90
    35839
280
     0
281
     1
  0
CLASS
  1
AMDTNOTE
  2
AmdtNote
  3
"AcmSymBB|Product Description: AutoCAD Mechanical|Company: Autodesk"
 90
     3071
280
     0
281
     1
  0
CLASS
  1
STDPART2D
  2
AmgStdPart
  3
"AmgStdPart|Product Description: AutoCAD Mechanical|Company: Autodesk"
 90
    35839
280
     0
281
     1
  0
CLASS
  1
ACDBSTDPARTRES_LINE
  2
AcDbStdPartRes_Line
  3
"AmgStdPart|Product Description: AutoCAD Mechanical|Company: Autodesk"
 90
    32768
280
     0
281
     0
  0
CLASS
  1
ACMDATAENTRY
  2
AcmDataEntry
  3
"AcmSymBB|Product Description: AutoCAD Mechanical|Company: Autodesk"
 90
        0
280
     0
281
     0
  0
CLASS
  1
ACDBOPPOLYLINERES
  2
AcDbOpPolylineRes
  3
AcGrefServices
 90
    32768
280
     0
281
     0
  0
CLASS
  1
ACMPARTLIST
  2
AcmPartList
  3
"AcmSymBB|Product Description: AutoCAD Mechanical|Company: Autodesk"
 90
    35839
280
     0
281
     1
  0
CLASS
  1
ACDBLINERES
  2
AcDbLineRes
  3
AcGrefServices
 90
    32768
280
     0
281
     0
  0
CLASS
  1
ACRFINSADJ
  2
AcRfInsAdjuster
  3
AcMeServices
 90
    32768
280
     0
281
     0
  0
CLASS
  1
AM_DRAWING_MGR
  2
AcDmDwgMgr
  3
AcMechDwgViewMgmt
 90
        0
280
     0
281
     0
  0
CLASS
  1
AM_DWG_DOCUMENT
  2
AcDmDwgDocument
  3
AcMechDwgViewMgmt
 90
        0
280
     0
281
     0
  0
CLASS
  1
AM_DWG_SHEET
  2
AcDmSheet
  3
AcMechDwgViewMgmt
 90
        0
280
     0
281
     0
  0
CLASS
  1
AM_VIEWDIMPARMAP
  2
AcDmViewDimParMap
  3
AcMechDwgViewMgmt
 90
        0
280
     0
281
     0
  0
CLASS
  1
AM_DWGMGR_NAME
  2
AcDmDwgMgrName
  3
AcMechDwgViewMgmt
 90
        0
280
     0
281
     0
  0
CLASS
  1
AMDTMENUSTATEMGR
  2
AmdtMenuStateMgr
  3
McadcomServices
 90
        0
280
     0
281
     0
  0
CLASS
  1
AMDTMCOMMENUSTATE
  2
AmdtMcomMenuState
  3
McadcomServices
 90
        0
280
     0
281
     0
  0
CLASS
  1
ASAPP
  2
AcAsAppObject
  3
AutoSurfServices
 90
        0
280
     0
281
     0
  0
CLASS
  1
IM_STATIC_MAN
  2
AcImStaticVarManager
  3
AcMeServices
 90
        0
280
     0
281
     0
  0
CLASS
  1
ACIMDBLSTATICVAR
  2
AcImDblStaticVar
  3
AcMeServices
 90
        0
280
     0
281
     0
  0
CLASS
  1
ACIMSTRSTATICVAR
  2
AcImStrStaticVar
  3
AcMeServices
 90
        0
280
     0
281
     0
  0
CLASS
  1
ACIMINTSTATICVAR
  2
AcImIntStaticVar
  3
AcMeServices
 90
        0
280
     0
281
     0
  0
CLASS
  1
ACASGREFMASTER
  2
AcAsGrefMaster
  3
AutoSurfResolverServices
 90
        0
280
     0
281
     0
  0
CLASS
  1
ACADGREFMODULE
  2
AcAdGrefModule
  3
AdGrefServices
 90
        0
280
     0
281
     0
  0
CLASS
  1
AMDTMAPISURFMOUDULE
  2
AmdtMApiSurfModule
  3
MApiSurfServices
 90
        0
280
     0
281
     0
  0
CLASS
  1
MAPIAMMOUDLE
  2
MApiAmModule
  3
MApiAmServices
 90
        0
280
     0
281
     0
  0
CLASS
  1
AMDTADMENUSTATE
  2
AmdtAdMenuState
  3
DesignerServices
 90
        0
280
     0
281
     0
  0
CLASS
  1
ADAPPL
  2
AcAdAppl
  3
DesignerServices
 90
        0
280
     0
281
     0
  0
CLASS
  1
DEPMGR
  2
AcAdDepMgr
  3
DesignerServices
 90
        0
280
     0
281
     0
  0
CLASS
  1
PARAMMGR
  2
AcAdParamMgr
  3
DesignerServices
 90
        0
280
     0
281
     0
  0
CLASS
  1
PARAMSCOPE
  2
AcAdParamScope
  3
DesignerServices
 90
        0
280
     0
281
     0
  0
CLASS
  1
NAMEDAPPL
  2
AcAdNamedAppl
  3
DesignerServices
 90
        0
280
     0
281
     0
  0
CLASS
  1
ADHNTMPLT
  2
AdHoleNoteTemplateMgr
  3
DesignerServices
 90
    32768
280
     0
281
     0
  0
CLASS
  1
AM_HNTEMPLATE_MGR_NAME
  2
AdHoleNoteTemplateMgrName
  3
DesignerServices
 90
    32768
280
     0
281
     0
  0
CLASS
  1
AMDTDMMENUSTATE
  2
AmdtDmMenuState
  3
AcMechDwgViewMgmt
 90
        0
280
     0
281
     0
  0
CLASS
  1
MAPIADMODULE
  2
MApiAdModule
  3
MApiAdServices
 90
        0
280
     0
281
     0
  0
CLASS
  1
AMDTAMMENUSTATE
  2
AmdtAmMenuState
  3
DesignerAssemblies
 90
        0
280
     0
281
     0
  0
CLASS
  1
ACAMPROJECT
  2
AcAmProject
  3
DesignerAssemblies
 90
        0
280
     0
281
     0
  0
CLASS
  1
ACAMGRCOMPDEF
  2
AcAmGrCompDef
  3
DesignerAssemblies
 90
        0
280
     0
281
     0
  0
CLASS
  1
ACCMCONTEXT
  2
AcCmContext
  3
DesignerAssemblies
 90
        0
280
     0
281
     0
  0
CLASS
  1
ACAMCOMPDEF
  2
AcAmCompDef
  3
DesignerAssemblies
 90
        0
280
     0
281
     0
  0
CLASS
  1
ACAMCOMPDEFMGR
  2
AcAmCompDefMgr
  3
DesignerAssemblies
 90
        0
280
     0
281
     0
  0
CLASS
  1
AMCONTEXTMGR
  2
AcAmContextMgr
  3
DesignerAssemblies
 90
        0
280
     0
281
     0
  0
CLASS
  1
ACAMCONTEXTMODELER
  2
AcAmContextModeler
  3
DesignerAssemblies
 90
        0
280
     0
281
     0
  0
CLASS
  1
CATALOGSTATE
  2
AcAmCatalogState
  3
DesignerAssemblies
 90
        0
280
     0
281
     0
  0
CLASS
  1
ACAMGRCOMPDEFSET
  2
AcAmGrCompDefSet
  3
DesignerAssemblies
 90
        0
280
     0
281
     0
  0
CLASS
  1
AMDTBROWSERDBTAB
  2
AmdtBrowserDbTab
  3
McadcomServices
 90
        0
280
     0
281
     0
  0
CLASS
  1
CBROWSERAPPOBJECT
  2
CBrowserAppObject
  3
McadcomServices
 90
        0
280
     0
281
     0
  0
CLASS
  1
DM_PLACEHOLDER
  2
AcDmSelsetPlaceholder
  3
AcMechDwgViewMgmt
 90
        0
280
     0
281
     0
  0
CLASS
  1
ACMPICKOBJ
  2
AcmPickEnt
  3
"AcmSymBB|Product Description: AutoCAD Mechanical|Company: Autodesk"
 90
    32768
280
     0
281
     1
  0
CLASS
  1
ACMNOTESTANDARDISO
  2
AmdtNoteStdISO
  3
"Amdt_StdImp|Product Description: AutoCAD Mechanical|Company: Autodesk"
 90
        0
280
     0
281
     0
  0
CLASS
  1
ACMNOTESTANDARDANSI
  2
AmdtNoteStdANSI
  3
"Amdt_StdImp|Product Description: AutoCAD Mechanical|Company: Autodesk"
 90
        0
280
     0
281
     0
  0
CLASS
  1
ACMTHREADLINESTANDARDISO
  2
AmdtThreadLineStdISO
  3
"Amdt_StdImp|Product Description: AutoCAD Mechanical|Company: Autodesk"
 90
        0
280
     0
281
     0
  0
CLASS
  1
ACMTHREADLINESTANDARDANSI
  2
AmdtThreadLineStdANSI
  3
"Amdt_StdImp|Product Description: AutoCAD Mechanical|Company: Autodesk"
 90
        0
280
     0
281
     0
  0
CLASS
  1
TABLESTYLE
  2
AcDbTableStyle
  3
ObjectDBX Classes
 90
     4095
280
     0
281
     0
  0
CLASS
  1
AMDTNOTETEMPLATEDB
  2
AmdtNoteTemplateDB
  3
AMDT_STDIMP_MODULE_NAME
 90
        0
280
     0
281
     0
  0
CLASS
  1
ACAMGHOLECHARTSTDANSI
  2
AcAmgHoleChartStdANSI
  3
ACMSYMBB_MODULE_NAME
 90
        0
280
     0
281
     0
  0
CLASS
  1
SORTENTSTABLE
  2
AcDbSortentsTable
  3
ObjectDBX Classes
 90
        0
280
     0
281
     0
  0
CLASS
  1
MATERIAL
  2
AcDbMaterial
  3
ObjectDBX Classes
 90
     1153
280
     0
281
     0
  0
CLASS
  1
VISUALSTYLE
  2
AcDbVisualStyle
  3
ObjectDBX Classes
 90
     4095
280
     0
281
     0
  0
CLASS
  1
ACRFATTGENMGR
  2
AcRfAttGeneralMgr
  3
AcAttribServices
 90
        0
280
     0
281
     0
  0
CLASS
  1
ACRFOBJATTMGR
  2
AcRfObjAttGroupMgr
  3
AcAttribServices
 90
        0
280
     0
281
     0
  0
CLASS
  1
ACRFMCADAPIATTHOLDER
  2
AcRfMCADAPIAttHolder
  3
AcAttribServices
 90
        0
280
     0
281
     0
  0
CLASS
  1
AMDTSYSATTR
  2
AmdtSystemAttribute
  3
AcAttribServices
 90
        0
280
     0
281
     0
  0
CLASS
  1
ACMTAPERSTANDARDISO
  2
AcmTaperStdISO
  3
"Amdt_StdImp|Product Description: AutoCAD Mechanical|Company: Autodesk"
 90
        0
280
     0
281
     0
  0
CLASS
  1
ACMTAPERSTANDARDANSI
  2
AcmTaperStdANSI
  3
"Amdt_StdImp|Product Description: AutoCAD Mechanical|Company: Autodesk"
 90
        0
280
     0
281
     0
  0
CLASS
  1
CAMSSTRUCTBTNSTATE
  2
StructBtnState
  3
L"DesignerAssemblies"
 90
        0
280
     0
281
     0
  0
ENDSEC
  0
SECTION
  2
TABLES
  0
TABLE
  2
VPORT
  5
8
330
0
100
AcDbSymbolTable
 70
     1
  0
VPORT
  5
B43F
330
8
100
AcDbSymbolTableRecord
100
AcDbViewportTableRecord
  2
*Active
 70
     0
 10
0.0
 20
0.0
 11
1.0
 21
1.0
 12
148.4985633018196
 22
104.9915943815355
 13
0.0
 23
0.0
 14
2.5
 24
2.5
 15
10.0
 25
10.0
 16
0.0
 26
0.0
 36
1.0
 17
0.0
 27
0.0
 37
0.0
 40
218.4465238683459
 41
1.365634365634365
 42
50.0
 43
-1370.695619172058
 44
-1370.695619172058
 50
0.0
 51
0.0
 71
    16
 72
   100
 73
     1
 74
     3
 75
     0
 76
     0
 77
     0
 78
     0
281
     0
 65
     0
110
0.0
120
0.0
130
0.0
111
1.0
121
0.0
131
0.0
112
0.0
122
1.0
132
0.0
 79
     0
146
0.0
  0
ENDTAB
  0
TABLE
  2
LTYPE
  5
5
330
0
100
AcDbSymbolTable
 70
    22
  0
LTYPE
  5
14
330
5
100
AcDbSymbolTableRecord
100
AcDbLinetypeTableRecord
  2
ByBlock
 70
     0
  3

 72
    65
 73
     0
 40
0.0
  0
LTYPE
  5
15
330
5
100
AcDbSymbolTableRecord
100
AcDbLinetypeTableRecord
  2
ByLayer
 70
     0
  3

 72
    65
 73
     0
 40
0.0
  0
LTYPE
  5
16
330
5
100
AcDbSymbolTableRecord
100
AcDbLinetypeTableRecord
  2
Continuous
 70
     0
  3
Solid line
 72
    65
 73
     0
 40
0.0
  0
LTYPE
  5
4F
330
5
100
AcDbSymbolTableRecord
100
AcDbLinetypeTableRecord
  2
AM_ISO02W050
 70
     0
  3
__ __ __ __ __ __ __ __ __ __ __ __ __ __ __
 72
    65
 73
     2
 40
7.5
 49
6.0
 74
     0
 49
-1.5
 74
     0
  0
LTYPE
  5
52
330
5
100
AcDbSymbolTableRecord
100
AcDbLinetypeTableRecord
  2
Amconstr
 70
     0
  3
_______________________
 72
    65
 73
     2
 40
9999.0
 49
9999.0
 74
     0
 49
0.0
 74
     0
  0
LTYPE
  5
64
330
5
100
AcDbSymbolTableRecord
100
AcDbLinetypeTableRecord
  2
ACISOWELD
 70
     0
  3
_ _ _ _ _
 72
    65
 73
     2
 40
2.0
 49
2.0
 74
     0
 49
-1.0
 74
     0
  0
LTYPE
  5
65
330
5
100
AcDbSymbolTableRecord
100
AcDbLinetypeTableRecord
  2
ACISOTGB
 70
     0
  3
__ . . __ . .
 72
    65
 73
     6
 40
9.0
 49
4.0
 74
     0
 49
-1.0
 74
     0
 49
1.0
 74
     0
 49
-1.0
 74
     0
 49
1.0
 74
     0
 49
-1.0
 74
     0
  0
LTYPE
  5
66
330
5
100
AcDbSymbolTableRecord
100
AcDbLinetypeTableRecord
  2
ACISOTGL
 70
     0
  3
_ _ _ _ _
 72
    65
 73
     2
 40
3.0
 49
2.0
 74
     0
 49
-1.0
 74
     0
  0
LTYPE
  5
69
330
5
100
AcDbSymbolTableRecord
100
AcDbLinetypeTableRecord
  2
CENTER
 70
     0
  3
__ . __
 72
    65
 73
     4
 40
7.0
 49
4.0
 74
     0
 49
-1.0
 74
     0
 49
1.0
 74
     0
 49
-1.0
 74
     0
  0
LTYPE
  5
A6E
330
5
100
AcDbSymbolTableRecord
100
AcDbLinetypeTableRecord
  2
PHANTOM2
 70
     0
  3
Phantom (.5x) ___ _ _ ___ _ _ ___ _ _ ___ _ _
 72
    65
 73
     6
 40
31.75
 49
15.875
 74
     0
 49
-3.174999999999999
 74
     0
 49
3.174999999999999
 74
     0
 49
-3.174999999999999
 74
     0
 49
3.174999999999999
 74
     0
 49
-3.174999999999999
 74
     0
  0
LTYPE
  5
4DED
330
5
100
AcDbSymbolTableRecord
100
AcDbLinetypeTableRecord
  2
中線
 70
     0
  3
___________________
 72
    65
 73
     2
 40
2.0
 49
1.0
 74
     0
 49
1.0
 74
     0
  0
LTYPE
  5
4DF6
330
5
100
AcDbSymbolTableRecord
100
AcDbLinetypeTableRecord
  2
細線
 70
     0
  3
___________________
 72
    65
 73
     2
 40
2.0
 49
1.0
 74
     0
 49
1.0
 74
     0
  0
LTYPE
  5
4DF7
330
5
100
AcDbSymbolTableRecord
100
AcDbLinetypeTableRecord
  2
太線
 70
     0
  3
___________________
 72
    65
 73
     2
 40
2.0
 49
1.0
 74
     0
 49
1.0
 74
     0
  0
LTYPE
  5
4EA7
330
5
100
AcDbSymbolTableRecord
100
AcDbLinetypeTableRecord
  2
文字
 70
     0
  3
_________________
 72
    65
 73
     2
 40
2.0
 49
1.0
 74
     0
 49
1.0
 74
     0
  0
LTYPE
  5
4EA9
330
5
100
AcDbSymbolTableRecord
100
AcDbLinetypeTableRecord
  2
寸法線
 70
     0
  3
________________
 72
    65
 73
     2
 40
2.0
 49
1.0
 74
     0
 49
1.0
 74
     0
  0
LTYPE
  5
4F12
330
5
100
AcDbSymbolTableRecord
100
AcDbLinetypeTableRecord
  2
ハッチング
 70
     0
  3
_________________
 72
    65
 73
     2
 40
2.0
 49
1.0
 74
     0
 49
1.0
 74
     0
  0
LTYPE
  5
5180
330
5
100
AcDbSymbolTableRecord
100
AcDbLinetypeTableRecord
  2
陰線1
 70
     0
  3
__ __ __ __
 72
    65
 73
     2
 40
4.0
 49
2.2
 74
     0
 49
-1.8
 74
     0
  0
LTYPE
  5
5182
330
5
100
AcDbSymbolTableRecord
100
AcDbLinetypeTableRecord
  2
切断線
 70
     0
  3
/\/-/\/-/\/-/\/-/\/-/\/
 72
    65
 73
     2
 40
11.0001
 49
0.0001
 74
     4
 75
   135
340
56
 46
0.04
 50
0.0
 44
0.0
 45
0.0
 49
-11.0
 74
     0
  0
LTYPE
  5
5183
330
5
100
AcDbSymbolTableRecord
100
AcDbLinetypeTableRecord
  2
想像線1
 70
     0
  3
__ __ __ _____ __ __ ____
 72
    65
 73
     6
 40
14.5
 49
6.0
 74
     0
 49
-1.5
 74
     0
 49
2.0
 74
     0
 49
-1.5
 74
     0
 49
2.0
 74
     0
 49
-1.5
 74
     0
  0
LTYPE
  5
5185
330
5
100
AcDbSymbolTableRecord
100
AcDbLinetypeTableRecord
  2
中心線1
 70
     0
  3
___ _ ___ _ ___
 72
    65
 73
     4
 40
18.0
 49
12.0
 74
     0
 49
-2.0
 74
     0
 49
2.0
 74
     0
 49
-2.0
 74
     0
  0
LTYPE
  5
5188
330
5
100
AcDbSymbolTableRecord
100
AcDbLinetypeTableRecord
  2
補助線
 70
     0
  3
______________
 72
    65
 73
     2
 40
2.0
 49
1.0
 74
     0
 49
1.0
 74
     0
  0
LTYPE
  5
6427
330
5
100
AcDbSymbolTableRecord
100
AcDbLinetypeTableRecord
  2
HIDDEN
 70
     0
  3
Hidden __ __ __ __ __ __ __ __ __ __ __ __ __ _
 72
    65
 73
     2
 40
0.375
 49
0.25
 74
     0
 49
-0.125
 74
     0
  0
LTYPE
  5
AF65
330
5
100
AcDbSymbolTableRecord
100
AcDbLinetypeTableRecord
  2
ACANSTGB
 70
     0
  3
__ . . __ . .
 72
    65
 73
     6
 40
0.35433070866
 49
0.15748031496
 74
     0
 49
-0.03937007874
 74
     0
 49
0.03937007874
 74
     0
 49
-0.03937007874
 74
     0
 49
0.03937007874
 74
     0
 49
-0.03937007874
 74
     0
  0
LTYPE
  5
AF66
330
5
100
AcDbSymbolTableRecord
100
AcDbLinetypeTableRecord
  2
ACANSTGL
 70
     0
  3
_ _ _ _ _
 72
    65
 73
     2
 40
0.11811023622
 49
0.07874015748
 74
     0
 49
-0.03937007874
 74
     0
  0
ENDTAB
  0
TABLE
  2
LAYER
  5
2
102
{ACAD_XDICTIONARY
360
3F95
102
}
330
0
100
AcDbSymbolTable
 70
     9
  0
LAYER
  5
10
330
2
100
AcDbSymbolTableRecord
100
AcDbLayerTableRecord
  2
0
 70
     0
 62
     7
  6
Continuous
370
    -3
390
F
  0
LAYER
  5
6D1
330
2
100
AcDbSymbolTableRecord
100
AcDbLayerTableRecord
  2
Defpoints
 70
     0
 62
     7
  6
Continuous
290
     0
370
    -3
390
F
  0
LAYER
  5
5F85
330
2
100
AcDbSymbolTableRecord
100
AcDbLayerTableRecord
  2
AM_0
 70
     0
 62
     7
  6
中線
370
    30
390
F
  0
LAYER
  5
AC9F
330
2
100
AcDbSymbolTableRecord
100
AcDbLayerTableRecord
  2
size
 70
     0
 62
     5
  6
Continuous
290
     0
370
    30
390
F
  0
LAYER
  5
ACA0
330
2
100
AcDbSymbolTableRecord
100
AcDbLayerTableRecord
  2
waku
 70
     0
 62
     7
  6
Continuous
370
    40
390
F
  0
LAYER
  5
ACA1
330
2
100
AcDbSymbolTableRecord
100
AcDbLayerTableRecord
  2
AM_6
 70
     0
 62
     2
  6
文字
370
    20
390
F
  0
LAYER
  5
AD64
330
2
100
AcDbSymbolTableRecord
100
AcDbLayerTableRecord
  2
AM_2
 70
     0
 62
     1
  6
細線
370
    20
390
F
1001
AcAecLayerStandard
1000

1000

  0
LAYER
  5
AD68
330
2
100
AcDbSymbolTableRecord
100
AcDbLayerTableRecord
  2
AM_5
 70
     0
 62
     3
  6
寸法線
370
    20
390
F
1001
AcAecLayerStandard
1000

1000

  0
LAYER
  5
AD69
330
2
100
AcDbSymbolTableRecord
100
AcDbLayerTableRecord
  2
AM_7
 70
     0
 62
     4
  6
中心線1
370
    20
390
F
1001
AcAecLayerStandard
1000

1000

  0
ENDTAB
  0
TABLE
  2
STYLE
  5
3
330
0
100
AcDbSymbolTable
 70
     7
  0
STYLE
  5
11
330
3
100
AcDbSymbolTableRecord
100
AcDbTextStyleTableRecord
  2
STANDARD
 70
     0
 40
0.0
 41
0.7
 50
0.0
 71
     0
 42
3.2
  3
romans.shx
  4
extfont.shx
  0
STYLE
  5
56
330
3
100
AcDbSymbolTableRecord
100
AcDbTextStyleTableRecord
  2

 70
     1
 40
0.0
 41
1.0
 50
0.0
 71
     0
 42
2.5
  3
ltypeshp.shx
  4

  0
STYLE
  5
58
330
3
100
AcDbSymbolTableRecord
100
AcDbTextStyleTableRecord
  2
ACISOTS
 70
     0
 40
1.0
 41
1.0
 50
0.0
 71
     0
 42
2.5
  3
isocp.shx
  4
extfont.shx
  0
STYLE
  5
63
330
3
100
AcDbSymbolTableRecord
100
AcDbTextStyleTableRecord
  2
ACISOGDT
 70
     0
 40
0.0
 41
1.0
 50
0.0
 71
     0
 42
2.5
  3
amgdt.shx
  4

  0
STYLE
  5
A74
330
3
100
AcDbSymbolTableRecord
100
AcDbTextStyleTableRecord
  2
DIM
 70
     0
 40
0.0
 41
1.0
 50
0.0
 71
     0
 42
2.5
  3
monotxt.shx
  4
extfont.shx
  0
STYLE
  5
AF67
330
3
100
AcDbSymbolTableRecord
100
AcDbTextStyleTableRecord
  2
ACANSTS
 70
     0
 40
1.0
 41
1.0
 50
0.0
 71
     0
 42
3.2
  3
romans.shx
  4
extfont.shx
  0
STYLE
  5
AF68
330
3
100
AcDbSymbolTableRecord
100
AcDbTextStyleTableRecord
  2
ACANSGDT
 70
     0
 40
0.0
 41
1.0
 50
0.0
 71
     0
 42
3.2
  3
AMGDT
  4

  0
ENDTAB
  0
TABLE
  2
VIEW
  5
6
330
0
100
AcDbSymbolTable
 70
     6
  0
VIEW
  5
AE1
330
6
100
AcDbSymbolTableRecord
100
AcDbViewTableRecord
  2
AM_VIEW1
 70
     0
 40
149.3945509586276
 10
105.0
 20
222.3027245206862
 41
210.0
 11
0.0
 21
0.0
 31
1.0
 12
0.0
 22
0.0
 32
0.0
 42
50.0
 43
-1370.695619172058
 44
-1370.695619172058
 50
0.0
 71
    16
281
     0
 72
     0
  0
VIEW
  5
AE2
330
6
100
AcDbSymbolTableRecord
100
AcDbViewTableRecord
  2
AM_VIEW2
 70
     0
 40
149.3945509586276
 10
315.0
 20
222.3027245206862
 41
210.0
 11
0.0
 21
0.0
 31
1.0
 12
0.0
 22
0.0
 32
0.0
 42
50.0
 43
-1370.695619172058
 44
-1370.695619172058
 50
0.0
 71
    16
281
     0
 72
     0
  0
VIEW
  5
AE3
330
6
100
AcDbSymbolTableRecord
100
AcDbViewTableRecord
  2
AM_VIEW3
 70
     0
 40
149.3945509586276
 10
105.0
 20
74.69727547931383
 41
210.0
 11
0.0
 21
0.0
 31
1.0
 12
0.0
 22
0.0
 32
0.0
 42
50.0
 43
-1370.695619172058
 44
-1370.695619172058
 50
0.0
 71
    16
281
     0
 72
     0
  0
VIEW
  5
AE4
330
6
100
AcDbSymbolTableRecord
100
AcDbViewTableRecord
  2
AM_VIEW4
 70
     0
 40
149.3945509586276
 10
315.0
 20
74.69727547931383
 41
210.0
 11
0.0
 21
0.0
 31
1.0
 12
0.0
 22
0.0
 32
0.0
 42
50.0
 43
-1370.695619172058
 44
-1370.695619172058
 50
0.0
 71
    16
281
     0
 72
     0
  0
VIEW
  5
AE5
330
6
100
AcDbSymbolTableRecord
100
AcDbViewTableRecord
  2
AM_VIEW5
 70
     0
 40
149.3945509586276
 10
210.0
 20
148.5
 41
210.0
 11
0.0
 21
0.0
 31
1.0
 12
0.0
 22
0.0
 32
0.0
 42
50.0
 43
-1370.695619172058
 44
-1370.695619172058
 50
0.0
 71
    16
281
     0
 72
     0
  0
VIEW
  5
AE6
330
6
100
AcDbSymbolTableRecord
100
AcDbViewTableRecord
  2
AM_VIEW6
 70
     0
 40
298.7861140262362
 10
210.0
 20
148.5
 41
419.9958
 11
0.0
 21
0.0
 31
1.0
 12
0.0
 22
0.0
 32
0.0
 42
50.0
 43
-1370.695619172058
 44
-1370.695619172058
 50
0.0
 71
    16
281
     0
 72
     0
  0
ENDTAB
  0
TABLE
  2
UCS
  5
7
330
0
100
AcDbSymbolTable
 70
     0
  0
ENDTAB
  0
TABLE
  2
APPID
  5
9
330
0
100
AcDbSymbolTable
 70
    54
  0
APPID
  5
12
330
9
100
AcDbSymbolTableRecord
100
AcDbRegAppTableRecord
  2
ACAD
 70
     0
  0
APPID
  5
30
330
9
100
AcDbSymbolTableRecord
100
AcDbRegAppTableRecord
  2
MCAD_NO_VIS
 70
     0
  0
APPID
  5
31
330
9
100
AcDbSymbolTableRecord
100
AcDbRegAppTableRecord
  2
ACAD_TEMP_GRAPHIC
 70
     0
  0
APPID
  5
44
330
9
100
AcDbSymbolTableRecord
100
AcDbRegAppTableRecord
  2
ACATTRIBSERVICES
 70
     0
  0
APPID
  5
7A1
330
9
100
AcDbSymbolTableRecord
100
AcDbRegAppTableRecord
  2
GENIUS_GENDIMSH_14
 70
     0
  0
APPID
  5
A49
330
9
100
AcDbSymbolTableRecord
100
AcDbRegAppTableRecord
  2
GENIUS_GENREC_14
 70
     0
  0
APPID
  5
A4A
330
9
100
AcDbSymbolTableRecord
100
AcDbRegAppTableRecord
  2
GENIUS_GENOBJ-N-REC_13
 70
     0
  0
APPID
  5
A4B
330
9
100
AcDbSymbolTableRecord
100
AcDbRegAppTableRecord
  2
GENIUS_GENODEF_13
 70
     0
  0
APPID
  5
A4C
330
9
100
AcDbSymbolTableRecord
100
AcDbRegAppTableRecord
  2
DCO15
 70
     0
  0
APPID
  5
ADC
330
9
100
AcDbSymbolTableRecord
100
AcDbRegAppTableRecord
  2
GENIUS_GENOLIS_13
 70
     0
  0
APPID
  5
ADD
330
9
100
AcDbSymbolTableRecord
100
AcDbRegAppTableRecord
  2
GENIUS_GENOENT_13
 70
     0
  0
APPID
  5
ADE
330
9
100
AcDbSymbolTableRecord
100
AcDbRegAppTableRecord
  2
GENIUS_GENOBJ-N-TIT_13
 70
     0
  0
APPID
  5
ADF
330
9
100
AcDbSymbolTableRecord
100
AcDbRegAppTableRecord
  2
GENIUS_GENTITLE_13
 70
     0
  0
APPID
  5
AE0
330
9
100
AcDbSymbolTableRecord
100
AcDbRegAppTableRecord
  2
GENIUS_GENOREF_13
 70
     0
  0
APPID
  5
AE7
330
9
100
AcDbSymbolTableRecord
100
AcDbRegAppTableRecord
  2
GENIUS_GENSCREG_15
 70
     0
  0
APPID
  5
AE8
330
9
100
AcDbSymbolTableRecord
100
AcDbRegAppTableRecord
  2
GENIUS_GENOBJ-N-SDF_13
 70
     0
  0
APPID
  5
FAF
330
9
100
AcDbSymbolTableRecord
100
AcDbRegAppTableRecord
  2
GENIUS_GENBLLY_14
 70
     0
  0
APPID
  5
FB0
330
9
100
AcDbSymbolTableRecord
100
AcDbRegAppTableRecord
  2
GENIUS_GENTRA_14
 70
     0
  0
APPID
  5
1285
330
9
100
AcDbSymbolTableRecord
100
AcDbRegAppTableRecord
  2
GENIUS_GENDTOL_13
 70
     0
  0
APPID
  5
142D
330
9
100
AcDbSymbolTableRecord
100
AcDbRegAppTableRecord
  2
GENIUS_GENOBJ-N-CEN_13
 70
     0
  0
APPID
  5
1AB5
330
9
100
AcDbSymbolTableRecord
100
AcDbRegAppTableRecord
  2
GENIUS_GENOBJ-N-CRS_13
 70
     0
  0
APPID
  5
1B36
330
9
100
AcDbSymbolTableRecord
100
AcDbRegAppTableRecord
  2
GENIUS_GENOBJ-N-HTC_13
 70
     0
  0
APPID
  5
1B37
330
9
100
AcDbSymbolTableRecord
100
AcDbRegAppTableRecord
  2
GENIUS_GENHATCH_13
 70
     0
  0
APPID
  5
216D
330
9
100
AcDbSymbolTableRecord
100
AcDbRegAppTableRecord
  2
GENIUS_GENOBJ-N-FIL_13
 70
     0
  0
APPID
  5
2356
330
9
100
AcDbSymbolTableRecord
100
AcDbRegAppTableRecord
  2
GEVID990412420
 70
     0
  0
APPID
  5
2357
330
9
100
AcDbSymbolTableRecord
100
AcDbRegAppTableRecord
  2
GEVDC
 70
     0
  0
APPID
  5
2358
330
9
100
AcDbSymbolTableRecord
100
AcDbRegAppTableRecord
  2
GEVCON
 70
     0
  0
APPID
  5
235B
330
9
100
AcDbSymbolTableRecord
100
AcDbRegAppTableRecord
  2
GEVRADREF
 70
     0
  0
APPID
  5
2360
330
9
100
AcDbSymbolTableRecord
100
AcDbRegAppTableRecord
  2
GENIUS_GENBH_13
 70
     0
  0
APPID
  5
2362
330
9
100
AcDbSymbolTableRecord
100
AcDbRegAppTableRecord
  2
GENIUS_GENOBJ-NBEHI-BHF_13
 70
     0
  0
APPID
  5
2364
330
9
100
AcDbSymbolTableRecord
100
AcDbRegAppTableRecord
  2
GENIUS_GENOBJ-NBEHI-BHB_13
 70
     0
  0
APPID
  5
2379
330
9
100
AcDbSymbolTableRecord
100
AcDbRegAppTableRecord
  2
GENIUS_GENOBJ-F-SCPASSM_13
 70
     0
  0
APPID
  5
3D74
330
9
100
AcDbSymbolTableRecord
100
AcDbRegAppTableRecord
  2
GENIUS_GENDIM_13
 70
     0
  0
APPID
  5
3D76
330
9
100
AcDbSymbolTableRecord
100
AcDbRegAppTableRecord
  2
GENIUS_GE3DTOL_13
 70
     0
  0
APPID
  5
3D9C
330
9
100
AcDbSymbolTableRecord
100
AcDbRegAppTableRecord
  2
AD_DRAW
 70
     0
  0
APPID
  5
3DE8
330
9
100
AcDbSymbolTableRecord
100
AcDbRegAppTableRecord
  2
ASURF_PCURVE_APPNAME
 70
     0
  0
APPID
  5
3DED
330
9
100
AcDbSymbolTableRecord
100
AcDbRegAppTableRecord
  2
AMG_3D2D_5.0
 70
     0
  0
APPID
  5
3E1B
330
9
100
AcDbSymbolTableRecord
100
AcDbRegAppTableRecord
  2
DESIGNERASSEMBLIES
 70
     0
  0
APPID
  5
3E20
330
9
100
AcDbSymbolTableRecord
100
AcDbRegAppTableRecord
  2
ACADM_DIM_EDIT
 70
     0
  0
APPID
  5
3E21
330
9
100
AcDbSymbolTableRecord
100
AcDbRegAppTableRecord
  2
AMDT_DM_ADJ
 70
     0
  0
APPID
  5
4143
330
9
100
AcDbSymbolTableRecord
100
AcDbRegAppTableRecord
  2
GENIUS_GENFIL_13
 70
     0
  0
APPID
  5
4144
330
9
100
AcDbSymbolTableRecord
100
AcDbRegAppTableRecord
  2
GENIUS_GENOBJ-N-CHA_13
 70
     0
  0
APPID
  5
4E17
330
9
100
AcDbSymbolTableRecord
100
AcDbRegAppTableRecord
  2
GEVID1008153417
 70
     0
  0
APPID
  5
4E58
330
9
100
AcDbSymbolTableRecord
100
AcDbRegAppTableRecord
  2
GEVID1008153418
 70
     0
  0
APPID
  5
4E5E
330
9
100
AcDbSymbolTableRecord
100
AcDbRegAppTableRecord
  2
GEVID1008153419
 70
     0
  0
APPID
  5
4E64
330
9
100
AcDbSymbolTableRecord
100
AcDbRegAppTableRecord
  2
GEVID1008153420
 70
     0
  0
APPID
  5
4E75
330
9
100
AcDbSymbolTableRecord
100
AcDbRegAppTableRecord
  2
GEVID1008153421
 70
     0
  0
APPID
  5
4EB7
330
9
100
AcDbSymbolTableRecord
100
AcDbRegAppTableRecord
  2
GENIUS_AMGTXT_16
 70
     0
  0
APPID
  5
7645
330
9
100
AcDbSymbolTableRecord
100
AcDbRegAppTableRecord
  2
GENIUS_GENOBJ-N-DIM_13
 70
     0
  0
APPID
  5
AAD0
330
9
100
AcDbSymbolTableRecord
100
AcDbRegAppTableRecord
  2
ACAD_DSTYLE_DIMARC_LENGTH_SYMBOL
 70
     0
  0
APPID
  5
AAD1
330
9
100
AcDbSymbolTableRecord
100
AcDbRegAppTableRecord
  2
ACAD_DSTYLE_DIMJOGGED_JOGANGLE_SYMBOL
 70
     0
  0
APPID
  5
AAFD
330
9
100
AcDbSymbolTableRecord
100
AcDbRegAppTableRecord
  2
ACAD_PSEXT
 70
     0
  0
APPID
  5
AD61
330
9
100
AcDbSymbolTableRecord
100
AcDbRegAppTableRecord
  2
AcAecLayerStandard
 70
     0
  0
APPID
  5
BB4D
330
9
100
AcDbSymbolTableRecord
100
AcDbRegAppTableRecord
  2
ACAD_EXEMPT_FROM_CAD_STANDARDS
 70
     0
  0
ENDTAB
  0
TABLE
  2
DIMSTYLE
  5
A
330
0
100
AcDbSymbolTable
 70
    16
100
AcDbDimStyleTable
 71
     1
340
2515
  0
DIMSTYLE
105
A76
330
A
100
AcDbSymbolTableRecord
100
AcDbDimStyleTableRecord
  2
STANDARD
 70
     0
 41
3.0
 42
1.0
 43
7.0
 44
2.0
 73
     0
 74
     0
 77
     1
140
2.799999999999999
141
0.0
143
0.0394
147
0.7
171
     4
172
     1
173
     1
176
     3
177
     3
178
     2
271
     3
272
     3
273
     8
274
     4
289
     0
340
A74
341
A66
343
A66
344
A66
  0
DIMSTYLE
105
2515
330
A
100
AcDbSymbolTableRecord
100
AcDbDimStyleTableRecord
  2
SYS
 70
     0
  4
"
 41
1.0
 42
1.0
 43
10.0
 44
1.0
 47
0.1
 48
0.1
 73
     0
 74
     0
 77
     1
 78
     8
 79
     2
140
3.5
141
0.0
143
0.0393701
146
0.71
147
1.5
172
     1
176
   256
177
   256
178
     7
271
     2
272
     2
283
     0
284
     8
340
11
371
    -1
372
    -1
1001
ACAD_DSTYLE_DIMJOGGED_JOGANGLE_SYMBOL
1070
   384
1040
0.7853981633974483
1001
ACAD_DSTYLE_DIMARC_LENGTH_SYMBOL
1070
   379
1070
     1
  0
DIMSTYLE
105
2516
330
A
100
AcDbSymbolTableRecord
100
AcDbDimStyleTableRecord
  2
SYS$3
 70
     0
  4
"
 41
2.0
 42
1.0
 43
10.0
 44
1.0
 47
0.1
 48
0.1
 73
     0
 77
     1
 78
     8
 79
     2
140
3.5
141
0.0
143
0.0393701
146
0.71
147
1.5
176
   256
177
   256
178
     2
271
     2
272
     2
283
     0
284
     8
288
     1
340
11
342
A66
371
    -1
372
    -1
1001
ACAD_DSTYLE_DIMJOGGED_JOGANGLE_SYMBOL
1070
   384
1040
0.7853981633974483
1001
ACAD_DSTYLE_DIMARC_LENGTH_SYMBOL
1070
   379
1070
     1
  0
DIMSTYLE
105
2517
330
A
100
AcDbSymbolTableRecord
100
AcDbDimStyleTableRecord
  2
SYS$4
 70
     0
  4
"
 41
2.0
 42
1.0
 43
10.0
 44
1.0
 47
0.1
 48
0.1
 73
     0
 77
     1
 78
     8
 79
     2
140
3.5
141
0.0
143
0.0393701
146
0.71
147
1.5
173
     1
176
   256
177
   256
178
     2
271
     2
272
     2
283
     0
284
     8
288
     1
340
11
344
A66
371
    -1
372
    -1
1001
ACAD_DSTYLE_DIMJOGGED_JOGANGLE_SYMBOL
1070
   384
1040
0.7853981633974483
1001
ACAD_DSTYLE_DIMARC_LENGTH_SYMBOL
1070
   379
1070
     1
  0
DIMSTYLE
105
2518
330
A
100
AcDbSymbolTableRecord
100
AcDbDimStyleTableRecord
  2
SYS$6
 70
     0
  4
"
 41
2.0
 42
1.0
 43
10.0
 44
1.0
 47
0.1
 48
0.1
 73
     0
 74
     0
 78
     8
 79
     2
140
3.5
141
0.0
143
0.0393701
146
0.71
147
1.5
172
     1
176
   256
177
   256
178
     2
271
     2
272
     2
283
     0
284
     8
340
11
341
A66
371
    -1
372
    -1
1001
ACAD_DSTYLE_DIMJOGGED_JOGANGLE_SYMBOL
1070
   384
1040
0.7853981633974483
1001
ACAD_DSTYLE_DIMARC_LENGTH_SYMBOL
1070
   379
1070
     1
  0
DIMSTYLE
105
2519
330
A
100
AcDbSymbolTableRecord
100
AcDbDimStyleTableRecord
  2
SYS$7
 70
     0
  4
"
 41
2.0
 42
1.0
 43
10.0
 44
1.0
 47
0.1
 48
0.1
 73
     0
 74
     0
 77
     1
 78
     8
 79
     2
140
5.0
141
0.0
143
0.0393701
146
0.71
147
1.5
172
     1
176
   256
177
   256
178
     2
271
     2
272
     2
283
     0
284
     8
340
11
341
A66
342
A66
371
    -1
372
    -1
1001
ACAD_DSTYLE_DIMJOGGED_JOGANGLE_SYMBOL
1070
   384
1040
0.7853981633974483
1001
ACAD_DSTYLE_DIMARC_LENGTH_SYMBOL
1070
   379
1070
     1
  0
DIMSTYLE
105
251A
330
A
100
AcDbSymbolTableRecord
100
AcDbDimStyleTableRecord
  2
SYS$SF
 70
     0
  4
"
 41
2.5
 42
1.0
 43
10.0
 44
1.0
 47
0.1
 48
0.1
 73
     0
 74
     0
 75
     1
 76
     1
 77
     1
 78
     8
 79
     2
140
3.5
141
0.0
143
0.0393701
146
0.71
147
1.5
172
     1
176
   256
177
   256
178
     2
271
     2
272
     3
283
     0
284
     8
340
11
341
6C4
342
6C4
371
    -1
372
    -1
1001
ACAD_DSTYLE_DIMJOGGED_JOGANGLE_SYMBOL
1070
   384
1040
0.7853981633974483
1001
ACAD_DSTYLE_DIMARC_LENGTH_SYMBOL
1070
   379
1070
     1
  0
DIMSTYLE
105
251B
330
A
100
AcDbSymbolTableRecord
100
AcDbDimStyleTableRecord
  2
SYS$SH
 70
     0
  4
"
 41
2.5
 42
1.0
 43
10.0
 44
1.0
 47
0.1
 48
0.1
 73
     0
 74
     0
 75
     1
 76
     1
 77
     1
 78
     8
 79
     2
140
3.5
141
0.0
143
0.0393701
144
2.0
146
0.71
147
1.5
172
     1
173
     1
176
   256
177
   256
178
     2
271
     2
272
     3
283
     0
284
     8
340
11
341
6C4
343
72
344
6C4
371
    -1
372
    -1
1001
ACAD_DSTYLE_DIMJOGGED_JOGANGLE_SYMBOL
1070
   384
1040
0.7853981633974483
1001
ACAD_DSTYLE_DIMARC_LENGTH_SYMBOL
1070
   379
1070
     1
  0
DIMSTYLE
105
2A59
330
A
100
AcDbSymbolTableRecord
100
AcDbDimStyleTableRecord
  2
SYS$2
 70
     0
  4
"
 41
1.0
 42
1.0
 43
10.0
 44
1.0
 47
0.1
 48
0.1
 73
     0
 74
     0
 77
     1
 78
     8
 79
     2
140
3.5
141
0.0
143
0.0393701
146
0.71
147
1.5
172
     1
176
   256
177
   256
178
     2
271
     2
272
     2
283
     0
284
     8
340
11
342
6C4
371
    -1
372
    -1
1001
ACAD_DSTYLE_DIMJOGGED_JOGANGLE_SYMBOL
1070
   384
1040
0.7853981633974483
1001
ACAD_DSTYLE_DIMARC_LENGTH_SYMBOL
1070
   379
1070
     1
  0
DIMSTYLE
105
2AAB
102
{ACAD_REACTORS
330
CA1A
330
CA1B
330
CA1C
330
CA1D
330
CA1E
330
CA1F
330
CA8A
102
}
330
A
100
AcDbSymbolTableRecord
100
AcDbDimStyleTableRecord
  2
SYS$0
 70
     0
  4
"
 41
1.0
 42
1.0
 43
10.0
 44
1.0
 47
0.1
 48
0.1
 73
     0
 74
     0
 77
     1
 78
     8
 79
     2
140
3.200000000000001
141
0.0
143
0.0393701
146
0.71
147
1.5
172
     1
176
   256
177
   256
178
     2
271
     2
272
     2
283
     0
284
     8
340
11
341
A66
342
6C4
371
    -1
372
    -1
1001
ACAD_DSTYLE_DIMJOGGED_JOGANGLE_SYMBOL
1070
   384
1040
0.7853981633974483
1001
ACAD_DSTYLE_DIMARC_LENGTH_SYMBOL
1070
   379
1070
     1
  0
DIMSTYLE
105
AF6A
330
A
100
AcDbSymbolTableRecord
100
AcDbDimStyleTableRecord
  2
AM_ANSI
 70
     0
  4
mm
 41
0.1
 42
0.05
 43
0.5
 44
0.1
 47
0.1
 48
0.1
 78
     7
 79
     2
140
0.12
141
0.0
146
0.71
147
0.06
176
   256
177
   256
178
     2
274
     4
284
     7
340
11
371
    -1
372
    -1
1001
ACAD_DSTYLE_DIMJOGGED_JOGANGLE_SYMBOL
1070
   384
1040
0.7853981633974483
1001
ACAD_DSTYLE_DIMARC_LENGTH_SYMBOL
1070
   379
1070
     1
  0
DIMSTYLE
105
AF6B
330
A
100
AcDbSymbolTableRecord
100
AcDbDimStyleTableRecord
  2
AM_ANSI$3
 70
     0
  4
mm
 41
0.1
 42
0.05
 43
0.5
 44
0.1
 47
0.1
 48
0.1
 78
     7
 79
     2
140
0.12
141
0.0
146
0.71
147
0.06
176
   256
177
   256
178
     2
274
     4
284
     7
288
     1
289
     0
340
11
371
    -1
372
    -1
1001
ACAD_DSTYLE_DIMJOGGED_JOGANGLE_SYMBOL
1070
   384
1040
0.7853981633974483
1001
ACAD_DSTYLE_DIMARC_LENGTH_SYMBOL
1070
   379
1070
     1
  0
DIMSTYLE
105
AF6C
330
A
100
AcDbSymbolTableRecord
100
AcDbDimStyleTableRecord
  2
AM_ANSI$4
 70
     0
  4
mm
 41
0.1
 42
0.05
 43
0.5
 44
0.1
 47
0.1
 48
0.1
 78
     7
 79
     2
140
0.12
141
0.0
146
0.71
147
0.06
176
   256
177
   256
178
     2
274
     4
284
     7
288
     1
289
     0
340
11
371
    -1
372
    -1
1001
ACAD_DSTYLE_DIMJOGGED_JOGANGLE_SYMBOL
1070
   384
1040
0.7853981633974483
1001
ACAD_DSTYLE_DIMARC_LENGTH_SYMBOL
1070
   379
1070
     1
  0
DIMSTYLE
105
AF6D
330
A
100
AcDbSymbolTableRecord
100
AcDbDimStyleTableRecord
  2
AM_ANSI$7
 70
     0
  4
mm
 41
0.1
 42
0.05
 43
0.5
 44
0.1
 47
0.1
 48
0.1
 78
     7
 79
     2
140
0.24
141
0.0
146
0.71
147
0.06
176
   256
177
   256
178
     2
274
     4
284
     7
340
11
371
    -1
372
    -1
1001
ACAD_DSTYLE_DIMJOGGED_JOGANGLE_SYMBOL
1070
   384
1040
0.7853981633974483
1001
ACAD_DSTYLE_DIMARC_LENGTH_SYMBOL
1070
   379
1070
     1
  0
DIMSTYLE
105
AF6E
330
A
100
AcDbSymbolTableRecord
100
AcDbDimStyleTableRecord
  2
AM_ANSI$SF
 70
     0
  4
mm
 41
0.1
 42
0.05
 43
0.5
 44
0.1
 47
0.1
 48
0.1
 75
     1
 76
     1
 78
     7
 79
     2
140
0.12
141
0.0
146
0.71
147
0.06
176
   256
177
   256
178
     2
274
     4
284
     7
340
11
371
    -1
372
    -1
1001
ACAD_DSTYLE_DIMJOGGED_JOGANGLE_SYMBOL
1070
   384
1040
0.7853981633974483
1001
ACAD_DSTYLE_DIMARC_LENGTH_SYMBOL
1070
   379
1070
     1
  0
DIMSTYLE
105
AF6F
330
A
100
AcDbSymbolTableRecord
100
AcDbDimStyleTableRecord
  2
AM_ANSI$SH
 70
     0
  4
mm
 41
0.1
 42
0.05
 43
0.5
 44
0.1
 47
0.1
 48
0.1
 75
     1
 76
     1
 78
     7
 79
     2
140
0.12
141
0.0
146
0.71
147
0.06
173
     1
176
   256
177
   256
178
     2
274
     4
284
     7
340
11
343
72
371
    -1
372
    -1
1001
ACAD_DSTYLE_DIMJOGGED_JOGANGLE_SYMBOL
1070
   384
1040
0.7853981633974483
1001
ACAD_DSTYLE_DIMARC_LENGTH_SYMBOL
1070
   379
1070
     1
  0
ENDTAB
  0
TABLE
  2
BLOCK_RECORD
  5
1
330
0
100
AcDbSymbolTable
 70
    16
  0
BLOCK_RECORD
  5
1F
102
{ACAD_XDICTIONARY
360
8A
102
}
330
1
100
AcDbSymbolTableRecord
100
AcDbBlockTableRecord
  2
*Model_Space
340
22
  0
BLOCK_RECORD
  5
1B
330
1
100
AcDbSymbolTableRecord
100
AcDbBlockTableRecord
  2
*Paper_Space
340
1E
  0
BLOCK_RECORD
  5
23
330
1
100
AcDbSymbolTableRecord
100
AcDbBlockTableRecord
  2
*Paper_Space0
340
26
  0
BLOCK_RECORD
  5
72
330
1
100
AcDbSymbolTableRecord
100
AcDbBlockTableRecord
  2
GENAXEH
340
0
  0
BLOCK_RECORD
  5
6C4
330
1
100
AcDbSymbolTableRecord
100
AcDbBlockTableRecord
  2
_Dot
340
0
102
{BLKREFS
331
C965
331
C966
331
C96E
331
C96F
331
C979
331
C97A
331
C982
331
C983
331
C98C
331
C98D
331
C996
331
C997
331
C99F
331
C9A0
102
}
  0
BLOCK_RECORD
  5
A66
330
1
100
AcDbSymbolTableRecord
100
AcDbBlockTableRecord
  2
_OPEN30
340
0
  0
BLOCK_RECORD
  5
C90A
330
1
100
AcDbSymbolTableRecord
100
AcDbBlockTableRecord
  2
*D5
340
0
  0
BLOCK_RECORD
  5
C916
330
1
100
AcDbSymbolTableRecord
100
AcDbBlockTableRecord
  2
*D6
340
0
  0
BLOCK_RECORD
  5
C922
330
1
100
AcDbSymbolTableRecord
100
AcDbBlockTableRecord
  2
*D7
340
0
  0
BLOCK_RECORD
  5
C930
330
1
100
AcDbSymbolTableRecord
100
AcDbBlockTableRecord
  2
*D8
340
0
  0
BLOCK_RECORD
  5
C93C
330
1
100
AcDbSymbolTableRecord
100
AcDbBlockTableRecord
  2
*D9
340
0
  0
BLOCK_RECORD
  5
C949
330
1
100
AcDbSymbolTableRecord
100
AcDbBlockTableRecord
  2
*D10
340
0
  0
BLOCK_RECORD
  5
C956
330
1
100
AcDbSymbolTableRecord
100
AcDbBlockTableRecord
  2
*D11
340
0
  0
BLOCK_RECORD
  5
C9A5
330
1
100
AcDbSymbolTableRecord
100
AcDbBlockTableRecord
  2
れｇｈｒｇｈｒｈ４５ｈｆｇｈえ３５５ｈｒｔｈ
340
0
310
2800000020000000200000000100080000000000000400000000000000000000000000000000000000000000000080000080000000808000800000008000800080800000C0C0C000C0DCC000F0CAA6000020400000206000002080000020A0000020C0000020E00000400000004020000040400000406000004080000040A0
310
000040C0000040E00000600000006020000060400000606000006080000060A0000060C0000060E00000800000008020000080400000806000008080000080A0000080C0000080E00000A0000000A0200000A0400000A0600000A0800000A0A00000A0C00000A0E00000C0000000C0200000C0400000C0600000C0800000C0
310
A00000C0C00000C0E00000E0000000E0200000E0400000E0600000E0800000E0A00000E0C00000E0E00040000000400020004000400040006000400080004000A0004000C0004000E00040200000402020004020400040206000402080004020A0004020C0004020E000404000004040200040404000404060004040800040
310
40A0004040C0004040E00040600000406020004060400040606000406080004060A0004060C0004060E00040800000408020004080400040806000408080004080A0004080C0004080E00040A0000040A0200040A0400040A0600040A0800040A0A00040A0C00040A0E00040C0000040C0200040C0400040C0600040C08000
310
40C0A00040C0C00040C0E00040E0000040E0200040E0400040E0600040E0800040E0A00040E0C00040E0E00080000000800020008000400080006000800080008000A0008000C0008000E00080200000802020008020400080206000802080008020A0008020C0008020E00080400000804020008040400080406000804080
310
008040A0008040C0008040E00080600000806020008060400080606000806080008060A0008060C0008060E00080800000808020008080400080806000808080008080A0008080C0008080E00080A0000080A0200080A0400080A0600080A0800080A0A00080A0C00080A0E00080C0000080C0200080C0400080C0600080C0
310
800080C0A00080C0C00080C0E00080E0000080E0200080E0400080E0600080E0800080E0A00080E0C00080E0E000C0000000C0002000C0004000C0006000C0008000C000A000C000C000C000E000C0200000C0202000C0204000C0206000C0208000C020A000C020C000C020E000C0400000C0402000C0404000C0406000C0
310
408000C040A000C040C000C040E000C0600000C0602000C0604000C0606000C0608000C060A000C060C000C060E000C0800000C0802000C0804000C0806000C0808000C080A000C080C000C080E000C0A00000C0A02000C0A04000C0A06000C0A08000C0A0A000C0A0C000C0A0E000C0C00000C0C02000C0C04000C0C06000
310
C0C08000C0C0A000F0FBFF00A4A0A000808080000000FF0000FF000000FFFF00FF000000FF00FF00FFFF0000FFFFFF0000000000000000000000000000000000000000000000000000000000000000000000000000000000000000000000000000000000000000000000000000000000000000000000000000000000000000
310
000000000000000000000000000000000000000000000000000000000000000000000000000000000000000000000000000000000000000000000000000000000000000000000000000000000000000000000000000000000000000000000000000000000000000000000000000000000000FCFFFFFFFFFFFFFFFFFFFFFFFF
310
FFFFFFFFFFFFFFFFFFFFFFFFFFFFFFFFFC0000FCFF0000000000000000000000000000000000000000000000000000FFFC0000FCFF00000000FFFBFBFBFFFBF9FBFBFBFBF9FBF9FBF9FBFF00000000FFFC0000FCFF00000000FFFBFBFBFFFBF9FBFBF9FBF9FBF9FBF9FBFF00000000FFFC0000FCFF00000000FFFBFBFBFFFB
310
F9FBFBFBFBF9FBF9FBF9FBFF00000000FFFC0000FCFF00000000FFFBFBFBFFFBF9FBFBFBFBF9FBF9FBF9FBFF00000000FFFC0000FCFF00000000FFFBFBFBFFFBF9FBFBFBFBF9FBF9FBF9FBFF00000000FFFC0000FCFF00000000FFFFFFFFFFFFF9FFF9F9FFF9FFF9FFF9FFFF00000000FFFC0000FCFF000000000000000000
310
0000000000000000000000000000000000FFFC0000FCFF0000000000000000000000FAFAFAFA0000000000000000000000FFFC0000FCFF0000000000000000000000FAFAFAFA0000000000000000000000FFFC0000FCFF00000000000000000000FAFFFAFAFA0000000000000000000000FFFC0000FCFF0000000000000000
310
00FBFAF9FFF9F9FA00000000000000000000FFFC0000FCFF00000000000000000000FAFFFFFFFFFAFB000000000000000000FFFC0000FCFF000000000000000000000000FAFAFAFBFBFB0000000000000000FFFC0000FCFF000000000000000000000000000000FBFB000000000000000000FFFC0000FCFFFBFBFBFFFFFFFF
310
FFFFFFFF000000000000000000000000000000FFFC0000FCFFFBFBFBFBFFFFFFFFFFFFFF000000000000000000000000000000FFFC0000FCFFFBFBFBFBFBFBFFFFFFFFFF000000000000000000000000000000FFFC0000FCFFFBFBFBFBFBFBFFFFFFFFFFFFFFFFFFFFFFFFFFFFFFFFFFFFFFFFFFFC00000000000000000000
310
00000000000000000000000000000000000000000000000000000000000000000000000000000000000000000000000000000000000000000000000000000000000000000000000000000000000000000000000000000000000000000000000000000000000000000000000000000000000000000000000000000000000000
310
0000000000000000000000000000000000000000000000000000000000000000000000000000000000000000000000000000000000000000
102
{BLKREFS
331
CA91
102
}
1001
ACAD
1000
DesignCenter Data
1002
{
1070
     1
1070
     4
1002
}
  0
BLOCK_RECORD
  5
CACB
330
1
100
AcDbSymbolTableRecord
100
AcDbBlockTableRecord
  2
*S13
340
0
  0
BLOCK_RECORD
  5
CAD5
330
1
100
AcDbSymbolTableRecord
100
AcDbBlockTableRecord
  2
*S14
340
0
  0
BLOCK_RECORD
  5
CADF
330
1
100
AcDbSymbolTableRecord
100
AcDbBlockTableRecord
  2
*S15
340
0
  0
ENDTAB
  0
ENDSEC
  0
SECTION
  2
BLOCKS
  0
BLOCK
  5
20
330
1F
100
AcDbEntity
  8
0
100
AcDbBlockBegin
  2
*Model_Space
 70
     0
 10
0.0
 20
0.0
 30
0.0
  3
*Model_Space
  1

  0
ENDBLK
  5
21
330
1F
100
AcDbEntity
  8
0
100
AcDbBlockEnd
  0
BLOCK
  5
1C
330
1B
100
AcDbEntity
 67
     1
  8
0
100
AcDbBlockBegin
  2
*Paper_Space
 70
     0
 10
0.0
 20
0.0
 30
0.0
  3
*Paper_Space
  1

  0
ENDBLK
  5
1D
330
1B
100
AcDbEntity
 67
     1
  8
0
100
AcDbBlockEnd
  0
BLOCK
  5
24
330
23
100
AcDbEntity
 67
     1
  8
0
100
AcDbBlockBegin
  2
*Paper_Space0
 70
     0
 10
0.0
 20
0.0
 30
0.0
  3
*Paper_Space0
  1

  0
ENDBLK
  5
25
330
23
100
AcDbEntity
 67
     1
  8
0
100
AcDbBlockEnd
  0
BLOCK
  5
74
330
72
100
AcDbEntity
  8
0
100
AcDbBlockBegin
  2
GENAXEH
 70
     0
 10
0.0
 20
0.0
 30
0.0
  3
GENAXEH
  1

  0
LINE
  5
73
330
72
100
AcDbEntity
  8
0
100
AcDbLine
 10
-1.0
 20
0.0
 30
0.0
 11
1.0
 21
0.0
 31
0.0
  0
ENDBLK
  5
75
330
72
100
AcDbEntity
  8
0
100
AcDbBlockEnd
  0
BLOCK
  5
6C7
330
6C4
100
AcDbEntity
  8
0
100
AcDbBlockBegin
  2
_Dot
 70
     0
 10
0.0
 20
0.0
 30
0.0
  3
_Dot
  1

  0
LWPOLYLINE
  5
6C5
330
6C4
100
AcDbEntity
  8
0
  6
ByBlock
 62
     0
100
AcDbPolyline
 90
        2
 70
     1
 43
0.5
 10
-0.25
 20
0.0
 42
1.0
 10
0.25
 20
0.0
 42
1.0
  0
LINE
  5
6C6
330
6C4
100
AcDbEntity
  8
0
  6
ByBlock
 62
     0
370
    -2
100
AcDbLine
 10
-0.5
 20
0.0
 30
0.0
 11
-1.0
 21
0.0
 31
0.0
  0
ENDBLK
  5
6C8
330
6C4
100
AcDbEntity
  8
0
100
AcDbBlockEnd
  0
BLOCK
  5
A6A
330
A66
100
AcDbEntity
  8
0
100
AcDbBlockBegin
  2
_OPEN30
 70
     0
 10
0.0
 20
0.0
 30
0.0
  3
_OPEN30
  1

  0
LINE
  5
A67
330
A66
100
AcDbEntity
  8
0
  6
ByBlock
 62
     0
100
AcDbLine
 10
-1.0
 20
0.26794919
 30
0.0
 11
0.0
 21
0.0
 31
0.0
  0
LINE
  5
A68
330
A66
100
AcDbEntity
  8
0
  6
ByBlock
 62
     0
100
AcDbLine
 10
0.0
 20
0.0
 30
0.0
 11
-1.0
 21
-0.26794919
 31
0.0
  0
LINE
  5
A69
330
A66
100
AcDbEntity
  8
0
  6
ByBlock
 62
     0
100
AcDbLine
 10
0.0
 20
0.0
 30
0.0
 11
-1.0
 21
0.0
 31
0.0
  0
ENDBLK
  5
A6B
330
A66
100
AcDbEntity
  8
0
100
AcDbBlockEnd
  0
BLOCK
  5
C914
330
C90A
100
AcDbEntity
  8
0
 48
10.0
100
AcDbBlockBegin
  2
*D5
 70
     1
 10
0.0
 20
0.0
 30
0.0
  3
*D5
  1

  0
LINE
  5
C962
330
C90A
100
AcDbEntity
  8
AM_5
100
AcDbLine
 10
141.7117481150107
 20
126.3179026767303
 30
0.0
 11
141.7117481150107
 21
103.1929026767303
 31
0.0
  0
LINE
  5
C963
330
C90A
100
AcDbEntity
  8
AM_5
100
AcDbLine
 10
129.2117671150107
 20
126.3179026767303
 30
0.0
 11
129.2117671150107
 21
103.1929026767303
 31
0.0
  0
LINE
  5
C964
330
C90A
100
AcDbEntity
  8
AM_5
100
AcDbLine
 10
140.7117481150107
 20
104.1929026767303
 30
0.0
 11
130.2117671150107
 21
104.1929026767303
 31
0.0
  0
INSERT
  5
C965
330
C90A
100
AcDbEntity
  8
AM_5
100
AcDbBlockReference
  2
_Dot
 10
141.7117481150107
 20
104.1929026767303
 30
0.0
  0
INSERT
  5
C966
330
C90A
100
AcDbEntity
  8
AM_5
100
AcDbBlockReference
  2
_Dot
 10
129.2117671150107
 20
104.1929026767303
 30
0.0
 50
180.0
  0
MTEXT
  5
C967
330
C90A
100
AcDbEntity
  8
AM_5
 62
     2
100
AcDbMText
 10
135.4617576150107
 20
107.2929026767303
 30
0.0
 40
3.200000000000001
 41
0.0
 71
     5
 72
     1
  1
D
 73
     1
 44
1.0
1001
ACAD
1000
MTEXTBEGIN
1070
    73
1070
     1
1070
    44
1040
1.0
1070
    74
1070
     0
1000
MTEXTEND
  0
POINT
  5
C968
330
C90A
100
AcDbEntity
  8
Defpoints
 62
     0
100
AcDbPoint
 10
141.7117481150107
 20
127.3179026767303
 30
0.0
  0
POINT
  5
C969
330
C90A
100
AcDbEntity
  8
Defpoints
 62
     0
100
AcDbPoint
 10
129.2117671150107
 20
127.3179026767303
 30
0.0
  0
POINT
  5
C96A
330
C90A
100
AcDbEntity
  8
Defpoints
 62
     0
100
AcDbPoint
 10
129.2117671150107
 20
104.1929026767303
 30
0.0
  0
ENDBLK
  5
C915
330
C90A
100
AcDbEntity
  8
0
 48
10.0
100
AcDbBlockEnd
  0
BLOCK
  5
C920
330
C916
100
AcDbEntity
  8
0
 48
10.0
100
AcDbBlockBegin
  2
*D6
 70
     1
 10
0.0
 20
0.0
 30
0.0
  3
*D6
  1

  0
LINE
  5
C96B
330
C916
100
AcDbEntity
  8
AM_5
100
AcDbLine
 10
141.7117481150107
 20
126.3179026767303
 30
0.0
 11
141.7117481150107
 21
103.1929026767303
 31
0.0
  0
LINE
  5
C96C
330
C916
100
AcDbEntity
  8
AM_5
100
AcDbLine
 10
166.7117481150107
 20
131.1666686767303
 30
0.0
 11
166.7117481150107
 21
103.1929026767303
 31
0.0
  0
LINE
  5
C96D
330
C916
100
AcDbEntity
  8
AM_5
100
AcDbLine
 10
142.7117481150107
 20
104.1929026767303
 30
0.0
 11
165.7117481150107
 21
104.1929026767303
 31
0.0
  0
INSERT
  5
C96E
330
C916
100
AcDbEntity
  8
AM_5
100
AcDbBlockReference
  2
_Dot
 10
141.7117481150107
 20
104.1929026767303
 30
0.0
 50
180.0
  0
INSERT
  5
C96F
330
C916
100
AcDbEntity
  8
AM_5
100
AcDbBlockReference
  2
_Dot
 10
166.7117481150107
 20
104.1929026767303
 30
0.0
  0
MTEXT
  5
C970
330
C916
100
AcDbEntity
  8
AM_5
 62
     2
100
AcDbMText
 10
154.2117481150107
 20
107.2929026767303
 30
0.0
 40
3.200000000000001
 41
0.0
 71
     5
 72
     1
  1
C
 73
     1
 44
1.0
1001
ACAD
1000
MTEXTBEGIN
1070
    73
1070
     1
1070
    44
1040
1.0
1070
    74
1070
     0
1000
MTEXTEND
  0
POINT
  5
C971
330
C916
100
AcDbEntity
  8
Defpoints
 62
     0
100
AcDbPoint
 10
141.7117481150107
 20
127.3179026767303
 30
0.0
  0
POINT
  5
C972
330
C916
100
AcDbEntity
  8
Defpoints
 62
     0
100
AcDbPoint
 10
166.7117481150107
 20
132.1666686767303
 30
0.0
  0
POINT
  5
C973
330
C916
100
AcDbEntity
  8
Defpoints
 62
     0
100
AcDbPoint
 10
166.7117481150107
 20
104.1929026767303
 30
0.0
  0
ENDBLK
  5
C921
330
C916
100
AcDbEntity
  8
0
 48
10.0
100
AcDbBlockEnd
  0
BLOCK
  5
C92E
330
C922
100
AcDbEntity
  8
0
 48
10.0
100
AcDbBlockBegin
  2
*D7
 70
     1
 10
0.0
 20
0.0
 30
0.0
  3
*D7
  1

  0
LINE
  5
C974
330
C922
100
AcDbEntity
  8
AM_5
100
AcDbLine
 10
149.3778041150107
 20
128.1929206767303
 30
0.0
 11
149.3778041150107
 21
113.1929026767311
 31
0.0
  0
LINE
  5
C975
330
C922
100
AcDbEntity
  8
AM_5
100
AcDbLine
 10
150.6278431150107
 20
128.1929206767303
 30
0.0
 11
150.6278431150107
 21
113.1929026767311
 31
0.0
  0
LINE
  5
C976
330
C922
100
AcDbEntity
  8
AM_5
100
AcDbLine
 10
148.3778041150107
 20
114.1929026767311
 30
0.0
 11
147.3778041150107
 21
114.1929026767311
 31
0.0
  0
LINE
  5
C977
330
C922
100
AcDbEntity
  8
AM_5
100
AcDbLine
 10
151.6278431150107
 20
114.1929026767311
 30
0.0
 11
157.2278431150107
 21
114.1929026767311
 31
0.0
  0
LINE
  5
C978
330
C922
100
AcDbEntity
  8
AM_5
100
AcDbLine
 10
149.3778041150107
 20
114.1929026767311
 30
0.0
 11
150.6278431150107
 21
114.1929026767311
 31
0.0
  0
INSERT
  5
C979
330
C922
100
AcDbEntity
  8
AM_5
100
AcDbBlockReference
  2
_Dot
 10
149.3778041150107
 20
114.1929026767311
 30
0.0
  0
INSERT
  5
C97A
330
C922
100
AcDbEntity
  8
AM_5
100
AcDbBlockReference
  2
_Dot
 10
150.6278431150107
 20
114.1929026767311
 30
0.0
 50
180.0
  0
MTEXT
  5
C97B
330
C922
100
AcDbEntity
  8
AM_5
 62
     2
100
AcDbMText
 10
154.9278431150107
 20
117.2929026767311
 30
0.0
 40
3.200000000000001
 41
0.0
 71
     5
 72
     1
  1
G
 73
     1
 44
1.0
1001
ACAD
1000
MTEXTBEGIN
1070
    73
1070
     1
1070
    44
1040
1.0
1070
    74
1070
     0
1000
MTEXTEND
  0
POINT
  5
C97C
330
C922
100
AcDbEntity
  8
Defpoints
 62
     0
100
AcDbPoint
 10
149.3778041150107
 20
129.1929206767303
 30
0.0
  0
POINT
  5
C97D
330
C922
100
AcDbEntity
  8
Defpoints
 62
     0
100
AcDbPoint
 10
150.6278431150107
 20
129.1929206767303
 30
0.0
  0
POINT
  5
C97E
330
C922
100
AcDbEntity
  8
Defpoints
 62
     0
100
AcDbPoint
 10
150.6278431150107
 20
114.1929026767311
 30
0.0
  0
ENDBLK
  5
C92F
330
C922
100
AcDbEntity
  8
0
 48
10.0
100
AcDbBlockEnd
  0
BLOCK
  5
C93A
330
C930
100
AcDbEntity
  8
0
 48
10.0
100
AcDbBlockBegin
  2
*D8
 70
     1
 10
0.0
 20
0.0
 30
0.0
  3
*D8
  1

  0
LINE
  5
C97F
330
C930
100
AcDbEntity
  8
AM_5
100
AcDbLine
 10
129.4617481150108
 20
144.1929206767303
 30
0.0
 11
118.2117671150107
 21
144.1929206767303
 31
0.0
  0
LINE
  5
C980
330
C930
100
AcDbEntity
  8
AM_5
100
AcDbLine
 10
129.4617481150108
 20
124.1929026767303
 30
0.0
 11
118.2117671150107
 21
124.1929026767303
 31
0.0
  0
LINE
  5
C981
330
C930
100
AcDbEntity
  8
AM_5
100
AcDbLine
 10
119.2117671150107
 20
143.1929206767303
 30
0.0
 11
119.2117671150107
 21
125.1929026767303
 31
0.0
  0
INSERT
  5
C982
330
C930
100
AcDbEntity
  8
AM_5
100
AcDbBlockReference
  2
_Dot
 10
119.2117671150107
 20
144.1929206767303
 30
0.0
 50
90.0
  0
INSERT
  5
C983
330
C930
100
AcDbEntity
  8
AM_5
100
AcDbBlockReference
  2
_Dot
 10
119.2117671150107
 20
124.1929026767303
 30
0.0
 50
270.0
  0
MTEXT
  5
C984
330
C930
100
AcDbEntity
  8
AM_5
 62
     2
100
AcDbMText
 10
116.1117671150107
 20
134.1929116767303
 30
0.0
 40
3.200000000000001
 41
0.0
 71
     5
 72
     1
  1
%%cA
 11
0.0000000000000001
 21
1.0
 31
0.0
 73
     1
 44
1.0
1001
ACAD
1000
MTEXTBEGIN
1070
    73
1070
     1
1070
    44
1040
1.0
1070
    74
1070
     0
1000
MTEXTEND
  0
POINT
  5
C985
330
C930
100
AcDbEntity
  8
Defpoints
 62
     0
100
AcDbPoint
 10
130.4617481150108
 20
144.1929206767303
 30
0.0
  0
POINT
  5
C986
330
C930
100
AcDbEntity
  8
Defpoints
 62
     0
100
AcDbPoint
 10
130.4617481150108
 20
124.1929026767303
 30
0.0
  0
POINT
  5
C987
330
C930
100
AcDbEntity
  8
Defpoints
 62
     0
100
AcDbPoint
 10
119.2117671150107
 20
124.1929026767303
 30
0.0
  0
ENDBLK
  5
C93B
330
C930
100
AcDbEntity
  8
0
 48
10.0
100
AcDbBlockEnd
  0
BLOCK
  5
C947
330
C93C
100
AcDbEntity
  8
0
 48
10.0
100
AcDbBlockBegin
  2
*D9
 70
     1
 10
0.0
 20
0.0
 30
0.0
  3
*D9
  1

  0
LINE
  5
C988
330
C93C
100
AcDbEntity
  8
AM_5
100
AcDbLine
 10
142.7117481150107
 20
127.3179026767303
 30
0.0
 11
147.7117481150108
 21
127.3179026767303
 31
0.0
  0
LINE
  5
C989
330
C93C
100
AcDbEntity
  8
AM_5
100
AcDbLine
 10
142.7117481150107
 20
141.0679206767303
 30
0.0
 11
147.7117481150108
 21
141.0679206767303
 31
0.0
  0
LINE
  5
C98A
330
C93C
100
AcDbEntity
  8
AM_5
100
AcDbLine
 10
146.7117481150108
 20
128.3179026767303
 30
0.0
 11
146.7117481150108
 21
140.0679206767303
 31
0.0
  0
LINE
  5
C98B
330
C93C
100
AcDbEntity
  8
AM_5
100
AcDbLine
 10
146.7117481150108
 20
141.0679206767303
 30
0.0
 11
146.7117481150108
 21
149.5879206767304
 31
0.0
  0
INSERT
  5
C98C
330
C93C
100
AcDbEntity
  8
AM_5
100
AcDbBlockReference
  2
_Dot
 10
146.7117481150108
 20
127.3179026767303
 30
0.0
 50
270.0
  0
INSERT
  5
C98D
330
C93C
100
AcDbEntity
  8
AM_5
100
AcDbBlockReference
  2
_Dot
 10
146.7117481150108
 20
141.0679206767303
 30
0.0
 50
90.0
  0
MTEXT
  5
C98E
330
C93C
100
AcDbEntity
  8
AM_5
 62
     2
100
AcDbMText
 10
143.6117481150108
 20
146.3279206767304
 30
0.0
 40
3.200000000000001
 41
0.0
 71
     5
 72
     1
  1
%%cE
 11
0.0000000000000001
 21
1.0
 31
0.0
 73
     1
 44
1.0
1001
ACAD
1000
MTEXTBEGIN
1070
    73
1070
     1
1070
    44
1040
1.0
1070
    74
1070
     0
1000
MTEXTEND
  0
POINT
  5
C98F
330
C93C
100
AcDbEntity
  8
Defpoints
 62
     0
100
AcDbPoint
 10
141.7117481150107
 20
127.3179026767303
 30
0.0
  0
POINT
  5
C990
330
C93C
100
AcDbEntity
  8
Defpoints
 62
     0
100
AcDbPoint
 10
141.7117481150107
 20
141.0679206767303
 30
0.0
  0
POINT
  5
C991
330
C93C
100
AcDbEntity
  8
Defpoints
 62
     0
100
AcDbPoint
 10
146.7117481150108
 20
141.0679206767303
 30
0.0
  0
ENDBLK
  5
C948
330
C93C
100
AcDbEntity
  8
0
 48
10.0
100
AcDbBlockEnd
  0
BLOCK
  5
C954
330
C949
100
AcDbEntity
  8
0
 48
10.0
100
AcDbBlockBegin
  2
*D10
 70
     1
 10
0.0
 20
0.0
 30
0.0
  3
*D10
  1

  0
LINE
  5
C992
330
C949
100
AcDbEntity
  8
AM_5
100
AcDbLine
 10
151.6278431150107
 20
129.1929206767303
 30
0.0
 11
155.6278431150107
 21
129.1929206767303
 31
0.0
  0
LINE
  5
C993
330
C949
100
AcDbEntity
  8
AM_5
100
AcDbLine
 10
151.6278431150107
 20
139.1929026767303
 30
0.0
 11
155.6278431150107
 21
139.1929026767303
 31
0.0
  0
LINE
  5
C994
330
C949
100
AcDbEntity
  8
AM_5
100
AcDbLine
 10
154.6278431150107
 20
130.1929206767303
 30
0.0
 11
154.6278431150107
 21
138.1929026767303
 31
0.0
  0
LINE
  5
C995
330
C949
100
AcDbEntity
  8
AM_5
100
AcDbLine
 10
154.6278431150107
 20
139.1929026767303
 30
0.0
 11
154.6278431150107
 21
149.5879206767304
 31
0.0
  0
INSERT
  5
C996
330
C949
100
AcDbEntity
  8
AM_5
100
AcDbBlockReference
  2
_Dot
 10
154.6278431150107
 20
129.1929206767303
 30
0.0
 50
270.0
  0
INSERT
  5
C997
330
C949
100
AcDbEntity
  8
AM_5
100
AcDbBlockReference
  2
_Dot
 10
154.6278431150107
 20
139.1929026767303
 30
0.0
 50
90.0
  0
MTEXT
  5
C998
330
C949
100
AcDbEntity
  8
AM_5
 62
     2
100
AcDbMText
 10
151.5278431150107
 20
146.3279206767304
 30
0.0
 40
3.200000000000001
 41
0.0
 71
     5
 72
     1
  1
%%cF
 11
0.0000000000000001
 21
1.0
 31
0.0
 73
     1
 44
1.0
1001
ACAD
1000
MTEXTBEGIN
1070
    73
1070
     1
1070
    44
1040
1.0
1070
    74
1070
     0
1000
MTEXTEND
  0
POINT
  5
C999
330
C949
100
AcDbEntity
  8
Defpoints
 62
     0
100
AcDbPoint
 10
150.6278431150107
 20
129.1929206767303
 30
0.0
  0
POINT
  5
C99A
330
C949
100
AcDbEntity
  8
Defpoints
 62
     0
100
AcDbPoint
 10
150.6278431150107
 20
139.1929026767303
 30
0.0
  0
POINT
  5
C99B
330
C949
100
AcDbEntity
  8
Defpoints
 62
     0
100
AcDbPoint
 10
154.6278431150107
 20
139.1929026767303
 30
0.0
  0
ENDBLK
  5
C955
330
C949
100
AcDbEntity
  8
0
 48
10.0
100
AcDbBlockEnd
  0
BLOCK
  5
C960
330
C956
100
AcDbEntity
  8
0
 48
10.0
100
AcDbBlockBegin
  2
*D11
 70
     1
 10
0.0
 20
0.0
 30
0.0
  3
*D11
  1

  0
LINE
  5
C99C
330
C956
100
AcDbEntity
  8
AM_5
100
AcDbLine
 10
167.2117481150108
 20
136.6929206767303
 30
0.0
 11
177.7117481150107
 21
136.6929206767303
 31
0.0
  0
LINE
  5
C99D
330
C956
100
AcDbEntity
  8
AM_5
100
AcDbLine
 10
167.2117481150108
 20
131.6929026767303
 30
0.0
 11
177.7117481150107
 21
131.6929026767303
 31
0.0
  0
LINE
  5
C99E
330
C956
100
AcDbEntity
  8
AM_5
100
AcDbLine
 10
176.7117481150108
 20
135.6929206767303
 30
0.0
 11
176.7117481150108
 21
132.6929026767303
 31
0.0
  0
INSERT
  5
C99F
330
C956
100
AcDbEntity
  8
AM_5
100
AcDbBlockReference
  2
_Dot
 10
176.7117481150108
 20
136.6929206767303
 30
0.0
 50
90.0
  0
INSERT
  5
C9A0
330
C956
100
AcDbEntity
  8
AM_5
100
AcDbBlockReference
  2
_Dot
 10
176.7117481150108
 20
131.6929026767303
 30
0.0
 50
270.0
  0
MTEXT
  5
C9A1
330
C956
100
AcDbEntity
  8
AM_5
 62
     2
100
AcDbMText
 10
173.6117481150107
 20
134.1929116767303
 30
0.0
 40
3.200000000000001
 41
0.0
 71
     5
 72
     1
  1
B\P
 11
0.0000000000000001
 21
1.0
 31
0.0
 73
     1
 44
1.0
1001
ACAD
1000
MTEXTBEGIN
1070
    73
1070
     1
1070
    44
1040
1.0
1070
    74
1070
     0
1000
MTEXTEND
  0
POINT
  5
C9A2
330
C956
100
AcDbEntity
  8
Defpoints
 62
     0
100
AcDbPoint
 10
166.2117481150108
 20
136.6929206767303
 30
0.0
  0
POINT
  5
C9A3
330
C956
100
AcDbEntity
  8
Defpoints
 62
     0
100
AcDbPoint
 10
166.2117481150108
 20
131.6929026767303
 30
0.0
  0
POINT
  5
C9A4
330
C956
100
AcDbEntity
  8
Defpoints
 62
     0
100
AcDbPoint
 10
176.7117481150108
 20
131.6929026767303
 30
0.0
  0
ENDBLK
  5
C961
330
C956
100
AcDbEntity
  8
0
 48
10.0
100
AcDbBlockEnd
  0
BLOCK
  5
C9A6
330
C9A5
100
AcDbEntity
  8
0
 48
10.0
100
AcDbBlockBegin
  2
れｇｈｒｇｈｒｈ４５ｈｆｇｈえ３５５ｈｒｔｈ
 70
     0
 10
0.0
 20
0.0
 30
0.0
  3
れｇｈｒｇｈｒｈ４５ｈｆｇｈえ３５５ｈｒｔｈ
  1

  0
LINE
  5
C9A8
330
C9A5
100
AcDbEntity
  8
AM_0
100
AcDbLine
 10
28.13131313131317
 20
203.989898989899
 30
0.0
 11
28.13131313131317
 21
171.989898989899
 31
0.0
  0
LINE
  5
C9A9
330
C9A5
100
AcDbEntity
  8
AM_0
100
AcDbLine
 10
8.131313131313163
 20
195.989898989899
 30
0.0
 11
118.1313131313131
 21
195.989898989899
 31
0.0
  0
LINE
  5
C9AA
330
C9A5
100
AcDbEntity
  8
AM_0
100
AcDbLine
 10
8.131313131313163
 20
187.989898989899
 30
0.0
 11
118.1313131313131
 21
187.989898989899
 31
0.0
  0
LINE
  5
C9AB
330
C9A5
100
AcDbEntity
  8
AM_0
100
AcDbLine
 10
8.131313131313163
 20
179.989898989899
 30
0.0
 11
118.1313131313131
 21
179.989898989899
 31
0.0
  0
LINE
  5
C9AC
330
C9A5
100
AcDbEntity
  8
AM_0
100
AcDbLine
 10
8.131313131313163
 20
171.989898989899
 30
0.0
 11
118.1313131313131
 21
171.989898989899
 31
0.0
  0
LINE
  5
C9AD
330
C9A5
100
AcDbEntity
  8
AM_0
100
AcDbLine
 10
8.131313131313163
 20
203.989898989899
 30
0.0
 11
118.1313131313131
 21
203.989898989899
 31
0.0
  0
LINE
  5
C9AE
330
C9A5
100
AcDbEntity
  8
AM_0
100
AcDbLine
 10
118.1313131313131
 20
203.989898989899
 30
0.0
 11
118.1313131313131
 21
171.989898989899
 31
0.0
  0
TEXT
  5
C9AF
330
C9A5
100
AcDbEntity
  8
AM_6
100
AcDbText
 10
13.7883131313132
 20
198.389898989899
 30
0.0
 40
3.2
  1
品　名
 41
0.85537027
100
AcDbText
  0
TEXT
  5
C9B0
330
C9A5
100
AcDbEntity
  8
AM_6
100
AcDbText
 10
13.7883131313132
 20
190.389898989899
 30
0.0
 40
3.2
  1
品　番
 41
0.85537027
100
AcDbText
  0
TEXT
  5
C9B1
330
C9A5
100
AcDbEntity
  8
AM_6
100
AcDbText
 10
13.7883131313132
 20
182.389898989899
 30
0.0
 40
3.2
  1
材　質
 41
0.85537027
100
AcDbText
  0
TEXT
  5
C9B2
330
C9A5
100
AcDbEntity
  8
AM_6
100
AcDbText
 10
13.7883131313132
 20
174.389898989899
 30
0.0
 40
3.2
  1
仕上げ
 41
0.85537027
100
AcDbText
  0
LINE
  5
C9B3
330
C9A5
100
AcDbEntity
  8
size
100
AcDbLine
 10
0.0
 20
0.0
 30
0.0
 11
296.969696969697
 21
0.0
 31
0.0
1001
GENIUS_GENREC_14
1002
{
1000
PYDIR
1011
0.0
1021
210.0
1031
0.0
1002
}
1002
{
1000
PXDIR
1011
296.969696969697
1021
0.0
1031
0.0
1002
}
1002
{
1000
PORI
1011
0.0
1021
0.0
1031
0.0
1002
}
1002
{
1000
PINS
1011
148.4848484848485
1021
105.0
1031
0.0
1002
}
1002
{
1000
HVAL
1000
297
1002
}
1002
{
1000
H
1070
     2
1002
}
1002
{
1000
WVAL
1000
420
1002
}
1002
{
1000
W
1070
     2
1002
}
1002
{
1000
C
1070
     4
1002
}
1001
GENIUS_GENOBJ-N-REC_13
1002
{
1000
OWNER
1000
GEN
1002
}
1001
GENIUS_GENODEF_13
1002
{
1000
HIER
1070
     0
1002
}
1002
{
1000
MANEDIT
1070
     0
1002
}
1002
{
1000
NOSEL
1070
     0
1002
}
1002
{
1000
BEHIND
1070
     0
1002
}
1002
{
1000
OTHER
1070
     0
1002
}
1002
{
1000
REACTOR
1002
}
  0
LINE
  5
C9B4
330
C9A5
100
AcDbEntity
  8
size
100
AcDbLine
 10
296.969696969697
 20
0.0
 30
0.0
 11
296.969696969697
 21
210.0
 31
0.0
1001
GENIUS_GENREC_14
1002
{
1000
PYDIR
1011
0.0
1021
210.0
1031
0.0
1002
}
1002
{
1000
PXDIR
1011
296.969696969697
1021
0.0
1031
0.0
1002
}
1002
{
1000
PORI
1011
0.0
1021
0.0
1031
0.0
1002
}
1002
{
1000
PINS
1011
148.4848484848485
1021
105.0
1031
0.0
1002
}
1002
{
1000
HVAL
1000
297
1002
}
1002
{
1000
H
1070
     2
1002
}
1002
{
1000
WVAL
1000
420
1002
}
1002
{
1000
W
1070
     2
1002
}
1002
{
1000
C
1070
     4
1002
}
1001
GENIUS_GENOBJ-N-REC_13
1002
{
1000
OWNER
1000
GEN
1002
}
1001
GENIUS_GENODEF_13
1002
{
1000
HIER
1070
     0
1002
}
1002
{
1000
MANEDIT
1070
     0
1002
}
1002
{
1000
NOSEL
1070
     0
1002
}
1002
{
1000
BEHIND
1070
     0
1002
}
1002
{
1000
OTHER
1070
     0
1002
}
1002
{
1000
REACTOR
1002
}
  0
LINE
  5
C9B5
330
C9A5
100
AcDbEntity
  8
size
100
AcDbLine
 10
296.969696969697
 20
210.0
 30
0.0
 11
0.0
 21
210.0
 31
0.0
1001
GENIUS_GENREC_14
1002
{
1000
PYDIR
1011
0.0
1021
210.0
1031
0.0
1002
}
1002
{
1000
PXDIR
1011
296.969696969697
1021
0.0
1031
0.0
1002
}
1002
{
1000
PORI
1011
0.0
1021
0.0
1031
0.0
1002
}
1002
{
1000
PINS
1011
148.4848484848485
1021
105.0
1031
0.0
1002
}
1002
{
1000
HVAL
1000
297
1002
}
1002
{
1000
H
1070
     2
1002
}
1002
{
1000
WVAL
1000
420
1002
}
1002
{
1000
W
1070
     2
1002
}
1002
{
1000
C
1070
     4
1002
}
1001
GENIUS_GENOBJ-N-REC_13
1002
{
1000
OWNER
1000
GEN
1002
}
1001
GENIUS_GENODEF_13
1002
{
1000
HIER
1070
     0
1002
}
1002
{
1000
MANEDIT
1070
     0
1002
}
1002
{
1000
NOSEL
1070
     0
1002
}
1002
{
1000
BEHIND
1070
     0
1002
}
1002
{
1000
OTHER
1070
     0
1002
}
1002
{
1000
REACTOR
1002
}
  0
LINE
  5
C9B6
330
C9A5
100
AcDbEntity
  8
size
100
AcDbLine
 10
0.0
 20
210.0
 30
0.0
 11
0.0
 21
0.0
 31
0.0
1001
GENIUS_GENREC_14
1002
{
1000
PYDIR
1011
0.0
1021
210.0
1031
0.0
1002
}
1002
{
1000
PXDIR
1011
296.969696969697
1021
0.0
1031
0.0
1002
}
1002
{
1000
PORI
1011
0.0
1021
0.0
1031
0.0
1002
}
1002
{
1000
PINS
1011
148.4848484848485
1021
105.0
1031
0.0
1002
}
1002
{
1000
HVAL
1000
297
1002
}
1002
{
1000
H
1070
     2
1002
}
1002
{
1000
WVAL
1000
420
1002
}
1002
{
1000
W
1070
     2
1002
}
1002
{
1000
C
1070
     4
1002
}
1001
GENIUS_GENOBJ-N-REC_13
1002
{
1000
OWNER
1000
GEN
1002
}
1001
GENIUS_GENODEF_13
1002
{
1000
HIER
1070
     0
1002
}
1002
{
1000
MANEDIT
1070
     0
1002
}
1002
{
1000
NOSEL
1070
     0
1002
}
1002
{
1000
BEHIND
1070
     0
1002
}
1002
{
1000
OTHER
1070
     0
1002
}
1002
{
1000
REACTOR
1002
}
  0
LINE
  5
C9B7
330
C9A5
100
AcDbEntity
  8
waku
100
AcDbLine
 10
288.8383838383837
 20
6.01010101010101
 30
0.0
 11
288.8383838383838
 21
203.989898989899
 31
0.0
1001
GENIUS_GENREC_14
1002
{
1000
PYDIR
1011
0.0
1021
210.0
1031
0.0
1002
}
1002
{
1000
PXDIR
1011
296.969696969697
1021
0.0
1031
0.0
1002
}
1002
{
1000
PORI
1011
0.0
1021
0.0
1031
0.0
1002
}
1002
{
1000
PINS
1011
148.4848484848485
1021
105.0
1031
0.0
1002
}
1002
{
1000
HVAL
1000
297
1002
}
1002
{
1000
H
1070
     2
1002
}
1002
{
1000
WVAL
1000
420
1002
}
1002
{
1000
W
1070
     2
1002
}
1002
{
1000
C
1070
     4
1002
}
1001
GENIUS_GENOBJ-N-REC_13
1002
{
1000
OWNER
1000
GEN
1002
}
1001
GENIUS_GENODEF_13
1002
{
1000
HIER
1070
     0
1002
}
1002
{
1000
MANEDIT
1070
     0
1002
}
1002
{
1000
NOSEL
1070
     0
1002
}
1002
{
1000
BEHIND
1070
     0
1002
}
1002
{
1000
OTHER
1070
     0
1002
}
1002
{
1000
REACTOR
1002
}
  0
LINE
  5
C9B8
330
C9A5
100
AcDbEntity
  8
waku
100
AcDbLine
 10
8.131313131313163
 20
203.989898989899
 30
0.0
 11
8.131313131313163
 21
6.01010101010101
 31
0.0
1001
GENIUS_GENREC_14
1002
{
1000
PYDIR
1011
0.0
1021
210.0
1031
0.0
1002
}
1002
{
1000
PXDIR
1011
296.969696969697
1021
0.0
1031
0.0
1002
}
1002
{
1000
PORI
1011
0.0
1021
0.0
1031
0.0
1002
}
1002
{
1000
PINS
1011
148.4848484848485
1021
105.0
1031
0.0
1002
}
1002
{
1000
HVAL
1000
297
1002
}
1002
{
1000
H
1070
     2
1002
}
1002
{
1000
WVAL
1000
420
1002
}
1002
{
1000
W
1070
     2
1002
}
1002
{
1000
C
1070
     4
1002
}
1001
GENIUS_GENOBJ-N-REC_13
1002
{
1000
OWNER
1000
GEN
1002
}
1001
GENIUS_GENODEF_13
1002
{
1000
HIER
1070
     0
1002
}
1002
{
1000
MANEDIT
1070
     0
1002
}
1002
{
1000
NOSEL
1070
     0
1002
}
1002
{
1000
BEHIND
1070
     0
1002
}
1002
{
1000
OTHER
1070
     0
1002
}
1002
{
1000
REACTOR
1002
}
  0
LINE
  5
C9B9
330
C9A5
100
AcDbEntity
  8
waku
100
AcDbLine
 10
288.8383838383838
 20
203.989898989899
 30
0.0
 11
8.131313131313163
 21
203.989898989899
 31
0.0
1001
GENIUS_GENREC_14
1002
{
1000
PYDIR
1011
0.0
1021
210.0
1031
0.0
1002
}
1002
{
1000
PXDIR
1011
296.969696969697
1021
0.0
1031
0.0
1002
}
1002
{
1000
PORI
1011
0.0
1021
0.0
1031
0.0
1002
}
1002
{
1000
PINS
1011
148.4848484848485
1021
105.0
1031
0.0
1002
}
1002
{
1000
HVAL
1000
297
1002
}
1002
{
1000
H
1070
     2
1002
}
1002
{
1000
WVAL
1000
420
1002
}
1002
{
1000
W
1070
     2
1002
}
1002
{
1000
C
1070
     4
1002
}
1001
GENIUS_GENOBJ-N-REC_13
1002
{
1000
OWNER
1000
GEN
1002
}
1001
GENIUS_GENODEF_13
1002
{
1000
HIER
1070
     0
1002
}
1002
{
1000
MANEDIT
1070
     0
1002
}
1002
{
1000
NOSEL
1070
     0
1002
}
1002
{
1000
BEHIND
1070
     0
1002
}
1002
{
1000
OTHER
1070
     0
1002
}
1002
{
1000
REACTOR
1002
}
  0
LINE
  5
C9BA
330
C9A5
100
AcDbEntity
  8
waku
100
AcDbLine
 10
8.131313131313163
 20
6.01010101010101
 30
0.0
 11
288.8383838383837
 21
6.01010101010101
 31
0.0
  0
TEXT
  5
C9BB
330
C9A5
100
AcDbEntity
  8
AM_6
100
AcDbText
 10
33.7883131313132
 20
198.389898989899
 30
0.0
 40
3.2
  1
装飾平小ネジ（ローレット）
 41
0.85537027
100
AcDbText
  0
TEXT
  5
C9BC
330
C9A5
100
AcDbEntity
  8
AM_6
100
AcDbText
 10
33.7883131313132
 20
190.389898989899
 30
0.0
 40
3.2
  1
SCR-MK
 41
0.85537027
100
AcDbText
  0
TEXT
  5
C9BD
330
C9A5
100
AcDbEntity
  8
AM_6
100
AcDbText
 10
33.7883131313132
 20
182.389898989899
 30
0.0
 40
3.2
  1
ステンレス
 41
0.85537027
100
AcDbText
  0
TEXT
  5
C9BE
330
C9A5
100
AcDbEntity
  8
AM_6
100
AcDbText
 10
33.7883131313132
 20
174.389898989899
 30
0.0
 40
3.2
  1
鏡面
 41
0.85537027
100
AcDbText
  0
ARC
  5
C9BF
330
C9A5
100
AcDbEntity
  8
AM_2
100
AcDbCircle
 10
160.4867271150107
 20
130.4166576767304
 30
0.0
 40
1.975536999999999
100
AcDbArc
 50
358.6901110000001
 51
38.87914999999888
  0
LINE
  5
C9C0
330
C9A5
100
AcDbEntity
  8
AM_0
100
AcDbLine
 10
162.4617481150107
 20
130.3714956767304
 30
0.0
 11
162.4617481150107
 21
138.0148696767304
 31
0.0
  0
ARC
  5
C9C1
330
C9A5
100
AcDbEntity
  8
AM_0
100
AcDbCircle
 10
160.4867271150107
 20
137.9691656767303
 30
0.0
 40
1.975549999999999
100
AcDbArc
 50
1.325648999999506
 51
40.62303699999894
  0
LINE
  5
C9C2
330
C9A5
100
AcDbEntity
  8
AM_0
100
AcDbLine
 10
129.2117671150107
 20
127.3179026767303
 30
0.0
 11
129.2117671150107
 21
141.0747806767304
 31
0.0
  0
ARC
  5
C9C3
330
C9A5
100
AcDbEntity
  8
AM_0
100
AcDbCircle
 10
130.4617481150108
 20
141.0679206767303
 30
0.0
 40
1.25
100
AcDbArc
 50
90.0
 51
179.6855219999993
  0
ARC
  5
C9C4
330
C9A5
100
AcDbEntity
  8
AM_0
100
AcDbCircle
 10
130.4617481150108
 20
127.3179026767303
 30
0.0
 40
1.25
100
AcDbArc
 50
180.0
 51
270.0
  0
ARC
  5
C9C5
330
C9A5
100
AcDbEntity
  8
AM_0
100
AcDbCircle
 10
136.7117481150108
 20
140.4429026767303
 30
0.0
 40
1.875
100
AcDbArc
 50
0.0
 51
90.0
  0
ARC
  5
C9C6
330
C9A5
100
AcDbEntity
  8
AM_0
100
AcDbCircle
 10
136.7117481150108
 20
127.9429206767303
 30
0.0
 40
1.875
100
AcDbArc
 50
270.0
 51
0.0
  0
ARC
  5
C9C7
330
C9A5
100
AcDbEntity
  8
AM_0
100
AcDbCircle
 10
160.4867271150107
 20
130.4166576767304
 30
0.0
 40
1.975536999999999
100
AcDbArc
 50
319.3766519999975
 51
358.6901110000001
  0
ARC
  5
C9C8
330
C9A5
100
AcDbEntity
  8
AM_2
100
AcDbCircle
 10
160.4867271150107
 20
137.9691656767303
 30
0.0
 40
1.975549999999999
100
AcDbArc
 50
321.1211429999985
 51
1.325648999999506
  0
ARC
  5
C9C9
330
C9A5
100
AcDbEntity
  8
AM_2
100
AcDbCircle
 10
154.8899231150108
 20
134.1929336767303
 30
0.0
 40
7.572099
100
AcDbArc
 50
340.4305210000011
 51
19.56911600000074
  0
LINE
  5
C9CA
330
C9A5
100
AcDbEntity
  8
AM_2
100
AcDbLine
 10
136.7117481150108
 20
143.3179246767303
 30
0.0
 11
130.4617481150108
 21
143.3179246767303
 31
0.0
  0
LINE
  5
C9CB
330
C9A5
100
AcDbEntity
  8
AM_2
100
AcDbLine
 10
136.7117481150108
 20
142.9429026767303
 30
0.0
 11
130.4617481150108
 21
142.9429026767303
 31
0.0
  0
LINE
  5
C9CC
330
C9A5
100
AcDbEntity
  8
AM_2
100
AcDbLine
 10
136.7117481150108
 20
142.5678986767303
 30
0.0
 11
130.4617481150108
 21
142.5678986767303
 31
0.0
  0
LINE
  5
C9CD
330
C9A5
100
AcDbEntity
  8
AM_2
100
AcDbLine
 10
136.7117481150108
 20
142.0679056767303
 30
0.0
 11
130.4617481150108
 21
142.0679056767303
 31
0.0
  0
LINE
  5
C9CE
330
C9A5
100
AcDbEntity
  8
AM_2
100
AcDbLine
 10
136.7117481150108
 20
141.4429056767303
 30
0.0
 11
130.4617481150108
 21
141.4429056767303
 31
0.0
  0
LINE
  5
C9CF
330
C9A5
100
AcDbEntity
  8
AM_2
100
AcDbLine
 10
136.7117481150108
 20
140.8179056767303
 30
0.0
 11
130.4617481150108
 21
140.8179056767303
 31
0.0
  0
LINE
  5
C9D0
330
C9A5
100
AcDbEntity
  8
AM_2
100
AcDbLine
 10
136.7117481150108
 20
140.0679176767303
 30
0.0
 11
130.4617481150108
 21
140.0679176767303
 31
0.0
  0
LINE
  5
C9D1
330
C9A5
100
AcDbEntity
  8
AM_2
100
AcDbLine
 10
136.7117481150108
 20
139.3179096767304
 30
0.0
 11
130.4617481150108
 21
139.3179096767304
 31
0.0
  0
LINE
  5
C9D2
330
C9A5
100
AcDbEntity
  8
AM_2
100
AcDbLine
 10
136.7117481150108
 20
138.5679026767303
 30
0.0
 11
130.4617481150108
 21
138.5679026767303
 31
0.0
  0
LINE
  5
C9D3
330
C9A5
100
AcDbEntity
  8
AM_2
100
AcDbLine
 10
136.7117481150108
 20
137.5679176767303
 30
0.0
 11
130.4617481150108
 21
137.5679176767303
 31
0.0
  0
LINE
  5
C9D4
330
C9A5
100
AcDbEntity
  8
AM_2
100
AcDbLine
 10
136.7117481150108
 20
136.5679136767304
 30
0.0
 11
130.4617481150108
 21
136.5679136767304
 31
0.0
  0
LINE
  5
C9D5
330
C9A5
100
AcDbEntity
  8
AM_2
100
AcDbLine
 10
136.7117481150108
 20
135.4429206767303
 30
0.0
 11
130.4617481150108
 21
135.4429206767303
 31
0.0
  0
LINE
  5
C9D6
330
C9A5
100
AcDbEntity
  8
AM_2
100
AcDbLine
 10
136.7117481150108
 20
134.1929026767303
 30
0.0
 11
130.4617481150108
 21
134.1929026767303
 31
0.0
  0
LINE
  5
C9D7
330
C9A5
100
AcDbEntity
  8
AM_2
100
AcDbLine
 10
136.7117481150108
 20
143.9429056767303
 30
0.0
 11
130.4617481150108
 21
143.9429056767303
 31
0.0
  0
LINE
  5
C9D8
330
C9A5
100
AcDbEntity
  8
AM_2
100
AcDbLine
 10
136.7117481150108
 20
143.6929096767304
 30
0.0
 11
130.4617481150108
 21
143.6929096767304
 31
0.0
  0
LINE
  5
C9D9
330
C9A5
100
AcDbEntity
  8
AM_2
100
AcDbLine
 10
136.7117481150108
 20
124.4429176767303
 30
0.0
 11
130.4617481150108
 21
124.4429176767303
 31
0.0
  0
LINE
  5
C9DA
330
C9A5
100
AcDbEntity
  8
AM_2
100
AcDbLine
 10
136.7117481150108
 20
124.6929136767303
 30
0.0
 11
130.4617481150108
 21
124.6929136767303
 31
0.0
  0
LINE
  5
C9DB
330
C9A5
100
AcDbEntity
  8
AM_2
100
AcDbLine
 10
136.7117481150108
 20
125.0678986767303
 30
0.0
 11
130.4617481150108
 21
125.0678986767303
 31
0.0
  0
LINE
  5
C9DC
330
C9A5
100
AcDbEntity
  8
AM_2
100
AcDbLine
 10
136.7117481150108
 20
125.4429206767303
 30
0.0
 11
130.4617481150108
 21
125.4429206767303
 31
0.0
  0
LINE
  5
C9DD
330
C9A5
100
AcDbEntity
  8
AM_2
100
AcDbLine
 10
136.7117481150108
 20
125.8179246767303
 30
0.0
 11
130.4617481150108
 21
125.8179246767303
 31
0.0
  0
LINE
  5
C9DE
330
C9A5
100
AcDbEntity
  8
AM_2
100
AcDbLine
 10
136.7117481150108
 20
126.3179176767303
 30
0.0
 11
130.4617481150108
 21
126.3179176767303
 31
0.0
  0
LINE
  5
C9DF
330
C9A5
100
AcDbEntity
  8
AM_2
100
AcDbLine
 10
136.7117481150108
 20
126.9429176767303
 30
0.0
 11
130.4617481150108
 21
126.9429176767303
 31
0.0
  0
LINE
  5
C9E0
330
C9A5
100
AcDbEntity
  8
AM_2
100
AcDbLine
 10
136.7117481150108
 20
127.5679176767303
 30
0.0
 11
130.4617481150108
 21
127.5679176767303
 31
0.0
  0
LINE
  5
C9E1
330
C9A5
100
AcDbEntity
  8
AM_2
100
AcDbLine
 10
136.7117481150108
 20
128.3179056767303
 30
0.0
 11
130.4617481150108
 21
128.3179056767303
 31
0.0
  0
LINE
  5
C9E2
330
C9A5
100
AcDbEntity
  8
AM_2
100
AcDbLine
 10
136.7117481150108
 20
129.0679136767304
 30
0.0
 11
130.4617481150108
 21
129.0679136767304
 31
0.0
  0
LINE
  5
C9E3
330
C9A5
100
AcDbEntity
  8
AM_2
100
AcDbLine
 10
136.7117481150108
 20
129.8179206767303
 30
0.0
 11
130.4617481150108
 21
129.8179206767303
 31
0.0
  0
LINE
  5
C9E4
330
C9A5
100
AcDbEntity
  8
AM_2
100
AcDbLine
 10
136.7117481150108
 20
130.8179056767303
 30
0.0
 11
130.4617481150108
 21
130.8179056767303
 31
0.0
  0
LINE
  5
C9E5
330
C9A5
100
AcDbEntity
  8
AM_2
100
AcDbLine
 10
136.7117481150108
 20
131.8179096767304
 30
0.0
 11
130.4617481150108
 21
131.8179096767304
 31
0.0
  0
LINE
  5
C9E6
330
C9A5
100
AcDbEntity
  8
AM_2
100
AcDbLine
 10
136.7117481150108
 20
132.9429026767303
 30
0.0
 11
130.4617481150108
 21
132.9429026767303
 31
0.0
  0
LINE
  5
C9E7
330
C9A5
100
AcDbEntity
  8
AM_2
100
AcDbLine
 10
136.7117481150108
 20
134.1929026767303
 30
0.0
 11
130.4617481150108
 21
134.1929026767303
 31
0.0
  0
LINE
  5
C9E8
330
C9A5
100
AcDbEntity
  8
AM_0
100
AcDbLine
 10
157.2578271150107
 20
138.9429246767303
 30
0.0
 11
156.9340351150107
 21
134.8491636767303
 31
0.0
  0
LINE
  5
C9E9
330
C9A5
100
AcDbEntity
  8
AM_0
100
AcDbLine
 10
156.8227981150107
 20
133.5366596767304
 30
0.0
 11
156.5003041150107
 21
129.4428986767303
 31
0.0
  0
LINE
  5
C9EA
330
C9A5
100
AcDbEntity
  8
AM_0
100
AcDbLine
 10
157.9315401150107
 20
131.6929026767303
 30
0.0
 11
158.4617331150108
 21
131.6929026767303
 31
0.0
  0
LINE
  5
C9EB
330
C9A5
100
AcDbEntity
  8
AM_0
100
AcDbLine
 10
156.9340351150107
 20
134.8491636767303
 30
0.0
 11
155.6528301150107
 21
134.5054026767303
 31
0.0
  0
LINE
  5
C9EC
330
C9A5
100
AcDbEntity
  8
AM_0
100
AcDbLine
 10
158.1040401150108
 20
133.8804206767303
 30
0.0
 11
156.8227981150107
 21
133.5366596767304
 31
0.0
  0
LINE
  5
C9ED
330
C9A5
100
AcDbEntity
  8
AM_0
100
AcDbLine
 10
156.0040501150107
 20
138.9429246767303
 30
0.0
 11
155.6528301150107
 21
134.5054026767303
 31
0.0
  0
LINE
  5
C9EE
330
C9A5
100
AcDbEntity
  8
AM_0
100
AcDbLine
 10
158.1040401150108
 20
133.8804206767303
 30
0.0
 11
157.7540801150107
 21
129.4428986767303
 31
0.0
  0
LINE
  5
C9EF
330
C9A5
100
AcDbEntity
  8
AM_0
100
AcDbLine
 10
156.0040501150107
 20
138.9429246767303
 30
0.0
 11
157.2578271150107
 21
138.9429246767303
 31
0.0
  0
LINE
  5
C9F0
330
C9A5
100
AcDbEntity
  8
AM_0
100
AcDbLine
 10
156.5003041150107
 20
129.4428986767303
 30
0.0
 11
157.7540801150107
 21
129.4428986767303
 31
0.0
  0
LINE
  5
C9F1
330
C9A5
100
AcDbEntity
  8
AM_0
100
AcDbLine
 10
140.4617481150108
 20
139.1929026767303
 30
0.0
 11
138.5867481150107
 21
139.1929026767303
 31
0.0
  0
LINE
  5
C9F2
330
C9A5
100
AcDbEntity
  8
AM_0
100
AcDbLine
 10
140.4617481150108
 20
129.1929206767303
 30
0.0
 11
138.5867481150107
 21
129.1929206767303
 31
0.0
  0
LINE
  5
C9F3
330
C9A5
100
AcDbEntity
  8
AM_0
100
AcDbLine
 10
136.7117481150108
 20
144.1929206767303
 30
0.0
 11
130.4617481150108
 21
144.1929206767303
 31
0.0
  0
LINE
  5
C9F4
330
C9A5
100
AcDbEntity
  8
AM_0
100
AcDbLine
 10
136.7117481150108
 20
124.1929026767303
 30
0.0
 11
130.4617481150108
 21
124.1929026767303
 31
0.0
  0
LINE
  5
C9F5
330
C9A5
100
AcDbEntity
  8
AM_0
100
AcDbLine
 10
138.5867481150107
 20
127.9429206767303
 30
0.0
 11
138.5867481150107
 21
140.4429026767303
 31
0.0
  0
LINE
  5
C9F6
330
C9A5
100
AcDbEntity
  8
AM_0
100
AcDbLine
 10
136.7117481150108
 20
124.1929026767303
 30
0.0
 11
136.7117481150108
 21
144.1929206767303
 31
0.0
  0
LINE
  5
C9F7
330
C9A5
100
AcDbEntity
  8
AM_0
100
AcDbLine
 10
130.4617481150108
 20
124.1929026767303
 30
0.0
 11
130.4617481150108
 21
144.1929206767303
 31
0.0
  0
LINE
  5
C9F8
330
C9A5
100
AcDbEntity
  8
AM_0
100
AcDbLine
 10
140.4617481150108
 20
127.3179026767303
 30
0.0
 11
140.4617481150108
 21
141.0679206767303
 31
0.0
  0
LINE
  5
C9F9
330
C9A5
100
AcDbEntity
  8
AM_0
100
AcDbLine
 10
141.7117481150107
 20
127.3179026767303
 30
0.0
 11
140.4617481150108
 21
127.3179026767303
 31
0.0
  0
LINE
  5
C9FA
330
C9A5
100
AcDbEntity
  8
AM_0
100
AcDbLine
 10
141.7117481150107
 20
141.0679206767303
 30
0.0
 11
140.4617481150108
 21
141.0679206767303
 31
0.0
  0
LINE
  5
C9FB
330
C9A5
100
AcDbEntity
  8
AM_0
100
AcDbLine
 10
158.4617331150108
 20
136.6929206767303
 30
0.0
 11
157.0802901150108
 21
136.6929206767303
 31
0.0
  0
LINE
  5
C9FC
330
C9A5
100
AcDbEntity
  8
AM_0
100
AcDbLine
 10
162.4617481150107
 20
131.6929026767303
 30
0.0
 11
166.2117481150108
 21
131.6929026767303
 31
0.0
  0
LINE
  5
C9FD
330
C9A5
100
AcDbEntity
  8
AM_0
100
AcDbLine
 10
166.7117481150107
 20
136.2191546767303
 30
0.0
 11
166.2117481150108
 21
136.6929206767303
 31
0.0
  0
LINE
  5
C9FE
330
C9A5
100
AcDbEntity
  8
AM_0
100
AcDbLine
 10
166.2117481150108
 20
136.6929206767303
 30
0.0
 11
162.4617481150107
 21
136.6929206767303
 31
0.0
  0
LINE
  5
C9FF
330
C9A5
100
AcDbEntity
  8
AM_0
100
AcDbLine
 10
166.2117481150108
 20
131.6929026767303
 30
0.0
 11
166.7117481150107
 21
132.1666686767303
 31
0.0
  0
LINE
  5
CA00
330
C9A5
100
AcDbEntity
  8
AM_0
100
AcDbLine
 10
141.7117481150107
 20
127.3179026767303
 30
0.0
 11
141.7117481150107
 21
141.0679206767303
 31
0.0
  0
LINE
  5
CA01
330
C9A5
100
AcDbEntity
  8
AM_0
100
AcDbLine
 10
129.2117671150107
 20
127.3179006767303
 30
0.0
 11
129.2117671150107
 21
127.3179026767303
 31
0.0
  0
LINE
  5
CA02
330
C9A5
100
AcDbEntity
  8
AM_0
100
AcDbLine
 10
161.9861701150107
 20
129.1304176767303
 30
0.0
 11
158.4617331150108
 21
129.1304176767303
 31
0.0
  0
LINE
  5
CA03
330
C9A5
100
AcDbEntity
  8
AM_0
100
AcDbLine
 10
161.9861881150108
 20
139.2554056767303
 30
0.0
 11
158.4617331150108
 21
139.2554056767303
 31
0.0
  0
LINE
  5
CA04
330
C9A5
100
AcDbEntity
  8
AM_2
100
AcDbLine
 10
158.4617331150108
 20
131.6566626767303
 30
0.0
 11
162.0250131150108
 21
131.6566626767303
 31
0.0
  0
LINE
  5
CA05
330
C9A5
100
AcDbEntity
  8
AM_2
100
AcDbLine
 10
158.4617331150108
 20
136.7291606767303
 30
0.0
 11
162.0250071150107
 21
136.7291606767303
 31
0.0
  0
LINE
  5
CA06
330
C9A5
100
AcDbEntity
  8
AM_0
100
AcDbLine
 10
158.4617331150108
 20
139.2554056767303
 30
0.0
 11
158.4617331150108
 21
129.1304176767303
 31
0.0
  0
LINE
  5
CA07
330
C9A5
100
AcDbEntity
  8
AM_0
100
AcDbLine
 10
166.7117481150107
 20
132.1666686767303
 30
0.0
 11
166.7117481150107
 21
136.2191546767303
 31
0.0
  0
LINE
  5
CA08
330
C9A5
100
AcDbEntity
  8
AM_7
100
AcDbLine
 10
125.4617481150108
 20
134.1929026767303
 30
0.0
 11
170.7117481150107
 21
134.1929026767303
 31
0.0
  0
LINE
  5
CA09
330
C9A5
100
AcDbEntity
  8
AM_2
100
AcDbLine
 10
166.7117481150107
 20
136.2191546767303
 30
0.0
 11
162.4617481150107
 21
136.2191546767303
 31
0.0
  0
LINE
  5
CA0A
330
C9A5
100
AcDbEntity
  8
AM_0
100
AcDbLine
 10
166.2117481150108
 20
131.6929026767303
 30
0.0
 11
166.2117481150108
 21
136.6929206767303
 31
0.0
  0
LINE
  5
CA0B
330
C9A5
100
AcDbEntity
  8
AM_2
100
AcDbLine
 10
162.4617481150107
 20
132.1666686767303
 30
0.0
 11
166.7117481150107
 21
132.1666686767303
 31
0.0
  0
LINE
  5
CA0C
330
C9A5
100
AcDbEntity
  8
AM_2
100
AcDbLine
 10
158.4617331150108
 20
136.2191546767303
 30
0.0
 11
157.0427921150108
 21
136.2191546767303
 31
0.0
  0
LINE
  5
CA0D
330
C9A5
100
AcDbEntity
  8
AM_2
100
AcDbLine
 10
157.9690391150108
 20
132.1666686767303
 30
0.0
 11
158.4617331150108
 21
132.1666686767303
 31
0.0
  0
LINE
  5
CA0E
330
C9A5
100
AcDbEntity
  8
AM_0
100
AcDbLine
 10
155.8265521150107
 20
136.6929206767303
 30
0.0
 11
150.6278431150107
 21
136.6929206767303
 31
0.0
  0
LINE
  5
CA0F
330
C9A5
100
AcDbEntity
  8
AM_0
100
AcDbLine
 10
149.3778041150107
 20
136.6929206767303
 30
0.0
 11
141.7117481150107
 21
136.6929206767303
 31
0.0
  0
LINE
  5
CA10
330
C9A5
100
AcDbEntity
  8
AM_0
100
AcDbLine
 10
150.6278431150107
 20
131.6929026767303
 30
0.0
 11
156.6778021150107
 21
131.6929026767303
 31
0.0
  0
LINE
  5
CA11
330
C9A5
100
AcDbEntity
  8
AM_0
100
AcDbLine
 10
150.6278431150107
 20
139.1929026767303
 30
0.0
 11
149.3778041150107
 21
139.1929026767303
 31
0.0
  0
LINE
  5
CA12
330
C9A5
100
AcDbEntity
  8
AM_0
100
AcDbLine
 10
150.6278431150107
 20
129.1929206767303
 30
0.0
 11
149.3778041150107
 21
129.1929206767303
 31
0.0
  0
LINE
  5
CA13
330
C9A5
100
AcDbEntity
  8
AM_0
100
AcDbLine
 10
149.3778041150107
 20
129.1929206767303
 30
0.0
 11
149.3778041150107
 21
139.1929026767303
 31
0.0
  0
LINE
  5
CA14
330
C9A5
100
AcDbEntity
  8
AM_0
100
AcDbLine
 10
150.6278431150107
 20
129.1929206767303
 30
0.0
 11
150.6278431150107
 21
139.1929026767303
 31
0.0
  0
LINE
  5
CA15
330
C9A5
100
AcDbEntity
  8
AM_0
100
AcDbLine
 10
141.7117481150107
 20
131.6929026767303
 30
0.0
 11
149.3778041150107
 21
131.6929026767303
 31
0.0
  0
LINE
  5
CA16
330
C9A5
100
AcDbEntity
  8
AM_2
100
AcDbLine
 10
141.7117481150107
 20
132.1666686767303
 30
0.0
 11
149.3778041150107
 21
132.1666686767303
 31
0.0
  0
LINE
  5
CA17
330
C9A5
100
AcDbEntity
  8
AM_2
100
AcDbLine
 10
150.6278431150107
 20
132.1666686767303
 30
0.0
 11
156.7153001150108
 21
132.1666686767303
 31
0.0
  0
LINE
  5
CA18
330
C9A5
100
AcDbEntity
  8
AM_2
100
AcDbLine
 10
149.3778041150107
 20
136.2191546767303
 30
0.0
 11
141.7117481150107
 21
136.2191546767303
 31
0.0
  0
LINE
  5
CA19
330
C9A5
100
AcDbEntity
  8
AM_2
100
AcDbLine
 10
155.7890531150107
 20
136.2191546767303
 30
0.0
 11
150.6278431150107
 21
136.2191546767303
 31
0.0
  0
DIMENSION
  5
CA1A
330
C9A5
100
AcDbEntity
  8
AM_5
100
AcDbDimension
  2
*D5
 10
129.2117671150107
 20
104.1929026767303
 30
0.0
 11
135.4617576150107
 21
107.2929026767303
 31
0.0
  1
D
 71
     5
 42
12.49998100000005
  3
SYS$0
100
AcDbAlignedDimension
 13
141.7117481150107
 23
127.3179026767303
 33
0.0
 14
129.2117671150107
 24
127.3179026767303
 34
0.0
100
AcDbRotatedDimension
  0
DIMENSION
  5
CA1B
330
C9A5
100
AcDbEntity
  8
AM_5
100
AcDbDimension
  2
*D6
 10
166.7117481150107
 20
104.1929026767303
 30
0.0
 11
154.2117481150107
 21
107.2929026767303
 31
0.0
  1
C
 71
     5
 42
25.0
  3
SYS$0
100
AcDbAlignedDimension
 13
141.7117481150107
 23
127.3179026767303
 33
0.0
 14
166.7117481150107
 24
132.1666686767303
 34
0.0
 50
180.0
100
AcDbRotatedDimension
  0
DIMENSION
  5
CA1C
330
C9A5
100
AcDbEntity
  8
AM_5
100
AcDbDimension
  2
*D7
 10
150.6278431150107
 20
114.1929026767311
 30
0.0
 11
154.9278431150107
 21
117.2929026767311
 31
0.0
  1
G
 71
     5
 42
1.250039000000015
  3
SYS$0
100
AcDbAlignedDimension
 13
149.3778041150107
 23
129.1929206767303
 33
0.0
 14
150.6278431150107
 24
129.1929206767303
 34
0.0
100
AcDbRotatedDimension
  0
DIMENSION
  5
CA1D
330
C9A5
100
AcDbEntity
  8
AM_5
100
AcDbDimension
  2
*D8
 10
119.2117671150107
 20
124.1929026767303
 30
0.0
 11
116.1117671150107
 21
134.1929116767303
 31
0.0
  1
%%cA
 71
     5
 42
20.00001800000001
  3
SYS$0
100
AcDbAlignedDimension
 13
130.4617481150108
 23
144.1929206767303
 33
0.0
 14
130.4617481150108
 24
124.1929026767303
 34
0.0
 50
90.0
100
AcDbRotatedDimension
  0
DIMENSION
  5
CA1E
330
C9A5
100
AcDbEntity
  8
AM_5
100
AcDbDimension
  2
*D9
 10
146.7117481150108
 20
141.0679206767303
 30
0.0
 11
146.7117481150108
 21
146.3279206767304
 31
0.0
 70
   128
  1
%%cE
 71
     5
 42
13.75001800000001
  3
SYS$0
100
AcDbAlignedDimension
 13
141.7117481150107
 23
127.3179026767303
 33
0.0
 14
141.7117481150107
 24
141.0679206767303
 34
0.0
 50
90.0
100
AcDbRotatedDimension
  0
DIMENSION
  5
CA1F
330
C9A5
100
AcDbEntity
  8
AM_5
100
AcDbDimension
  2
*D10
 10
154.6278431150107
 20
139.1929026767303
 30
0.0
 11
154.6278431150107
 21
146.3279206767304
 31
0.0
 70
   128
  1
%%cF
 71
     5
 42
9.999981999999988
  3
SYS$0
100
AcDbAlignedDimension
 13
150.6278431150107
 23
129.1929206767303
 33
0.0
 14
150.6278431150107
 24
139.1929026767303
 34
0.0
 50
90.0
100
AcDbRotatedDimension
  0
INSERT
  5
CA20
330
C9A5
100
AcDbEntity
  8
AM_5
 48
10.0
100
AcDbBlockReference
  2
*S13
 10
0.0
 20
0.0
 30
0.0
  0
INSERT
  5
CA21
330
C9A5
100
AcDbEntity
  8
AM_5
 48
10.0
100
AcDbBlockReference
  2
*S14
 10
0.0
 20
0.0
 30
0.0
  0
INSERT
  5
CA22
330
C9A5
100
AcDbEntity
  8
AM_5
 48
10.0
100
AcDbBlockReference
  2
*S15
 10
0.0
 20
0.0
 30
0.0
  0
LINE
  5
CA23
330
C9A5
100
AcDbEntity
  8
AM_0
100
AcDbLine
 10
58.48484848484838
 20
66.01010101010101
 30
0.0
 11
238.4848484848484
 21
66.01010101010101
 31
0.0
  0
LINE
  5
CA24
330
C9A5
100
AcDbEntity
  8
AM_0
100
AcDbLine
 10
58.48484848484838
 20
74.01010101010101
 30
0.0
 11
58.48484848484838
 21
66.01010101010101
 31
0.0
  0
LINE
  5
CA25
330
C9A5
100
AcDbEntity
  8
AM_0
100
AcDbLine
 10
98.48484848484838
 20
74.01010101010101
 30
0.0
 11
98.48484848484838
 21
66.01010101010101
 31
0.0
  0
LINE
  5
CA26
330
C9A5
100
AcDbEntity
  8
AM_0
100
AcDbLine
 10
58.48484848484838
 20
74.01010101010101
 30
0.0
 11
238.4848484848484
 21
74.01010101010101
 31
0.0
  0
LINE
  5
CA27
330
C9A5
100
AcDbEntity
  8
AM_0
100
AcDbLine
 10
58.48484848484838
 20
66.01010101010101
 30
0.0
 11
58.48484848484838
 21
58.01010101010101
 31
0.0
  0
LINE
  5
CA28
330
C9A5
100
AcDbEntity
  8
AM_0
100
AcDbLine
 10
98.48484848484838
 20
66.01010101010101
 30
0.0
 11
98.48484848484838
 21
58.01010101010101
 31
0.0
  0
LINE
  5
CA29
330
C9A5
100
AcDbEntity
  8
AM_2
100
AcDbLine
 10
118.4848484848484
 20
74.01010101010101
 30
0.0
 11
118.4848484848484
 21
66.01010101010101
 31
0.0
  0
LINE
  5
CA2A
330
C9A5
100
AcDbEntity
  8
AM_2
100
AcDbLine
 10
118.4848484848484
 20
66.01010101010101
 30
0.0
 11
118.4848484848484
 21
58.01010101010101
 31
0.0
  0
MTEXT
  5
CA2B
330
C9A5
100
AcDbEntity
  8
AM_6
100
AcDbMText
 10
108.4848484848484
 20
70.01010101010101
 30
0.0
 40
3.200000000000001
 41
0.0
 71
     5
 72
     1
  1
A
 73
     1
 44
1.0
1001
ACAD
1000
MTEXTBEGIN
1070
    73
1070
     1
1070
    44
1040
1.0
1070
    74
1070
     0
1000
MTEXTEND
  0
LINE
  5
CA2C
330
C9A5
100
AcDbEntity
  8
AM_2
100
AcDbLine
 10
138.4848484848484
 20
74.01010101010101
 30
0.0
 11
138.4848484848484
 21
66.01010101010101
 31
0.0
  0
LINE
  5
CA2D
330
C9A5
100
AcDbEntity
  8
AM_2
100
AcDbLine
 10
138.4848484848484
 20
66.01010101010101
 30
0.0
 11
138.4848484848484
 21
58.01010101010101
 31
0.0
  0
MTEXT
  5
CA2E
330
C9A5
100
AcDbEntity
  8
AM_6
100
AcDbMText
 10
128.4848484848484
 20
70.01010101010101
 30
0.0
 40
3.200000000000001
 41
0.0
 71
     5
 72
     1
  1
B
 73
     1
 44
1.0
1001
ACAD
1000
MTEXTBEGIN
1070
    73
1070
     1
1070
    44
1040
1.0
1070
    74
1070
     0
1000
MTEXTEND
  0
LINE
  5
CA2F
330
C9A5
100
AcDbEntity
  8
AM_2
100
AcDbLine
 10
158.4848484848484
 20
74.01010101010101
 30
0.0
 11
158.4848484848484
 21
66.01010101010101
 31
0.0
  0
LINE
  5
CA30
330
C9A5
100
AcDbEntity
  8
AM_2
100
AcDbLine
 10
158.4848484848484
 20
66.01010101010101
 30
0.0
 11
158.4848484848484
 21
58.01010101010101
 31
0.0
  0
MTEXT
  5
CA31
330
C9A5
100
AcDbEntity
  8
AM_6
100
AcDbMText
 10
148.4848484848484
 20
70.01010101010101
 30
0.0
 40
3.200000000000001
 41
0.0
 71
     5
 72
     1
  1
C
 73
     1
 44
1.0
1001
ACAD
1000
MTEXTBEGIN
1070
    73
1070
     1
1070
    44
1040
1.0
1070
    74
1070
     0
1000
MTEXTEND
  0
MTEXT
  5
CA32
330
C9A5
100
AcDbEntity
  8
AM_6
100
AcDbMText
 10
148.4848484848484
 20
62.01010101010101
 30
0.0
 40
3.200000000000001
 41
0.0
 71
     5
 72
     1
  1
20
 73
     1
 44
1.0
1001
ACAD
1000
MTEXTBEGIN
1070
    73
1070
     1
1070
    44
1040
1.0
1070
    74
1070
     0
1000
MTEXTEND
  0
LINE
  5
CA33
330
C9A5
100
AcDbEntity
  8
AM_2
100
AcDbLine
 10
178.4848484848484
 20
74.01010101010101
 30
0.0
 11
178.4848484848484
 21
66.01010101010101
 31
0.0
  0
LINE
  5
CA34
330
C9A5
100
AcDbEntity
  8
AM_2
100
AcDbLine
 10
178.4848484848484
 20
66.01010101010101
 30
0.0
 11
178.4848484848484
 21
58.01010101010101
 31
0.0
  0
MTEXT
  5
CA35
330
C9A5
100
AcDbEntity
  8
AM_6
100
AcDbMText
 10
168.4848484848484
 20
70.01010101010101
 30
0.0
 40
3.200000000000001
 41
0.0
 71
     5
 72
     1
  1
D
 73
     1
 44
1.0
1001
ACAD
1000
MTEXTBEGIN
1070
    73
1070
     1
1070
    44
1040
1.0
1070
    74
1070
     0
1000
MTEXTEND
  0
MTEXT
  5
CA36
330
C9A5
100
AcDbEntity
  8
AM_6
100
AcDbMText
 10
168.4848484848484
 20
62.01010101010101
 30
0.0
 40
3.200000000000001
 41
0.0
 71
     5
 72
     1
  1
8
 73
     1
 44
1.0
1001
ACAD
1000
MTEXTBEGIN
1070
    73
1070
     1
1070
    44
1040
1.0
1070
    74
1070
     0
1000
MTEXTEND
  0
LINE
  5
CA37
330
C9A5
100
AcDbEntity
  8
AM_2
100
AcDbLine
 10
198.4848484848484
 20
74.01010101010101
 30
0.0
 11
198.4848484848484
 21
66.01010101010101
 31
0.0
  0
LINE
  5
CA38
330
C9A5
100
AcDbEntity
  8
AM_2
100
AcDbLine
 10
198.4848484848484
 20
66.01010101010101
 30
0.0
 11
198.4848484848484
 21
58.01010101010101
 31
0.0
  0
MTEXT
  5
CA39
330
C9A5
100
AcDbEntity
  8
AM_6
100
AcDbMText
 10
188.4848484848484
 20
70.01010101010101
 30
0.0
 40
3.200000000000001
 41
0.0
 71
     5
 72
     1
  1
E
 73
     1
 44
1.0
1001
ACAD
1000
MTEXTBEGIN
1070
    73
1070
     1
1070
    44
1040
1.0
1070
    74
1070
     0
1000
MTEXTEND
  0
LINE
  5
CA3A
330
C9A5
100
AcDbEntity
  8
AM_2
100
AcDbLine
 10
218.4848484848484
 20
74.01010101010101
 30
0.0
 11
218.4848484848484
 21
66.01010101010101
 31
0.0
  0
LINE
  5
CA3B
330
C9A5
100
AcDbEntity
  8
AM_2
100
AcDbLine
 10
218.4848484848484
 20
66.01010101010101
 30
0.0
 11
218.4848484848484
 21
58.01010101010101
 31
0.0
  0
MTEXT
  5
CA3C
330
C9A5
100
AcDbEntity
  8
AM_6
100
AcDbMText
 10
208.4848484848484
 20
70.01010101010101
 30
0.0
 40
3.200000000000001
 41
0.0
 71
     5
 72
     1
  1
F
 73
     1
 44
1.0
1001
ACAD
1000
MTEXTBEGIN
1070
    73
1070
     1
1070
    44
1040
1.0
1070
    74
1070
     0
1000
MTEXTEND
  0
LINE
  5
CA3D
330
C9A5
100
AcDbEntity
  8
AM_0
100
AcDbLine
 10
238.4848484848484
 20
74.01010101010101
 30
0.0
 11
238.4848484848484
 21
66.01010101010101
 31
0.0
  0
LINE
  5
CA3E
330
C9A5
100
AcDbEntity
  8
AM_0
100
AcDbLine
 10
238.4848484848484
 20
66.01010101010101
 30
0.0
 11
238.4848484848484
 21
58.01010101010101
 31
0.0
  0
MTEXT
  5
CA3F
330
C9A5
100
AcDbEntity
  8
AM_6
100
AcDbMText
 10
228.4848484848484
 20
70.01010101010101
 30
0.0
 40
3.200000000000001
 41
0.0
 71
     5
 72
     1
  1
G
 73
     1
 44
1.0
1001
ACAD
1000
MTEXTBEGIN
1070
    73
1070
     1
1070
    44
1040
1.0
1070
    74
1070
     0
1000
MTEXTEND
  0
MTEXT
  5
CA40
330
C9A5
100
AcDbEntity
  8
AM_6
100
AcDbMText
 10
108.4848484848484
 20
62.01010101010101
 30
0.0
 40
3.200000000000001
 41
0.0
 71
     5
 72
     1
  1
11
 73
     1
 44
1.0
1001
ACAD
1000
MTEXTBEGIN
1070
    73
1070
     1
1070
    44
1040
1.0
1070
    74
1070
     0
1000
MTEXTEND
  0
MTEXT
  5
CA41
330
C9A5
100
AcDbEntity
  8
AM_6
100
AcDbMText
 10
128.4848484848484
 20
62.01010101010101
 30
0.0
 40
3.200000000000001
 41
0.0
 71
     5
 72
     1
  1
M3
 73
     1
 44
1.0
1001
ACAD
1000
MTEXTBEGIN
1070
    73
1070
     1
1070
    44
1040
1.0
1070
    74
1070
     0
1000
MTEXTEND
  0
MTEXT
  5
CA42
330
C9A5
100
AcDbEntity
  8
AM_6
100
AcDbMText
 10
188.4848484848484
 20
62.01010101010101
 30
0.0
 40
3.200000000000001
 41
0.0
 71
     5
 72
     1
  1
8
 73
     1
 44
1.0
1001
ACAD
1000
MTEXTBEGIN
1070
    73
1070
     1
1070
    44
1040
1.0
1070
    74
1070
     0
1000
MTEXTEND
  0
MTEXT
  5
CA43
330
C9A5
100
AcDbEntity
  8
AM_6
100
AcDbMText
 10
208.4848484848484
 20
62.01010101010101
 30
0.0
 40
3.200000000000001
 41
0.0
 71
     5
 72
     1
  1
8
 73
     1
 44
1.0
1001
ACAD
1000
MTEXTBEGIN
1070
    73
1070
     1
1070
    44
1040
1.0
1070
    74
1070
     0
1000
MTEXTEND
  0
MTEXT
  5
CA44
330
C9A5
100
AcDbEntity
  8
AM_6
100
AcDbMText
 10
228.4848484848484
 20
62.01010101010101
 30
0.0
 40
3.200000000000001
 41
0.0
 71
     5
 72
     1
  1
0.5
 73
     1
 44
1.0
1001
ACAD
1000
MTEXTBEGIN
1070
    73
1070
     1
1070
    44
1040
1.0
1070
    74
1070
     0
1000
MTEXTEND
  0
LINE
  5
CA45
330
C9A5
100
AcDbEntity
  8
AM_2
100
AcDbLine
 10
58.48484848484838
 20
58.01010101010101
 30
0.0
 11
238.4848484848484
 21
58.01010101010101
 31
0.0
  0
LINE
  5
CA46
330
C9A5
100
AcDbEntity
  8
AM_0
100
AcDbLine
 10
58.48484848484838
 20
58.01010101010101
 30
0.0
 11
58.48484848484838
 21
50.01010101010101
 31
0.0
  0
LINE
  5
CA47
330
C9A5
100
AcDbEntity
  8
AM_0
100
AcDbLine
 10
98.48484848484838
 20
58.01010101010101
 30
0.0
 11
98.48484848484838
 21
50.01010101010101
 31
0.0
  0
LINE
  5
CA48
330
C9A5
100
AcDbEntity
  8
AM_2
100
AcDbLine
 10
118.4848484848484
 20
58.01010101010101
 30
0.0
 11
118.4848484848484
 21
50.01010101010101
 31
0.0
  0
LINE
  5
CA49
330
C9A5
100
AcDbEntity
  8
AM_2
100
AcDbLine
 10
138.4848484848484
 20
58.01010101010101
 30
0.0
 11
138.4848484848484
 21
50.01010101010101
 31
0.0
  0
LINE
  5
CA4A
330
C9A5
100
AcDbEntity
  8
AM_2
100
AcDbLine
 10
158.4848484848484
 20
58.01010101010101
 30
0.0
 11
158.4848484848484
 21
50.01010101010101
 31
0.0
  0
MTEXT
  5
CA4B
330
C9A5
100
AcDbEntity
  8
AM_6
100
AcDbMText
 10
148.4848484848484
 20
54.01010101010101
 30
0.0
 40
3.200000000000001
 41
0.0
 71
     5
 72
     1
  1
20
 73
     1
 44
1.0
1001
ACAD
1000
MTEXTBEGIN
1070
    73
1070
     1
1070
    44
1040
1.0
1070
    74
1070
     0
1000
MTEXTEND
  0
LINE
  5
CA4C
330
C9A5
100
AcDbEntity
  8
AM_2
100
AcDbLine
 10
178.4848484848484
 20
58.01010101010101
 30
0.0
 11
178.4848484848484
 21
50.01010101010101
 31
0.0
  0
MTEXT
  5
CA4D
330
C9A5
100
AcDbEntity
  8
AM_6
100
AcDbMText
 10
168.4848484848484
 20
54.01010101010101
 30
0.0
 40
3.200000000000001
 41
0.0
 71
     5
 72
     1
  1
10
 73
     1
 44
1.0
1001
ACAD
1000
MTEXTBEGIN
1070
    73
1070
     1
1070
    44
1040
1.0
1070
    74
1070
     0
1000
MTEXTEND
  0
LINE
  5
CA4E
330
C9A5
100
AcDbEntity
  8
AM_2
100
AcDbLine
 10
198.4848484848484
 20
58.01010101010101
 30
0.0
 11
198.4848484848484
 21
50.01010101010101
 31
0.0
  0
LINE
  5
CA4F
330
C9A5
100
AcDbEntity
  8
AM_2
100
AcDbLine
 10
218.4848484848484
 20
58.01010101010101
 30
0.0
 11
218.4848484848484
 21
50.01010101010101
 31
0.0
  0
LINE
  5
CA50
330
C9A5
100
AcDbEntity
  8
AM_0
100
AcDbLine
 10
238.4848484848484
 20
58.01010101010101
 30
0.0
 11
238.4848484848484
 21
50.01010101010101
 31
0.0
  0
MTEXT
  5
CA51
330
C9A5
100
AcDbEntity
  8
AM_6
100
AcDbMText
 10
108.4848484848484
 20
54.01010101010101
 30
0.0
 40
3.200000000000001
 41
0.0
 71
     5
 72
     1
  1
16
 73
     1
 44
1.0
1001
ACAD
1000
MTEXTBEGIN
1070
    73
1070
     1
1070
    44
1040
1.0
1070
    74
1070
     0
1000
MTEXTEND
  0
MTEXT
  5
CA52
330
C9A5
100
AcDbEntity
  8
AM_6
100
AcDbMText
 10
128.4848484848484
 20
54.01010101010101
 30
0.0
 40
3.200000000000001
 41
0.0
 71
     5
 72
     1
  1
M4
 73
     1
 44
1.0
1001
ACAD
1000
MTEXTBEGIN
1070
    73
1070
     1
1070
    44
1040
1.0
1070
    74
1070
     0
1000
MTEXTEND
  0
MTEXT
  5
CA53
330
C9A5
100
AcDbEntity
  8
AM_6
100
AcDbMText
 10
188.4848484848484
 20
54.01010101010101
 30
0.0
 40
3.200000000000001
 41
0.0
 71
     5
 72
     1
  1
11
 73
     1
 44
1.0
1001
ACAD
1000
MTEXTBEGIN
1070
    73
1070
     1
1070
    44
1040
1.0
1070
    74
1070
     0
1000
MTEXTEND
  0
MTEXT
  5
CA54
330
C9A5
100
AcDbEntity
  8
AM_6
100
AcDbMText
 10
208.4848484848484
 20
54.01010101010101
 30
0.0
 40
3.200000000000001
 41
0.0
 71
     5
 72
     1
  1
10
 73
     1
 44
1.0
1001
ACAD
1000
MTEXTBEGIN
1070
    73
1070
     1
1070
    44
1040
1.0
1070
    74
1070
     0
1000
MTEXTEND
  0
MTEXT
  5
CA55
330
C9A5
100
AcDbEntity
  8
AM_6
100
AcDbMText
 10
228.4848484848484
 20
54.01010101010101
 30
0.0
 40
3.200000000000001
 41
0.0
 71
     5
 72
     1
  1
1
 73
     1
 44
1.0
1001
ACAD
1000
MTEXTBEGIN
1070
    73
1070
     1
1070
    44
1040
1.0
1070
    74
1070
     0
1000
MTEXTEND
  0
LINE
  5
CA56
330
C9A5
100
AcDbEntity
  8
AM_2
100
AcDbLine
 10
58.48484848484838
 20
50.01010101010101
 30
0.0
 11
238.4848484848484
 21
50.01010101010101
 31
0.0
  0
LINE
  5
CA57
330
C9A5
100
AcDbEntity
  8
AM_0
100
AcDbLine
 10
58.48484848484838
 20
50.01010101010101
 30
0.0
 11
58.48484848484838
 21
42.010101010101
 31
0.0
  0
LINE
  5
CA58
330
C9A5
100
AcDbEntity
  8
AM_0
100
AcDbLine
 10
98.48484848484838
 20
50.01010101010101
 30
0.0
 11
98.48484848484838
 21
42.010101010101
 31
0.0
  0
LINE
  5
CA59
330
C9A5
100
AcDbEntity
  8
AM_2
100
AcDbLine
 10
118.4848484848484
 20
50.01010101010101
 30
0.0
 11
118.4848484848484
 21
42.010101010101
 31
0.0
  0
LINE
  5
CA5A
330
C9A5
100
AcDbEntity
  8
AM_2
100
AcDbLine
 10
138.4848484848484
 20
50.01010101010101
 30
0.0
 11
138.4848484848484
 21
42.010101010101
 31
0.0
  0
LINE
  5
CA5B
330
C9A5
100
AcDbEntity
  8
AM_2
100
AcDbLine
 10
158.4848484848484
 20
50.01010101010101
 30
0.0
 11
158.4848484848484
 21
42.010101010101
 31
0.0
  0
MTEXT
  5
CA5C
330
C9A5
100
AcDbEntity
  8
AM_6
100
AcDbMText
 10
148.4848484848484
 20
46.01010101010101
 30
0.0
 40
3.200000000000001
 41
0.0
 71
     5
 72
     1
  1
20
 73
     1
 44
1.0
1001
ACAD
1000
MTEXTBEGIN
1070
    73
1070
     1
1070
    44
1040
1.0
1070
    74
1070
     0
1000
MTEXTEND
  0
LINE
  5
CA5D
330
C9A5
100
AcDbEntity
  8
AM_2
100
AcDbLine
 10
178.4848484848484
 20
50.01010101010101
 30
0.0
 11
178.4848484848484
 21
42.010101010101
 31
0.0
  0
MTEXT
  5
CA5E
330
C9A5
100
AcDbEntity
  8
AM_6
100
AcDbMText
 10
168.4848484848484
 20
46.01010101010101
 30
0.0
 40
3.200000000000001
 41
0.0
 71
     5
 72
     1
  1
10
 73
     1
 44
1.0
1001
ACAD
1000
MTEXTBEGIN
1070
    73
1070
     1
1070
    44
1040
1.0
1070
    74
1070
     0
1000
MTEXTEND
  0
LINE
  5
CA5F
330
C9A5
100
AcDbEntity
  8
AM_2
100
AcDbLine
 10
198.4848484848484
 20
50.01010101010101
 30
0.0
 11
198.4848484848484
 21
42.010101010101
 31
0.0
  0
LINE
  5
CA60
330
C9A5
100
AcDbEntity
  8
AM_2
100
AcDbLine
 10
218.4848484848484
 20
50.01010101010101
 30
0.0
 11
218.4848484848484
 21
42.010101010101
 31
0.0
  0
LINE
  5
CA61
330
C9A5
100
AcDbEntity
  8
AM_0
100
AcDbLine
 10
238.4848484848484
 20
50.01010101010101
 30
0.0
 11
238.4848484848484
 21
42.010101010101
 31
0.0
  0
MTEXT
  5
CA62
330
C9A5
100
AcDbEntity
  8
AM_6
100
AcDbMText
 10
108.4848484848484
 20
46.01010101010101
 30
0.0
 40
3.200000000000001
 41
0.0
 71
     5
 72
     1
  1
16
 73
     1
 44
1.0
1001
ACAD
1000
MTEXTBEGIN
1070
    73
1070
     1
1070
    44
1040
1.0
1070
    74
1070
     0
1000
MTEXTEND
  0
MTEXT
  5
CA63
330
C9A5
100
AcDbEntity
  8
AM_6
100
AcDbMText
 10
128.4848484848484
 20
46.01010101010101
 30
0.0
 40
3.200000000000001
 41
0.0
 71
     5
 72
     1
  1
M5
 73
     1
 44
1.0
1001
ACAD
1000
MTEXTBEGIN
1070
    73
1070
     1
1070
    44
1040
1.0
1070
    74
1070
     0
1000
MTEXTEND
  0
MTEXT
  5
CA64
330
C9A5
100
AcDbEntity
  8
AM_6
100
AcDbMText
 10
188.4848484848484
 20
46.01010101010101
 30
0.0
 40
3.200000000000001
 41
0.0
 71
     5
 72
     1
  1
11
 73
     1
 44
1.0
1001
ACAD
1000
MTEXTBEGIN
1070
    73
1070
     1
1070
    44
1040
1.0
1070
    74
1070
     0
1000
MTEXTEND
  0
MTEXT
  5
CA65
330
C9A5
100
AcDbEntity
  8
AM_6
100
AcDbMText
 10
208.4848484848484
 20
46.01010101010101
 30
0.0
 40
3.200000000000001
 41
0.0
 71
     5
 72
     1
  1
10
 73
     1
 44
1.0
1001
ACAD
1000
MTEXTBEGIN
1070
    73
1070
     1
1070
    44
1040
1.0
1070
    74
1070
     0
1000
MTEXTEND
  0
MTEXT
  5
CA66
330
C9A5
100
AcDbEntity
  8
AM_6
100
AcDbMText
 10
228.4848484848484
 20
46.01010101010101
 30
0.0
 40
3.200000000000001
 41
0.0
 71
     5
 72
     1
  1
1
 73
     1
 44
1.0
1001
ACAD
1000
MTEXTBEGIN
1070
    73
1070
     1
1070
    44
1040
1.0
1070
    74
1070
     0
1000
MTEXTEND
  0
LINE
  5
CA67
330
C9A5
100
AcDbEntity
  8
AM_2
100
AcDbLine
 10
58.48484848484838
 20
42.010101010101
 30
0.0
 11
238.4848484848484
 21
42.010101010101
 31
0.0
  0
LINE
  5
CA68
330
C9A5
100
AcDbEntity
  8
AM_0
100
AcDbLine
 10
58.48484848484838
 20
42.010101010101
 30
0.0
 11
58.48484848484838
 21
34.01010101010101
 31
0.0
  0
LINE
  5
CA69
330
C9A5
100
AcDbEntity
  8
AM_0
100
AcDbLine
 10
98.48484848484838
 20
42.010101010101
 30
0.0
 11
98.48484848484838
 21
34.01010101010101
 31
0.0
  0
LINE
  5
CA6A
330
C9A5
100
AcDbEntity
  8
AM_2
100
AcDbLine
 10
118.4848484848484
 20
42.010101010101
 30
0.0
 11
118.4848484848484
 21
34.01010101010101
 31
0.0
  0
LINE
  5
CA6B
330
C9A5
100
AcDbEntity
  8
AM_2
100
AcDbLine
 10
138.4848484848484
 20
42.010101010101
 30
0.0
 11
138.4848484848484
 21
34.01010101010101
 31
0.0
  0
LINE
  5
CA6C
330
C9A5
100
AcDbEntity
  8
AM_2
100
AcDbLine
 10
158.4848484848484
 20
42.010101010101
 30
0.0
 11
158.4848484848484
 21
34.01010101010101
 31
0.0
  0
MTEXT
  5
CA6D
330
C9A5
100
AcDbEntity
  8
AM_6
100
AcDbMText
 10
148.4848484848484
 20
38.01010101010101
 30
0.0
 40
3.200000000000001
 41
0.0
 71
     5
 72
     1
  1
25
 73
     1
 44
1.0
1001
ACAD
1000
MTEXTBEGIN
1070
    73
1070
     1
1070
    44
1040
1.0
1070
    74
1070
     0
1000
MTEXTEND
  0
LINE
  5
CA6E
330
C9A5
100
AcDbEntity
  8
AM_2
100
AcDbLine
 10
178.4848484848484
 20
42.010101010101
 30
0.0
 11
178.4848484848484
 21
34.01010101010101
 31
0.0
  0
MTEXT
  5
CA6F
330
C9A5
100
AcDbEntity
  8
AM_6
100
AcDbMText
 10
168.4848484848484
 20
38.01010101010101
 30
0.0
 40
3.200000000000001
 41
0.0
 71
     5
 72
     1
  1
12
 73
     1
 44
1.0
1001
ACAD
1000
MTEXTBEGIN
1070
    73
1070
     1
1070
    44
1040
1.0
1070
    74
1070
     0
1000
MTEXTEND
  0
LINE
  5
CA70
330
C9A5
100
AcDbEntity
  8
AM_2
100
AcDbLine
 10
198.4848484848484
 20
42.010101010101
 30
0.0
 11
198.4848484848484
 21
34.01010101010101
 31
0.0
  0
LINE
  5
CA71
330
C9A5
100
AcDbEntity
  8
AM_2
100
AcDbLine
 10
218.4848484848484
 20
42.010101010101
 30
0.0
 11
218.4848484848484
 21
34.01010101010101
 31
0.0
  0
LINE
  5
CA72
330
C9A5
100
AcDbEntity
  8
AM_0
100
AcDbLine
 10
238.4848484848484
 20
42.010101010101
 30
0.0
 11
238.4848484848484
 21
34.01010101010101
 31
0.0
  0
MTEXT
  5
CA73
330
C9A5
100
AcDbEntity
  8
AM_6
100
AcDbMText
 10
108.4848484848484
 20
38.01010101010101
 30
0.0
 40
3.200000000000001
 41
0.0
 71
     5
 72
     1
  1
20
 73
     1
 44
1.0
1001
ACAD
1000
MTEXTBEGIN
1070
    73
1070
     1
1070
    44
1040
1.0
1070
    74
1070
     0
1000
MTEXTEND
  0
MTEXT
  5
CA74
330
C9A5
100
AcDbEntity
  8
AM_6
100
AcDbMText
 10
128.4848484848484
 20
38.01010101010101
 30
0.0
 40
3.200000000000001
 41
0.0
 71
     5
 72
     1
  1
M6
 73
     1
 44
1.0
1001
ACAD
1000
MTEXTBEGIN
1070
    73
1070
     1
1070
    44
1040
1.0
1070
    74
1070
     0
1000
MTEXTEND
  0
MTEXT
  5
CA75
330
C9A5
100
AcDbEntity
  8
AM_6
100
AcDbMText
 10
188.4848484848484
 20
38.01010101010101
 30
0.0
 40
3.200000000000001
 41
0.0
 71
     5
 72
     1
  1
14
 73
     1
 44
1.0
1001
ACAD
1000
MTEXTBEGIN
1070
    73
1070
     1
1070
    44
1040
1.0
1070
    74
1070
     0
1000
MTEXTEND
  0
MTEXT
  5
CA76
330
C9A5
100
AcDbEntity
  8
AM_6
100
AcDbMText
 10
208.4848484848484
 20
38.01010101010101
 30
0.0
 40
3.200000000000001
 41
0.0
 71
     5
 72
     1
  1
10
 73
     1
 44
1.0
1001
ACAD
1000
MTEXTBEGIN
1070
    73
1070
     1
1070
    44
1040
1.0
1070
    74
1070
     0
1000
MTEXTEND
  0
MTEXT
  5
CA77
330
C9A5
100
AcDbEntity
  8
AM_6
100
AcDbMText
 10
228.4848484848484
 20
38.01010101010101
 30
0.0
 40
3.200000000000001
 41
0.0
 71
     5
 72
     1
  1
1
 73
     1
 44
1.0
1001
ACAD
1000
MTEXTBEGIN
1070
    73
1070
     1
1070
    44
1040
1.0
1070
    74
1070
     0
1000
MTEXTEND
  0
LINE
  5
CA78
330
C9A5
100
AcDbEntity
  8
AM_2
100
AcDbLine
 10
58.48484848484838
 20
34.01010101010101
 30
0.0
 11
238.4848484848484
 21
34.01010101010101
 31
0.0
  0
LINE
  5
CA79
330
C9A5
100
AcDbEntity
  8
AM_0
100
AcDbLine
 10
58.48484848484838
 20
34.01010101010101
 30
0.0
 11
58.48484848484838
 21
26.01010101010101
 31
0.0
  0
LINE
  5
CA7A
330
C9A5
100
AcDbEntity
  8
AM_0
100
AcDbLine
 10
98.48484848484838
 20
34.01010101010101
 30
0.0
 11
98.48484848484838
 21
26.01010101010101
 31
0.0
  0
LINE
  5
CA7B
330
C9A5
100
AcDbEntity
  8
AM_2
100
AcDbLine
 10
118.4848484848484
 20
34.01010101010101
 30
0.0
 11
118.4848484848484
 21
26.01010101010101
 31
0.0
  0
LINE
  5
CA7C
330
C9A5
100
AcDbEntity
  8
AM_2
100
AcDbLine
 10
138.4848484848484
 20
34.01010101010101
 30
0.0
 11
138.4848484848484
 21
26.01010101010101
 31
0.0
  0
LINE
  5
CA7D
330
C9A5
100
AcDbEntity
  8
AM_2
100
AcDbLine
 10
158.4848484848484
 20
34.01010101010101
 30
0.0
 11
158.4848484848484
 21
26.01010101010101
 31
0.0
  0
MTEXT
  5
CA7E
330
C9A5
100
AcDbEntity
  8
AM_6
100
AcDbMText
 10
148.4848484848484
 20
30.01010101010101
 30
0.0
 40
3.200000000000001
 41
0.0
 71
     5
 72
     1
  1
25
 73
     1
 44
1.0
1001
ACAD
1000
MTEXTBEGIN
1070
    73
1070
     1
1070
    44
1040
1.0
1070
    74
1070
     0
1000
MTEXTEND
  0
LINE
  5
CA7F
330
C9A5
100
AcDbEntity
  8
AM_2
100
AcDbLine
 10
178.4848484848484
 20
34.01010101010101
 30
0.0
 11
178.4848484848484
 21
26.01010101010101
 31
0.0
  0
MTEXT
  5
CA80
330
C9A5
100
AcDbEntity
  8
AM_6
100
AcDbMText
 10
168.4848484848484
 20
30.01010101010101
 30
0.0
 40
3.200000000000001
 41
0.0
 71
     5
 72
     1
  1
12
 73
     1
 44
1.0
1001
ACAD
1000
MTEXTBEGIN
1070
    73
1070
     1
1070
    44
1040
1.0
1070
    74
1070
     0
1000
MTEXTEND
  0
LINE
  5
CA81
330
C9A5
100
AcDbEntity
  8
AM_2
100
AcDbLine
 10
198.4848484848484
 20
34.01010101010101
 30
0.0
 11
198.4848484848484
 21
26.01010101010101
 31
0.0
  0
LINE
  5
CA82
330
C9A5
100
AcDbEntity
  8
AM_2
100
AcDbLine
 10
218.4848484848484
 20
34.01010101010101
 30
0.0
 11
218.4848484848484
 21
26.01010101010101
 31
0.0
  0
LINE
  5
CA83
330
C9A5
100
AcDbEntity
  8
AM_0
100
AcDbLine
 10
238.4848484848484
 20
34.01010101010101
 30
0.0
 11
238.4848484848484
 21
26.01010101010101
 31
0.0
  0
MTEXT
  5
CA84
330
C9A5
100
AcDbEntity
  8
AM_6
100
AcDbMText
 10
108.4848484848484
 20
30.01010101010101
 30
0.0
 40
3.200000000000001
 41
0.0
 71
     5
 72
     1
  1
20
 73
     1
 44
1.0
1001
ACAD
1000
MTEXTBEGIN
1070
    73
1070
     1
1070
    44
1040
1.0
1070
    74
1070
     0
1000
MTEXTEND
  0
MTEXT
  5
CA85
330
C9A5
100
AcDbEntity
  8
AM_6
100
AcDbMText
 10
128.4848484848484
 20
30.01010101010101
 30
0.0
 40
3.200000000000001
 41
0.0
 71
     5
 72
     1
  1
M8
 73
     1
 44
1.0
1001
ACAD
1000
MTEXTBEGIN
1070
    73
1070
     1
1070
    44
1040
1.0
1070
    74
1070
     0
1000
MTEXTEND
  0
MTEXT
  5
CA86
330
C9A5
100
AcDbEntity
  8
AM_6
100
AcDbMText
 10
188.4848484848484
 20
30.01010101010101
 30
0.0
 40
3.200000000000001
 41
0.0
 71
     5
 72
     1
  1
14
 73
     1
 44
1.0
1001
ACAD
1000
MTEXTBEGIN
1070
    73
1070
     1
1070
    44
1040
1.0
1070
    74
1070
     0
1000
MTEXTEND
  0
MTEXT
  5
CA87
330
C9A5
100
AcDbEntity
  8
AM_6
100
AcDbMText
 10
208.4848484848484
 20
30.01010101010101
 30
0.0
 40
3.200000000000001
 41
0.0
 71
     5
 72
     1
  1
14
 73
     1
 44
1.0
1001
ACAD
1000
MTEXTBEGIN
1070
    73
1070
     1
1070
    44
1040
1.0
1070
    74
1070
     0
1000
MTEXTEND
  0
MTEXT
  5
CA88
330
C9A5
100
AcDbEntity
  8
AM_6
100
AcDbMText
 10
228.4848484848484
 20
30.01010101010101
 30
0.0
 40
3.200000000000001
 41
0.0
 71
     5
 72
     1
  1
1
 73
     1
 44
1.0
1001
ACAD
1000
MTEXTBEGIN
1070
    73
1070
     1
1070
    44
1040
1.0
1070
    74
1070
     0
1000
MTEXTEND
  0
LINE
  5
CA89
330
C9A5
100
AcDbEntity
  8
AM_0
100
AcDbLine
 10
58.48484848484838
 20
26.01010101010101
 30
0.0
 11
238.4848484848484
 21
26.01010101010101
 31
0.0
  0
DIMENSION
  5
CA8A
330
C9A5
100
AcDbEntity
  8
AM_5
100
AcDbDimension
  2
*D11
 10
176.7117481150108
 20
131.6929026767303
 30
0.0
 11
173.6117481150107
 21
134.1929116767303
 31
0.0
  1
B\P
 71
     5
 42
5.000018000000011
  3
SYS$0
100
AcDbAlignedDimension
 13
166.2117481150108
 23
136.6929206767303
 33
0.0
 14
166.2117481150108
 24
131.6929026767303
 34
0.0
 50
90.0
100
AcDbRotatedDimension
  0
MTEXT
  5
CA8B
330
C9A5
100
AcDbEntity
  8
AM_6
100
AcDbMText
 10
78.48484848484838
 20
70.01010101010101
 30
0.0
 40
3.200000000000001
 41
0.0
 71
     5
 72
     1
  1
品　番
 73
     1
 44
1.0
1001
ACAD
1000
MTEXTBEGIN
1070
    73
1070
     1
1070
    44
1040
1.0
1070
    74
1070
     0
1000
MTEXTEND
  0
MTEXT
  5
CA8C
330
C9A5
100
AcDbEntity
  8
AM_6
100
AcDbMText
 10
78.48484848484838
 20
62.01010101010101
 30
0.0
 40
3.200000000000001
 41
0.0
 71
     5
 72
     1
  1
SCR-MK200
 73
     1
 44
1.0
1001
ACAD
1000
MTEXTBEGIN
1070
    73
1070
     1
1070
    44
1040
1.0
1070
    74
1070
     0
1000
MTEXTEND
  0
MTEXT
  5
CA8D
330
C9A5
100
AcDbEntity
  8
AM_6
100
AcDbMText
 10
78.48484848484838
 20
54.01010101010101
 30
0.0
 40
3.200000000000001
 41
0.0
 71
     5
 72
     1
  1
SCR-MK210
 73
     1
 44
1.0
1001
ACAD
1000
MTEXTBEGIN
1070
    73
1070
     1
1070
    44
1040
1.0
1070
    74
1070
     0
1000
MTEXTEND
  0
MTEXT
  5
CA8E
330
C9A5
100
AcDbEntity
  8
AM_6
100
AcDbMText
 10
78.48484848484838
 20
46.01010101010101
 30
0.0
 40
3.200000000000001
 41
0.0
 71
     5
 72
     1
  1
SCR-MK211
 73
     1
 44
1.0
1001
ACAD
1000
MTEXTBEGIN
1070
    73
1070
     1
1070
    44
1040
1.0
1070
    74
1070
     0
1000
MTEXTEND
  0
MTEXT
  5
CA8F
330
C9A5
100
AcDbEntity
  8
AM_6
100
AcDbMText
 10
78.48484848484838
 20
38.01010101010101
 30
0.0
 40
3.200000000000001
 41
0.0
 71
     5
 72
     1
  1
SCR-MK220
 73
     1
 44
1.0
1001
ACAD
1000
MTEXTBEGIN
1070
    73
1070
     1
1070
    44
1040
1.0
1070
    74
1070
     0
1000
MTEXTEND
  0
MTEXT
  5
CA90
330
C9A5
100
AcDbEntity
  8
AM_6
100
AcDbMText
 10
78.48484848484838
 20
30.01010101010101
 30
0.0
 40
3.200000000000001
 41
0.0
 71
     5
 72
     1
  1
SCR-MK221
 73
     1
 44
1.0
1001
ACAD
1000
MTEXTBEGIN
1070
    73
1070
     1
1070
    44
1040
1.0
1070
    74
1070
     0
1000
MTEXTEND
  0
ENDBLK
  5
C9A7
330
C9A5
100
AcDbEntity
  8
0
 48
10.0
100
AcDbBlockEnd
  0
BLOCK
  5
CAD2
330
CACB
100
AcDbEntity
  8
0
 48
10.0
100
AcDbBlockBegin
  2
*S13
 70
     1
 10
0.0
 20
0.0
 30
0.0
  3
*S13
  1

  0
LINE
  5
CACC
330
CACB
100
AcDbEntity
  8
AM_5
 62
     3
 48
10.0
100
AcDbLine
 10
196.6590434483441
 20
154.1929026767303
 30
0.0
 11
170.4617101150107
 21
154.1929026767303
 31
0.0
  0
LINE
  5
CACD
330
CACB
100
AcDbEntity
  8
AM_5
 62
     3
 48
10.0
100
AcDbLine
 10
170.4617101150107
 20
154.1929026767303
 30
0.0
 11
151.7930681722581
 21
140.3823524451405
 31
0.0
  0
LINE
  5
CACE
330
CACB
100
AcDbEntity
  8
AM_5
  6
Continuous
 62
     3
 48
10.0
100
AcDbLine
 10
151.7930681722581
 20
140.3823524451405
 30
0.0
 11
150.1852095813276
 21
139.1929026767303
 31
0.0
  0
LINE
  5
CACF
330
CACB
100
AcDbEntity
  8
AM_5
  6
Continuous
 62
     3
 48
10.0
100
AcDbLine
 10
151.4743560702669
 20
140.8131768522148
 30
0.0
 11
150.1852095813276
 21
139.1929026767303
 31
0.0
  0
LINE
  5
CAD0
330
CACB
100
AcDbEntity
  8
AM_5
  6
Continuous
 62
     3
 48
10.0
100
AcDbLine
 10
150.1852095813276
 20
139.1929026767303
 30
0.0
 11
152.1117802742493
 21
139.9515280380661
 31
0.0
  0
MTEXT
  5
CAD1
330
CACB
100
AcDbEntity
  8
AM_5
 62
     2
100
AcDbMText
 10
173.6617101150108
 20
155.2929026767303
 30
0.0
 40
3.2
 41
0.0
 71
     7
 72
     5
  1
ナイロンワッシャー
 73
     1
 44
1.0
1001
ACAD
1000
MTEXTBEGIN
1070
    73
1070
     1
1070
    44
1040
1.0
1070
    74
1070
     0
1000
MTEXTEND
  0
ENDBLK
  5
CAD3
330
CACB
100
AcDbEntity
  8
0
 48
10.0
100
AcDbBlockEnd
  0
BLOCK
  5
CADC
330
CAD5
100
AcDbEntity
  8
0
 48
10.0
100
AcDbBlockBegin
  2
*S14
 70
     1
 10
0.0
 20
0.0
 30
0.0
  3
*S14
  1

  0
LINE
  5
CAD6
330
CAD5
100
AcDbEntity
  8
AM_5
 62
     3
 48
10.0
100
AcDbLine
 10
199.3470434483441
 20
147.1929026767303
 30
0.0
 11
170.4617101150107
 21
147.1929026767303
 31
0.0
  0
LINE
  5
CAD7
330
CAD5
100
AcDbEntity
  8
AM_5
 62
     3
 48
10.0
100
AcDbLine
 10
170.4617101150107
 20
147.1929026767303
 30
0.0
 11
158.3485752141688
 21
139.9674853207298
 31
0.0
  0
LINE
  5
CAD8
330
CAD5
100
AcDbEntity
  8
AM_5
  6
Continuous
 62
     3
 48
10.0
100
AcDbLine
 10
158.3485752141688
 20
139.9674853207298
 30
0.0
 11
156.6309386150106
 21
138.9429246767303
 31
0.0
  0
LINE
  5
CAD9
330
CAD5
100
AcDbEntity
  8
AM_5
  6
Continuous
 62
     3
 48
10.0
100
AcDbLine
 10
158.0740450195033
 20
140.4277246561885
 30
0.0
 11
156.6309386150106
 21
138.9429246767303
 31
0.0
  0
LINE
  5
CADA
330
CAD5
100
AcDbEntity
  8
AM_5
  6
Continuous
 62
     3
 48
10.0
100
AcDbLine
 10
156.6309386150106
 20
138.9429246767303
 30
0.0
 11
158.6231054088343
 21
139.507245985271
 31
0.0
  0
MTEXT
  5
CADB
330
CAD5
100
AcDbEntity
  8
AM_5
 62
     2
100
AcDbMText
 10
173.6617101150108
 20
148.2929026767303
 30
0.0
 40
3.2
 41
0.0
 71
     7
 72
     5
  1
スプリングワッシャー
 73
     1
 44
1.0
1001
ACAD
1000
MTEXTBEGIN
1070
    73
1070
     1
1070
    44
1040
1.0
1070
    74
1070
     0
1000
MTEXTEND
  0
ENDBLK
  5
CADD
330
CAD5
100
AcDbEntity
  8
0
 48
10.0
100
AcDbBlockEnd
  0
BLOCK
  5
CAE6
330
CADF
100
AcDbEntity
  8
0
 48
10.0
100
AcDbBlockBegin
  2
*S15
 70
     1
 10
0.0
 20
0.0
 30
0.0
  3
*S15
  1

  0
LINE
  5
CAE0
330
CADF
100
AcDbEntity
  8
AM_5
 62
     3
 48
10.0
100
AcDbLine
 10
186.0563767816774
 20
140.1929026767303
 30
0.0
 11
170.4617101150107
 21
140.1929026767303
 31
0.0
  0
LINE
  5
CAE1
330
CADF
100
AcDbEntity
  8
AM_5
 62
     3
 48
10.0
100
AcDbLine
 10
170.4617101150107
 20
140.1929026767303
 30
0.0
 11
164.391506966885
 21
138.5402570068487
 31
0.0
  0
LINE
  5
CAE2
330
CADF
100
AcDbEntity
  8
AM_5
  6
Continuous
 62
     3
 48
10.0
100
AcDbLine
 10
164.391506966885
 20
138.5402570068487
 30
0.0
 11
162.4617483648789
 21
138.0148697801449
 31
0.0
  0
LINE
  5
CAE3
330
CADF
100
AcDbEntity
  8
AM_5
  6
Continuous
 62
     3
 48
10.0
100
AcDbLine
 10
164.2507298850533
 20
139.0573342611517
 30
0.0
 11
162.4617483648789
 21
138.0148697801449
 31
0.0
  0
LINE
  5
CAE4
330
CADF
100
AcDbEntity
  8
AM_5
  6
Continuous
 62
     3
 48
10.0
100
AcDbLine
 10
162.4617483648789
 20
138.0148697801449
 30
0.0
 11
164.5322840487166
 21
138.0231797525456
 31
0.0
  0
MTEXT
  5
CAE5
330
CADF
100
AcDbEntity
  8
AM_5
 62
     2
100
AcDbMText
 10
173.6617101150108
 20
141.2929026767303
 30
0.0
 40
3.2
 41
0.0
 71
     7
 72
     5
  1
六角ナット
 73
     1
 44
1.0
1001
ACAD
1000
MTEXTBEGIN
1070
    73
1070
     1
1070
    44
1040
1.0
1070
    74
1070
     0
1000
MTEXTEND
  0
ENDBLK
  5
CAE7
330
CADF
100
AcDbEntity
  8
0
 48
10.0
100
AcDbBlockEnd
  0
ENDSEC
  0
SECTION
  2
ENTITIES
  0
TEXT
  5
B42C
330
1F
100
AcDbEntity
  8
AM_6
 60
     1
100
AcDbText
 10
408.4999999999999
 20
8.5
 30
0.0
 40
2.5
  1
!GENTITLE-INSERT
100
AcDbText
  0
TEXT
  5
B42D
330
1F
100
AcDbEntity
  8
AM_6
 60
     1
100
AcDbText
 10
0.0
 20
0.0
 30
0.0
 40
2.5
  1
!GENTITLE-LL
100
AcDbText
  0
TEXT
  5
B42E
330
1F
100
AcDbEntity
  8
AM_6
 60
     1
100
AcDbText
 10
420.0
 20
297.0
 30
0.0
 40
2.5
  1
!GENTITLE-RU
100
AcDbText
  0
TEXT
  5
B42F
330
1F
100
AcDbEntity
  8
AM_6
 60
     1
100
AcDbText
 10
420.0
 20
297.0
 30
0.0
 40
2.5
  1
!GENTITLE-MAX
100
AcDbText
  0
TEXT
  5
B439
330
1F
100
AcDbEntity
  8
AM_6
 60
     1
100
AcDbText
 10
0.0
 20
0.0
 30
0.0
 40
2.5
  1
!GENTITLE-LL
100
AcDbText
  0
TEXT
  5
B43A
330
1F
100
AcDbEntity
  8
AM_6
 60
     1
100
AcDbText
 10
408.4999999999999
 20
288.5
 30
0.0
 40
2.5
  1
!GENTITLE-RU
100
AcDbText
  0
TEXT
  5
B43B
330
1F
100
AcDbEntity
  8
AM_6
 60
     1
100
AcDbText
 10
420.0
 20
297.0
 30
0.0
 40
2.5
  1
!GENTITLE-MAX
100
AcDbText
  0
TEXT
  5
B43C
330
1F
100
AcDbEntity
  8
AM_6
 60
     1
100
AcDbText
 10
408.4999999999999
 20
8.5
 30
0.0
 40
2.5
  1
!GENTITLE-INSERT
100
AcDbText
  0
INSERT
  5
CA91
330
1F
100
AcDbEntity
  8
AM_0
100
AcDbBlockReference
  2
れｇｈｒｇｈｒｈ４５ｈｆｇｈえ３５５ｈｒｔｈ
 10
0.0
 20
0.0
 30
0.0
  0
ENDSEC
  0
SECTION
  2
OBJECTS
  0
DICTIONARY
  5
C
330
0
100
AcDbDictionary
281
     1
  3
ACAD_2007HEADERVARS_RT
350
CAEA
  3
ACAD_BGPLOT_KEY
350
AB06
  3
ACAD_COLOR
350
A91D
  3
ACAD_GROUP
350
D
  3
ACAD_LAYOUT
350
1A
  3
ACAD_MATERIAL
350
A91C
  3
ACAD_MLINESTYLE
350
17
  3
ACAD_PLOTSETTINGS
350
19
  3
ACAD_PLOTSTYLENAME
350
E
  3
ACAD_TABLESTYLE
350
AAB9
  3
ACAD_VISUALSTYLE
350
B444
  3
AcAsAppObject
350
3DA1
  3
ACASGREF_MASTER
350
3DE9
  3
AcDbVariableDictionary
350
34
  3
AcmDictionary
350
47
  3
AD_GREF_MODULE
350
3DEA
  3
AD_MAPI_MODULE
350
3E06
  3
AMG
350
2B
  3
AMGSNAPSETTINGS
350
7D
  3
ASE_INDEX_DICTIONARY
350
9F48
  3
DWGPROPS
350
CAE9
  3
MAPISURF_MODULE
350
3DEB
  0
DICTIONARY
  5
3F95
330
2
100
AcDbDictionary
280
     1
281
     1
  3
ACAD_LAYERFILTERS
360
AE5F
  3
ACAD_LAYERSTATES
360
3F96
  3
ACLYDICTIONARY
360
AE5E
  3
AMLAYER_GROUPCOLORS
360
AAB4
  0
DICTIONARY
  5
8A
330
1F
100
AcDbDictionary
280
     1
281
     1
  3
ACAD_SORTENTS
360
B431
  0
DICTIONARY
  5
CAEA
102
{ACAD_REACTORS
330
C
102
}
330
C
100
AcDbDictionary
281
     1
  3
DIMARCSYM
350
CAEB
  0
DICTIONARY
  5
AB06
102
{ACAD_REACTORS
330
C
102
}
330
C
100
AcDbDictionary
280
     1
281
     1
  0
DICTIONARY
  5
A91D
102
{ACAD_REACTORS
330
C
102
}
330
C
100
AcDbDictionary
281
     1
  0
DICTIONARY
  5
D
102
{ACAD_REACTORS
330
C
102
}
330
C
100
AcDbDictionary
281
     1
  0
DICTIONARY
  5
1A
102
{ACAD_REACTORS
330
C
102
}
330
C
100
AcDbDictionary
281
     1
  3
Model
350
22
  3
ﾚｲｱｳﾄ1
350
1E
  3
ﾚｲｱｳﾄ2
350
26
  0
DICTIONARY
  5
A91C
102
{ACAD_REACTORS
330
C
102
}
330
C
100
AcDbDictionary
281
     1
  3
ByBlock
350
B442
  3
ByLayer
350
B441
  3
Global
350
B443
  0
DICTIONARY
  5
17
102
{ACAD_REACTORS
330
C
102
}
330
C
100
AcDbDictionary
281
     1
  3
Standard
350
18
  0
DICTIONARY
  5
19
102
{ACAD_REACTORS
330
C
102
}
330
C
100
AcDbDictionary
281
     1
  3
01 A3フィット
350
AAFE
  3
02 A3
350
AAFF
  3
03 A2フィット
350
AB00
  3
04 A2
350
AB01
  3
05 A1フィット
350
AB04
  3
06 A1
350
AB05
  3
06 A4フィット
350
AB02
  3
07 A4
350
AB03
  0
ACDBDICTIONARYWDFLT
  5
E
102
{ACAD_REACTORS
330
C
102
}
330
C
100
AcDbDictionary
281
     1
  3
Normal
350
F
100
AcDbDictionaryWithDefault
340
F
  0
DICTIONARY
  5
AAB9
102
{ACAD_REACTORS
330
C
102
}
330
C
100
AcDbDictionary
281
     1
  3
Standard
350
AABA
  0
DICTIONARY
  5
B444
102
{ACAD_REACTORS
330
C
102
}
330
C
100
AcDbDictionary
281
     1
  3
2dWireframe
350
B44A
  3
3D Hidden
350
B44C
  3
3dWireframe
350
B44B
  3
Basic
350
B449
  3
Brighten
350
B450
  3
ColorChange
350
B454
  3
Conceptual
350
B44D
  3
Dim
350
B44F
  3
Facepattern
350
B453
  3
Flat
350
B445
  3
FlatWithEdges
350
B446
  3
Gouraud
350
B447
  3
GouraudWithEdges
350
B448
  3
Linepattern
350
B452
  3
Realistic
350
B44E
  3
Thicken
350
B451
  0
ACAD_PROXY_OBJECT
  5
3DA1
102
{ACAD_REACTORS
330
C
102
}
330
C
100
AcDbProxyObject
 90
      499
 91
      576
 95
   917527
 70
     0
 93
       10
310
407F
 94
        0
1001
ACAD
1000
AcRTDxfName
1000
ASAPP
  0
ACAD_PROXY_OBJECT
  5
3DE9
102
{ACAD_REACTORS
330
C
102
}
330
C
100
AcDbProxyObject
 90
      499
 91
      581
 95
   917527
 70
     0
 93
       34
310
010000407F
 94
        0
1001
ACAD
1000
AcRTDxfName
1000
ACASGREFMASTER
  0
DICTIONARY
  5
34
102
{ACAD_REACTORS
330
C
102
}
330
C
100
AcDbDictionary
281
     1
  3
CTABLESTYLE
350
AAF3
  3
DIMASSOC
350
A10C
  3
FIELDEVAL
350
AB07
  3
INDEXCTL
350
35
  3
SORTENTS
350
194C
  0
DICTIONARY
  5
47
102
{ACAD_REACTORS
330
C
102
}
330
C
100
AcDbDictionary
281
     1
  3
AcmBOM
350
7E8
  3
AcmStdDictionary
350
4C
  3
AMDTSECTSYM_ARROWCOLOR
350
A929
  0
ACAD_PROXY_OBJECT
  5
3DEA
102
{ACAD_REACTORS
330
C
102
}
330
C
100
AcDbProxyObject
 90
      499
 91
      582
 95
   917527
 70
     0
 93
      114
310
00000043800000000000000000003F
 94
        0
1001
ACAD
1000
AcRTDxfName
1000
ACADGREFMODULE
  0
ACAD_PROXY_OBJECT
  5
3E06
102
{ACAD_REACTORS
330
C
102
}
330
C
100
AcDbProxyObject
 90
      499
 91
      594
 95
   917527
 70
     0
 93
       34
310
05000044FF
 94
        0
1001
ACAD
1000
AcRTDxfName
1000
MAPIADMODULE
  0
DICTIONARY
  5
2B
102
{ACAD_REACTORS
330
C
102
}
330
C
100
AcDbDictionary
281
     1
  0
DICTIONARY
  5
7D
102
{ACAD_REACTORS
330
C
102
}
330
C
100
AcDbDictionary
281
     1
  0
DICTIONARY
  5
9F48
102
{ACAD_REACTORS
330
C
102
}
330
C
100
AcDbDictionary
281
     1
  3
ASEBlockHierarchyIndexRecord
350
9F49
1001
DCO15
1040
1425739953.442
  0
XRECORD
  5
CAE9
102
{ACAD_REACTORS
330
C
102
}
330
C
100
AcDbXrecord
280
     1
  1
DWGPROPS COOKIE
  2

  3

  4

  6

  7

  8
shibutani
  9

300
AmdtFileType=84
301
=
302
=
303
=
304
=
305
=
306
=
307
=
308
=
309
=
 40
0.0671857175925926
 41
2454123.447246817
 42
2455268.588999202
  1

 90
        1
  0
ACAD_PROXY_OBJECT
  5
3DEB
102
{ACAD_REACTORS
330
C
102
}
330
C
100
AcDbProxyObject
 90
      499
 91
      583
 95
   917527
 70
     0
 93
        8
310
047E
 94
        0
1001
ACAD
1000
AcRTDxfName
1000
AMDTMAPISURFMOUDULE
  0
DICTIONARY
  5
AE5F
102
{ACAD_REACTORS
330
3F95
102
}
330
3F95
100
AcDbDictionary
281
     1
  0
DICTIONARY
  5
3F96
102
{ACAD_REACTORS
330
3F95
102
}
330
3F95
100
AcDbDictionary
281
     1
  3
20011210
350
3FB7
  0
DICTIONARY
  5
AE5E
102
{ACAD_REACTORS
330
3F95
102
}
330
3F95
100
AcDbDictionary
281
     1
1001
ACAD
1000
<All
  0
DICTIONARY
  5
AAB4
102
{ACAD_REACTORS
330
3F95
102
}
330
3F95
100
AcDbDictionary
280
     1
281
     1
  0
SORTENTSTABLE
  5
B431
102
{ACAD_REACTORS
330
8A
102
}
330
8A
100
AcDbSortentsTable
330
1F
331
B42F
  5
B42F
331
B439
  5
B439
331
B43A
  5
B43A
331
B43B
  5
B43B
331
B42C
  5
B42C
331
B43C
  5
B43C
331
B42D
  5
B42D
331
B42E
  5
B42E
  0
XRECORD
  5
CAEB
102
{ACAD_REACTORS
330
CAEA
102
}
330
CAEA
100
AcDbXrecord
280
     1
 70
     1
  0
LAYOUT
  5
22
102
{ACAD_XDICTIONARY
360
CAEE
102
}
102
{ACAD_REACTORS
330
1A
102
}
330
1A
100
AcDbPlotSettings
  1

  2
FX DocuWide 2055
  4
A3
  6

 40
3.174999952316284
 41
3.174999952316284
 42
3.17498779296875
 43
3.17498779296875
 44
297.0106506347656
 45
419.9889831542968
 46
-3.169668555259704
 47
-3.180502295494079
 48
313.3074211456033
 49
-44.87287824655209
140
733.3074211456032
141
252.1271217534479
142
1.0
143
1.0
 70
  3748
 72
     1
 73
     1
 74
     4
  7
monochrome.ctb
 75
     0
147
0.9698365132013956
148
-313.3074211456033
149
44.87287824655209
100
AcDbLayout
  1
Model
 70
     1
 71
     0
 10
0.0
 20
0.0
 11
12.0
 21
9.0
 12
0.0
 22
0.0
 32
0.0
 14
0.0
 24
0.0
 34
0.0
 15
0.0
 25
0.0
 35
0.0
146
0.0
 13
0.0
 23
0.0
 33
0.0
 16
1.0
 26
0.0
 36
0.0
 17
0.0
 27
1.0
 37
0.0
 76
     0
330
1F
331
B43F
1001
ACAD_PSEXT
1000
FX DocuWide 2055
1000
FX DocuWide 2055
1000
DW2055
1000

1070
     0
  0
LAYOUT
  5
1E
102
{ACAD_XDICTIONARY
360
CAEC
102
}
102
{ACAD_REACTORS
330
1A
102
}
330
1A
100
AcDbPlotSettings
  1

  2
\\ML370\XEROX
  4
A4
  6

 40
3.174999952316284
 41
3.174999952316284
 42
3.175003051757812
 43
3.17498779296875
 44
209.8674926757813
 45
296.6719970703125
 46
0.0
 47
0.0
 48
0.0
 49
0.0
140
0.0
141
0.0
142
1.0
143
1.0
 70
   688
 72
     1
 73
     1
 74
     5
  7
monochrome.ctb
 75
    16
147
1.0
148
0.0
149
0.0
100
AcDbLayout
  1
ﾚｲｱｳﾄ1
 70
     1
 71
     1
 10
-3.17498779296875
 20
-3.174999952316284
 11
293.4970092773438
 21
206.692492723465
 12
0.0
 22
0.0
 32
0.0
 14
1.000000000000000E+20
 24
1.000000000000000E+20
 34
1.000000000000000E+20
 15
-1.000000000000000E+20
 25
-1.000000000000000E+20
 35
-1.000000000000000E+20
146
0.0
 13
0.0
 23
0.0
 33
0.0
 16
1.0
 26
0.0
 36
0.0
 17
0.0
 27
1.0
 37
0.0
 76
     0
330
1B
  0
LAYOUT
  5
26
102
{ACAD_XDICTIONARY
360
CAF0
102
}
102
{ACAD_REACTORS
330
1A
102
}
330
1A
100
AcDbPlotSettings
  1

  2
\\ML370\XEROX
  4

  6

 40
0.0
 41
0.0
 42
0.0
 43
0.0
 44
0.0
 45
0.0
 46
0.0
 47
0.0
 48
0.0
 49
0.0
140
0.0
141
0.0
142
1.0
143
1.0
 70
   688
 72
     0
 73
     0
 74
     5
  7
monochrome.ctb
 75
    16
147
1.0
148
0.0
149
0.0
100
AcDbLayout
  1
ﾚｲｱｳﾄ2
 70
     1
 71
     2
 10
0.0
 20
0.0
 11
12.0
 21
9.0
 12
0.0
 22
0.0
 32
0.0
 14
0.0
 24
0.0
 34
0.0
 15
0.0
 25
0.0
 35
0.0
146
0.0
 13
0.0
 23
0.0
 33
0.0
 16
1.0
 26
0.0
 36
0.0
 17
0.0
 27
1.0
 37
0.0
 76
     0
330
23
  0
MATERIAL
  5
B442
102
{ACAD_XDICTIONARY
360
CB06
102
}
102
{ACAD_REACTORS
330
A91C
102
}
330
A91C
100
AcDbMaterial
  1
ByBlock
  0
MATERIAL
  5
B441
102
{ACAD_XDICTIONARY
360
CB04
102
}
102
{ACAD_REACTORS
330
A91C
102
}
330
A91C
100
AcDbMaterial
  1
ByLayer
  0
MATERIAL
  5
B443
102
{ACAD_XDICTIONARY
360
CB08
102
}
102
{ACAD_REACTORS
330
A91C
102
}
330
A91C
100
AcDbMaterial
  1
Global
  0
MLINESTYLE
  5
18
102
{ACAD_REACTORS
330
17
102
}
330
17
100
AcDbMlineStyle
  2
STANDARD
 70
     0
  3

 62
   256
 51
90.0
 52
90.0
 71
     2
 49
0.5
 62
   256
  6
BYLAYER
 49
-0.5
 62
   256
  6
BYLAYER
  0
PLOTSETTINGS
  5
AAFE
102
{ACAD_XDICTIONARY
360
CAF4
102
}
102
{ACAD_REACTORS
330
19
102
}
330
19
100
AcDbPlotSettings
  1
01 A3フィット
  2
FX DocuWide 2050/2051
  4
A3
  6
AM_VIEW1
 40
3.174999952316284
 41
3.174999952316284
 42
3.17498779296875
 43
3.17498779296875
 44
296.989501953125
 45
419.9889831542968
 46
0.0
 47
1.295841228961961
 48
214.3704939521119
 49
367.5855324241176
140
275.6727856380065
141
407.629191407817
142
1.0
143
1.445089120606129
 70
  3764
 72
     1
 73
     1
 74
     2
  7
monochrome.ctb
 75
     0
147
0.6919988433519999
148
0.0
149
0.0
1001
ACAD_PSEXT
1000
FX DocuWide 2050/2051
1000
FX DocuWide 2050/2051
1000
IP_192.200.15.252
1000

1070
     0
  0
PLOTSETTINGS
  5
AAFF
102
{ACAD_XDICTIONARY
360
CAF6
102
}
102
{ACAD_REACTORS
330
19
102
}
330
19
100
AcDbPlotSettings
  1
02 A3
  2
FX DocuWide 2050/2051
  4
A3
  6
AM_VIEW1
 40
3.174999952316284
 41
3.174999952316284
 42
3.17498779296875
 43
3.17498779296875
 44
296.989501953125
 45
419.9889831542968
 46
-64.68024289608002
 47
-90.18050229549407
 48
214.3704939521119
 49
367.5855324241176
140
275.6727856380065
141
407.629191407817
142
1.0
143
1.0
 70
  3764
 72
     1
 73
     1
 74
     2
  7
monochrome.ctb
 75
    16
147
1.0
148
0.0
149
0.0
1001
ACAD_PSEXT
1000
FX DocuWide 2050/2051
1000
FX DocuWide 2050/2051
1000
IP_192.200.15.252
1000

1070
     0
  0
PLOTSETTINGS
  5
AB00
102
{ACAD_XDICTIONARY
360
CAF8
102
}
102
{ACAD_REACTORS
330
19
102
}
330
19
100
AcDbPlotSettings
  1
03 A2フィット
  2
FX DocuWide 2050/2051
  4
User66
  6
AM_VIEW1
 40
3.174999952316284
 41
3.174999952316284
 42
3.17498779296875
 43
3.17498779296875
 44
419.9889831542968
 45
593.97900390625
 46
0.0
 47
1.312647041252716
 48
214.3704939521119
 49
367.5855324241176
140
275.6727856380065
141
407.629191407817
142
1.0
143
1.015378155013403
 70
  3764
 72
     1
 73
     1
 74
     2
  7
monochrome.ctb
 75
     0
147
0.9848547509738377
148
0.0
149
0.0
1001
ACAD_PSEXT
1000
FX DocuWide 2050/2051
1000
FX DocuWide 2050/2051
1000
IP_192.200.15.252
1000

1070
     0
  0
PLOTSETTINGS
  5
AB01
102
{ACAD_XDICTIONARY
360
CAFA
102
}
102
{ACAD_REACTORS
330
19
102
}
330
19
100
AcDbPlotSettings
  1
04 A2
  2
FX DocuWide 2050/2051
  4
User66
  6
AM_VIEW1
 40
3.174999952316284
 41
3.174999952316284
 42
3.17498779296875
 43
3.17498779296875
 44
419.9889831542968
 45
593.97900390625
 46
-3.180502295494079
 47
-3.185491919517517
 48
214.3704939521119
 49
367.5855324241176
140
275.6727856380065
141
407.629191407817
142
1.0
143
1.0
 70
  3764
 72
     1
 73
     1
 74
     2
  7
monochrome.ctb
 75
    16
147
1.0
148
0.0
149
0.0
1001
ACAD_PSEXT
1000
FX DocuWide 2050/2051
1000
FX DocuWide 2050/2051
1000
IP_192.200.15.252
1000

1070
     0
  0
PLOTSETTINGS
  5
AB04
102
{ACAD_XDICTIONARY
360
CB00
102
}
102
{ACAD_REACTORS
330
19
102
}
330
19
100
AcDbPlotSettings
  1
05 A1フィット
  2
FX DocuWide 2050/2051
  4
User139
  6
AM_VIEW1
 40
3.174999952316284
 41
3.174999952316284
 42
3.17498779296875
 43
3.17498779296875
 44
593.97900390625
 45
840.9939575195313
 46
0.0
 47
1.784323459012171
 48
214.3704939521119
 49
367.5855324241176
140
275.6727856380065
141
407.629191407817
142
1.0
143
0.7147366594384652
 70
  3764
 72
     1
 73
     1
 74
     2
  7
monochrome.ctb
 75
     0
147
1.399116705145154
148
0.0
149
0.0
1001
ACAD_PSEXT
1000
FX DocuWide 2050/2051
1000
FX DocuWide 2050/2051
1000
IP_192.200.15.252
1000

1070
     0
  0
PLOTSETTINGS
  5
AB05
102
{ACAD_XDICTIONARY
360
CB02
102
}
102
{ACAD_REACTORS
330
19
102
}
330
19
100
AcDbPlotSettings
  1
06 A1
  2
FX DocuWide 2050/2051
  4
User139
  6
AM_VIEW1
 40
3.174999952316284
 41
3.174999952316284
 42
3.17498779296875
 43
3.17498779296875
 44
593.97900390625
 45
840.9939575195313
 46
83.81450808048247
 47
120.3219848871231
 48
214.3704939521119
 49
367.5855324241176
140
275.6727856380065
141
407.629191407817
142
1.0
143
1.0
 70
  3764
 72
     1
 73
     1
 74
     2
  7
monochrome.ctb
 75
    16
147
1.0
148
0.0
149
0.0
1001
ACAD_PSEXT
1000
FX DocuWide 2050/2051
1000
FX DocuWide 2050/2051
1000
IP_192.200.15.252
1000

1070
     0
  0
PLOTSETTINGS
  5
AB02
102
{ACAD_XDICTIONARY
360
CAFC
102
}
102
{ACAD_REACTORS
330
19
102
}
330
19
100
AcDbPlotSettings
  1
06 A4フィット
  2
FX DocuWide 2050/2051
  4
A4
  6
AM_VIEW1
 40
3.174999952316284
 41
3.174999952316284
 42
3.175003051757812
 43
3.17498779296875
 44
209.9944915771484
 45
296.989501953125
 46
0.0
 47
1.314011612960285
 48
214.3704939521119
 49
367.5855324241176
140
275.6727856380065
141
407.629191407817
142
1.0
143
2.06241771109504
 70
  3764
 72
     1
 73
     1
 74
     2
  7
monochrome.ctb
 75
     0
147
0.4848678299358913
148
0.0
149
0.0
1001
ACAD_PSEXT
1000
FX DocuWide 2050/2051
1000
FX DocuWide 2050/2051
1000
IP_192.200.15.252
1000

1070
     0
  0
PLOTSETTINGS
  5
AB03
102
{ACAD_XDICTIONARY
360
CAFE
102
}
102
{ACAD_REACTORS
330
19
102
}
330
19
100
AcDbPlotSettings
  1
07 A4
  2
FX DocuWide 2050/2051
  4
A4
  6
AM_VIEW1
 40
3.174999952316284
 41
3.174999952316284
 42
3.175003051757812
 43
3.17498779296875
 44
209.9944915771484
 45
296.989501953125
 46
-108.1777557134628
 47
-151.68024289608
 48
214.3704939521119
 49
367.5855324241176
140
275.6727856380065
141
407.629191407817
142
1.0
143
1.0
 70
  3764
 72
     1
 73
     1
 74
     2
  7
monochrome.ctb
 75
    16
147
1.0
148
0.0
149
0.0
1001
ACAD_PSEXT
1000
FX DocuWide 2050/2051
1000
FX DocuWide 2050/2051
1000
IP_192.200.15.252
1000

1070
     0
  0
ACDBPLACEHOLDER
  5
F
102
{ACAD_REACTORS
330
E
102
}
330
E
  0
TABLESTYLE
  5
AABA
102
{ACAD_XDICTIONARY
360
CAF2
102
}
102
{ACAD_REACTORS
330
AAB9
102
}
330
AAB9
100
AcDbTableStyle
  3
Standard
 70
     0
 71
     0
 40
1.5
 41
1.5
280
     0
281
     0
  7
STANDARD
140
4.5
170
     2
 62
     0
 63
     7
283
     0
274
    -2
284
     1
 64
     0
275
    -2
285
     1
 65
     0
276
    -2
286
     1
 66
     0
277
    -2
287
     1
 67
     0
278
    -2
288
     1
 68
     0
279
    -2
289
     1
 69
     0
  7
STANDARD
140
6.0
170
     5
 62
     0
 63
     7
283
     0
274
    -2
284
     1
 64
     0
275
    -2
285
     1
 65
     0
276
    -2
286
     1
 66
     0
277
    -2
287
     1
 67
     0
278
    -2
288
     1
 68
     0
279
    -2
289
     1
 69
     0
  7
STANDARD
140
4.5
170
     5
 62
     0
 63
     7
283
     0
274
    -2
284
     1
 64
     0
275
    -2
285
     1
 65
     0
276
    -2
286
     1
 66
     0
277
    -2
287
     1
 67
     0
278
    -2
288
     1
 68
     0
279
    -2
289
     1
 69
     0
  0
VISUALSTYLE
  5
B44A
102
{ACAD_REACTORS
330
B444
102
}
330
B444
100
AcDbVisualStyle
  2
2dWireframe
 70
     4
 71
     0
 72
     2
 73
     0
 90
        0
 40
-0.6
 41
-30.0
 62
     5
 63
     7
 74
     1
 91
        4
 64
     7
 65
   257
 75
     1
175
     1
 42
1.0
 92
        0
 66
   257
 43
1.0
 76
     1
 77
     6
 78
     2
 67
     7
 79
     5
170
     0
171
     0
290
     0
174
     0
 93
        1
 44
0.0
173
     0
291
     0
 45
0.0
1001
ACAD
1000
AcDbSavedByObjectVersion
1070
     0
  0
VISUALSTYLE
  5
B44C
102
{ACAD_REACTORS
330
B444
102
}
330
B444
100
AcDbVisualStyle
  2
3D Hidden
 70
     6
 71
     1
 72
     2
 73
     2
 90
        0
 40
-0.6
 41
-30.0
 62
     5
 63
     7
 74
     2
 91
        2
 64
     7
 65
   257
 75
     2
175
     1
 42
40.0
 92
        0
 66
   257
 43
1.0
 76
     1
 77
     6
 78
     2
 67
     7
 79
     3
170
     0
171
     0
290
     0
174
     0
 93
        1
 44
0.0
173
     0
291
     0
 45
0.0
1001
ACAD
1000
AcDbSavedByObjectVersion
1070
     0
  0
VISUALSTYLE
  5
B44B
102
{ACAD_REACTORS
330
B444
102
}
330
B444
100
AcDbVisualStyle
  2
3dWireframe
 70
     5
 71
     0
 72
     2
 73
     0
 90
        0
 40
-0.6
 41
-30.0
 62
     5
 63
     7
 74
     1
 91
        4
 64
     7
 65
   257
 75
     1
175
     1
 42
1.0
 92
        0
 66
   257
 43
1.0
 76
     1
 77
     6
 78
     2
 67
     7
 79
     5
170
     0
171
     0
290
     0
174
     0
 93
        1
 44
0.0
173
     0
291
     0
 45
0.0
1001
ACAD
1000
AcDbSavedByObjectVersion
1070
     0
  0
VISUALSTYLE
  5
B449
102
{ACAD_REACTORS
330
B444
102
}
330
B444
100
AcDbVisualStyle
  2
Basic
 70
     7
 71
     1
 72
     0
 73
     1
 90
        0
 40
-0.6
 41
-30.0
 62
     5
 63
     7
 74
     0
 91
        4
 64
     7
 65
   257
 75
     1
175
     1
 42
1.0
 92
        8
 66
     7
 43
1.0
 76
     1
 77
     6
 78
     2
 67
     7
 79
     5
170
     0
171
     0
290
     0
174
     0
 93
        1
 44
0.0
173
     0
291
     1
 45
0.0
1001
ACAD
1000
AcDbSavedByObjectVersion
1070
     0
  0
VISUALSTYLE
  5
B450
102
{ACAD_REACTORS
330
B444
102
}
330
B444
100
AcDbVisualStyle
  2
Brighten
 70
    12
 71
     2
 72
     2
 73
     0
 90
        0
 40
-0.6
 41
-30.0
 62
     5
 63
     7
 74
     1
 91
        4
 64
     7
 65
   257
 75
     1
175
     1
 42
1.0
 92
        8
 66
     7
 43
1.0
 76
     1
 77
     6
 78
     2
 67
     7
 79
     5
170
     0
171
     0
290
     0
174
     0
 93
        1
 44
50.0
173
     0
291
     1
 45
0.0
1001
ACAD
1000
AcDbSavedByObjectVersion
1070
     0
  0
VISUALSTYLE
  5
B454
102
{ACAD_REACTORS
330
B444
102
}
330
B444
100
AcDbVisualStyle
  2
ColorChange
 70
    16
 71
     2
 72
     2
 73
     3
 90
        0
 40
-0.6
 41
-30.0
 62
     5
 63
     8
 74
     1
 91
        4
 64
     7
 65
   257
 75
     1
175
     1
 42
1.0
 92
        8
 66
     8
 43
1.0
 76
     1
 77
     6
 78
     2
 67
     7
 79
     5
170
     0
171
     0
290
     0
174
     0
 93
        1
 44
0.0
173
     0
291
     1
 45
0.0
1001
ACAD
1000
AcDbSavedByObjectVersion
1070
     0
  0
VISUALSTYLE
  5
B44D
102
{ACAD_REACTORS
330
B444
102
}
330
B444
100
AcDbVisualStyle
  2
Conceptual
 70
     9
 71
     3
 72
     2
 73
     0
 90
        0
 40
-0.6
 41
-30.0
 62
     5
 63
     7
 74
     2
 91
        2
 64
     7
 65
   257
 75
     1
175
     1
 42
40.0
 92
        8
 66
     7
 43
1.0
 76
     1
 77
     6
 78
     2
 67
     7
 79
     3
170
     0
171
     0
290
     0
174
     0
 93
        1
 44
0.0
173
     0
291
     0
 45
0.0
1001
ACAD
1000
AcDbSavedByObjectVersion
1070
     0
  0
VISUALSTYLE
  5
B44F
102
{ACAD_REACTORS
330
B444
102
}
330
B444
100
AcDbVisualStyle
  2
Dim
 70
    11
 71
     2
 72
     2
 73
     0
 90
        0
 40
-0.6
 41
-30.0
 62
     5
 63
     7
 74
     1
 91
        4
 64
     7
 65
   257
 75
     1
175
     1
 42
1.0
 92
        8
 66
     7
 43
1.0
 76
     1
 77
     6
 78
     2
 67
     7
 79
     5
170
     0
171
     0
290
     0
174
     0
 93
        1
 44
-50.0
173
     0
291
     1
 45
0.0
1001
ACAD
1000
AcDbSavedByObjectVersion
1070
     0
  0
VISUALSTYLE
  5
B453
102
{ACAD_REACTORS
330
B444
102
}
330
B444
100
AcDbVisualStyle
  2
Facepattern
 70
    15
 71
     2
 72
     2
 73
     0
 90
        0
 40
-0.6
 41
-30.0
 62
     5
 63
     7
 74
     1
 91
        4
 64
     7
 65
   257
 75
     1
175
     1
 42
1.0
 92
        8
 66
     7
 43
1.0
 76
     1
 77
     6
 78
     2
 67
     7
 79
     5
170
     0
171
     0
290
     0
174
     0
 93
        1
 44
0.0
173
     0
291
     1
 45
0.0
1001
ACAD
1000
AcDbSavedByObjectVersion
1070
     0
  0
VISUALSTYLE
  5
B445
102
{ACAD_REACTORS
330
B444
102
}
330
B444
100
AcDbVisualStyle
  2
Flat
 70
     0
 71
     2
 72
     1
 73
     1
 90
        2
 40
-0.6
 41
30.0
 62
     5
 63
     7
 74
     0
 91
        4
 64
     7
 65
   257
 75
     1
175
     1
 42
1.0
 92
        8
 66
     7
 43
1.0
 76
     1
 77
     6
 78
     2
 67
     7
 79
     5
170
     0
171
     0
290
     0
174
     0
 93
       13
 44
0.0
173
     0
291
     1
 45
0.0
1001
ACAD
1000
AcDbSavedByObjectVersion
1070
     0
  0
VISUALSTYLE
  5
B446
102
{ACAD_REACTORS
330
B444
102
}
330
B444
100
AcDbVisualStyle
  2
FlatWithEdges
 70
     1
 71
     2
 72
     1
 73
     1
 90
        2
 40
-0.6
 41
30.0
 62
     5
 63
     7
 74
     1
 91
        4
 64
     7
 65
   257
 75
     1
175
     1
 42
1.0
 92
        0
 66
   257
 43
1.0
 76
     1
 77
     6
 78
     2
 67
     7
 79
     5
170
     0
171
     0
290
     0
174
     0
 93
       13
 44
0.0
173
     0
291
     1
 45
0.0
1001
ACAD
1000
AcDbSavedByObjectVersion
1070
     0
  0
VISUALSTYLE
  5
B447
102
{ACAD_REACTORS
330
B444
102
}
330
B444
100
AcDbVisualStyle
  2
Gouraud
 70
     2
 71
     2
 72
     2
 73
     1
 90
        2
 40
-0.6
 41
30.0
 62
     5
 63
     7
 74
     0
 91
        4
 64
     7
 65
   257
 75
     1
175
     1
 42
1.0
 92
        0
 66
     7
 43
1.0
 76
     1
 77
     6
 78
     2
 67
     7
 79
     5
170
     0
171
     0
290
     0
174
     0
 93
       13
 44
0.0
173
     0
291
     1
 45
0.0
1001
ACAD
1000
AcDbSavedByObjectVersion
1070
     0
  0
VISUALSTYLE
  5
B448
102
{ACAD_REACTORS
330
B444
102
}
330
B444
100
AcDbVisualStyle
  2
GouraudWithEdges
 70
     3
 71
     2
 72
     2
 73
     1
 90
        2
 40
-0.6
 41
30.0
 62
     5
 63
     7
 74
     1
 91
        4
 64
     7
 65
   257
 75
     1
175
     1
 42
1.0
 92
        0
 66
   257
 43
1.0
 76
     1
 77
     6
 78
     2
 67
     7
 79
     5
170
     0
171
     0
290
     0
174
     0
 93
       13
 44
0.0
173
     0
291
     1
 45
0.0
1001
ACAD
1000
AcDbSavedByObjectVersion
1070
     0
  0
VISUALSTYLE
  5
B452
102
{ACAD_REACTORS
330
B444
102
}
330
B444
100
AcDbVisualStyle
  2
Linepattern
 70
    14
 71
     2
 72
     2
 73
     0
 90
        0
 40
-0.6
 41
-30.0
 62
     5
 63
     7
 74
     1
 91
        4
 64
     7
 65
   257
 75
     7
175
     7
 42
1.0
 92
        8
 66
     7
 43
1.0
 76
     1
 77
     6
 78
     2
 67
     7
 79
     5
170
     0
171
     0
290
     0
174
     0
 93
        1
 44
0.0
173
     0
291
     1
 45
0.0
1001
ACAD
1000
AcDbSavedByObjectVersion
1070
     0
  0
VISUALSTYLE
  5
B44E
102
{ACAD_REACTORS
330
B444
102
}
330
B444
100
AcDbVisualStyle
  2
Realistic
 70
     8
 71
     2
 72
     2
 73
     0
 90
        0
 40
-0.6
 41
-30.0
 62
     5
 63
     7
 74
     1
 91
        0
 64
     7
 65
   257
 75
     1
175
     1
 42
1.0
 92
        8
 66
     8
 43
1.0
 76
     1
 77
     6
 78
     2
 67
     7
 79
     5
170
     0
171
     0
290
     0
174
     0
 93
       13
 44
0.0
173
     0
291
     0
 45
0.0
1001
ACAD
1000
AcDbSavedByObjectVersion
1070
     0
  0
VISUALSTYLE
  5
B451
102
{ACAD_REACTORS
330
B444
102
}
330
B444
100
AcDbVisualStyle
  2
Thicken
 70
    13
 71
     2
 72
     2
 73
     0
 90
        0
 40
-0.6
 41
-30.0
 62
     5
 63
     7
 74
     1
 91
        4
 64
     7
 65
   257
 75
     1
175
     1
 42
1.0
 92
       12
 66
     7
 43
1.0
 76
     1
 77
     6
 78
     2
 67
     7
 79
     5
170
     0
171
     0
290
     0
174
     0
 93
        1
 44
0.0
173
     0
291
     1
 45
0.0
1001
ACAD
1000
AcDbSavedByObjectVersion
1070
     0
  0
DICTIONARYVAR
  5
AAF3
102
{ACAD_REACTORS
330
34
102
}
330
34
100
DictionaryVariables
280
     0
  1
STANDARD
  0
DICTIONARYVAR
  5
A10C
102
{ACAD_REACTORS
330
34
102
}
330
34
100
DictionaryVariables
280
     0
  1
1
  0
DICTIONARYVAR
  5
AB07
102
{ACAD_REACTORS
330
34
102
}
330
34
100
DictionaryVariables
280
     0
  1
4
  0
DICTIONARYVAR
  5
35
102
{ACAD_REACTORS
330
34
102
}
330
34
100
DictionaryVariables
280
     0
  1
0
  0
DICTIONARYVAR
  5
194C
102
{ACAD_REACTORS
330
34
102
}
330
34
100
DictionaryVariables
280
     0
  1
96
  0
DICTIONARY
  5
7E8
102
{ACAD_REACTORS
330
47
102
}
330
47
100
AcDbDictionary
281
     1
  0
DICTIONARY
  5
4C
102
{ACAD_REACTORS
330
47
102
}
330
47
100
AcDbDictionary
281
     1
  0
XRECORD
  5
A929
102
{ACAD_REACTORS
330
47
102
}
330
47
100
AcDbXrecord
280
     1
 90
-1023410169
  0
XRECORD
  5
9F49
102
{ACAD_REACTORS
330
9F48
102
}
330
9F48
100
AcDbXrecord
280
     1
330
0
330
0
330
0
330
0
330
0
330
0
330
0
330
0
  0
XRECORD
  5
3FB7
102
{ACAD_REACTORS
330
3F96
102
}
330
3F96
100
AcDbXrecord
280
     1
 91
        3
330
0
 90
        8
 62
     7
370
    40
331
16
  1
Color_7
330
0
 90
        0
 62
    14
370
    -3
331
16
  1
Color_14
330
0
 90
        8
 62
     7
370
    20
331
16
  1
Color_7
330
6D1
 90
        0
 62
     7
370
    -3
331
16
  1
Color_7
330
0
 90
        8
 62
     7
370
    50
331
16
  1
Color_7
330
0
 90
        8
 62
     2
370
    35
331
16
  1
Color_2
330
0
 90
        8
 62
     7
370
    -3
331
16
  1
Color_7
330
10
 90
        8
 62
     7
370
    -3
331
16
  1
Color_7
  0
DICTIONARY
  5
CAEE
330
22
100
AcDbDictionary
280
     1
281
     1
  3
ACAD_XREC_ROUNDTRIP
360
CAEF
  0
DICTIONARY
  5
CAEC
330
1E
100
AcDbDictionary
280
     1
281
     1
  3
ACAD_XREC_ROUNDTRIP
360
CAED
  0
DICTIONARY
  5
CAF0
330
26
100
AcDbDictionary
280
     1
281
     1
  3
ACAD_XREC_ROUNDTRIP
360
CAF1
  0
DICTIONARY
  5
CB06
330
B442
100
AcDbDictionary
280
     1
281
     1
  3
ACAD_XREC_ROUNDTRIP
360
CB07
  0
DICTIONARY
  5
CB04
330
B441
100
AcDbDictionary
280
     1
281
     1
  3
ACAD_XREC_ROUNDTRIP
360
CB05
  0
DICTIONARY
  5
CB08
330
B443
100
AcDbDictionary
280
     1
281
     1
  3
ACAD_XREC_ROUNDTRIP
360
CB09
  0
DICTIONARY
  5
CAF4
330
AAFE
100
AcDbDictionary
280
     1
281
     1
  3
ACAD_XREC_ROUNDTRIP
360
CAF5
  0
DICTIONARY
  5
CAF6
330
AAFF
100
AcDbDictionary
280
     1
281
     1
  3
ACAD_XREC_ROUNDTRIP
360
CAF7
  0
DICTIONARY
  5
CAF8
330
AB00
100
AcDbDictionary
280
     1
281
     1
  3
ACAD_XREC_ROUNDTRIP
360
CAF9
  0
DICTIONARY
  5
CAFA
330
AB01
100
AcDbDictionary
280
     1
281
     1
  3
ACAD_XREC_ROUNDTRIP
360
CAFB
  0
DICTIONARY
  5
CB00
330
AB04
100
AcDbDictionary
280
     1
281
     1
  3
ACAD_XREC_ROUNDTRIP
360
CB01
  0
DICTIONARY
  5
CB02
330
AB05
100
AcDbDictionary
280
     1
281
     1
  3
ACAD_XREC_ROUNDTRIP
360
CB03
  0
DICTIONARY
  5
CAFC
330
AB02
100
AcDbDictionary
280
     1
281
     1
  3
ACAD_XREC_ROUNDTRIP
360
CAFD
  0
DICTIONARY
  5
CAFE
330
AB03
100
AcDbDictionary
280
     1
281
     1
  3
ACAD_XREC_ROUNDTRIP
360
CAFF
  0
DICTIONARY
  5
CAF2
330
AABA
100
AcDbDictionary
280
     1
281
     1
  3
ACAD_XREC_ROUNDTRIP
360
CAF3
  0
XRECORD
  5
CAEF
102
{ACAD_REACTORS
330
CAEE
102
}
330
CAEE
100
AcDbXrecord
280
     1
102
SHADEPLOT
 70
     0
102
SHADEPLOTRESLEVEL
 70
     2
102
SHADEPLOTCUSTOMDPI
 70
   200
  0
XRECORD
  5
CAED
102
{ACAD_REACTORS
330
CAEC
102
}
330
CAEC
100
AcDbXrecord
280
     1
102
SHADEPLOT
 70
     0
102
SHADEPLOTRESLEVEL
 70
     2
102
SHADEPLOTCUSTOMDPI
 70
   300
  0
XRECORD
  5
CAF1
102
{ACAD_REACTORS
330
CAF0
102
}
330
CAF0
100
AcDbXrecord
280
     1
102
SHADEPLOT
 70
     0
102
SHADEPLOTRESLEVEL
 70
     2
102
SHADEPLOTCUSTOMDPI
 70
   300
  0
XRECORD
  5
CB07
102
{ACAD_REACTORS
330
CB06
102
}
330
CB06
100
AcDbXrecord
280
     1
102
MATERIAL
148
0.0
149
0.0
149
0.0
 93
        0
 94
       63
282
     0
 72
     1
 77
     1
171
     1
175
     1
179
     1
273
     0
  0
XRECORD
  5
CB05
102
{ACAD_REACTORS
330
CB04
102
}
330
CB04
100
AcDbXrecord
280
     1
102
MATERIAL
148
0.0
149
0.0
149
0.0
 93
        0
 94
       63
282
     0
 72
     1
 77
     1
171
     1
175
     1
179
     1
273
     0
  0
XRECORD
  5
CB09
102
{ACAD_REACTORS
330
CB08
102
}
330
CB08
100
AcDbXrecord
280
     1
102
MATERIAL
148
0.0
149
0.0
149
0.0
 93
        0
 94
       63
282
     0
 72
     1
 77
     1
171
     1
175
     1
179
     1
273
     0
  0
XRECORD
  5
CAF5
102
{ACAD_REACTORS
330
CAF4
102
}
330
CAF4
100
AcDbXrecord
280
     1
102
SHADEPLOT
 70
     0
102
SHADEPLOTRESLEVEL
 70
     2
102
SHADEPLOTCUSTOMDPI
 70
   200
  0
XRECORD
  5
CAF7
102
{ACAD_REACTORS
330
CAF6
102
}
330
CAF6
100
AcDbXrecord
280
     1
102
SHADEPLOT
 70
     0
102
SHADEPLOTRESLEVEL
 70
     2
102
SHADEPLOTCUSTOMDPI
 70
   200
  0
XRECORD
  5
CAF9
102
{ACAD_REACTORS
330
CAF8
102
}
330
CAF8
100
AcDbXrecord
280
     1
102
SHADEPLOT
 70
     0
102
SHADEPLOTRESLEVEL
 70
     2
102
SHADEPLOTCUSTOMDPI
 70
   200
  0
XRECORD
  5
CAFB
102
{ACAD_REACTORS
330
CAFA
102
}
330
CAFA
100
AcDbXrecord
280
     1
102
SHADEPLOT
 70
     0
102
SHADEPLOTRESLEVEL
 70
     2
102
SHADEPLOTCUSTOMDPI
 70
   200
  0
XRECORD
  5
CB01
102
{ACAD_REACTORS
330
CB00
102
}
330
CB00
100
AcDbXrecord
280
     1
102
SHADEPLOT
 70
     0
102
SHADEPLOTRESLEVEL
 70
     2
102
SHADEPLOTCUSTOMDPI
 70
   200
  0
XRECORD
  5
CB03
102
{ACAD_REACTORS
330
CB02
102
}
330
CB02
100
AcDbXrecord
280
     1
102
SHADEPLOT
 70
     0
102
SHADEPLOTRESLEVEL
 70
     2
102
SHADEPLOTCUSTOMDPI
 70
   200
  0
XRECORD
  5
CAFD
102
{ACAD_REACTORS
330
CAFC
102
}
330
CAFC
100
AcDbXrecord
280
     1
102
SHADEPLOT
 70
     0
102
SHADEPLOTRESLEVEL
 70
     2
102
SHADEPLOTCUSTOMDPI
 70
   200
  0
XRECORD
  5
CAFF
102
{ACAD_REACTORS
330
CAFE
102
}
330
CAFE
100
AcDbXrecord
280
     1
102
SHADEPLOT
 70
     0
102
SHADEPLOTRESLEVEL
 70
     2
102
SHADEPLOTCUSTOMDPI
 70
   200
  0
XRECORD
  5
CAF3
102
{ACAD_REACTORS
330
CAF2
102
}
330
CAF2
100
AcDbXrecord
280
     1
102
ACAD_ROUNDTRIP_PRE2007_TABLESTYLE
 90
        4
 91
        0
  1

 92
        4
 93
        0
  2

 94
        4
 95
        0
  3

  0
ENDSEC
  0
EOF
