  0
SECTION
  2
HEADER
  9
$ACADVER
  1
AC1015
  9
$ACADMAINTVER
 70
    20
  9
$DWGCODEPAGE
  3
ANSI_932
  9
$INSBASE
 10
0.0
 20
0.0
 30
0.0
  9
$EXTMIN
 10
-0.0181266115766903
 20
-0.0128167960643282
 30
-0.0000000349181948
  9
$EXTMAX
 10
297.0181293776892
 20
210.0128187519015
 30
0.0000000814935746
  9
$LIMMIN
 10
0.0
 20
-0.0000000000000284
  9
$LIMMAX
 10
297.0
 20
210.0
  9
$ORTHOMODE
 70
     0
  9
$REGENMODE
 70
     1
  9
$FILLMODE
 70
     1
  9
$QTEXTMODE
 70
     0
  9
$MIRRTEXT
 70
     0
  9
$LTSCALE
 40
1.0
  9
$ATTMODE
 70
     1
  9
$TEXTSIZE
 40
3.2
  9
$TRACEWID
 40
1.0
  9
$TEXTSTYLE
  7
STANDARD
  9
$CLAYER
  8
AM_0
  9
$CELTYPE
  6
ByLayer
  9
$CECOLOR
 62
   256
  9
$CELTSCALE
 40
1.0
  9
$DISPSILH
 70
     0
  9
$DIMSCALE
 40
1.0
  9
$DIMASZ
 40
1.0
  9
$DIMEXO
 40
1.0
  9
$DIMDLI
 40
10.0
  9
$DIMRND
 40
0.0
  9
$DIMDLE
 40
0.0
  9
$DIMEXE
 40
1.0
  9
$DIMTP
 40
0.1
  9
$DIMTM
 40
0.1
  9
$DIMTXT
 40
3.5
  9
$DIMCEN
 40
0.0
  9
$DIMTSZ
 40
0.0
  9
$DIMTOL
 70
     0
  9
$DIMLIM
 70
     0
  9
$DIMTIH
 70
     0
  9
$DIMTOH
 70
     0
  9
$DIMSE1
 70
     0
  9
$DIMSE2
 70
     0
  9
$DIMTAD
 70
     1
  9
$DIMZIN
 70
     8
  9
$DIMBLK
  1

  9
$DIMASO
 70
     1
  9
$DIMSHO
 70
     1
  9
$DIMPOST
  1

  9
$DIMAPOST
  1
"
  9
$DIMALT
 70
     0
  9
$DIMALTD
 70
     2
  9
$DIMALTF
 40
0.0393701
  9
$DIMLFAC
 40
1.0
  9
$DIMTOFL
 70
     1
  9
$DIMTVP
 40
0.0
  9
$DIMTIX
 70
     0
  9
$DIMSOXD
 70
     0
  9
$DIMSAH
 70
     0
  9
$DIMBLK1
  1

  9
$DIMBLK2
  1

  9
$DIMSTYLE
  2
SYS
  9
$DIMCLRD
 70
   256
  9
$DIMCLRE
 70
   256
  9
$DIMCLRT
 70
     7
  9
$DIMTFAC
 40
0.71
  9
$DIMGAP
 40
1.5
  9
$DIMJUST
 70
     0
  9
$DIMSD1
 70
     0
  9
$DIMSD2
 70
     0
  9
$DIMTOLJ
 70
     0
  9
$DIMTZIN
 70
     8
  9
$DIMALTZ
 70
     0
  9
$DIMALTTZ
 70
     0
  9
$DIMUPT
 70
     0
  9
$DIMDEC
 70
     2
  9
$DIMTDEC
 70
     2
  9
$DIMALTU
 70
     2
  9
$DIMALTTD
 70
     2
  9
$DIMTXSTY
  7
STANDARD
  9
$DIMAUNIT
 70
     0
  9
$DIMADEC
 70
     0
  9
$DIMALTRND
 40
0.0
  9
$DIMAZIN
 70
     2
  9
$DIMDSEP
 70
    46
  9
$DIMATFIT
 70
     3
  9
$DIMFRAC
 70
     0
  9
$DIMLDRBLK
  1

  9
$DIMLUNIT
 70
     2
  9
$DIMLWD
 70
    -1
  9
$DIMLWE
 70
    -1
  9
$DIMTMOVE
 70
     0
  9
$LUNITS
 70
     2
  9
$LUPREC
 70
     2
  9
$SKETCHINC
 40
1.0
  9
$FILLETRAD
 40
0.0
  9
$AUNITS
 70
     0
  9
$AUPREC
 70
     0
  9
$MENU
  1
.
  9
$ELEVATION
 40
0.0
  9
$PELEVATION
 40
0.0
  9
$THICKNESS
 40
0.0
  9
$LIMCHECK
 70
     0
  9
$CHAMFERA
 40
0.0
  9
$CHAMFERB
 40
0.0
  9
$CHAMFERC
 40
20.0
  9
$CHAMFERD
 40
0.0
  9
$SKPOLY
 70
     0
  9
$TDCREATE
 40
2456129.601273322
  9
$TDUCREATE
 40
2456129.226273322
  9
$TDUPDATE
 40
2456267.596429398
  9
$TDUUPDATE
 40
2456267.221429398
  9
$TDINDWG
 40
0.0873940278
  9
$TDUSRTIMER
 40
0.0873938542
  9
$USRTIMER
 70
     1
  9
$ANGBASE
 50
0.0
  9
$ANGDIR
 70
     0
  9
$PDMODE
 70
     0
  9
$PDSIZE
 40
-3.0
  9
$PLINEWID
 40
0.0
  9
$SPLFRAME
 70
     0
  9
$SPLINETYPE
 70
     6
  9
$SPLINESEGS
 70
     8
  9
$HANDSEED
  5
C0E5
  9
$SURFTAB1
 70
     6
  9
$SURFTAB2
 70
     6
  9
$SURFTYPE
 70
     6
  9
$SURFU
 70
     6
  9
$SURFV
 70
     6
  9
$UCSBASE
  2

  9
$UCSNAME
  2

  9
$UCSORG
 10
0.0
 20
0.0
 30
0.0
  9
$UCSXDIR
 10
1.0
 20
0.0
 30
0.0
  9
$UCSYDIR
 10
0.0
 20
1.0
 30
0.0
  9
$UCSORTHOREF
  2

  9
$UCSORTHOVIEW
 70
     0
  9
$UCSORGTOP
 10
0.0
 20
0.0
 30
0.0
  9
$UCSORGBOTTOM
 10
0.0
 20
0.0
 30
0.0
  9
$UCSORGLEFT
 10
0.0
 20
0.0
 30
0.0
  9
$UCSORGRIGHT
 10
0.0
 20
0.0
 30
0.0
  9
$UCSORGFRONT
 10
0.0
 20
0.0
 30
0.0
  9
$UCSORGBACK
 10
0.0
 20
0.0
 30
0.0
  9
$PUCSBASE
  2

  9
$PUCSNAME
  2

  9
$PUCSORG
 10
0.0
 20
0.0
 30
0.0
  9
$PUCSXDIR
 10
1.0
 20
0.0
 30
0.0
  9
$PUCSYDIR
 10
0.0
 20
1.0
 30
0.0
  9
$PUCSORTHOREF
  2

  9
$PUCSORTHOVIEW
 70
     0
  9
$PUCSORGTOP
 10
0.0
 20
0.0
 30
0.0
  9
$PUCSORGBOTTOM
 10
0.0
 20
0.0
 30
0.0
  9
$PUCSORGLEFT
 10
0.0
 20
0.0
 30
0.0
  9
$PUCSORGRIGHT
 10
0.0
 20
0.0
 30
0.0
  9
$PUCSORGFRONT
 10
0.0
 20
0.0
 30
0.0
  9
$PUCSORGBACK
 10
0.0
 20
0.0
 30
0.0
  9
$USERI1
 70
     0
  9
$USERI2
 70
     0
  9
$USERI3
 70
     0
  9
$USERI4
 70
     0
  9
$USERI5
 70
     0
  9
$USERR1
 40
0.0
  9
$USERR2
 40
0.0
  9
$USERR3
 40
0.0
  9
$USERR4
 40
0.0
  9
$USERR5
 40
0.0
  9
$WORLDVIEW
 70
     1
  9
$SHADEDGE
 70
     3
  9
$SHADEDIF
 70
    70
  9
$TILEMODE
 70
     1
  9
$MAXACTVP
 70
    64
  9
$PINSBASE
 10
0.0
 20
0.0
 30
0.0
  9
$PLIMCHECK
 70
     0
  9
$PEXTMIN
 10
1.000000000000000E+20
 20
1.000000000000000E+20
 30
1.000000000000000E+20
  9
$PEXTMAX
 10
-1.000000000000000E+20
 20
-1.000000000000000E+20
 30
-1.000000000000000E+20
  9
$PLIMMIN
 10
-3.17498779296875
 20
-3.174999952316284
  9
$PLIMMAX
 10
293.4970092773438
 20
206.692492723465
  9
$UNITMODE
 70
     0
  9
$VISRETAIN
 70
     1
  9
$PLINEGEN
 70
     0
  9
$PSLTSCALE
 70
     1
  9
$TREEDEPTH
 70
  3020
  9
$CMLSTYLE
  2
Standard
  9
$CMLJUST
 70
     0
  9
$CMLSCALE
 40
20.0
  9
$PROXYGRAPHICS
 70
     1
  9
$MEASUREMENT
 70
     1
  9
$CELWEIGHT
370
    -1
  9
$ENDCAPS
280
     0
  9
$JOINSTYLE
280
     0
  9
$LWDISPLAY
290
     1
  9
$INSUNITS
 70
     4
  9
$HYPERLINKBASE
  1

  9
$STYLESHEET
  1
monochrome.ctb
  9
$XEDIT
290
     1
  9
$CEPSNTYPE
380
     0
  9
$PSTYLEMODE
290
     1
  9
$FINGERPRINTGUID
  2
{F2AABAAB-A2A7-4552-A172-6D87E628289B}
  9
$VERSIONGUID
  2
{A0971930-EBA3-4D5C-B2FA-F496EA98B260}
  9
$EXTNAMES
290
     1
  9
$PSVPSCALE
 40
0.0
  9
$OLESTARTUP
290
     0
  0
ENDSEC
  0
SECTION
  2
CLASSES
  0
CLASS
  1
ACDBDICTIONARYWDFLT
  2
AcDbDictionaryWithDefault
  3
ObjectDBX Classes
 90
        0
280
     0
281
     0
  0
CLASS
  1
ACDBPLACEHOLDER
  2
AcDbPlaceHolder
  3
ObjectDBX Classes
 90
        0
280
     0
281
     0
  0
CLASS
  1
LAYOUT
  2
AcDbLayout
  3
ObjectDBX Classes
 90
        0
280
     0
281
     0
  0
CLASS
  1
AMGSETTINGSOBJ
  2
AmgSettingsObj
  3
"AcadM|Product Description: AutoCAD Mechanical|Company: Autodesk"
 90
        0
280
     0
281
     0
  0
CLASS
  1
ACME_DOCUMENT
  2
AcMeDbDoc
  3
AcMeServices
 90
        0
280
     0
281
     0
  0
CLASS
  1
ACMESCOPE
  2
AcMeScope
  3
AcMeServices
 90
        0
280
     0
281
     0
  0
CLASS
  1
ACMECOMMANDHISTORY
  2
AcMeCommandHistory
  3
AcMeServices
 90
        0
280
     0
281
     0
  0
CLASS
  1
DICTIONARYVAR
  2
AcDbDictionaryVar
  3
ObjectDBX Classes
 90
        0
280
     0
281
     0
  0
CLASS
  1
ACIMSYSVARMAN
  2
AcImSysVarManager
  3
AcMeServices
 90
        0
280
     0
281
     0
  0
CLASS
  1
ACIMREALSYSVAR
  2
AcImRealSysVar
  3
AcMeServices
 90
        0
280
     0
281
     0
  0
CLASS
  1
ACIMINTSYSVAR
  2
AcImIntSysVar
  3
AcMeServices
 90
        0
280
     0
281
     0
  0
CLASS
  1
ACMEDRAWINGMAN
  2
AcMeDrawingMan
  3
AcMeServices
 90
        0
280
     0
281
     0
  0
CLASS
  1
ACMEVIEW
  2
AcMeView
  3
AcMeServices
 90
        0
280
     0
281
     0
  0
CLASS
  1
ACDBENTITYCACHE
  2
AcMeEntityCache
  3
AcMeServices
 90
        0
280
     0
281
     0
  0
CLASS
  1
GSMANAGER
  2
AcMeGSManager
  3
AcMeServices
 90
        0
280
     0
281
     0
  0
CLASS
  1
AMDTINTERNALREACTOR
  2
AmdtInternalReactor
  3
AcMeServices
 90
        0
280
     0
281
     0
  0
CLASS
  1
ACMESTATEMGR
  2
AcMeStateMgr
  3
AcMeServices
 90
        0
280
     0
281
     0
  0
CLASS
  1
ACGREFMASTER
  2
AcGrefMaster
  3
AcAttribServices
 90
        0
280
     0
281
     0
  0
CLASS
  1
ACME_DATABASE
  2
AcMeDbDatabase
  3
AcMeServices
 90
        0
280
     0
281
     0
  0
CLASS
  1
ACRFINSADJUSTERMGR
  2
AcRfInsAdjusterMgr
  3
AcMeServices
 90
        0
280
     0
281
     0
  0
CLASS
  1
ACGREFACADMASTER
  2
AcGrefacadMaster
  3
AcGrefServices
 90
        0
280
     0
281
     0
  0
CLASS
  1
AMIMASTER
  2
AmiMaster
  3
AmiServices
 90
        0
280
     0
281
     0
  0
CLASS
  1
ACMDATADICTIONARY
  2
AcmDataDictionary
  3
"AcmSymBB|Product Description: AutoCAD Mechanical|Company: Autodesk"
 90
        0
280
     0
281
     0
  0
CLASS
  1
ACMDATAENTRYBLOCK
  2
AcmDataEntryBlock
  3
"AcmSymBB|Product Description: AutoCAD Mechanical|Company: Autodesk"
 90
        0
280
     0
281
     0
  0
CLASS
  1
ACIMSTRSYSVAR
  2
AcImStrSysVar
  3
AcMeServices
 90
        0
280
     0
281
     0
  0
CLASS
  1
ACMSTANDARDISO
  2
AcmStandardISO
  3
"Amdt_StdImp|Product Description: AutoCAD Mechanical|Company: Autodesk"
 90
        0
280
     0
281
     0
  0
CLASS
  1
AMGOBJPROPCFG
  2
AmgObjPropCfg
  3
"AmgLay|Product Description: AutoCAD Mechanical|Company: Autodesk"
 90
        1
280
     0
281
     0
  0
CLASS
  1
AMDTEDGESTANDARDISO
  2
AmdtEdgeStdISO
  3
"Amdt_StdImp|Product Description: AutoCAD Mechanical|Company: Autodesk"
 90
        0
280
     0
281
     0
  0
CLASS
  1
ACMSURFSTANDARDISO
  2
AcmSurfTextStdISO
  3
"Amdt_StdImp|Product Description: AutoCAD Mechanical|Company: Autodesk"
 90
        0
280
     0
281
     0
  0
CLASS
  1
ACMFCFSTANDARDISO
  2
AcmFCFStdISO
  3
"Amdt_StdImp|Product Description: AutoCAD Mechanical|Company: Autodesk"
 90
        0
280
     0
281
     0
  0
CLASS
  1
ACMWELDSTANDARDISO
  2
AcmWeldingStdISO
  3
"Amdt_StdImp|Product Description: AutoCAD Mechanical|Company: Autodesk"
 90
        0
280
     0
281
     0
  0
CLASS
  1
ACMIDSTANDARDISO
  2
AcmIdStdISO
  3
"Amdt_StdImp|Product Description: AutoCAD Mechanical|Company: Autodesk"
 90
        0
280
     0
281
     0
  0
CLASS
  1
ACMDATUMSTANDARDISO
  2
AcmDatumStdISO
  3
"Amdt_StdImp|Product Description: AutoCAD Mechanical|Company: Autodesk"
 90
        0
280
     0
281
     0
  0
CLASS
  1
ACMBOMSTANDARDISO
  2
AcmBOMStdISO
  3
"Amdt_StdImp|Product Description: AutoCAD Mechanical|Company: Autodesk"
 90
        0
280
     0
281
     0
  0
CLASS
  1
ACMDETAILSTANDARDISO
  2
AmdtDetailSymStdISO
  3
"Amdt_StdImp|Product Description: AutoCAD Mechanical|Company: Autodesk"
 90
        0
280
     0
281
     0
  0
CLASS
  1
ACMSECTIONSTANDARDISO
  2
AmdtSectionSymStdISO
  3
"Amdt_StdImp|Product Description: AutoCAD Mechanical|Company: Autodesk"
 90
        0
280
     0
281
     0
  0
CLASS
  1
ACMCENTERLINESTANDARDISO
  2
AmdtCenterLineStdISO
  3
"Amdt_StdImp|Product Description: AutoCAD Mechanical|Company: Autodesk"
 90
        0
280
     0
281
     0
  0
CLASS
  1
ACAMGLAYSTD
  2
AcAmgLayStd
  3
"AmgLay|Product Description: AutoCAD Mechanical|Company: Autodesk"
 90
        0
280
     0
281
     0
  0
CLASS
  1
ACAMGDIMSTD
  2
AcAmgDimStd
  3
"AmgDim|Product Description: AutoCAD Mechanical|Company: Autodesk"
 90
        0
280
     0
281
     0
  0
CLASS
  1
ACAMGTITLESTD
  2
AcAmgTitleStd
  3
"AmgTitle|Product Description: AutoCAD Mechanical|Company: Autodesk"
 90
        0
280
     0
281
     0
  0
CLASS
  1
ACAMGFILTERDAT
  2
AcAmgFilterDat
  3
"AcadM|Product Description: AutoCAD Mechanical|Company: Autodesk"
 90
        0
280
     0
281
     0
  0
CLASS
  1
LAYER_INDEX
  2
AcDbLayerIndex
  3
ObjectDBX Classes
 90
    32768
280
     0
281
     0
  0
CLASS
  1
IDBUFFER
  2
AcDbIdBuffer
  3
ObjectDBX Classes
 90
    32768
280
     0
281
     0
  0
CLASS
  1
PLOTSETTINGS
  2
AcDbPlotSettings
  3
ObjectDBX Classes
 90
    32768
280
     0
281
     0
  0
CLASS
  1
AMDTFORMULAUPDATEDISPATCHER
  2
AmdtFormulaUpdateDispatcher
  3
AcMeServices
 90
        0
280
     0
281
     0
  0
CLASS
  1
ACMSTANDARDANSI
  2
AcmStandardANSI
  3
"Amdt_StdImp|Product Description: AutoCAD Mechanical|Company: Autodesk"
 90
        0
280
     0
281
     0
  0
CLASS
  1
ACMSURFSTANDARDANSI
  2
AcmSurfTextStdANSI
  3
"Amdt_StdImp|Product Description: AutoCAD Mechanical|Company: Autodesk"
 90
        0
280
     0
281
     0
  0
CLASS
  1
ACMFCFSTANDARDANSI
  2
AcmFCFStdANSI
  3
"Amdt_StdImp|Product Description: AutoCAD Mechanical|Company: Autodesk"
 90
        0
280
     0
281
     0
  0
CLASS
  1
ACMWELDSTANDARDANSI
  2
AcmWeldingStdANSI
  3
"Amdt_StdImp|Product Description: AutoCAD Mechanical|Company: Autodesk"
 90
        0
280
     0
281
     0
  0
CLASS
  1
ACMIDSTANDARDANSI
  2
AcmIdStdANSI
  3
"Amdt_StdImp|Product Description: AutoCAD Mechanical|Company: Autodesk"
 90
        0
280
     0
281
     0
  0
CLASS
  1
ACMDATUMSTANDARDANSI
  2
AcmDatumStdANSI
  3
"Amdt_StdImp|Product Description: AutoCAD Mechanical|Company: Autodesk"
 90
        0
280
     0
281
     0
  0
CLASS
  1
ACMBOMSTANDARDANSI
  2
AcmBOMStdANSI
  3
"Amdt_StdImp|Product Description: AutoCAD Mechanical|Company: Autodesk"
 90
        0
280
     0
281
     0
  0
CLASS
  1
ACMDETAILSTANDARDANSI
  2
AmdtDetailSymStdANSI
  3
"Amdt_StdImp|Product Description: AutoCAD Mechanical|Company: Autodesk"
 90
        0
280
     0
281
     0
  0
CLASS
  1
ACMSECTIONSTANDARDANSI
  2
AmdtSectionSymStdANSI
  3
"Amdt_StdImp|Product Description: AutoCAD Mechanical|Company: Autodesk"
 90
        0
280
     0
281
     0
  0
CLASS
  1
ACMCENTERLINESTANDARDANSI
  2
AmdtCenterLineStdANSI
  3
"Amdt_StdImp|Product Description: AutoCAD Mechanical|Company: Autodesk"
 90
        0
280
     0
281
     0
  0
CLASS
  1
ACMBOM
  2
AcmBom
  3
"AcmSymBB|Product Description: AutoCAD Mechanical|Company: Autodesk"
 90
        0
280
     0
281
     0
  0
CLASS
  1
ACMDATAENTRYPART
  2
AcmDataEntryPart
  3
"AcmSymBB|Product Description: AutoCAD Mechanical|Company: Autodesk"
 90
    32768
280
     0
281
     0
  0
CLASS
  1
ACMPARTREF
  2
AcmPartRef
  3
"AcmSymBB|Product Description: AutoCAD Mechanical|Company: Autodesk"
 90
    35839
280
     0
281
     1
  0
CLASS
  1
ACDBCIRCARCRES
  2
AcDbCircArcRes
  3
AcGrefServices
 90
    32768
280
     0
281
     0
  0
CLASS
  1
ACMBOMROW
  2
AcmBomRow
  3
"AcmSymBB|Product Description: AutoCAD Mechanical|Company: Autodesk"
 90
    32768
280
     0
281
     0
  0
CLASS
  1
ACMBALLOON
  2
AcmBalloon
  3
"AcmSymBB|Product Description: AutoCAD Mechanical|Company: Autodesk"
 90
    35839
280
     0
281
     1
  0
CLASS
  1
AMDTNOTE
  2
AmdtNote
  3
"AcmSymBB|Product Description: AutoCAD Mechanical|Company: Autodesk"
 90
     3071
280
     0
281
     1
  0
CLASS
  1
STDPART2D
  2
AmgStdPart
  3
"g3vace|Class: AmgStdPart|Product Description: AutoCAD Mechanical|Company: Autodesk"
 90
    35839
280
     0
281
     1
  0
CLASS
  1
ACDBSTDPARTRES_LINE
  2
AcDbStdPartRes_Line
  3
"g3vace|Class: AcDbStdPartRes_Line|Product Description: AutoCAD Mechanical|Company: Autodesk"
 90
    32768
280
     0
281
     0
  0
CLASS
  1
ACMDATAENTRY
  2
AcmDataEntry
  3
"AcmSymBB|Product Description: AutoCAD Mechanical|Company: Autodesk"
 90
        0
280
     0
281
     0
  0
CLASS
  1
ACDBOPPOLYLINERES
  2
AcDbOpPolylineRes
  3
AcGrefServices
 90
    32768
280
     0
281
     0
  0
CLASS
  1
ACMPARTLIST
  2
AcmPartList
  3
"AcmSymBB|Product Description: AutoCAD Mechanical|Company: Autodesk"
 90
    35839
280
     0
281
     1
  0
CLASS
  1
ACDBLINERES
  2
AcDbLineRes
  3
AcGrefServices
 90
    32768
280
     0
281
     0
  0
CLASS
  1
ACRFINSADJ
  2
AcRfInsAdjuster
  3
AcMeServices
 90
    32768
280
     0
281
     0
  0
CLASS
  1
AM_DRAWING_MGR
  2
AcDmDwgMgr
  3
AcMechDwgViewMgmt
 90
        0
280
     0
281
     0
  0
CLASS
  1
AM_DWG_DOCUMENT
  2
AcDmDwgDocument
  3
AcMechDwgViewMgmt
 90
        0
280
     0
281
     0
  0
CLASS
  1
AM_DWG_SHEET
  2
AcDmSheet
  3
AcMechDwgViewMgmt
 90
        0
280
     0
281
     0
  0
CLASS
  1
AM_VIEWDIMPARMAP
  2
AcDmViewDimParMap
  3
AcMechDwgViewMgmt
 90
        0
280
     0
281
     0
  0
CLASS
  1
AM_DWGMGR_NAME
  2
AcDmDwgMgrName
  3
AcMechDwgViewMgmt
 90
        0
280
     0
281
     0
  0
CLASS
  1
AMDTMENUSTATEMGR
  2
AmdtMenuStateMgr
  3
McadcomServices
 90
        0
280
     0
281
     0
  0
CLASS
  1
AMDTMCOMMENUSTATE
  2
AmdtMcomMenuState
  3
McadcomServices
 90
        0
280
     0
281
     0
  0
CLASS
  1
ASAPP
  2
AcAsAppObject
  3
AutoSurfServices
 90
        0
280
     0
281
     0
  0
CLASS
  1
IM_STATIC_MAN
  2
AcImStaticVarManager
  3
AcMeServices
 90
        0
280
     0
281
     0
  0
CLASS
  1
ACIMDBLSTATICVAR
  2
AcImDblStaticVar
  3
AcMeServices
 90
        0
280
     0
281
     0
  0
CLASS
  1
ACIMSTRSTATICVAR
  2
AcImStrStaticVar
  3
AcMeServices
 90
        0
280
     0
281
     0
  0
CLASS
  1
ACIMINTSTATICVAR
  2
AcImIntStaticVar
  3
AcMeServices
 90
        0
280
     0
281
     0
  0
CLASS
  1
ACASGREFMASTER
  2
AcAsGrefMaster
  3
AutoSurfResolverServices
 90
        0
280
     0
281
     0
  0
CLASS
  1
ACADGREFMODULE
  2
AcAdGrefModule
  3
AdGrefServices
 90
        0
280
     0
281
     0
  0
CLASS
  1
AMDTMAPISURFMOUDULE
  2
AmdtMApiSurfModule
  3
MApiSurfServices
 90
        0
280
     0
281
     0
  0
CLASS
  1
MAPIAMMOUDLE
  2
MApiAmModule
  3
MApiAmServices
 90
        0
280
     0
281
     0
  0
CLASS
  1
AMDTADMENUSTATE
  2
AmdtAdMenuState
  3
DesignerServices
 90
        0
280
     0
281
     0
  0
CLASS
  1
ADAPPL
  2
AcAdAppl
  3
DesignerServices
 90
        0
280
     0
281
     0
  0
CLASS
  1
DEPMGR
  2
AcAdDepMgr
  3
DesignerServices
 90
        0
280
     0
281
     0
  0
CLASS
  1
PARAMMGR
  2
AcAdParamMgr
  3
DesignerServices
 90
        0
280
     0
281
     0
  0
CLASS
  1
PARAMSCOPE
  2
AcAdParamScope
  3
DesignerServices
 90
        0
280
     0
281
     0
  0
CLASS
  1
NAMEDAPPL
  2
AcAdNamedAppl
  3
DesignerServices
 90
        0
280
     0
281
     0
  0
CLASS
  1
ADHNTMPLT
  2
AdHoleNoteTemplateMgr
  3
DesignerServices
 90
    32768
280
     0
281
     0
  0
CLASS
  1
AM_HNTEMPLATE_MGR_NAME
  2
AdHoleNoteTemplateMgrName
  3
DesignerServices
 90
    32768
280
     0
281
     0
  0
CLASS
  1
AMDTDMMENUSTATE
  2
AmdtDmMenuState
  3
AcMechDwgViewMgmt
 90
        0
280
     0
281
     0
  0
CLASS
  1
MAPIADMODULE
  2
MApiAdModule
  3
MApiAdServices
 90
        0
280
     0
281
     0
  0
CLASS
  1
AMDTAMMENUSTATE
  2
AmdtAmMenuState
  3
DesignerAssemblies
 90
        0
280
     0
281
     0
  0
CLASS
  1
ACAMPROJECT
  2
AcAmProject
  3
DesignerAssemblies
 90
        0
280
     0
281
     0
  0
CLASS
  1
ACAMGRCOMPDEF
  2
AcAmGrCompDef
  3
DesignerAssemblies
 90
        0
280
     0
281
     0
  0
CLASS
  1
ACCMCONTEXT
  2
AcCmContext
  3
DesignerAssemblies
 90
        0
280
     0
281
     0
  0
CLASS
  1
ACAMCOMPDEF
  2
AcAmCompDef
  3
DesignerAssemblies
 90
        0
280
     0
281
     0
  0
CLASS
  1
ACAMCOMPDEFMGR
  2
AcAmCompDefMgr
  3
DesignerAssemblies
 90
        0
280
     0
281
     0
  0
CLASS
  1
AMCONTEXTMGR
  2
AcAmContextMgr
  3
DesignerAssemblies
 90
        0
280
     0
281
     0
  0
CLASS
  1
ACAMCONTEXTMODELER
  2
AcAmContextModeler
  3
DesignerAssemblies
 90
        0
280
     0
281
     0
  0
CLASS
  1
CATALOGSTATE
  2
AcAmCatalogState
  3
DesignerAssemblies
 90
        0
280
     0
281
     0
  0
CLASS
  1
ACAMGRCOMPDEFSET
  2
AcAmGrCompDefSet
  3
DesignerAssemblies
 90
        0
280
     0
281
     0
  0
CLASS
  1
AMDTBROWSERDBTAB
  2
AmdtBrowserDbTab
  3
McadcomServices
 90
        0
280
     0
281
     0
  0
CLASS
  1
CBROWSERAPPOBJECT
  2
CBrowserAppObject
  3
McadcomServices
 90
        0
280
     0
281
     0
  0
CLASS
  1
DM_PLACEHOLDER
  2
AcDmSelsetPlaceholder
  3
AcMechDwgViewMgmt
 90
        0
280
     0
281
     0
  0
CLASS
  1
ACMPICKOBJ
  2
AcmPickEnt
  3
"AcmSymBB|Product Description: AutoCAD Mechanical|Company: Autodesk"
 90
    32768
280
     0
281
     1
  0
CLASS
  1
ACMNOTESTANDARDISO
  2
AmdtNoteStdISO
  3
"Amdt_StdImp|Product Description: AutoCAD Mechanical|Company: Autodesk"
 90
        0
280
     0
281
     0
  0
CLASS
  1
ACMNOTESTANDARDANSI
  2
AmdtNoteStdANSI
  3
"Amdt_StdImp|Product Description: AutoCAD Mechanical|Company: Autodesk"
 90
        0
280
     0
281
     0
  0
CLASS
  1
ACMTHREADLINESTANDARDISO
  2
AmdtThreadLineStdISO
  3
"Amdt_StdImp|Product Description: AutoCAD Mechanical|Company: Autodesk"
 90
        0
280
     0
281
     0
  0
CLASS
  1
ACMTHREADLINESTANDARDANSI
  2
AmdtThreadLineStdANSI
  3
"Amdt_StdImp|Product Description: AutoCAD Mechanical|Company: Autodesk"
 90
        0
280
     0
281
     0
  0
CLASS
  1
TABLESTYLE
  2
AcDbTableStyle
  3
ObjectDBX Classes
 90
     4095
280
     0
281
     0
  0
CLASS
  1
SORTENTSTABLE
  2
AcDbSortentsTable
  3
ObjectDBX Classes
 90
        0
280
     0
281
     0
  0
CLASS
  1
MATERIAL
  2
AcDbMaterial
  3
ObjectDBX Classes
 90
     1024
280
     0
281
     0
  0
CLASS
  1
VISUALSTYLE
  2
AcDbVisualStyle
  3
ObjectDBX Classes
 90
     4095
280
     0
281
     0
  0
CLASS
  1
ACRFATTGENMGR
  2
AcRfAttGeneralMgr
  3
AcAttribServices
 90
        0
280
     0
281
     0
  0
CLASS
  1
ACRFOBJATTMGR
  2
AcRfObjAttGroupMgr
  3
AcAttribServices
 90
        0
280
     0
281
     0
  0
CLASS
  1
ACRFMCADAPIATTHOLDER
  2
AcRfMCADAPIAttHolder
  3
AcAttribServices
 90
        0
280
     0
281
     0
  0
CLASS
  1
AMDTSYSATTR
  2
AmdtSystemAttribute
  3
AcAttribServices
 90
        0
280
     0
281
     0
  0
CLASS
  1
ACMTAPERSTANDARDISO
  2
AcmTaperStdISO
  3
"Amdt_StdImp|Product Description: AutoCAD Mechanical|Company: Autodesk"
 90
        0
280
     0
281
     0
  0
CLASS
  1
CAMSSTRUCTBTNSTATE
  2
StructBtnState
  3
L"DesignerAssemblies"
 90
        0
280
     0
281
     0
  0
CLASS
  1
DIMASSOC
  2
AcDbDimAssoc
  3
"AcDbDimAssoc|Product Desc:     AcDim ARX App For Dimension|Company:          Autodesk, Inc.|WEB Address:      www.autodesk.com"
 90
    32768
280
     0
281
     0
  0
CLASS
  1
AMDTACMWBLOCKBOMENTITY
  2
AmdtAcmWblockBomEntity
  3
"AcmSymBB|Product Description: AutoCAD Mechanical|Company: Autodesk"
 90
    35839
280
     0
281
     1
  0
CLASS
  1
AMDTNOTETEMPLATEDB
  2
AmdtNoteTemplateDB
  3
AMDT_STDIMP_MODULE_NAME
 90
        0
280
     0
281
     0
  0
CLASS
  1
ACMTAPERSTANDARDANSI
  2
AcmTaperStdANSI
  3
"Amdt_StdImp|Product Description: AutoCAD Mechanical|Company: Autodesk"
 90
        0
280
     0
281
     0
  0
CLASS
  1
ACAMGHOLECHARTSTDANSI
  2
AcAmgHoleChartStdANSI
  3
ACMSYMBB_MODULE_NAME
 90
        0
280
     0
281
     0
  0
CLASS
  1
SCALE
  2
AcDbScale
  3
ObjectDBX Classes
 90
     1153
280
     0
281
     0
  0
CLASS
  1
MLEADERSTYLE
  2
AcDbMLeaderStyle
  3
ACDB_MLEADERSTYLE_CLASS
 90
     4095
280
     0
281
     0
  0
CLASS
  1
ACMANOOTATIONVIEWSTANDARDISO
  2
AmdtAnViewStdISO
  3
"Amdt_StdImp|Product Description: AutoCAD Mechanical|Company: Autodesk, Inc."
 90
    33792
280
     0
281
     0
  0
CLASS
  1
ACMANOOTATIONVIEWSTANDARDANSI
  2
AmdtAnViewStdANSI
  3
"Amdt_StdImp|Product Description: AutoCAD Mechanical|Company: Autodesk, Inc."
 90
    33792
280
     0
281
     0
  0
CLASS
  1
CELLSTYLEMAP
  2
AcDbCellStyleMap
  3
ObjectDBX Classes
 90
     1152
280
     0
281
     0
  0
ENDSEC
  0
SECTION
  2
TABLES
  0
TABLE
  2
VPORT
  5
8
330
0
100
AcDbSymbolTable
 70
     1
  0
VPORT
  5
B0EC
330
8
100
AcDbSymbolTableRecord
100
AcDbViewportTableRecord
  2
*Active
 70
     0
 10
0.0
 20
0.0
 11
1.0
 21
1.0
 12
148.5000013830562
 22
105.0000009779186
 13
0.0
 23
0.0
 14
2.5
 24
2.5
 15
10.0
 25
10.0
 16
0.0
 26
0.0
 36
1.0
 17
0.0
 27
0.0
 37
0.0
 40
211.571836545865
 41
1.648648648648648
 42
50.0
 43
-1370.695619172058
 44
-1370.695619172058
 50
0.0
 51
0.0
 71
     0
 72
   100
 73
     1
 74
     3
 75
     0
 76
     0
 77
     0
 78
     0
281
     0
 65
     0
110
0.0
120
0.0
130
0.0
111
1.0
121
0.0
131
0.0
112
0.0
122
1.0
132
0.0
 79
     0
146
0.0
  0
ENDTAB
  0
TABLE
  2
LTYPE
  5
5
330
0
100
AcDbSymbolTable
 70
    33
  0
LTYPE
  5
14
330
5
100
AcDbSymbolTableRecord
100
AcDbLinetypeTableRecord
  2
ByBlock
 70
     0
  3

 72
    65
 73
     0
 40
0.0
  0
LTYPE
  5
15
330
5
100
AcDbSymbolTableRecord
100
AcDbLinetypeTableRecord
  2
ByLayer
 70
     0
  3

 72
    65
 73
     0
 40
0.0
  0
LTYPE
  5
16
330
5
100
AcDbSymbolTableRecord
100
AcDbLinetypeTableRecord
  2
Continuous
 70
     0
  3
Solid line
 72
    65
 73
     0
 40
0.0
  0
LTYPE
  5
4F
330
5
100
AcDbSymbolTableRecord
100
AcDbLinetypeTableRecord
  2
AM_ISO02W050
 70
     0
  3
__ __ __ __ __ __ __ __ __ __ __ __ __ __ __
 72
    65
 73
     2
 40
7.5
 49
6.0
 74
     0
 49
-1.5
 74
     0
  0
LTYPE
  5
52
330
5
100
AcDbSymbolTableRecord
100
AcDbLinetypeTableRecord
  2
Amconstr
 70
     0
  3
_______________________
 72
    65
 73
     2
 40
9999.0
 49
9999.0
 74
     0
 49
0.0
 74
     0
  0
LTYPE
  5
64
330
5
100
AcDbSymbolTableRecord
100
AcDbLinetypeTableRecord
  2
ACISOWELD
 70
     0
  3
_ _ _ _ _
 72
    65
 73
     2
 40
2.0
 49
2.0
 74
     0
 49
-1.0
 74
     0
  0
LTYPE
  5
65
330
5
100
AcDbSymbolTableRecord
100
AcDbLinetypeTableRecord
  2
ACISOTGB
 70
     0
  3
__ . . __ . .
 72
    65
 73
     6
 40
9.0
 49
4.0
 74
     0
 49
-1.0
 74
     0
 49
1.0
 74
     0
 49
-1.0
 74
     0
 49
1.0
 74
     0
 49
-1.0
 74
     0
  0
LTYPE
  5
66
330
5
100
AcDbSymbolTableRecord
100
AcDbLinetypeTableRecord
  2
ACISOTGL
 70
     0
  3
_ _ _ _ _
 72
    65
 73
     2
 40
3.0
 49
2.0
 74
     0
 49
-1.0
 74
     0
  0
LTYPE
  5
69
330
5
100
AcDbSymbolTableRecord
100
AcDbLinetypeTableRecord
  2
CENTER
 70
     0
  3
__ . __
 72
    65
 73
     4
 40
7.0
 49
4.0
 74
     0
 49
-1.0
 74
     0
 49
1.0
 74
     0
 49
-1.0
 74
     0
  0
LTYPE
  5
A6E
330
5
100
AcDbSymbolTableRecord
100
AcDbLinetypeTableRecord
  2
PHANTOM2
 70
     0
  3
Phantom (.5x) ___ _ _ ___ _ _ ___ _ _ ___ _ _
 72
    65
 73
     6
 40
31.75
 49
15.875
 74
     0
 49
-3.174999999999999
 74
     0
 49
3.174999999999999
 74
     0
 49
-3.174999999999999
 74
     0
 49
3.174999999999999
 74
     0
 49
-3.174999999999999
 74
     0
  0
LTYPE
  5
4DED
330
5
100
AcDbSymbolTableRecord
100
AcDbLinetypeTableRecord
  2
中線
 70
     0
  3
___________________
 72
    65
 73
     2
 40
2.0
 49
1.0
 74
     0
 49
1.0
 74
     0
  0
LTYPE
  5
4DF6
330
5
100
AcDbSymbolTableRecord
100
AcDbLinetypeTableRecord
  2
細線
 70
     0
  3
___________________
 72
    65
 73
     2
 40
2.0
 49
1.0
 74
     0
 49
1.0
 74
     0
  0
LTYPE
  5
4DF7
330
5
100
AcDbSymbolTableRecord
100
AcDbLinetypeTableRecord
  2
太線
 70
     0
  3
___________________
 72
    65
 73
     2
 40
2.0
 49
1.0
 74
     0
 49
1.0
 74
     0
  0
LTYPE
  5
4EA7
330
5
100
AcDbSymbolTableRecord
100
AcDbLinetypeTableRecord
  2
文字
 70
     0
  3
_________________
 72
    65
 73
     2
 40
2.0
 49
1.0
 74
     0
 49
1.0
 74
     0
  0
LTYPE
  5
4EA9
330
5
100
AcDbSymbolTableRecord
100
AcDbLinetypeTableRecord
  2
寸法線
 70
     0
  3
________________
 72
    65
 73
     2
 40
2.0
 49
1.0
 74
     0
 49
1.0
 74
     0
  0
LTYPE
  5
4F12
330
5
100
AcDbSymbolTableRecord
100
AcDbLinetypeTableRecord
  2
ハッチング
 70
     0
  3
_________________
 72
    65
 73
     2
 40
2.0
 49
1.0
 74
     0
 49
1.0
 74
     0
  0
LTYPE
  5
5180
330
5
100
AcDbSymbolTableRecord
100
AcDbLinetypeTableRecord
  2
陰線1
 70
     0
  3
__ __ __ __
 72
    65
 73
     2
 40
4.0
 49
2.2
 74
     0
 49
-1.8
 74
     0
  0
LTYPE
  5
5182
330
5
100
AcDbSymbolTableRecord
100
AcDbLinetypeTableRecord
  2
切断線
 70
     0
  3
/\/-/\/-/\/-/\/-/\/-/\/
 72
    65
 73
     2
 40
11.0001
 49
0.0001
 74
     4
 75
   135
340
56
 46
0.04
 50
0.0
 44
0.0
 45
0.0
 49
-11.0
 74
     0
  0
LTYPE
  5
5183
330
5
100
AcDbSymbolTableRecord
100
AcDbLinetypeTableRecord
  2
想像線1
 70
     0
  3
__ __ __ _____ __ __ ____
 72
    65
 73
     6
 40
14.5
 49
6.0
 74
     0
 49
-1.5
 74
     0
 49
2.0
 74
     0
 49
-1.5
 74
     0
 49
2.0
 74
     0
 49
-1.5
 74
     0
  0
LTYPE
  5
5185
330
5
100
AcDbSymbolTableRecord
100
AcDbLinetypeTableRecord
  2
中心線1
 70
     0
  3
___ _ ___ _ ___
 72
    65
 73
     4
 40
18.0
 49
12.0
 74
     0
 49
-2.0
 74
     0
 49
2.0
 74
     0
 49
-2.0
 74
     0
  0
LTYPE
  5
5188
330
5
100
AcDbSymbolTableRecord
100
AcDbLinetypeTableRecord
  2
補助線
 70
     0
  3
______________
 72
    65
 73
     2
 40
2.0
 49
1.0
 74
     0
 49
1.0
 74
     0
  0
LTYPE
  5
6427
330
5
100
AcDbSymbolTableRecord
100
AcDbLinetypeTableRecord
  2
HIDDEN
 70
     0
  3
Hidden __ __ __ __ __ __ __ __ __ __ __ __ __ _
 72
    65
 73
     2
 40
0.375
 49
0.25
 74
     0
 49
-0.125
 74
     0
  0
LTYPE
  5
AC81
330
5
100
AcDbSymbolTableRecord
100
AcDbLinetypeTableRecord
  2
破断線
 70
     0
  3
/\/-/\/-/\/-/\/-/\/-/\/
 72
    65
 73
     2
 40
0.4401
 49
0.0001
 74
     4
 75
   136
340
AC80
 46
0.0016
 50
0.0
 44
0.0
 45
0.0
 49
-0.4400000000000001
 74
     0
  0
LTYPE
  5
AC9E
330
5
100
AcDbSymbolTableRecord
100
AcDbLinetypeTableRecord
  2
Amzigzag
 70
     0
  3
/\/-/\/-/\/-/\/-/\/-/\/
 72
    65
 73
     2
 40
11.0001
 49
0.0001
 74
     4
 75
   135
340
56
 46
0.04
 50
0.0
 44
0.0
 45
0.0
 49
-11.0
 74
     0
  0
LTYPE
  5
AF0F
330
5
100
AcDbSymbolTableRecord
100
AcDbLinetypeTableRecord
  2
genzigzag
 70
     0
  3
/\/-/\/-/\/-/\/-/\/-/\/
 72
    65
 73
     2
 40
12.0001
 49
0.0001
 74
     4
 75
   135
340
AC80
 46
2.0
 50
0.0
 44
0.0
 45
0.0
 49
-12.0
 74
     0
  0
LTYPE
  5
AF95
330
5
100
AcDbSymbolTableRecord
100
AcDbLinetypeTableRecord
  2
AM_ISO08W050
 70
     0
  3
____ . ____ . ____ . ____ . ____ . ____ . ____
 72
    65
 73
     4
 40
18.0
 49
12.0
 74
     0
 49
-1.5
 74
     0
 49
3.0
 74
     0
 49
-1.5
 74
     0
  0
LTYPE
  5
AF96
330
5
100
AcDbSymbolTableRecord
100
AcDbLinetypeTableRecord
  2
AM_ISO09W050
 70
     0
  3
_____ . . _____ . . _____ . . ____ .. ____
 72
    65
 73
     6
 40
22.5
 49
12.0
 74
     0
 49
-1.5
 74
     0
 49
3.0
 74
     0
 49
-1.5
 74
     0
 49
3.0
 74
     0
 49
-1.5
 74
     0
  0
LTYPE
  5
AF97
330
5
100
AcDbSymbolTableRecord
100
AcDbLinetypeTableRecord
  2
AM_ISO08W050x2
 70
     0
  3
__ . __ . __ . __ . __ . __
 72
    65
 73
     4
 40
9.0
 49
6.0
 74
     0
 49
-0.75
 74
     0
 49
1.5
 74
     0
 49
-0.75
 74
     0
  0
LTYPE
  5
AF98
330
5
100
AcDbSymbolTableRecord
100
AcDbLinetypeTableRecord
  2
AM_ISO02W050x2
 70
     0
  3
 _ _ _ _ _ _ _ _ _ _ _ _
 72
    65
 73
     2
 40
3.75
 49
3.0
 74
     0
 49
-0.75
 74
     0
  0
LTYPE
  5
B655
330
5
100
AcDbSymbolTableRecord
100
AcDbLinetypeTableRecord
  2
DOT
 70
     0
  3
･ ･ ･ ･ ･ ･ ･ ･ 
 72
    65
 73
     2
 40
8.0
 49
6.0
 74
     0
 49
-2.0
 74
     0
  0
LTYPE
  5
B656
330
5
100
AcDbSymbolTableRecord
100
AcDbLinetypeTableRecord
  2
CENTER2
 70
     0
  3
Center (.5x) ___ _ ___ _ ___ _ ___ _ ___ _ ___
 72
    65
 73
     4
 40
1.125
 49
0.75
 74
     0
 49
-0.125
 74
     0
 49
0.125
 74
     0
 49
-0.125
 74
     0
  0
LTYPE
  5
B657
330
5
100
AcDbSymbolTableRecord
100
AcDbLinetypeTableRecord
  2
HIDDEN2
 70
     0
  3
Hidden (.5x) _ _ _ _ _ _ _ _ _ _ _ _ _ _ _ _ _
 72
    65
 73
     2
 40
0.1875
 49
0.125
 74
     0
 49
-0.0625
 74
     0
  0
LTYPE
  5
B658
330
5
100
AcDbSymbolTableRecord
100
AcDbLinetypeTableRecord
  2
Amzigzag2
 70
     0
  3
/\/-/\/-/\/-/\/-/\/-/\/
 72
    65
 73
     2
 40
0.4401
 49
0.0001
 74
     4
 75
   136
340
AC80
 46
0.0016
 50
0.0
 44
0.0
 45
0.0
 49
-0.4400000000000001
 74
     0
  0
LTYPE
  5
B659
330
5
100
AcDbSymbolTableRecord
100
AcDbLinetypeTableRecord
  2
ACANSTGB
 70
     0
  3
__ . . __ . .
 72
    65
 73
     6
 40
0.35433070866
 49
0.15748031496
 74
     0
 49
-0.03937007874
 74
     0
 49
0.03937007874
 74
     0
 49
-0.03937007874
 74
     0
 49
0.03937007874
 74
     0
 49
-0.03937007874
 74
     0
  0
LTYPE
  5
B65A
330
5
100
AcDbSymbolTableRecord
100
AcDbLinetypeTableRecord
  2
ACANSTGL
 70
     0
  3
_ _ _ _ _
 72
    65
 73
     2
 40
0.11811023622
 49
0.07874015748
 74
     0
 49
-0.03937007874
 74
     0
  0
ENDTAB
  0
TABLE
  2
LAYER
  5
2
102
{ACAD_XDICTIONARY
360
3F95
102
}
330
0
100
AcDbSymbolTable
 70
    23
  0
LAYER
  5
10
102
{ACAD_XDICTIONARY
360
BFBD
102
}
330
2
100
AcDbSymbolTableRecord
100
AcDbLayerTableRecord
  2
0
 70
     0
 62
     7
  6
Continuous
370
    -3
390
F
  0
LAYER
  5
6D1
330
2
100
AcDbSymbolTableRecord
100
AcDbLayerTableRecord
  2
Defpoints
 70
     0
 62
     7
  6
Continuous
290
     0
370
    -3
390
F
  0
LAYER
  5
5F85
102
{ACAD_XDICTIONARY
360
BFBF
102
}
330
2
100
AcDbSymbolTableRecord
100
AcDbLayerTableRecord
  2
AM_0
 70
     0
 62
     7
  6
中線
370
    30
390
F
1001
AcAecLayerStandard
1000

1000

  0
LAYER
  5
AC9F
102
{ACAD_XDICTIONARY
360
BFC1
102
}
330
2
100
AcDbSymbolTableRecord
100
AcDbLayerTableRecord
  2
size
 70
     0
 62
     5
  6
Continuous
290
     0
370
    25
390
F
  0
LAYER
  5
ACA0
102
{ACAD_XDICTIONARY
360
BFC3
102
}
330
2
100
AcDbSymbolTableRecord
100
AcDbLayerTableRecord
  2
waku
 70
     0
 62
     7
  6
Continuous
370
    35
390
F
  0
LAYER
  5
ACA1
102
{ACAD_XDICTIONARY
360
BFC5
102
}
330
2
100
AcDbSymbolTableRecord
100
AcDbLayerTableRecord
  2
AM_6
 70
     0
 62
     2
  6
文字
370
    13
390
F
1001
AcAecLayerStandard
1000

1000

  0
LAYER
  5
ACC8
102
{ACAD_XDICTIONARY
360
BFC7
102
}
330
2
100
AcDbSymbolTableRecord
100
AcDbLayerTableRecord
  2
hyomoji
 70
     0
 62
     2
  6
Continuous
370
    13
390
F
  0
LAYER
  5
ACC9
102
{ACAD_XDICTIONARY
360
BFC9
102
}
330
2
100
AcDbSymbolTableRecord
100
AcDbLayerTableRecord
  2
hyosen1
 70
     0
 62
     1
  6
Continuous
370
    25
390
F
  0
LAYER
  5
ACCA
102
{ACAD_XDICTIONARY
360
BFCB
102
}
330
2
100
AcDbSymbolTableRecord
100
AcDbLayerTableRecord
  2
hyosen2
 70
     0
 62
     1
  6
Continuous
370
    13
390
F
  0
LAYER
  5
AD60
102
{ACAD_XDICTIONARY
360
BFCD
102
}
330
2
100
AcDbSymbolTableRecord
100
AcDbLayerTableRecord
  2
AM_1
 70
     0
 62
    30
  6
太線
370
    40
390
F
1001
AcAecLayerStandard
1000

1000

  0
LAYER
  5
AD64
102
{ACAD_XDICTIONARY
360
BFCF
102
}
330
2
100
AcDbSymbolTableRecord
100
AcDbLayerTableRecord
  2
AM_2
 70
     0
 62
     1
  6
細線
370
    13
390
F
1001
AcAecLayerStandard
1000

1000

  0
LAYER
  5
AD67
102
{ACAD_XDICTIONARY
360
BFD1
102
}
330
2
100
AcDbSymbolTableRecord
100
AcDbLayerTableRecord
  2
AM_3
 70
     0
 62
     6
  6
陰線1
370
    13
390
F
1001
AcAecLayerStandard
1000

1000

  0
LAYER
  5
AD68
102
{ACAD_XDICTIONARY
360
BFD3
102
}
330
2
100
AcDbSymbolTableRecord
100
AcDbLayerTableRecord
  2
AM_5
 70
     0
 62
     3
  6
寸法線
370
    13
390
F
1001
AcAecLayerStandard
1000

1000

  0
LAYER
  5
AD69
102
{ACAD_XDICTIONARY
360
BFD5
102
}
330
2
100
AcDbSymbolTableRecord
100
AcDbLayerTableRecord
  2
AM_7
 70
     0
 62
     4
  6
中心線1
370
    13
390
F
1001
AcAecLayerStandard
1000

1000

  0
LAYER
  5
AD6A
102
{ACAD_XDICTIONARY
360
BFD7
102
}
330
2
100
AcDbSymbolTableRecord
100
AcDbLayerTableRecord
  2
AM_8
 70
     0
 62
     1
  6
ハッチング
370
    13
390
F
1001
AcAecLayerStandard
1000

1000

  0
LAYER
  5
AD6E
102
{ACAD_XDICTIONARY
360
BFD9
102
}
330
2
100
AcDbSymbolTableRecord
100
AcDbLayerTableRecord
  2
AM_10
 70
     0
 62
     7
  6
切断線
370
    13
390
F
1001
AcAecLayerStandard
1000

1000

  0
LAYER
  5
AD6F
102
{ACAD_XDICTIONARY
360
BFDB
102
}
330
2
100
AcDbSymbolTableRecord
100
AcDbLayerTableRecord
  2
AM_11
 70
     0
 62
     2
  6
想像線1
370
    13
390
F
1001
AcAecLayerStandard
1000

1000

  0
LAYER
  5
B1B6
102
{ACAD_XDICTIONARY
360
BFDD
102
}
330
2
100
AcDbSymbolTableRecord
100
AcDbLayerTableRecord
  2
AM_CL
 70
     1
 62
    -1
  6
Amconstr
370
    15
390
F
1001
AcAecLayerStandard
1000

1000

  0
LAYER
  5
B2EB
102
{ACAD_XDICTIONARY
360
BFDF
102
}
330
2
100
AcDbSymbolTableRecord
100
AcDbLayerTableRecord
  2
AM_14
 70
     0
 62
     5
  6
細線
370
     9
390
F
1001
AcAecLayerStandard
1000

1000

  0
LAYER
  5
B2EC
102
{ACAD_XDICTIONARY
360
BFE1
102
}
330
2
100
AcDbSymbolTableRecord
100
AcDbLayerTableRecord
  2
AM_15
 70
     0
 62
     6
  6
陰線1
370
     9
390
F
1001
AcAecLayerStandard
1000

1000

  0
LAYER
  5
B65B
102
{ACAD_XDICTIONARY
360
BFE3
102
}
330
2
100
AcDbSymbolTableRecord
100
AcDbLayerTableRecord
  2
1
 70
     0
 62
     7
  6
Continuous
370
    -3
390
F
  0
LAYER
  5
B65C
102
{ACAD_XDICTIONARY
360
BFE5
102
}
330
2
100
AcDbSymbolTableRecord
100
AcDbLayerTableRecord
  2
2
 70
     0
 62
     7
  6
Continuous
370
    -3
390
F
  0
LAYER
  5
B65D
102
{ACAD_XDICTIONARY
360
BFE7
102
}
330
2
100
AcDbSymbolTableRecord
100
AcDbLayerTableRecord
  2
20
 70
     0
 62
    94
  6
Continuous
370
    -3
390
F
  0
ENDTAB
  0
TABLE
  2
STYLE
  5
3
330
0
100
AcDbSymbolTable
 70
     8
  0
STYLE
  5
11
330
3
100
AcDbSymbolTableRecord
100
AcDbTextStyleTableRecord
  2
STANDARD
 70
     0
 40
0.0
 41
0.7
 50
0.0
 71
     0
 42
3.2
  3
romans.shx
  4
extfont.shx
  0
STYLE
  5
56
330
3
100
AcDbSymbolTableRecord
100
AcDbTextStyleTableRecord
  2

 70
     1
 40
0.0
 41
1.0
 50
0.0
 71
     0
 42
2.5
  3
ltypeshp.shx
  4

  0
STYLE
  5
58
330
3
100
AcDbSymbolTableRecord
100
AcDbTextStyleTableRecord
  2
ACISOTS
 70
     0
 40
1.0
 41
1.0
 50
0.0
 71
     0
 42
2.5
  3
isocp.shx
  4
extfont.shx
  0
STYLE
  5
63
330
3
100
AcDbSymbolTableRecord
100
AcDbTextStyleTableRecord
  2
ACISOGDT
 70
     0
 40
0.0
 41
1.0
 50
0.0
 71
     0
 42
2.5
  3
amgdt.shx
  4

  0
STYLE
  5
A74
330
3
100
AcDbSymbolTableRecord
100
AcDbTextStyleTableRecord
  2
DIM
 70
     0
 40
0.0
 41
1.0
 50
0.0
 71
     0
 42
2.5
  3
monotxt.shx
  4
extfont.shx
  0
STYLE
  5
AC80
330
3
100
AcDbSymbolTableRecord
100
AcDbTextStyleTableRecord
  2

 70
     1
 40
0.0
 41
1.0
 50
0.0
 71
     0
 42
3.2
  3
genltshp.shx
  4

  0
STYLE
  5
B65E
330
3
100
AcDbSymbolTableRecord
100
AcDbTextStyleTableRecord
  2
ACANSTS
 70
     0
 40
1.0
 41
1.0
 50
0.0
 71
     0
 42
5.0
  3
romans.shx
  4
extfont.shx
  0
STYLE
  5
B65F
330
3
100
AcDbSymbolTableRecord
100
AcDbTextStyleTableRecord
  2
ACANSGDT
 70
     0
 40
0.0
 41
1.0
 50
0.0
 71
     0
 42
5.0
  3
amgdt.shx
  4

  0
ENDTAB
  0
TABLE
  2
VIEW
  5
6
330
0
100
AcDbSymbolTable
 70
     6
  0
VIEW
  5
AE1
330
6
100
AcDbSymbolTableRecord
100
AcDbViewTableRecord
  2
AM_VIEW1
 70
     0
 40
119.3150289017341
 10
74.25
 20
150.3424855491329
 41
148.5
 11
0.0
 21
0.0
 31
1.0
 12
0.0
 22
0.0
 32
0.0
 42
50.0
 43
-1370.695619172058
 44
-1370.695619172058
 50
0.0
 71
     0
281
     0
 72
     0
  0
VIEW
  5
AE2
330
6
100
AcDbSymbolTableRecord
100
AcDbViewTableRecord
  2
AM_VIEW2
 70
     0
 40
119.3150289017341
 10
222.75
 20
150.3424855491329
 41
148.5
 11
0.0
 21
0.0
 31
1.0
 12
0.0
 22
0.0
 32
0.0
 42
50.0
 43
-1370.695619172058
 44
-1370.695619172058
 50
0.0
 71
     0
281
     0
 72
     0
  0
VIEW
  5
AE3
330
6
100
AcDbSymbolTableRecord
100
AcDbViewTableRecord
  2
AM_VIEW3
 70
     0
 40
119.3150289017341
 10
74.25
 20
59.65751445086702
 41
148.5
 11
0.0
 21
0.0
 31
1.0
 12
0.0
 22
0.0
 32
0.0
 42
50.0
 43
-1370.695619172058
 44
-1370.695619172058
 50
0.0
 71
     0
281
     0
 72
     0
  0
VIEW
  5
AE4
330
6
100
AcDbSymbolTableRecord
100
AcDbViewTableRecord
  2
AM_VIEW4
 70
     0
 40
119.3150289017341
 10
222.75
 20
59.65751445086702
 41
148.5
 11
0.0
 21
0.0
 31
1.0
 12
0.0
 22
0.0
 32
0.0
 42
50.0
 43
-1370.695619172058
 44
-1370.695619172058
 50
0.0
 71
     0
281
     0
 72
     0
  0
VIEW
  5
AE5
330
6
100
AcDbSymbolTableRecord
100
AcDbViewTableRecord
  2
AM_VIEW5
 70
     0
 40
119.3150289017341
 10
148.5
 20
105.0
 41
148.5
 11
0.0
 21
0.0
 31
1.0
 12
0.0
 22
0.0
 32
0.0
 42
50.0
 43
-1370.695619172058
 44
-1370.695619172058
 50
0.0
 71
     0
281
     0
 72
     0
  0
VIEW
  5
AE6
330
6
100
AcDbSymbolTableRecord
100
AcDbViewTableRecord
  2
AM_VIEW6
 70
     0
 40
238.6276715028902
 10
148.5
 20
105.0
 41
296.99703
 11
0.0
 21
0.0
 31
1.0
 12
0.0
 22
0.0
 32
0.0
 42
50.0
 43
-1370.695619172058
 44
-1370.695619172058
 50
0.0
 71
     0
281
     0
 72
     0
  0
ENDTAB
  0
TABLE
  2
UCS
  5
7
330
0
100
AcDbSymbolTable
 70
     0
  0
ENDTAB
  0
TABLE
  2
APPID
  5
9
330
0
100
AcDbSymbolTable
 70
    60
  0
APPID
  5
12
330
9
100
AcDbSymbolTableRecord
100
AcDbRegAppTableRecord
  2
ACAD
 70
     0
  0
APPID
  5
30
330
9
100
AcDbSymbolTableRecord
100
AcDbRegAppTableRecord
  2
MCAD_NO_VIS
 70
     0
  0
APPID
  5
31
330
9
100
AcDbSymbolTableRecord
100
AcDbRegAppTableRecord
  2
ACAD_TEMP_GRAPHIC
 70
     0
  0
APPID
  5
44
330
9
100
AcDbSymbolTableRecord
100
AcDbRegAppTableRecord
  2
ACATTRIBSERVICES
 70
     0
  0
APPID
  5
7A1
330
9
100
AcDbSymbolTableRecord
100
AcDbRegAppTableRecord
  2
GENIUS_GENDIMSH_14
 70
     0
  0
APPID
  5
A49
330
9
100
AcDbSymbolTableRecord
100
AcDbRegAppTableRecord
  2
GENIUS_GENREC_14
 70
     0
  0
APPID
  5
A4A
330
9
100
AcDbSymbolTableRecord
100
AcDbRegAppTableRecord
  2
GENIUS_GENOBJ-N-REC_13
 70
     0
  0
APPID
  5
A4B
330
9
100
AcDbSymbolTableRecord
100
AcDbRegAppTableRecord
  2
GENIUS_GENODEF_13
 70
     0
  0
APPID
  5
A4C
330
9
100
AcDbSymbolTableRecord
100
AcDbRegAppTableRecord
  2
DCO15
 70
     0
  0
APPID
  5
ADC
330
9
100
AcDbSymbolTableRecord
100
AcDbRegAppTableRecord
  2
GENIUS_GENOLIS_13
 70
     0
  0
APPID
  5
ADD
330
9
100
AcDbSymbolTableRecord
100
AcDbRegAppTableRecord
  2
GENIUS_GENOENT_13
 70
     0
  0
APPID
  5
ADE
330
9
100
AcDbSymbolTableRecord
100
AcDbRegAppTableRecord
  2
GENIUS_GENOBJ-N-TIT_13
 70
     0
  0
APPID
  5
ADF
330
9
100
AcDbSymbolTableRecord
100
AcDbRegAppTableRecord
  2
GENIUS_GENTITLE_13
 70
     0
  0
APPID
  5
AE0
330
9
100
AcDbSymbolTableRecord
100
AcDbRegAppTableRecord
  2
GENIUS_GENOREF_13
 70
     0
  0
APPID
  5
AE7
330
9
100
AcDbSymbolTableRecord
100
AcDbRegAppTableRecord
  2
GENIUS_GENSCREG_15
 70
     0
  0
APPID
  5
AE8
330
9
100
AcDbSymbolTableRecord
100
AcDbRegAppTableRecord
  2
GENIUS_GENOBJ-N-SDF_13
 70
     0
  0
APPID
  5
FAF
330
9
100
AcDbSymbolTableRecord
100
AcDbRegAppTableRecord
  2
GENIUS_GENBLLY_14
 70
     0
  0
APPID
  5
FB0
330
9
100
AcDbSymbolTableRecord
100
AcDbRegAppTableRecord
  2
GENIUS_GENTRA_14
 70
     0
  0
APPID
  5
1285
330
9
100
AcDbSymbolTableRecord
100
AcDbRegAppTableRecord
  2
GENIUS_GENDTOL_13
 70
     0
  0
APPID
  5
142D
330
9
100
AcDbSymbolTableRecord
100
AcDbRegAppTableRecord
  2
GENIUS_GENOBJ-N-CEN_13
 70
     0
  0
APPID
  5
1AB5
330
9
100
AcDbSymbolTableRecord
100
AcDbRegAppTableRecord
  2
GENIUS_GENOBJ-N-CRS_13
 70
     0
  0
APPID
  5
1B36
330
9
100
AcDbSymbolTableRecord
100
AcDbRegAppTableRecord
  2
GENIUS_GENOBJ-N-HTC_13
 70
     0
  0
APPID
  5
1B37
330
9
100
AcDbSymbolTableRecord
100
AcDbRegAppTableRecord
  2
GENIUS_GENHATCH_13
 70
     0
  0
APPID
  5
216D
330
9
100
AcDbSymbolTableRecord
100
AcDbRegAppTableRecord
  2
GENIUS_GENOBJ-N-FIL_13
 70
     0
  0
APPID
  5
2356
330
9
100
AcDbSymbolTableRecord
100
AcDbRegAppTableRecord
  2
GEVID990412420
 70
     0
  0
APPID
  5
2357
330
9
100
AcDbSymbolTableRecord
100
AcDbRegAppTableRecord
  2
GEVDC
 70
     0
  0
APPID
  5
2358
330
9
100
AcDbSymbolTableRecord
100
AcDbRegAppTableRecord
  2
GEVCON
 70
     0
  0
APPID
  5
235B
330
9
100
AcDbSymbolTableRecord
100
AcDbRegAppTableRecord
  2
GEVRADREF
 70
     0
  0
APPID
  5
2360
330
9
100
AcDbSymbolTableRecord
100
AcDbRegAppTableRecord
  2
GENIUS_GENBH_13
 70
     0
  0
APPID
  5
2362
330
9
100
AcDbSymbolTableRecord
100
AcDbRegAppTableRecord
  2
GENIUS_GENOBJ-NBEHI-BHF_13
 70
     0
  0
APPID
  5
2364
330
9
100
AcDbSymbolTableRecord
100
AcDbRegAppTableRecord
  2
GENIUS_GENOBJ-NBEHI-BHB_13
 70
     0
  0
APPID
  5
2379
330
9
100
AcDbSymbolTableRecord
100
AcDbRegAppTableRecord
  2
GENIUS_GENOBJ-F-SCPASSM_13
 70
     0
  0
APPID
  5
3D74
330
9
100
AcDbSymbolTableRecord
100
AcDbRegAppTableRecord
  2
GENIUS_GENDIM_13
 70
     0
  0
APPID
  5
3D76
330
9
100
AcDbSymbolTableRecord
100
AcDbRegAppTableRecord
  2
GENIUS_GE3DTOL_13
 70
     0
  0
APPID
  5
3D9C
330
9
100
AcDbSymbolTableRecord
100
AcDbRegAppTableRecord
  2
AD_DRAW
 70
     0
  0
APPID
  5
3DE8
330
9
100
AcDbSymbolTableRecord
100
AcDbRegAppTableRecord
  2
ASURF_PCURVE_APPNAME
 70
     0
  0
APPID
  5
3DED
330
9
100
AcDbSymbolTableRecord
100
AcDbRegAppTableRecord
  2
AMG_3D2D_5.0
 70
     0
  0
APPID
  5
3E1B
330
9
100
AcDbSymbolTableRecord
100
AcDbRegAppTableRecord
  2
DESIGNERASSEMBLIES
 70
     0
  0
APPID
  5
3E20
330
9
100
AcDbSymbolTableRecord
100
AcDbRegAppTableRecord
  2
ACADM_DIM_EDIT
 70
     0
  0
APPID
  5
3E21
330
9
100
AcDbSymbolTableRecord
100
AcDbRegAppTableRecord
  2
AMDT_DM_ADJ
 70
     0
  0
APPID
  5
4143
330
9
100
AcDbSymbolTableRecord
100
AcDbRegAppTableRecord
  2
GENIUS_GENFIL_13
 70
     0
  0
APPID
  5
4144
330
9
100
AcDbSymbolTableRecord
100
AcDbRegAppTableRecord
  2
GENIUS_GENOBJ-N-CHA_13
 70
     0
  0
APPID
  5
4E17
330
9
100
AcDbSymbolTableRecord
100
AcDbRegAppTableRecord
  2
GEVID1008153417
 70
     0
  0
APPID
  5
4E58
330
9
100
AcDbSymbolTableRecord
100
AcDbRegAppTableRecord
  2
GEVID1008153418
 70
     0
  0
APPID
  5
4E5E
330
9
100
AcDbSymbolTableRecord
100
AcDbRegAppTableRecord
  2
GEVID1008153419
 70
     0
  0
APPID
  5
4E64
330
9
100
AcDbSymbolTableRecord
100
AcDbRegAppTableRecord
  2
GEVID1008153420
 70
     0
  0
APPID
  5
4E75
330
9
100
AcDbSymbolTableRecord
100
AcDbRegAppTableRecord
  2
GEVID1008153421
 70
     0
  0
APPID
  5
4EB7
330
9
100
AcDbSymbolTableRecord
100
AcDbRegAppTableRecord
  2
GENIUS_AMGTXT_16
 70
     0
  0
APPID
  5
7645
330
9
100
AcDbSymbolTableRecord
100
AcDbRegAppTableRecord
  2
GENIUS_GENOBJ-N-DIM_13
 70
     0
  0
APPID
  5
AAD0
330
9
100
AcDbSymbolTableRecord
100
AcDbRegAppTableRecord
  2
ACAD_DSTYLE_DIMARC_LENGTH_SYMBOL
 70
     0
  0
APPID
  5
AAD1
330
9
100
AcDbSymbolTableRecord
100
AcDbRegAppTableRecord
  2
ACAD_DSTYLE_DIMJOGGED_JOGANGLE_SYMBOL
 70
     0
  0
APPID
  5
AAFD
330
9
100
AcDbSymbolTableRecord
100
AcDbRegAppTableRecord
  2
ACAD_PSEXT
 70
     0
  0
APPID
  5
AD61
330
9
100
AcDbSymbolTableRecord
100
AcDbRegAppTableRecord
  2
AcAecLayerStandard
 70
     0
  0
APPID
  5
AEE3
330
9
100
AcDbSymbolTableRecord
100
AcDbRegAppTableRecord
  2
ACAD_EXEMPT_FROM_CAD_STANDARDS
 70
     0
  0
APPID
  5
B1BE
330
9
100
AcDbSymbolTableRecord
100
AcDbRegAppTableRecord
  2
GENIUS_GENCEN_19
 70
     0
  0
APPID
  5
B505
330
9
100
AcDbSymbolTableRecord
100
AcDbRegAppTableRecord
  2
ACAD_MLEADERVER
 70
     0
  0
APPID
  5
B52B
330
9
100
AcDbSymbolTableRecord
100
AcDbRegAppTableRecord
  2
ACAUTHENVIRON
 70
     0
  0
APPID
  5
B52C
330
9
100
AcDbSymbolTableRecord
100
AcDbRegAppTableRecord
  2
AcDbDynamicBlockTrueName
 70
     0
  0
APPID
  5
B52D
330
9
100
AcDbSymbolTableRecord
100
AcDbRegAppTableRecord
  2
AcDbDynamicBlockGUID
 70
     0
  0
APPID
  5
B52E
330
9
100
AcDbSymbolTableRecord
100
AcDbRegAppTableRecord
  2
ACDBBLOCKREPETAG
 70
     0
  0
ENDTAB
  0
TABLE
  2
DIMSTYLE
  5
A
330
0
100
AcDbSymbolTable
 70
    23
100
AcDbDimStyleTable
 71
     1
340
2515
  0
DIMSTYLE
105
A76
330
A
100
AcDbSymbolTableRecord
100
AcDbDimStyleTableRecord
  2
STANDARD
 70
     0
 41
3.0
 42
1.0
 43
7.0
 44
2.0
 73
     0
 74
     0
 77
     1
140
2.799999999999999
141
0.0
143
0.0394
147
0.7
171
     4
172
     1
173
     1
176
     3
177
     3
178
     2
271
     3
272
     3
273
     8
274
     4
289
     0
340
A74
341
A66
343
A66
344
A66
  0
DIMSTYLE
105
2515
330
A
100
AcDbSymbolTableRecord
100
AcDbDimStyleTableRecord
  2
SYS
 70
     0
  4
"
 41
1.0
 42
1.0
 43
10.0
 44
1.0
 47
0.1
 48
0.1
 73
     0
 74
     0
 77
     1
 78
     8
 79
     2
140
3.5
141
0.0
143
0.0393701
146
0.71
147
1.5
172
     1
176
   256
177
   256
178
     7
271
     2
272
     2
283
     0
284
     8
340
11
371
    -1
372
    -1
1001
ACAD_DSTYLE_DIMJOGGED_JOGANGLE_SYMBOL
1070
   384
1040
0.7853981633974483
1001
ACAD_DSTYLE_DIMARC_LENGTH_SYMBOL
1070
   379
1070
     1
  0
DIMSTYLE
105
2516
330
A
100
AcDbSymbolTableRecord
100
AcDbDimStyleTableRecord
  2
SYS$3
 70
     0
  4
"
 41
2.0
 42
1.0
 43
10.0
 44
1.0
 47
0.1
 48
0.1
 73
     0
 77
     1
 78
     8
 79
     2
140
3.5
141
0.0
143
0.0393701
146
0.71
147
1.5
176
   256
177
   256
178
     2
271
     2
272
     2
283
     0
284
     8
288
     1
340
11
342
A66
371
    -1
372
    -1
1001
ACAD_DSTYLE_DIMJOGGED_JOGANGLE_SYMBOL
1070
   384
1040
0.7853981633974483
1001
ACAD_DSTYLE_DIMARC_LENGTH_SYMBOL
1070
   379
1070
     1
  0
DIMSTYLE
105
2517
330
A
100
AcDbSymbolTableRecord
100
AcDbDimStyleTableRecord
  2
SYS$4
 70
     0
  4
"
 41
2.0
 42
1.0
 43
10.0
 44
1.0
 47
0.1
 48
0.1
 73
     0
 77
     1
 78
     8
 79
     2
140
3.5
141
0.0
143
0.0393701
146
0.71
147
1.5
173
     1
176
   256
177
   256
178
     2
271
     2
272
     2
283
     0
284
     8
288
     1
340
11
344
A66
371
    -1
372
    -1
1001
ACAD_DSTYLE_DIMJOGGED_JOGANGLE_SYMBOL
1070
   384
1040
0.7853981633974483
1001
ACAD_DSTYLE_DIMARC_LENGTH_SYMBOL
1070
   379
1070
     1
  0
DIMSTYLE
105
2518
330
A
100
AcDbSymbolTableRecord
100
AcDbDimStyleTableRecord
  2
SYS$6
 70
     0
  4
"
 41
2.0
 42
1.0
 43
10.0
 44
1.0
 47
0.1
 48
0.1
 73
     0
 74
     0
 78
     8
 79
     2
140
3.5
141
0.0
143
0.0393701
146
0.71
147
1.5
172
     1
176
   256
177
   256
178
     2
271
     2
272
     2
283
     0
284
     8
340
11
341
A66
371
    -1
372
    -1
1001
ACAD_DSTYLE_DIMJOGGED_JOGANGLE_SYMBOL
1070
   384
1040
0.7853981633974483
1001
ACAD_DSTYLE_DIMARC_LENGTH_SYMBOL
1070
   379
1070
     1
  0
DIMSTYLE
105
2519
330
A
100
AcDbSymbolTableRecord
100
AcDbDimStyleTableRecord
  2
SYS$7
 70
     0
  4
"
 41
2.0
 42
1.0
 43
10.0
 44
1.0
 47
0.1
 48
0.1
 73
     0
 74
     0
 77
     1
 78
     8
 79
     2
140
5.0
141
0.0
143
0.0393701
146
0.71
147
1.5
172
     1
176
   256
177
   256
178
     2
271
     2
272
     2
283
     0
284
     8
340
11
341
A66
342
A66
371
    -1
372
    -1
1001
ACAD_DSTYLE_DIMJOGGED_JOGANGLE_SYMBOL
1070
   384
1040
0.7853981633974483
1001
ACAD_DSTYLE_DIMARC_LENGTH_SYMBOL
1070
   379
1070
     1
  0
DIMSTYLE
105
251A
330
A
100
AcDbSymbolTableRecord
100
AcDbDimStyleTableRecord
  2
SYS$SF
 70
     0
  4
"
 41
2.5
 42
1.0
 43
10.0
 44
1.0
 47
0.1
 48
0.1
 73
     0
 74
     0
 75
     1
 76
     1
 77
     1
 78
     8
 79
     2
140
3.5
141
0.0
143
0.0393701
146
0.71
147
1.5
172
     1
176
   256
177
   256
178
     2
271
     2
272
     3
283
     0
284
     8
340
11
341
6C4
342
6C4
371
    -1
372
    -1
1001
ACAD_DSTYLE_DIMJOGGED_JOGANGLE_SYMBOL
1070
   384
1040
0.7853981633974483
1001
ACAD_DSTYLE_DIMARC_LENGTH_SYMBOL
1070
   379
1070
     1
  0
DIMSTYLE
105
251B
330
A
100
AcDbSymbolTableRecord
100
AcDbDimStyleTableRecord
  2
SYS$SH
 70
     0
  4
"
 41
2.5
 42
1.0
 43
10.0
 44
1.0
 47
0.1
 48
0.1
 73
     0
 74
     0
 75
     1
 76
     1
 77
     1
 78
     8
 79
     2
140
3.5
141
0.0
143
0.0393701
144
2.0
146
0.71
147
1.5
172
     1
173
     1
176
   256
177
   256
178
     2
271
     2
272
     3
283
     0
284
     8
340
11
341
6C4
343
72
344
6C4
371
    -1
372
    -1
1001
ACAD_DSTYLE_DIMJOGGED_JOGANGLE_SYMBOL
1070
   384
1040
0.7853981633974483
1001
ACAD_DSTYLE_DIMARC_LENGTH_SYMBOL
1070
   379
1070
     1
  0
DIMSTYLE
105
2A59
330
A
100
AcDbSymbolTableRecord
100
AcDbDimStyleTableRecord
  2
SYS$2
 70
     0
  4
"
 41
1.0
 42
1.0
 43
10.0
 44
1.0
 47
0.1
 48
0.1
 73
     0
 74
     0
 77
     1
 78
     8
 79
     2
140
3.5
141
0.0
143
0.0393701
146
0.71
147
1.5
172
     1
176
   256
177
   256
178
     2
271
     2
272
     2
283
     0
284
     8
340
11
342
6C4
371
    -1
372
    -1
1001
ACAD_DSTYLE_DIMJOGGED_JOGANGLE_SYMBOL
1070
   384
1040
0.7853981633974483
1001
ACAD_DSTYLE_DIMARC_LENGTH_SYMBOL
1070
   379
1070
     1
  0
DIMSTYLE
105
2AAB
102
{ACAD_REACTORS
330
B9C7
330
B9EF
330
BA1F
330
BA4D
330
BABA
330
BAD9
330
BB07
330
BB26
330
BB4E
330
BBCB
102
}
330
A
100
AcDbSymbolTableRecord
100
AcDbDimStyleTableRecord
  2
SYS$0
 70
     0
  4
"
 41
1.0
 42
1.0
 43
10.0
 44
1.0
 47
0.1
 48
0.1
 73
     0
 74
     0
 77
     1
 78
     8
 79
     2
140
3.200000000000001
141
0.0
143
0.0393701
146
0.71
147
1.5
172
     1
176
   256
177
   256
178
     2
271
     2
272
     2
283
     0
284
     8
340
11
341
A66
342
6C4
371
    -1
372
    -1
1001
ACAD_DSTYLE_DIMJOGGED_JOGANGLE_SYMBOL
1070
   384
1040
0.7853981633974483
1001
ACAD_DSTYLE_DIMARC_LENGTH_SYMBOL
1070
   379
1070
     1
  0
DIMSTYLE
105
AF99
330
A
100
AcDbSymbolTableRecord
100
AcDbDimStyleTableRecord
  2
AM_ISO
 70
     0
  4
"
 41
2.5
 42
1.0
 43
10.0
 44
1.0
 47
0.1
 48
0.1
 73
     0
 74
     0
 77
     1
 78
     8
 79
     2
140
3.5
141
0.0
143
0.0393701
146
0.71
147
1.5
172
     1
176
   256
177
   256
178
     2
271
     2
272
     3
274
     4
283
     0
284
     8
340
11
371
    -1
372
    -1
  0
DIMSTYLE
105
AF9A
330
A
100
AcDbSymbolTableRecord
100
AcDbDimStyleTableRecord
  2
AM_ISO$3
 70
     0
  4
"
 41
2.5
 42
1.0
 43
10.0
 44
1.0
 47
0.1
 48
0.1
 73
     0
 77
     1
 78
     8
 79
     2
140
3.5
141
0.0
143
0.0393701
146
0.71
147
1.5
176
   256
177
   256
178
     2
271
     2
272
     3
274
     4
283
     0
284
     8
288
     1
289
     0
340
11
371
    -1
372
    -1
  0
DIMSTYLE
105
AF9B
330
A
100
AcDbSymbolTableRecord
100
AcDbDimStyleTableRecord
  2
AM_ISO$4
 70
     0
  4
"
 41
2.5
 42
1.0
 43
10.0
 44
1.0
 47
0.1
 48
0.1
 73
     0
 77
     1
 78
     8
 79
     2
140
3.5
141
0.0
143
0.0393701
146
0.71
147
1.5
176
   256
177
   256
178
     2
271
     2
272
     3
274
     4
283
     0
284
     8
288
     1
289
     0
340
11
371
    -1
372
    -1
  0
DIMSTYLE
105
AF9C
330
A
100
AcDbSymbolTableRecord
100
AcDbDimStyleTableRecord
  2
AM_ISO$6
 70
     0
  4
"
 41
2.5
 42
1.0
 43
10.0
 44
1.0
 47
0.1
 48
0.1
 73
     0
 74
     0
 78
     8
 79
     2
140
3.5
141
0.0
143
0.0393701
146
0.71
147
1.5
172
     1
176
   256
177
   256
178
     2
271
     2
272
     3
274
     4
283
     0
284
     8
340
11
371
    -1
372
    -1
  0
DIMSTYLE
105
AF9D
330
A
100
AcDbSymbolTableRecord
100
AcDbDimStyleTableRecord
  2
AM_ISO$7
 70
     0
  4
"
 41
2.5
 42
1.0
 43
10.0
 44
1.0
 47
0.1
 48
0.1
 73
     0
 74
     0
 77
     1
 78
     8
 79
     2
140
5.0
141
0.0
143
0.0393701
146
0.71
147
1.5
172
     1
176
   256
177
   256
178
     2
271
     2
272
     3
274
     4
283
     0
284
     8
340
11
371
    -1
372
    -1
  0
DIMSTYLE
105
AF9E
330
A
100
AcDbSymbolTableRecord
100
AcDbDimStyleTableRecord
  2
AM_ISO$SF
 70
     0
  4
"
 41
2.5
 42
1.0
 43
10.0
 44
1.0
 47
0.1
 48
0.1
 73
     0
 74
     0
 75
     1
 76
     1
 77
     1
 78
     8
 79
     2
140
3.5
141
0.0
143
0.0393701
146
0.71
147
1.5
172
     1
176
   256
177
   256
178
     2
271
     2
272
     3
274
     4
283
     0
284
     8
340
11
371
    -1
372
    -1
  0
DIMSTYLE
105
AF9F
330
A
100
AcDbSymbolTableRecord
100
AcDbDimStyleTableRecord
  2
AM_ISO$SH
 70
     0
  4
"
 41
2.5
 42
1.0
 43
10.0
 44
1.0
 47
0.1
 48
0.1
 73
     0
 74
     0
 75
     1
 76
     1
 77
     1
 78
     8
 79
     2
140
3.5
141
0.0
143
0.0393701
144
2.0
146
0.71
147
1.5
172
     1
173
     1
176
   256
177
   256
178
     2
271
     2
272
     3
274
     4
283
     0
284
     8
340
11
343
72
371
    -1
372
    -1
  0
DIMSTYLE
105
B660
330
A
100
AcDbSymbolTableRecord
100
AcDbDimStyleTableRecord
  2
AM_ANSI
 70
     0
  4
mm
 41
0.1
 42
0.05
 43
0.5
 44
0.1
 47
0.1
 48
0.1
 78
     7
 79
     2
140
0.12
141
0.0
146
0.71
147
0.06
176
   256
177
   256
178
     2
274
     4
284
     7
340
11
371
    -1
372
    -1
1001
ACAD_DSTYLE_DIMARC_LENGTH_SYMBOL
1070
   379
1070
     1
  0
DIMSTYLE
105
B661
330
A
100
AcDbSymbolTableRecord
100
AcDbDimStyleTableRecord
  2
AM_ANSI$3
 70
     0
  4
mm
 41
0.1
 42
0.05
 43
0.5
 44
0.1
 47
0.1
 48
0.1
 78
     7
 79
     2
140
0.12
141
0.0
146
0.71
147
0.06
176
   256
177
   256
178
     2
274
     4
284
     7
288
     1
289
     0
340
11
371
    -1
372
    -1
1001
ACAD_DSTYLE_DIMARC_LENGTH_SYMBOL
1070
   379
1070
     1
  0
DIMSTYLE
105
B662
330
A
100
AcDbSymbolTableRecord
100
AcDbDimStyleTableRecord
  2
AM_ANSI$4
 70
     0
  4
mm
 41
0.1
 42
0.05
 43
0.5
 44
0.1
 47
0.1
 48
0.1
 78
     7
 79
     2
140
0.12
141
0.0
146
0.71
147
0.06
176
   256
177
   256
178
     2
274
     4
284
     7
288
     1
289
     0
340
11
371
    -1
372
    -1
1001
ACAD_DSTYLE_DIMARC_LENGTH_SYMBOL
1070
   379
1070
     1
  0
DIMSTYLE
105
B663
330
A
100
AcDbSymbolTableRecord
100
AcDbDimStyleTableRecord
  2
AM_ANSI$7
 70
     0
  4
mm
 41
0.1
 42
0.05
 43
0.5
 44
0.1
 47
0.1
 48
0.1
 78
     7
 79
     2
140
0.24
141
0.0
146
0.71
147
0.06
176
   256
177
   256
178
     2
274
     4
284
     7
340
11
371
    -1
372
    -1
1001
ACAD_DSTYLE_DIMARC_LENGTH_SYMBOL
1070
   379
1070
     1
  0
DIMSTYLE
105
B664
330
A
100
AcDbSymbolTableRecord
100
AcDbDimStyleTableRecord
  2
AM_ANSI$SF
 70
     0
  4
mm
 41
0.1
 42
0.05
 43
0.5
 44
0.1
 47
0.1
 48
0.1
 75
     1
 76
     1
 78
     7
 79
     2
140
0.12
141
0.0
146
0.71
147
0.06
176
   256
177
   256
178
     2
274
     4
284
     7
340
11
371
    -1
372
    -1
1001
ACAD_DSTYLE_DIMARC_LENGTH_SYMBOL
1070
   379
1070
     1
  0
DIMSTYLE
105
B665
330
A
100
AcDbSymbolTableRecord
100
AcDbDimStyleTableRecord
  2
AM_ANSI$SH
 70
     0
  4
mm
 41
0.1
 42
0.05
 43
0.5
 44
0.1
 47
0.1
 48
0.1
 75
     1
 76
     1
 78
     7
 79
     2
140
0.12
141
0.0
146
0.71
147
0.06
173
     1
176
   256
177
   256
178
     2
274
     4
284
     7
340
11
343
72
371
    -1
372
    -1
1001
ACAD_DSTYLE_DIMARC_LENGTH_SYMBOL
1070
   379
1070
     1
  0
ENDTAB
  0
TABLE
  2
BLOCK_RECORD
  5
1
330
0
100
AcDbSymbolTable
 70
    16
  0
BLOCK_RECORD
  5
1F
102
{ACAD_XDICTIONARY
360
8A
102
}
330
1
100
AcDbSymbolTableRecord
100
AcDbBlockTableRecord
  2
*Model_Space
340
22
  0
BLOCK_RECORD
  5
1B
330
1
100
AcDbSymbolTableRecord
100
AcDbBlockTableRecord
  2
*Paper_Space
340
1E
  0
BLOCK_RECORD
  5
23
330
1
100
AcDbSymbolTableRecord
100
AcDbBlockTableRecord
  2
*Paper_Space0
340
26
  0
BLOCK_RECORD
  5
72
330
1
100
AcDbSymbolTableRecord
100
AcDbBlockTableRecord
  2
GENAXEH
340
0
  0
BLOCK_RECORD
  5
6C4
330
1
100
AcDbSymbolTableRecord
100
AcDbBlockTableRecord
  2
_Dot
340
0
102
{BLKREFS
331
BF53
331
BF54
331
BF5E
331
BF5F
331
BF73
331
BF74
331
BF7C
331
BF7D
331
BF87
331
BF88
331
BF90
331
BF91
331
BF99
331
BF9A
331
BFA2
331
BFA3
331
BFAD
331
BFAE
331
BFB7
331
BFB8
102
}
  0
BLOCK_RECORD
  5
A66
330
1
100
AcDbSymbolTableRecord
100
AcDbBlockTableRecord
  2
_OPEN30
340
0
  0
BLOCK_RECORD
  5
B9C8
330
1
100
AcDbSymbolTableRecord
100
AcDbBlockTableRecord
  2
*D5
340
0
  0
BLOCK_RECORD
  5
B9F0
330
1
100
AcDbSymbolTableRecord
100
AcDbBlockTableRecord
  2
*D6
340
0
  0
BLOCK_RECORD
  5
BA20
330
1
100
AcDbSymbolTableRecord
100
AcDbBlockTableRecord
  2
*D7
340
0
  0
BLOCK_RECORD
  5
BA4E
330
1
100
AcDbSymbolTableRecord
100
AcDbBlockTableRecord
  2
*D8
340
0
  0
BLOCK_RECORD
  5
BABB
330
1
100
AcDbSymbolTableRecord
100
AcDbBlockTableRecord
  2
*D9
340
0
  0
BLOCK_RECORD
  5
BADA
330
1
100
AcDbSymbolTableRecord
100
AcDbBlockTableRecord
  2
*D10
340
0
  0
BLOCK_RECORD
  5
BB08
330
1
100
AcDbSymbolTableRecord
100
AcDbBlockTableRecord
  2
*D11
340
0
  0
BLOCK_RECORD
  5
BB27
330
1
100
AcDbSymbolTableRecord
100
AcDbBlockTableRecord
  2
*D12
340
0
  0
BLOCK_RECORD
  5
BB4F
330
1
100
AcDbSymbolTableRecord
100
AcDbBlockTableRecord
  2
*D13
340
0
  0
BLOCK_RECORD
  5
BBCC
330
1
100
AcDbSymbolTableRecord
100
AcDbBlockTableRecord
  2
*D14
340
0
  0
BLOCK_RECORD
  5
C0CB
330
1
100
AcDbSymbolTableRecord
100
AcDbBlockTableRecord
  2
*S15
340
0
  0
ENDTAB
  0
ENDSEC
  0
SECTION
  2
BLOCKS
  0
BLOCK
  5
20
330
1F
100
AcDbEntity
  8
0
100
AcDbBlockBegin
  2
*Model_Space
 70
     0
 10
0.0
 20
0.0
 30
0.0
  3
*Model_Space
  1

  0
ENDBLK
  5
21
330
1F
100
AcDbEntity
  8
0
100
AcDbBlockEnd
  0
BLOCK
  5
1C
330
1B
100
AcDbEntity
 67
     1
  8
0
100
AcDbBlockBegin
  2
*Paper_Space
 70
     0
 10
0.0
 20
0.0
 30
0.0
  3
*Paper_Space
  1

  0
ENDBLK
  5
1D
330
1B
100
AcDbEntity
 67
     1
  8
0
100
AcDbBlockEnd
  0
BLOCK
  5
24
330
23
100
AcDbEntity
 67
     1
  8
0
100
AcDbBlockBegin
  2
*Paper_Space0
 70
     0
 10
0.0
 20
0.0
 30
0.0
  3
*Paper_Space0
  1

  0
ENDBLK
  5
25
330
23
100
AcDbEntity
 67
     1
  8
0
100
AcDbBlockEnd
  0
BLOCK
  5
74
330
72
100
AcDbEntity
  8
0
100
AcDbBlockBegin
  2
GENAXEH
 70
     0
 10
0.0
 20
0.0
 30
0.0
  3
GENAXEH
  1

  0
LINE
  5
73
330
72
100
AcDbEntity
  8
0
100
AcDbLine
 10
-1.0
 20
0.0
 30
0.0
 11
1.0
 21
0.0
 31
0.0
  0
ENDBLK
  5
75
330
72
100
AcDbEntity
  8
0
100
AcDbBlockEnd
  0
BLOCK
  5
6C7
330
6C4
100
AcDbEntity
  8
0
100
AcDbBlockBegin
  2
_Dot
 70
     0
 10
0.0
 20
0.0
 30
0.0
  3
_Dot
  1

  0
LWPOLYLINE
  5
6C5
330
6C4
100
AcDbEntity
  8
0
  6
ByBlock
 62
     0
100
AcDbPolyline
 90
        2
 70
     1
 43
0.5
 10
-0.25
 20
0.0
 42
1.0
 10
0.25
 20
0.0
 42
1.0
  0
LINE
  5
6C6
330
6C4
100
AcDbEntity
  8
0
  6
ByBlock
 62
     0
370
    -2
100
AcDbLine
 10
-0.5
 20
0.0
 30
0.0
 11
-1.0
 21
0.0
 31
0.0
  0
ENDBLK
  5
6C8
330
6C4
100
AcDbEntity
  8
0
100
AcDbBlockEnd
  0
BLOCK
  5
A6A
330
A66
100
AcDbEntity
  8
0
100
AcDbBlockBegin
  2
_OPEN30
 70
     0
 10
0.0
 20
0.0
 30
0.0
  3
_OPEN30
  1

  0
LINE
  5
A67
330
A66
100
AcDbEntity
  8
0
  6
ByBlock
 62
     0
100
AcDbLine
 10
-1.0
 20
0.26794919
 30
0.0
 11
0.0
 21
0.0
 31
0.0
  0
LINE
  5
A68
330
A66
100
AcDbEntity
  8
0
  6
ByBlock
 62
     0
100
AcDbLine
 10
0.0
 20
0.0
 30
0.0
 11
-1.0
 21
-0.26794919
 31
0.0
  0
LINE
  5
A69
330
A66
100
AcDbEntity
  8
0
  6
ByBlock
 62
     0
100
AcDbLine
 10
0.0
 20
0.0
 30
0.0
 11
-1.0
 21
0.0
 31
0.0
  0
ENDBLK
  5
A6B
330
A66
100
AcDbEntity
  8
0
100
AcDbBlockEnd
  0
BLOCK
  5
B9D2
330
B9C8
100
AcDbEntity
  8
0
100
AcDbBlockBegin
  2
*D5
 70
     1
 10
0.0
 20
0.0
 30
0.0
  3
*D5
  1

  0
LINE
  5
BF50
330
B9C8
100
AcDbEntity
  8
AM_5
100
AcDbLine
 10
154.3198216100448
 20
89.50589672922914
 30
0.0
 11
132.3198216100448
 21
89.50589672922914
 31
0.0
  0
LINE
  5
BF51
330
B9C8
100
AcDbEntity
  8
AM_5
100
AcDbLine
 10
154.3198216100448
 20
74.50589672922915
 30
0.0
 11
132.3198216100448
 21
74.50589672922915
 31
0.0
  0
LINE
  5
BF52
330
B9C8
100
AcDbEntity
  8
AM_5
100
AcDbLine
 10
133.3198216100448
 20
88.50589672922914
 30
0.0
 11
133.3198216100448
 21
75.50589672922915
 31
0.0
  0
INSERT
  5
BF53
330
B9C8
100
AcDbEntity
  8
AM_5
100
AcDbBlockReference
  2
_Dot
 10
133.3198216100448
 20
89.50589672922914
 30
0.0
 50
90.0
  0
INSERT
  5
BF54
330
B9C8
100
AcDbEntity
  8
AM_5
100
AcDbBlockReference
  2
_Dot
 10
133.3198216100448
 20
74.50589672922915
 30
0.0
 50
270.0
  0
MTEXT
  5
BF55
330
B9C8
100
AcDbEntity
  8
AM_5
 62
     2
100
AcDbMText
 10
130.2198216100448
 20
82.00589672922916
 30
0.0
 40
3.200000000000001
 41
0.0
 71
     5
 72
     1
  1
%%cA
 11
0.0000000000000001
 21
1.0
 31
0.0
 73
     1
 44
1.0
1001
ACAD
1000
MTEXTBEGIN
1070
    73
1070
     1
1070
    44
1040
1.0
1070
    74
1070
     0
1000
MTEXTEND
  0
POINT
  5
BF56
330
B9C8
100
AcDbEntity
  8
Defpoints
 62
     0
100
AcDbPoint
 10
155.3198216100448
 20
89.50589672922914
 30
0.0
  0
POINT
  5
BF57
330
B9C8
100
AcDbEntity
  8
Defpoints
 62
     0
100
AcDbPoint
 10
155.3198216100448
 20
74.50589672922915
 30
0.0
  0
POINT
  5
BF58
330
B9C8
100
AcDbEntity
  8
Defpoints
 62
     0
100
AcDbPoint
 10
133.3198216100448
 20
74.50589672922915
 30
0.0
  0
ENDBLK
  5
B9D3
330
B9C8
100
AcDbEntity
  8
0
100
AcDbBlockEnd
  0
BLOCK
  5
B9FC
330
B9F0
100
AcDbEntity
  8
0
100
AcDbBlockBegin
  2
*D6
 70
     1
 10
0.0
 20
0.0
 30
0.0
  3
*D6
  1

  0
LINE
  5
BF59
330
B9F0
100
AcDbEntity
  8
AM_5
100
AcDbLine
 10
154.8198216100448
 20
90.00589672922915
 30
0.0
 11
154.8198216100448
 21
102.0058967292291
 31
0.0
  0
LINE
  5
BF5A
330
B9F0
100
AcDbEntity
  8
AM_5
100
AcDbLine
 10
156.8198216100448
 20
83.90589672922915
 30
0.0
 11
156.8198216100448
 21
102.0058967292291
 31
0.0
  0
LINE
  5
BF5B
330
B9F0
100
AcDbEntity
  8
AM_5
100
AcDbLine
 10
153.8198216100448
 20
101.0058967292291
 30
0.0
 11
152.8198216100448
 21
101.0058967292291
 31
0.0
  0
LINE
  5
BF5C
330
B9F0
100
AcDbEntity
  8
AM_5
100
AcDbLine
 10
157.8198216100448
 20
101.0058967292291
 30
0.0
 11
166.2571549433782
 21
101.0058967292291
 31
0.0
  0
LINE
  5
BF5D
330
B9F0
100
AcDbEntity
  8
AM_5
100
AcDbLine
 10
154.8198216100448
 20
101.0058967292291
 30
0.0
 11
156.8198216100448
 21
101.0058967292291
 31
0.0
  0
INSERT
  5
BF5E
330
B9F0
100
AcDbEntity
  8
AM_5
100
AcDbBlockReference
  2
_Dot
 10
154.8198216100448
 20
101.0058967292291
 30
0.0
  0
INSERT
  5
BF5F
330
B9F0
100
AcDbEntity
  8
AM_5
100
AcDbBlockReference
  2
_Dot
 10
156.8198216100448
 20
101.0058967292291
 30
0.0
 50
180.0
  0
MTEXT
  5
BF60
330
B9F0
100
AcDbEntity
  8
AM_5
 62
     2
100
AcDbMText
 10
162.5384882767115
 20
104.1058967292291
 30
0.0
 40
3.200000000000001
 41
0.0
 71
     5
 72
     1
  1
（H）
 73
     1
 44
1.0
1001
ACAD
1000
MTEXTBEGIN
1070
    73
1070
     1
1070
    44
1040
1.0
1070
    74
1070
     0
1000
MTEXTEND
  0
POINT
  5
BF61
330
B9F0
100
AcDbEntity
  8
Defpoints
 62
     0
100
AcDbPoint
 10
154.8198216100448
 20
89.00589672922915
 30
0.0
  0
POINT
  5
BF62
330
B9F0
100
AcDbEntity
  8
Defpoints
 62
     0
100
AcDbPoint
 10
156.8198216100448
 20
82.90589672922916
 30
0.0
  0
POINT
  5
BF63
330
B9F0
100
AcDbEntity
  8
Defpoints
 62
     0
100
AcDbPoint
 10
156.8198216100448
 20
101.0058967292291
 30
0.0
  0
ENDBLK
  5
B9FD
330
B9F0
100
AcDbEntity
  8
0
100
AcDbBlockEnd
  0
BLOCK
  5
BA2C
330
BA20
100
AcDbEntity
  8
0
100
AcDbBlockBegin
  2
*D7
 70
     1
 10
0.0
 20
0.0
 30
0.0
  3
*D7
  1

  0
LINE
  5
BFB3
330
BA20
100
AcDbEntity
  8
AM_5
100
AcDbLine
 10
167.1198216100448
 20
79.50589672922915
 30
0.0
 11
173.0435225671987
 21
79.50589672922915
 31
0.0
  0
LINE
  5
BFB4
330
BA20
100
AcDbEntity
  8
AM_5
100
AcDbLine
 10
167.1198216100448
 20
84.50589672922914
 30
0.0
 11
173.0435225671987
 21
84.50589672922914
 31
0.0
  0
LINE
  5
BFB5
330
BA20
100
AcDbEntity
  8
AM_5
100
AcDbLine
 10
172.0435225671987
 20
83.50589672922914
 30
0.0
 11
172.0435225671987
 21
80.50589672922916
 31
0.0
  0
LINE
  5
BFB6
330
BA20
100
AcDbEntity
  8
AM_5
100
AcDbLine
 10
172.0435225671987
 20
79.50589672922915
 30
0.0
 11
172.0435225671987
 21
68.46392238294844
 31
0.0
  0
INSERT
  5
BFB7
330
BA20
100
AcDbEntity
  8
AM_5
100
AcDbBlockReference
  2
_Dot
 10
172.0435225671987
 20
84.50589672922914
 30
0.0
 50
90.0
  0
INSERT
  5
BFB8
330
BA20
100
AcDbEntity
  8
AM_5
100
AcDbBlockReference
  2
_Dot
 10
172.0435225671987
 20
79.50589672922915
 30
0.0
 50
270.0
  0
MTEXT
  5
BFB9
330
BA20
100
AcDbEntity
  8
AM_5
 62
     2
100
AcDbMText
 10
168.9435225671986
 20
70.71058904961514
 30
0.0
 40
3.200000000000001
 41
0.0
 71
     5
 72
     1
  1
B
 11
0.0000000000000001
 21
1.0
 31
0.0
 73
     1
 44
1.0
1001
ACAD
1000
MTEXTBEGIN
1070
    73
1070
     1
1070
    44
1040
1.0
1070
    74
1070
     0
1000
MTEXTEND
  0
POINT
  5
BFBA
330
BA20
100
AcDbEntity
  8
Defpoints
 62
     0
100
AcDbPoint
 10
166.1198216100448
 20
79.50589672922915
 30
0.0
  0
POINT
  5
BFBB
330
BA20
100
AcDbEntity
  8
Defpoints
 62
     0
100
AcDbPoint
 10
166.1198216100448
 20
84.50589672922914
 30
0.0
  0
POINT
  5
BFBC
330
BA20
100
AcDbEntity
  8
Defpoints
 62
     0
100
AcDbPoint
 10
172.0435225671987
 20
84.50589672922914
 30
0.0
  0
ENDBLK
  5
BA2D
330
BA20
100
AcDbEntity
  8
0
100
AcDbBlockEnd
  0
BLOCK
  5
BA5A
330
BA4E
100
AcDbEntity
  8
0
100
AcDbBlockBegin
  2
*D8
 70
     1
 10
0.0
 20
0.0
 30
0.0
  3
*D8
  1

  0
LINE
  5
BF6E
330
BA4E
100
AcDbEntity
  8
AM_5
100
AcDbLine
 10
153.8198216100448
 20
81.10589672922916
 30
0.0
 11
142.3198216100448
 21
81.10589672922916
 31
0.0
  0
LINE
  5
BF6F
330
BA4E
100
AcDbEntity
  8
AM_5
100
AcDbLine
 10
153.8198216100448
 20
82.90589672922916
 30
0.0
 11
142.3198216100448
 21
82.90589672922916
 31
0.0
  0
LINE
  5
BF70
330
BA4E
100
AcDbEntity
  8
AM_5
100
AcDbLine
 10
143.3198216100448
 20
80.10589672922916
 30
0.0
 11
143.3198216100448
 21
79.10589672922916
 31
0.0
  0
LINE
  5
BF71
330
BA4E
100
AcDbEntity
  8
AM_5
100
AcDbLine
 10
143.3198216100448
 20
83.90589672922915
 30
0.0
 11
143.3198216100448
 21
95.18008695121823
 31
0.0
  0
LINE
  5
BF72
330
BA4E
100
AcDbEntity
  8
AM_5
100
AcDbLine
 10
143.3198216100448
 20
81.10589672922916
 30
0.0
 11
143.3198216100448
 21
82.90589672922916
 31
0.0
  0
INSERT
  5
BF73
330
BA4E
100
AcDbEntity
  8
AM_5
100
AcDbBlockReference
  2
_Dot
 10
143.3198216100448
 20
81.10589672922916
 30
0.0
 50
90.0
  0
INSERT
  5
BF74
330
BA4E
100
AcDbEntity
  8
AM_5
100
AcDbBlockReference
  2
_Dot
 10
143.3198216100448
 20
82.90589672922916
 30
0.0
 50
270.0
  0
MTEXT
  5
BF75
330
BA4E
100
AcDbEntity
  8
AM_5
 62
     2
100
AcDbMText
 10
140.2198216100448
 20
92.88008695121824
 30
0.0
 40
3.200000000000001
 41
0.0
 71
     5
 72
     1
  1
G
 11
0.0000000000000001
 21
1.0
 31
0.0
 73
     1
 44
1.0
1001
ACAD
1000
MTEXTBEGIN
1070
    73
1070
     1
1070
    44
1040
1.0
1070
    74
1070
     0
1000
MTEXTEND
  0
POINT
  5
BF76
330
BA4E
100
AcDbEntity
  8
Defpoints
 62
     0
100
AcDbPoint
 10
154.8198216100448
 20
81.10589672922916
 30
0.0
  0
POINT
  5
BF77
330
BA4E
100
AcDbEntity
  8
Defpoints
 62
     0
100
AcDbPoint
 10
154.8198216100448
 20
82.90589672922916
 30
0.0
  0
POINT
  5
BF78
330
BA4E
100
AcDbEntity
  8
Defpoints
 62
     0
100
AcDbPoint
 10
143.3198216100448
 20
82.90589672922916
 30
0.0
  0
ENDBLK
  5
BA5B
330
BA4E
100
AcDbEntity
  8
0
100
AcDbBlockEnd
  0
BLOCK
  5
BAC5
330
BABB
100
AcDbEntity
  8
0
100
AcDbBlockBegin
  2
*D9
 70
     1
 10
0.0
 20
0.0
 30
0.0
  3
*D9
  1

  0
LINE
  5
BF79
330
BABB
100
AcDbEntity
  8
AM_5
100
AcDbLine
 10
154.8198216100448
 20
74.00589672922915
 30
0.0
 11
154.8198216100448
 21
52.00589672922915
 31
0.0
  0
LINE
  5
BF7A
330
BABB
100
AcDbEntity
  8
AM_5
100
AcDbLine
 10
164.8198216100448
 20
75.00589672922915
 30
0.0
 11
164.8198216100448
 21
52.00589672922913
 31
0.0
  0
LINE
  5
BF7B
330
BABB
100
AcDbEntity
  8
AM_5
100
AcDbLine
 10
155.8198216100448
 20
53.00589672922915
 30
0.0
 11
163.8198216100447
 21
53.00589672922914
 31
0.0
  0
INSERT
  5
BF7C
330
BABB
100
AcDbEntity
  8
AM_5
100
AcDbBlockReference
  2
_Dot
 10
154.8198216100448
 20
53.00589672922915
 30
0.0
 50
179.9999999999999
  0
INSERT
  5
BF7D
330
BABB
100
AcDbEntity
  8
AM_5
100
AcDbBlockReference
  2
_Dot
 10
164.8198216100448
 20
53.00589672922914
 30
0.0
 50
359.9999999999999
  0
MTEXT
  5
BF7E
330
BABB
100
AcDbEntity
  8
AM_5
 62
     2
100
AcDbMText
 10
159.8198216100448
 20
56.10589672922914
 30
0.0
 40
3.200000000000001
 41
0.0
 71
     5
 72
     1
  1
D
 73
     1
 44
1.0
1001
ACAD
1000
MTEXTBEGIN
1070
    73
1070
     1
1070
    44
1040
1.0
1070
    74
1070
     0
1000
MTEXTEND
  0
POINT
  5
BF7F
330
BABB
100
AcDbEntity
  8
Defpoints
 62
     0
100
AcDbPoint
 10
154.8198216100448
 20
75.00589672922915
 30
0.0
  0
POINT
  5
BF80
330
BABB
100
AcDbEntity
  8
Defpoints
 62
     0
100
AcDbPoint
 10
164.8198216100448
 20
76.00589672922914
 30
0.0
  0
POINT
  5
BF81
330
BABB
100
AcDbEntity
  8
Defpoints
 62
     0
100
AcDbPoint
 10
164.8198216100448
 20
53.00589672922914
 30
0.0
  0
ENDBLK
  5
BAC6
330
BABB
100
AcDbEntity
  8
0
100
AcDbBlockEnd
  0
BLOCK
  5
BAE6
330
BADA
100
AcDbEntity
  8
0
100
AcDbBlockBegin
  2
*D10
 70
     1
 10
0.0
 20
0.0
 30
0.0
  3
*D10
  1

  0
LINE
  5
BF82
330
BADA
100
AcDbEntity
  8
AM_5
100
AcDbLine
 10
164.8198216100448
 20
75.00589672922915
 30
0.0
 11
164.8198216100448
 21
62.00589672922906
 31
0.0
  0
LINE
  5
BF83
330
BADA
100
AcDbEntity
  8
AM_5
100
AcDbLine
 10
162.8198216100448
 20
73.80589672922915
 30
0.0
 11
162.8198216100448
 21
62.00589672922906
 31
0.0
  0
LINE
  5
BF84
330
BADA
100
AcDbEntity
  8
AM_5
100
AcDbLine
 10
165.8198216100448
 20
63.00589672922907
 30
0.0
 11
166.8198216100448
 21
63.00589672922906
 31
0.0
  0
LINE
  5
BF85
330
BADA
100
AcDbEntity
  8
AM_5
100
AcDbLine
 10
161.8198216100448
 20
63.00589672922907
 30
0.0
 11
156.4331549433781
 21
63.00589672922908
 31
0.0
  0
LINE
  5
BF86
330
BADA
100
AcDbEntity
  8
AM_5
100
AcDbLine
 10
164.8198216100448
 20
63.00589672922907
 30
0.0
 11
162.8198216100448
 21
63.00589672922907
 31
0.0
  0
INSERT
  5
BF87
330
BADA
100
AcDbEntity
  8
AM_5
100
AcDbBlockReference
  2
_Dot
 10
164.8198216100448
 20
63.00589672922907
 30
0.0
 50
179.9999999999999
  0
INSERT
  5
BF88
330
BADA
100
AcDbEntity
  8
AM_5
100
AcDbBlockReference
  2
_Dot
 10
162.8198216100448
 20
63.00589672922907
 30
0.0
 50
359.9999999999999
  0
MTEXT
  5
BF89
330
BADA
100
AcDbEntity
  8
AM_5
 62
     2
100
AcDbMText
 10
158.6264882767115
 20
66.10589672922907
 30
0.0
 40
3.200000000000001
 41
0.0
 71
     5
 72
     1
  1
F
 73
     1
 44
1.0
1001
ACAD
1000
MTEXTBEGIN
1070
    73
1070
     1
1070
    44
1040
1.0
1070
    74
1070
     0
1000
MTEXTEND
  0
POINT
  5
BF8A
330
BADA
100
AcDbEntity
  8
Defpoints
 62
     0
100
AcDbPoint
 10
164.8198216100448
 20
76.00589672922914
 30
0.0
  0
POINT
  5
BF8B
330
BADA
100
AcDbEntity
  8
Defpoints
 62
     0
100
AcDbPoint
 10
162.8198216100448
 20
74.80589672922914
 30
0.0
  0
POINT
  5
BF8C
330
BADA
100
AcDbEntity
  8
Defpoints
 62
     0
100
AcDbPoint
 10
162.8198216100448
 20
63.00589672922907
 30
0.0
  0
ENDBLK
  5
BAE7
330
BADA
100
AcDbEntity
  8
0
100
AcDbBlockEnd
  0
BLOCK
  5
BB12
330
BB08
100
AcDbEntity
  8
0
100
AcDbBlockBegin
  2
*D11
 70
     1
 10
0.0
 20
0.0
 30
0.0
  3
*D11
  1

  0
LINE
  5
BF8D
330
BB08
100
AcDbEntity
  8
AM_5
100
AcDbLine
 10
164.8198216100448
 20
75.00589672922915
 30
0.0
 11
164.8198216100448
 21
52.00589672922908
 31
0.0
  0
LINE
  5
BF8E
330
BB08
100
AcDbEntity
  8
AM_5
100
AcDbLine
 10
179.8198216100449
 20
81.00589672922914
 30
0.0
 11
179.8198216100448
 21
52.00589672922905
 31
0.0
  0
LINE
  5
BF8F
330
BB08
100
AcDbEntity
  8
AM_5
100
AcDbLine
 10
165.8198216100448
 20
53.00589672922908
 30
0.0
 11
178.8198216100448
 21
53.00589672922905
 31
0.0
  0
INSERT
  5
BF90
330
BB08
100
AcDbEntity
  8
AM_5
100
AcDbBlockReference
  2
_Dot
 10
164.8198216100448
 20
53.00589672922908
 30
0.0
 50
179.9999999999999
  0
INSERT
  5
BF91
330
BB08
100
AcDbEntity
  8
AM_5
100
AcDbBlockReference
  2
_Dot
 10
179.8198216100448
 20
53.00589672922905
 30
0.0
 50
359.9999999999999
  0
MTEXT
  5
BF92
330
BB08
100
AcDbEntity
  8
AM_5
 62
     2
100
AcDbMText
 10
172.3198216100448
 20
56.10589672922906
 30
0.0
 40
3.200000000000001
 41
0.0
 71
     5
 72
     1
  1
C
 73
     1
 44
1.0
1001
ACAD
1000
MTEXTBEGIN
1070
    73
1070
     1
1070
    44
1040
1.0
1070
    74
1070
     0
1000
MTEXTEND
  0
POINT
  5
BF93
330
BB08
100
AcDbEntity
  8
Defpoints
 62
     0
100
AcDbPoint
 10
164.8198216100448
 20
76.00589672922914
 30
0.0
  0
POINT
  5
BF94
330
BB08
100
AcDbEntity
  8
Defpoints
 62
     0
100
AcDbPoint
 10
179.8198216100449
 20
82.00589672922914
 30
0.0
  0
POINT
  5
BF95
330
BB08
100
AcDbEntity
  8
Defpoints
 62
     0
100
AcDbPoint
 10
179.8198216100448
 20
53.00589672922905
 30
0.0
  0
ENDBLK
  5
BB13
330
BB08
100
AcDbEntity
  8
0
100
AcDbBlockEnd
  0
BLOCK
  5
BB31
330
BB27
100
AcDbEntity
  8
0
100
AcDbBlockBegin
  2
*D12
 70
     1
 10
0.0
 20
0.0
 30
0.0
  3
*D12
  1

  0
LINE
  5
BF96
330
BB27
100
AcDbEntity
  8
AM_5
100
AcDbLine
 10
175.8198216100448
 20
78.00589672922915
 30
0.0
 11
192.8198226100448
 21
78.00589672922915
 31
0.0
  0
LINE
  5
BF97
330
BB27
100
AcDbEntity
  8
AM_5
100
AcDbLine
 10
175.8198216100448
 20
86.00589672922914
 30
0.0
 11
192.8198226100448
 21
86.00589672922914
 31
0.0
  0
LINE
  5
BF98
330
BB27
100
AcDbEntity
  8
AM_5
100
AcDbLine
 10
191.8198226100448
 20
79.00589672922915
 30
0.0
 11
191.8198226100448
 21
85.00589672922915
 31
0.0
  0
INSERT
  5
BF99
330
BB27
100
AcDbEntity
  8
AM_5
100
AcDbBlockReference
  2
_Dot
 10
191.8198226100448
 20
78.00589672922915
 30
0.0
 50
270.0
  0
INSERT
  5
BF9A
330
BB27
100
AcDbEntity
  8
AM_5
100
AcDbBlockReference
  2
_Dot
 10
191.8198226100448
 20
86.00589672922914
 30
0.0
 50
90.0
  0
MTEXT
  5
BF9B
330
BB27
100
AcDbEntity
  8
AM_5
 62
     2
100
AcDbMText
 10
188.7198226100448
 20
82.00589672922918
 30
0.0
 40
3.200000000000001
 41
0.0
 71
     5
 72
     1
  1
%%cＩ
 11
0.0000000000000001
 21
1.0
 31
0.0
 73
     1
 44
1.0
1001
ACAD
1000
MTEXTBEGIN
1070
    73
1070
     1
1070
    44
1040
1.0
1070
    74
1070
     0
1000
MTEXTEND
  0
POINT
  5
BF9C
330
BB27
100
AcDbEntity
  8
Defpoints
 62
     0
100
AcDbPoint
 10
174.8198216100448
 20
78.00589672922915
 30
0.0
  0
POINT
  5
BF9D
330
BB27
100
AcDbEntity
  8
Defpoints
 62
     0
100
AcDbPoint
 10
174.8198216100448
 20
86.00589672922914
 30
0.0
  0
POINT
  5
BF9E
330
BB27
100
AcDbEntity
  8
Defpoints
 62
     0
100
AcDbPoint
 10
191.8198226100448
 20
86.00589672922914
 30
0.0
  0
ENDBLK
  5
BB32
330
BB27
100
AcDbEntity
  8
0
100
AcDbBlockEnd
  0
BLOCK
  5
BB59
330
BB4F
100
AcDbEntity
  8
0
100
AcDbBlockBegin
  2
*D13
 70
     1
 10
0.0
 20
0.0
 30
0.0
  3
*D13
  1

  0
LINE
  5
BF9F
330
BB4F
100
AcDbEntity
  8
AM_5
100
AcDbLine
 10
165.8198216100448
 20
88.00589672922916
 30
0.0
 11
202.8198226100448
 21
88.00589672922916
 31
0.0
  0
LINE
  5
BFA0
330
BB4F
100
AcDbEntity
  8
AM_5
100
AcDbLine
 10
165.8198216100448
 20
76.00589672922914
 30
0.0
 11
202.8198226100448
 21
76.00589672922914
 31
0.0
  0
LINE
  5
BFA1
330
BB4F
100
AcDbEntity
  8
AM_5
100
AcDbLine
 10
201.8198226100448
 20
87.00589672922914
 30
0.0
 11
201.8198226100448
 21
77.00589672922915
 31
0.0
  0
INSERT
  5
BFA2
330
BB4F
100
AcDbEntity
  8
AM_5
100
AcDbBlockReference
  2
_Dot
 10
201.8198226100448
 20
88.00589672922916
 30
0.0
 50
90.0
  0
INSERT
  5
BFA3
330
BB4F
100
AcDbEntity
  8
AM_5
100
AcDbBlockReference
  2
_Dot
 10
201.8198226100448
 20
76.00589672922914
 30
0.0
 50
270.0
  0
MTEXT
  5
BFA4
330
BB4F
100
AcDbEntity
  8
AM_5
 62
     2
100
AcDbMText
 10
198.7198226100448
 20
82.00589672922918
 30
0.0
 40
3.200000000000001
 41
0.0
 71
     5
 72
     1
  1
%%cE
 11
0.0000000000000001
 21
1.0
 31
0.0
 73
     1
 44
1.0
1001
ACAD
1000
MTEXTBEGIN
1070
    73
1070
     1
1070
    44
1040
1.0
1070
    74
1070
     0
1000
MTEXTEND
  0
POINT
  5
BFA5
330
BB4F
100
AcDbEntity
  8
Defpoints
 62
     0
100
AcDbPoint
 10
164.8198216100448
 20
88.00589672922916
 30
0.0
  0
POINT
  5
BFA6
330
BB4F
100
AcDbEntity
  8
Defpoints
 62
     0
100
AcDbPoint
 10
164.8198216100448
 20
76.00589672922914
 30
0.0
  0
POINT
  5
BFA7
330
BB4F
100
AcDbEntity
  8
Defpoints
 62
     0
100
AcDbPoint
 10
201.8198226100448
 20
76.00589672922914
 30
0.0
  0
ENDBLK
  5
BB5A
330
BB4F
100
AcDbEntity
  8
0
100
AcDbBlockEnd
  0
BLOCK
  5
BBD8
330
BBCC
100
AcDbEntity
  8
0
100
AcDbBlockBegin
  2
*D14
 70
     1
 10
0.0
 20
0.0
 30
0.0
  3
*D14
  1

  0
LINE
  5
BFA8
330
BBCC
100
AcDbEntity
  8
AM_5
100
AcDbLine
 10
173.8198216100448
 20
87.00589672922914
 30
0.0
 11
173.8198216100448
 21
102.0058967292291
 31
0.0
  0
LINE
  5
BFA9
330
BBCC
100
AcDbEntity
  8
AM_5
100
AcDbLine
 10
174.8198216100448
 20
87.00589672922914
 30
0.0
 11
174.8198216100448
 21
102.0058967292291
 31
0.0
  0
LINE
  5
BFAA
330
BBCC
100
AcDbEntity
  8
AM_5
100
AcDbLine
 10
172.8198216100448
 20
101.0058967292291
 30
0.0
 11
171.8198216100448
 21
101.0058967292291
 31
0.0
  0
LINE
  5
BFAB
330
BBCC
100
AcDbEntity
  8
AM_5
100
AcDbLine
 10
175.8198216100448
 20
101.0058967292291
 30
0.0
 11
180.3531549433781
 21
101.0058967292291
 31
0.0
  0
LINE
  5
BFAC
330
BBCC
100
AcDbEntity
  8
AM_5
100
AcDbLine
 10
173.8198216100448
 20
101.0058967292291
 30
0.0
 11
174.8198216100448
 21
101.0058967292291
 31
0.0
  0
INSERT
  5
BFAD
330
BBCC
100
AcDbEntity
  8
AM_5
100
AcDbBlockReference
  2
_Dot
 10
173.8198216100448
 20
101.0058967292291
 30
0.0
  0
INSERT
  5
BFAE
330
BBCC
100
AcDbEntity
  8
AM_5
100
AcDbBlockReference
  2
_Dot
 10
174.8198216100448
 20
101.0058967292291
 30
0.0
 50
180.0
  0
MTEXT
  5
BFAF
330
BBCC
100
AcDbEntity
  8
AM_5
 62
     2
100
AcDbMText
 10
178.5864882767115
 20
104.1058967292291
 30
0.0
 40
3.200000000000001
 41
0.0
 71
     5
 72
     1
  1
1
 73
     1
 44
1.0
1001
ACAD
1000
MTEXTBEGIN
1070
    73
1070
     1
1070
    44
1040
1.0
1070
    74
1070
     0
1000
MTEXTEND
  0
POINT
  5
BFB0
330
BBCC
100
AcDbEntity
  8
Defpoints
 62
     0
100
AcDbPoint
 10
173.8198216100448
 20
86.00589672922914
 30
0.0
  0
POINT
  5
BFB1
330
BBCC
100
AcDbEntity
  8
Defpoints
 62
     0
100
AcDbPoint
 10
174.8198216100448
 20
86.00589672922914
 30
0.0
  0
POINT
  5
BFB2
330
BBCC
100
AcDbEntity
  8
Defpoints
 62
     0
100
AcDbPoint
 10
174.8198216100448
 20
101.0058967292291
 30
0.0
  0
ENDBLK
  5
BBD9
330
BBCC
100
AcDbEntity
  8
0
100
AcDbBlockEnd
  0
BLOCK
  5
C0D2
330
C0CB
100
AcDbEntity
  8
0
100
AcDbBlockBegin
  2
*S15
 70
     1
 10
0.0
 20
0.0
 30
0.0
  3
*S15
  1

  0
LINE
  5
C0CC
330
C0CB
100
AcDbEntity
  8
AM_5
 62
     3
100
AcDbLine
 10
206.0028237620217
 20
94.50576721770154
 30
0.0
 11
182.9414904286884
 21
94.50576721770154
 31
0.0
  0
LINE
  5
C0CD
330
C0CB
100
AcDbEntity
  8
AM_5
 62
     3
100
AcDbLine
 10
182.9414904286884
 20
94.50576721770154
 30
0.0
 11
176.2014989459414
 21
87.45191461966813
 31
0.0
  0
LINE
  5
C0CE
330
C0CB
100
AcDbEntity
  8
AM_5
  6
Continuous
 62
     3
100
AcDbLine
 10
176.2014989459414
 20
87.45191461966813
 30
0.0
 11
174.8198216100448
 21
86.00589672922914
 31
0.0
  0
LINE
  5
C0CF
330
C0CB
100
AcDbEntity
  8
AM_5
  6
Continuous
 62
     3
100
AcDbLine
 10
175.8140396234728
 20
87.82213394266298
 30
0.0
 11
174.8198216100448
 21
86.00589672922914
 31
0.0
  0
LINE
  5
C0D0
330
C0CB
100
AcDbEntity
  8
AM_5
  6
Continuous
 62
     3
100
AcDbLine
 10
174.8198216100448
 20
86.00589672922914
 30
0.0
 11
176.5889582684101
 21
87.08169529667326
 31
0.0
  0
MTEXT
  5
C0D1
330
C0CB
100
AcDbEntity
  8
AM_5
 62
     2
100
AcDbMText
 10
206.0028237620217
 20
96.10576721770154
 30
0.0
 40
3.2
 41
0.0
 71
     9
 72
     5
  1
ナイロンワッシャ
 73
     1
 44
1.0
1001
ACAD
1000
MTEXTBEGIN
1070
    73
1070
     1
1070
    44
1040
1.0
1070
    74
1070
     0
1000
MTEXTEND
  0
ENDBLK
  5
C0D3
330
C0CB
100
AcDbEntity
  8
0
100
AcDbBlockEnd
  0
ENDSEC
  0
SECTION
  2
ENTITIES
  0
LINE
  5
B90B
330
1F
100
AcDbEntity
  8
AM_0
100
AcDbLine
 10
154.8198216100448
 20
82.90589672922916
 30
0.0
 11
154.8198216100448
 21
89.00589672922915
 31
0.0
  0
LINE
  5
B90C
330
1F
100
AcDbEntity
  8
AM_2
100
AcDbLine
 10
162.5198216100448
 20
83.40589672922915
 30
0.0
 11
155.3198216100448
 21
83.40589672922915
 31
0.0
  0
LINE
  5
B90D
330
1F
100
AcDbEntity
  8
AM_2
100
AcDbLine
 10
162.5198216100448
 20
82.50589672922915
 30
0.0
 11
156.8198216100448
 21
82.50589672922915
 31
0.0
  0
LINE
  5
B90E
330
1F
100
AcDbEntity
  8
AM_2
100
AcDbLine
 10
162.5198216100448
 20
81.50589672922915
 30
0.0
 11
156.8198216100448
 21
81.50589672922915
 31
0.0
  0
LINE
  5
B90F
330
1F
100
AcDbEntity
  8
AM_2
100
AcDbLine
 10
162.5198216100448
 20
80.60589672922915
 30
0.0
 11
155.3198216100448
 21
80.60589672922915
 31
0.0
  0
LINE
  5
B910
330
1F
100
AcDbEntity
  8
AM_2
100
AcDbLine
 10
162.5198216100448
 20
79.80589672922914
 30
0.0
 11
155.3198216100448
 21
79.80589672922914
 31
0.0
  0
LINE
  5
B911
330
1F
100
AcDbEntity
  8
AM_2
100
AcDbLine
 10
162.5198216100448
 20
79.00589672922915
 30
0.0
 11
155.3198216100448
 21
79.00589672922915
 31
0.0
  0
LINE
  5
B912
330
1F
100
AcDbEntity
  8
AM_2
100
AcDbLine
 10
162.5198216100448
 20
78.30589672922915
 30
0.0
 11
155.3198216100448
 21
78.30589672922915
 31
0.0
  0
LINE
  5
B913
330
1F
100
AcDbEntity
  8
AM_2
100
AcDbLine
 10
162.5198216100448
 20
77.70589672922915
 30
0.0
 11
155.3198216100448
 21
77.70589672922915
 31
0.0
  0
LINE
  5
B914
330
1F
100
AcDbEntity
  8
AM_2
100
AcDbLine
 10
162.5198216100448
 20
77.10589672922916
 30
0.0
 11
155.3198216100448
 21
77.10589672922916
 31
0.0
  0
LINE
  5
B915
330
1F
100
AcDbEntity
  8
AM_2
100
AcDbLine
 10
162.5198216100448
 20
76.50589672922915
 30
0.0
 11
155.3198216100448
 21
76.50589672922915
 31
0.0
  0
LINE
  5
B916
330
1F
100
AcDbEntity
  8
AM_2
100
AcDbLine
 10
162.5198216100448
 20
76.00589672922914
 30
0.0
 11
155.3198216100448
 21
76.00589672922914
 31
0.0
  0
LINE
  5
B917
330
1F
100
AcDbEntity
  8
AM_2
100
AcDbLine
 10
162.5198216100448
 20
75.50589672922915
 30
0.0
 11
155.3198216100448
 21
75.50589672922915
 31
0.0
  0
LINE
  5
B918
330
1F
100
AcDbEntity
  8
AM_2
100
AcDbLine
 10
162.5198216100448
 20
75.00589672922915
 30
0.0
 11
155.3198216100448
 21
75.00589672922915
 31
0.0
  0
LINE
  5
B919
330
1F
100
AcDbEntity
  8
AM_2
100
AcDbLine
 10
162.5198216100448
 20
74.60589672922916
 30
0.0
 11
155.3198216100448
 21
74.60589672922916
 31
0.0
  0
ARC
  5
B91A
330
1F
100
AcDbEntity
  8
AM_0
100
AcDbCircle
 10
105.4822404527175
 20
82.00589672922914
 30
0.0
 40
7.0
100
AcDbArc
 50
7.387047999999755
 51
172.6129520000002
  0
LINE
  5
B91B
330
1F
100
AcDbEntity
  8
AM_2
100
AcDbLine
 10
162.5198216100448
 20
84.20589672922915
 30
0.0
 11
155.3198216100448
 21
84.20589672922915
 31
0.0
  0
LINE
  5
B91C
330
1F
100
AcDbEntity
  8
AM_2
100
AcDbLine
 10
162.5198216100448
 20
85.00589672922915
 30
0.0
 11
155.3198216100448
 21
85.00589672922915
 31
0.0
  0
LINE
  5
B91D
330
1F
100
AcDbEntity
  8
AM_2
100
AcDbLine
 10
162.5198216100448
 20
85.70589672922915
 30
0.0
 11
155.3198216100448
 21
85.70589672922915
 31
0.0
  0
LINE
  5
B91E
330
1F
100
AcDbEntity
  8
AM_2
100
AcDbLine
 10
162.5198216100448
 20
86.30589672922914
 30
0.0
 11
155.3198216100448
 21
86.30589672922914
 31
0.0
  0
LINE
  5
B91F
330
1F
100
AcDbEntity
  8
AM_0
100
AcDbLine
 10
162.5198216100448
 20
89.50589672922914
 30
0.0
 11
162.5198216100448
 21
74.50589672922915
 31
0.0
  0
LINE
  5
B920
330
1F
100
AcDbEntity
  8
AM_0
100
AcDbLine
 10
162.5198216100448
 20
74.50589672922915
 30
0.0
 11
162.8198216100448
 21
74.80589672922914
 31
0.0
  0
LINE
  5
B921
330
1F
100
AcDbEntity
  8
AM_0
100
AcDbLine
 10
162.8198216100448
 20
89.20589672922915
 30
0.0
 11
162.5198216100448
 21
89.50589672922914
 31
0.0
  0
LINE
  5
B922
330
1F
100
AcDbEntity
  8
AM_0
100
AcDbLine
 10
155.3198216100448
 20
81.10589672922916
 30
0.0
 11
155.3198216100448
 21
74.50589672922915
 31
0.0
  0
LINE
  5
B923
330
1F
100
AcDbEntity
  8
AM_0
100
AcDbLine
 10
155.3198216100448
 20
89.50589672922914
 30
0.0
 11
155.3198216100448
 21
82.90589672922916
 31
0.0
  0
LINE
  5
B924
330
1F
100
AcDbEntity
  8
AM_2
100
AcDbLine
 10
162.5198216100448
 20
86.90589672922916
 30
0.0
 11
155.3198216100448
 21
86.90589672922916
 31
0.0
  0
LINE
  5
B925
330
1F
100
AcDbEntity
  8
AM_0
100
AcDbLine
 10
154.8198216100448
 20
75.00589672922915
 30
0.0
 11
155.3198216100448
 21
74.50589672922915
 31
0.0
  0
LINE
  5
B926
330
1F
100
AcDbEntity
  8
AM_0
100
AcDbLine
 10
179.8198216100449
 20
82.00589672922914
 30
0.0
 11
177.3198216100448
 21
79.50589672922915
 31
0.0
  0
LINE
  5
B927
330
1F
100
AcDbEntity
  8
AM_0
100
AcDbLine
 10
177.3198216100448
 20
84.50589672922914
 30
0.0
 11
179.8198216100449
 21
82.00589672922914
 31
0.0
  0
LINE
  5
B928
330
1F
100
AcDbEntity
  8
AM_2
100
AcDbLine
 10
162.5198216100448
 20
87.50589672922915
 30
0.0
 11
155.3198216100448
 21
87.50589672922915
 31
0.0
  0
LINE
  5
B929
330
1F
100
AcDbEntity
  8
AM_2
100
AcDbLine
 10
162.5198216100448
 20
88.00589672922916
 30
0.0
 11
155.3198216100448
 21
88.00589672922916
 31
0.0
  0
LINE
  5
B92A
330
1F
100
AcDbEntity
  8
AM_2
100
AcDbLine
 10
162.5198216100448
 20
88.50589672922914
 30
0.0
 11
155.3198216100448
 21
88.50589672922914
 31
0.0
  0
LINE
  5
B92B
330
1F
100
AcDbEntity
  8
AM_2
100
AcDbLine
 10
162.5198216100448
 20
89.00589672922915
 30
0.0
 11
155.3198216100448
 21
89.00589672922915
 31
0.0
  0
LINE
  5
B92C
330
1F
100
AcDbEntity
  8
AM_2
100
AcDbLine
 10
162.5198216100448
 20
89.40589672922916
 30
0.0
 11
155.3198216100448
 21
89.40589672922916
 31
0.0
  0
LINE
  5
B92D
330
1F
100
AcDbEntity
  8
AM_0
100
AcDbLine
 10
98.03643645271755
 20
81.10589672922916
 30
0.0
 11
112.9280444527175
 21
81.10589672922916
 31
0.0
  0
LINE
  5
B92E
330
1F
100
AcDbEntity
  8
AM_0
100
AcDbLine
 10
156.8198216100448
 20
81.10589672922916
 30
0.0
 11
154.8198216100448
 21
81.10589672922916
 31
0.0
  0
LINE
  5
B92F
330
1F
100
AcDbEntity
  8
AM_0
100
AcDbLine
 10
156.8198216100448
 20
82.90589672922916
 30
0.0
 11
156.8198216100448
 21
81.10589672922916
 31
0.0
  0
LINE
  5
B930
330
1F
100
AcDbEntity
  8
AM_0
100
AcDbLine
 10
154.8198216100448
 20
82.90589672922916
 30
0.0
 11
156.8198216100448
 21
82.90589672922916
 31
0.0
  0
LINE
  5
B931
330
1F
100
AcDbEntity
  8
AM_0
100
AcDbLine
 10
98.03643645271755
 20
82.90589672922916
 30
0.0
 11
112.9280444527175
 21
82.90589672922916
 31
0.0
  0
LINE
  5
B934
330
1F
100
AcDbEntity
  8
AM_0
100
AcDbLine
 10
155.3198216100448
 20
89.50589672922914
 30
0.0
 11
162.5198216100448
 21
89.50589672922914
 31
0.0
  0
LINE
  5
B935
330
1F
100
AcDbEntity
  8
AM_0
100
AcDbLine
 10
154.8198216100448
 20
75.00589672922915
 30
0.0
 11
154.8198216100448
 21
81.10589672922916
 31
0.0
  0
LINE
  5
B936
330
1F
100
AcDbEntity
  8
AM_0
100
AcDbLine
 10
162.5198216100448
 20
74.50589672922915
 30
0.0
 11
155.3198216100448
 21
74.50589672922915
 31
0.0
  0
LINE
  5
B937
330
1F
100
AcDbEntity
  8
AM_0
100
AcDbLine
 10
162.8198216100448
 20
89.20589672922915
 30
0.0
 11
162.8198216100448
 21
74.80589672922914
 31
0.0
  0
LINE
  5
B938
330
1F
100
AcDbEntity
  8
AM_0
100
AcDbLine
 10
164.8198216100448
 20
76.00589672922914
 30
0.0
 11
162.8198216100448
 21
76.00589672922914
 31
0.0
  0
LINE
  5
B939
330
1F
100
AcDbEntity
  8
AM_0
100
AcDbLine
 10
164.8198216100448
 20
88.00589672922916
 30
0.0
 11
164.8198216100448
 21
76.00589672922914
 31
0.0
  0
LINE
  5
B93A
330
1F
100
AcDbEntity
  8
AM_0
100
AcDbLine
 10
162.8198216100448
 20
88.00589672922916
 30
0.0
 11
164.8198216100448
 21
88.00589672922916
 31
0.0
  0
LINE
  5
B93B
330
1F
100
AcDbEntity
  8
AM_0
100
AcDbLine
 10
155.3198216100448
 20
89.50589672922914
 30
0.0
 11
154.8198216100448
 21
89.00589672922915
 31
0.0
  0
ARC
  5
B93C
330
1F
100
AcDbEntity
  8
AM_0
100
AcDbCircle
 10
105.4822404527175
 20
82.00589672922914
 30
0.0
 40
7.0
100
AcDbArc
 50
187.3870479999997
 51
352.6129520000002
  0
CIRCLE
  5
B93D
330
1F
100
AcDbEntity
  8
AM_0
100
AcDbCircle
 10
105.4822404527175
 20
82.00589672922914
 30
0.0
 40
7.5
  0
LINE
  5
B93E
330
1F
100
AcDbEntity
  8
AM_0
100
AcDbLine
 10
177.3198216100448
 20
84.50589672922914
 30
0.0
 11
177.3198216100448
 21
79.50589672922915
 31
0.0
  0
LINE
  5
B940
330
1F
100
AcDbEntity
  8
AM_2
100
AcDbLine
 10
166.1198216100448
 20
79.85589672922916
 30
0.0
 11
165.7698216100448
 21
79.50589672922915
 31
0.0
  0
LINE
  5
B941
330
1F
100
AcDbEntity
  8
AM_2
100
AcDbLine
 10
165.7698216100448
 20
84.50589672922914
 30
0.0
 11
166.1198216100448
 21
84.15589672922916
 31
0.0
  0
LINE
  5
B942
330
1F
100
AcDbEntity
  8
AM_0
100
AcDbLine
 10
166.1198216100448
 20
79.50589672922915
 30
0.0
 11
166.1198216100448
 21
84.50589672922914
 31
0.0
  0
LINE
  5
B945
330
1F
100
AcDbEntity
  8
AM_0
100
AcDbLine
 10
174.8198216100448
 20
86.00589672922914
 30
0.0
 11
173.8198216100448
 21
86.00589672922914
 31
0.0
  0
LINE
  5
B946
330
1F
100
AcDbEntity
  8
AM_0
100
AcDbLine
 10
173.8198216100448
 20
86.00589672922914
 30
0.0
 11
173.8198216100448
 21
78.00589672922915
 31
0.0
  0
LINE
  5
B947
330
1F
100
AcDbEntity
  8
AM_0
100
AcDbLine
 10
174.8198216100448
 20
78.00589672922915
 30
0.0
 11
173.8198216100448
 21
78.00589672922915
 31
0.0
  0
LINE
  5
B948
330
1F
100
AcDbEntity
  8
AM_0
100
AcDbLine
 10
174.8198216100448
 20
86.00589672922914
 30
0.0
 11
174.8198216100448
 21
78.00589672922915
 31
0.0
  0
LINE
  5
B949
330
1F
100
AcDbEntity
  8
AM_0
100
AcDbLine
 10
177.3198216100448
 20
84.50589672922914
 30
0.0
 11
174.8198216100448
 21
84.50589672922914
 31
0.0
  0
LINE
  5
B94A
330
1F
100
AcDbEntity
  8
AM_0
100
AcDbLine
 10
173.8198216100448
 20
84.50589672922914
 30
0.0
 11
164.8198216100448
 21
84.50589672922914
 31
0.0
  0
LINE
  5
B94B
330
1F
100
AcDbEntity
  8
AM_2
100
AcDbLine
 10
177.6698216100448
 20
84.15589672922916
 30
0.0
 11
174.8198216100448
 21
84.15589672922916
 31
0.0
  0
LINE
  5
B94C
330
1F
100
AcDbEntity
  8
AM_2
100
AcDbLine
 10
173.6895076100448
 20
84.15589672922916
 30
0.0
 11
166.1198216100448
 21
84.15589672922916
 31
0.0
  0
LINE
  5
B94D
330
1F
100
AcDbEntity
  8
AM_2
100
AcDbLine
 10
177.6698216100448
 20
79.85589672922916
 30
0.0
 11
174.8198216100448
 21
79.85589672922916
 31
0.0
  0
LINE
  5
B94E
330
1F
100
AcDbEntity
  8
AM_2
100
AcDbLine
 10
173.8198216100448
 20
79.85589672922916
 30
0.0
 11
166.1198216100448
 21
79.85589672922916
 31
0.0
  0
LINE
  5
B94F
330
1F
100
AcDbEntity
  8
AM_0
100
AcDbLine
 10
177.3198216100448
 20
79.50589672922915
 30
0.0
 11
174.8198216100448
 21
79.50589672922915
 31
0.0
  0
LINE
  5
B950
330
1F
100
AcDbEntity
  8
AM_0
100
AcDbLine
 10
173.8198216100448
 20
79.50589672922915
 30
0.0
 11
164.8198216100448
 21
79.50589672922915
 31
0.0
  0
LINE
  5
B983
330
1F
100
AcDbEntity
  8
AM_7
100
AcDbLine
 10
182.8198216100448
 20
82.00589672922914
 30
0.0
 11
151.8198216100449
 21
82.00589672922914
 31
0.0
1001
GENIUS_GENOBJ-N-CEN_13
1002
{
1000
OWNER
1000
GEN
1002
}
1001
GENIUS_GENODEF_13
1002
{
1000
HIER
1070
     0
1002
}
1002
{
1000
MANEDIT
1070
     0
1002
}
1002
{
1000
NOSEL
1070
     0
1002
}
1002
{
1000
BEHIND
1070
     0
1002
}
1002
{
1000
OTHER
1070
     0
1002
}
1002
{
1000
REACTOR
1002
}
1001
GENIUS_GENCEN_19
1002
{
1040
3.0
1002
}
  0
LINE
  5
B984
330
1F
100
AcDbEntity
  8
AM_7
100
AcDbLine
 10
94.98224045271754
 20
82.00589672922914
 30
0.0
 11
115.9822404527175
 21
82.00589672922914
 31
0.0
1001
GENIUS_GENODEF_13
1002
{
1000
HIER
1070
     0
1002
}
1002
{
1000
MANEDIT
1070
     0
1002
}
1002
{
1000
NOSEL
1070
     0
1002
}
1002
{
1000
BEHIND
1070
     0
1002
}
1002
{
1000
OTHER
1070
     0
1002
}
1002
{
1000
REACTOR
1002
}
1001
GENIUS_GENOBJ-N-CEN_13
1002
{
1000
OWNER
1000
GEN
1002
}
1001
GENIUS_GENCEN_19
1002
{
1040
3.0
1002
}
  0
LINE
  5
B985
330
1F
100
AcDbEntity
  8
AM_7
100
AcDbLine
 10
105.4822404527175
 20
92.50589672922915
 30
0.0
 11
105.4822404527175
 21
71.50589672922915
 31
0.0
1001
GENIUS_GENOBJ-N-CEN_13
1002
{
1000
OWNER
1000
GEN
1002
}
1001
GENIUS_GENODEF_13
1002
{
1000
HIER
1070
     0
1002
}
1002
{
1000
MANEDIT
1070
     0
1002
}
1002
{
1000
NOSEL
1070
     0
1002
}
1002
{
1000
BEHIND
1070
     0
1002
}
1002
{
1000
OTHER
1070
     0
1002
}
1002
{
1000
REACTOR
1002
}
1001
GENIUS_GENCEN_19
1002
{
1040
3.0
1002
}
  0
LINE
  5
B9AA
330
1F
100
AcDbEntity
  8
AM_0
100
AcDbLine
 10
11.50000000000002
 20
201.5
 30
0.0
 11
111.5
 21
201.5
 31
0.0
  0
LINE
  5
B9AB
330
1F
100
AcDbEntity
  8
AM_0
100
AcDbLine
 10
11.50000000000002
 20
161.5
 30
0.0
 11
101.5000000000001
 21
161.5
 31
0.0
  0
LINE
  5
B9AD
330
1F
100
AcDbEntity
  8
AM_2
100
AcDbLine
 10
11.50000000000002
 20
177.5
 30
0.0
 11
101.5000000000001
 21
177.5
 31
0.0
  0
LINE
  5
B9AE
330
1F
100
AcDbEntity
  8
AM_2
100
AcDbLine
 10
11.50000000000002
 20
185.5
 30
0.0
 11
101.5000000000001
 21
185.5
 31
0.0
  0
LINE
  5
B9AF
330
1F
100
AcDbEntity
  8
AM_2
100
AcDbLine
 10
11.50000000000002
 20
193.5
 30
0.0
 11
101.5000000000001
 21
193.4999999999999
 31
0.0
  0
LINE
  5
B9B0
330
1F
100
AcDbEntity
  8
AM_2
100
AcDbLine
 10
31.50000000000002
 20
201.5
 30
0.0
 11
31.50000000000002
 21
161.5
 31
0.0
  0
MTEXT
  5
B9B1
330
1F
100
AcDbEntity
  8
AM_6
100
AcDbMText
 10
21.50000000000002
 20
173.5
 30
0.0
 40
3.2
 41
20.0
 71
     5
 72
     5
  1
仕上げ
 73
     1
 44
1.0
1001
ACAD
1000
MTEXTBEGIN
1070
    73
1070
     1
1070
    44
1040
1.0
1070
    74
1070
     0
1000
MTEXTEND
  0
MTEXT
  5
B9B3
330
1F
100
AcDbEntity
  8
AM_6
100
AcDbMText
 10
21.50000000000002
 20
181.5
 30
0.0
 40
3.2
 41
20.0
 71
     5
 72
     5
  1
材　質
 73
     1
 44
1.0
1001
ACAD
1000
MTEXTBEGIN
1070
    73
1070
     1
1070
    44
1040
1.0
1070
    74
1070
     0
1000
MTEXTEND
  0
MTEXT
  5
B9B4
330
1F
100
AcDbEntity
  8
AM_6
100
AcDbMText
 10
21.50000000000002
 20
197.5
 30
0.0
 40
3.2
 41
20.0
 71
     5
 72
     5
  1
品　名
 73
     1
 44
1.0
1001
ACAD
1000
MTEXTBEGIN
1070
    73
1070
     1
1070
    44
1040
1.0
1070
    74
1070
     0
1000
MTEXTEND
  0
MTEXT
  5
B9B6
330
1F
100
AcDbEntity
  8
AM_6
100
AcDbMText
 10
31.50000000000002
 20
173.5
 30
0.0
 40
3.2
 41
90.0
 71
     4
 72
     5
  1
　クロームメッキ
 73
     1
 44
1.0
1001
ACAD
1000
MTEXTBEGIN
1070
    73
1070
     1
1070
    44
1040
1.0
1070
    74
1070
     0
1000
MTEXTEND
  0
MTEXT
  5
B9B8
330
1F
100
AcDbEntity
  8
AM_6
100
AcDbMText
 10
31.50000000000002
 20
181.5
 30
0.0
 40
3.2
 41
90.0
 71
     4
 72
     5
  1
　黄銅
 73
     1
 44
1.0
1001
ACAD
1000
MTEXTBEGIN
1070
    73
1070
     1
1070
    44
1040
1.0
1070
    74
1070
     0
1000
MTEXTEND
  0
MTEXT
  5
B9B9
330
1F
100
AcDbEntity
  8
AM_6
100
AcDbMText
 10
31.50000000000002
 20
197.5
 30
0.0
 40
3.2
 41
90.0
 71
     4
 72
     5
  1
　足長ローレットつまみ
 73
     1
 44
1.0
1001
ACAD
1000
MTEXTBEGIN
1070
    73
1070
     1
1070
    44
1040
1.0
1070
    74
1070
     0
1000
MTEXTEND
  0
LINE
  5
B9BA
330
1F
100
AcDbEntity
  8
AM_0
100
AcDbLine
 10
101.5
 20
201.5
 30
0.0
 11
101.5
 21
161.5
 31
0.0
  0
LINE
  5
B9BC
330
1F
100
AcDbEntity
  8
AM_2
100
AcDbLine
 10
11.50000000000002
 20
169.5
 30
0.0
 11
101.5000000000001
 21
169.5
 31
0.0
  0
MTEXT
  5
B9BD
330
1F
100
AcDbEntity
  8
AM_6
100
AcDbMText
 10
21.50000000000002
 20
165.5
 30
0.0
 40
3.2
 41
20.00000000000001
 71
     5
 72
     5
  1
備　考
 73
     1
 44
1.0
1001
ACAD
1000
MTEXTBEGIN
1070
    73
1070
     1
1070
    44
1040
1.0
1070
    74
1070
     0
1000
MTEXTEND
1000
ACAD_MTEXT_DEFINED_HEIGHT_BEGIN
1070
    46
1040
8.00000000000001
1000
ACAD_MTEXT_DEFINED_HEIGHT_END
  0
MTEXT
  5
B9C4
330
1F
100
AcDbEntity
  8
AM_6
100
AcDbMText
 10
21.50000000000003
 20
189.5
 30
0.0
 40
3.2
 41
20.0
 71
     5
 72
     5
  1
品　番
 73
     1
 44
1.0
1001
ACAD
1000
MTEXTBEGIN
1070
    73
1070
     1
1070
    44
1040
1.0
1070
    74
1070
     0
1000
MTEXTEND
  0
MTEXT
  5
B9C5
330
1F
100
AcDbEntity
  8
AM_6
100
AcDbMText
 10
31.50000000000004
 20
189.5
 30
0.0
 40
3.2
 41
90.0
 71
     4
 72
     5
  1
　右表参照
 73
     1
 44
1.0
1001
ACAD
1000
MTEXTBEGIN
1070
    73
1070
     1
1070
    44
1040
1.0
1070
    74
1070
     0
1000
MTEXTEND
  0
DIMENSION
  5
B9C7
330
1F
100
AcDbEntity
  8
AM_5
100
AcDbDimension
  2
*D5
 10
133.3198216100448
 20
74.50589672922915
 30
0.0
 11
130.2198216100448
 21
82.00589672922916
 31
0.0
 70
    32
  1
%%cA
 71
     5
 42
15.0
  3
SYS$0
100
AcDbAlignedDimension
 13
155.3198216100448
 23
89.50589672922914
 33
0.0
 14
155.3198216100448
 24
74.50589672922915
 34
0.0
 50
90.0
100
AcDbRotatedDimension
  0
DIMENSION
  5
B9EF
330
1F
100
AcDbEntity
  8
AM_5
100
AcDbDimension
  2
*D6
 10
156.8198216100448
 20
101.0058967292291
 30
0.0
 11
162.5384882767115
 21
104.1058967292291
 31
0.0
 70
    32
  1
（H）
 71
     5
 42
2.0
  3
SYS$0
100
AcDbAlignedDimension
 13
154.8198216100448
 23
89.00589672922915
 33
0.0
 14
156.8198216100448
 24
82.90589672922916
 34
0.0
 50
180.0
100
AcDbRotatedDimension
  0
DIMENSION
  5
BA1F
330
1F
100
AcDbEntity
  8
AM_5
100
AcDbDimension
  2
*D7
 10
172.0435225671987
 20
84.50589672922914
 30
0.0
 11
172.0435225671986
 21
70.71058904961514
 31
0.0
 70
   160
  1
B
 71
     5
 42
5.0
  3
SYS$0
100
AcDbAlignedDimension
 13
166.1198216100448
 23
79.50589672922915
 33
0.0
 14
166.1198216100448
 24
84.50589672922914
 34
0.0
 50
90.0
100
AcDbRotatedDimension
  0
DIMENSION
  5
BA4D
330
1F
100
AcDbEntity
  8
AM_5
100
AcDbDimension
  2
*D8
 10
143.3198216100448
 20
82.90589672922916
 30
0.0
 11
143.3198216100448
 21
92.88008695121824
 31
0.0
 70
   160
  1
G
 71
     5
 42
1.799999999999997
  3
SYS$0
100
AcDbAlignedDimension
 13
154.8198216100448
 23
81.10589672922916
 33
0.0
 14
154.8198216100448
 24
82.90589672922916
 34
0.0
 50
90.0
100
AcDbRotatedDimension
  0
DIMENSION
  5
BABA
330
1F
100
AcDbEntity
  8
AM_5
100
AcDbDimension
  2
*D9
 10
164.8198216100448
 20
53.00589672922914
 30
0.0
 11
159.8198216100448
 21
56.10589672922914
 31
0.0
 70
    32
  1
D
 71
     5
 42
10.0
  3
SYS$0
100
AcDbAlignedDimension
 13
154.8198216100448
 23
75.00589672922915
 33
0.0
 14
164.8198216100448
 24
76.00589672922914
 34
0.0
 50
179.9999999999999
100
AcDbRotatedDimension
  0
DIMENSION
  5
BAD9
330
1F
100
AcDbEntity
  8
AM_5
100
AcDbDimension
  2
*D10
 10
162.8198216100448
 20
63.00589672922907
 30
0.0
 11
158.6264882767115
 21
66.10589672922907
 31
0.0
 70
    32
  1
F
 71
     5
 42
2.0
  3
SYS$0
100
AcDbAlignedDimension
 13
164.8198216100448
 23
76.00589672922914
 33
0.0
 14
162.8198216100448
 24
74.80589672922914
 34
0.0
 50
179.9999999999999
100
AcDbRotatedDimension
  0
DIMENSION
  5
BB07
330
1F
100
AcDbEntity
  8
AM_5
100
AcDbDimension
  2
*D11
 10
179.8198216100448
 20
53.00589672922905
 30
0.0
 11
172.3198216100448
 21
56.10589672922906
 31
0.0
 70
    32
  1
C
 71
     5
 42
15.00000000000003
  3
SYS$0
100
AcDbAlignedDimension
 13
164.8198216100448
 23
76.00589672922914
 33
0.0
 14
179.8198216100449
 24
82.00589672922914
 34
0.0
 50
179.9999999999999
100
AcDbRotatedDimension
  0
DIMENSION
  5
BB26
330
1F
100
AcDbEntity
  8
AM_5
100
AcDbDimension
  2
*D12
 10
191.8198226100448
 20
86.00589672922914
 30
0.0
 11
188.7198226100448
 21
82.00589672922918
 31
0.0
 70
    32
  1
%%cＩ
 71
     5
 42
8.0
  3
SYS$0
100
AcDbAlignedDimension
 13
174.8198216100448
 23
78.00589672922915
 33
0.0
 14
174.8198216100448
 24
86.00589672922914
 34
0.0
 50
90.0
100
AcDbRotatedDimension
  0
DIMENSION
  5
BB4E
330
1F
100
AcDbEntity
  8
AM_5
100
AcDbDimension
  2
*D13
 10
201.8198226100448
 20
76.00589672922914
 30
0.0
 11
198.7198226100448
 21
82.00589672922918
 31
0.0
 70
    32
  1
%%cE
 71
     5
 42
12.0
  3
SYS$0
100
AcDbAlignedDimension
 13
164.8198216100448
 23
88.00589672922916
 33
0.0
 14
164.8198216100448
 24
76.00589672922914
 34
0.0
 50
90.0
100
AcDbRotatedDimension
  0
DIMENSION
  5
BBCB
330
1F
100
AcDbEntity
  8
AM_5
100
AcDbDimension
  2
*D14
 10
174.8198216100448
 20
101.0058967292291
 30
0.0
 11
178.5864882767115
 21
104.1058967292291
 31
0.0
 70
    32
 71
     5
  3
SYS$0
100
AcDbAlignedDimension
 13
173.8198216100448
 23
86.00589672922914
 33
0.0
 14
174.8198216100448
 24
86.00589672922914
 34
0.0
 50
180.0
100
AcDbRotatedDimension
  0
LINE
  5
BC0C
330
1F
100
AcDbEntity
  8
AM_0
100
AcDbLine
 10
143.4856703277591
 20
145.4999999999999
 30
0.0
 11
263.4856703277586
 21
145.5000000000005
 31
0.0
  0
LINE
  5
BC0D
330
1F
100
AcDbEntity
  8
AM_0
100
AcDbLine
 10
143.4856703277586
 20
193.4999999999999
 30
0.0
 11
143.4856703277591
 21
145.4999999999999
 31
0.0
  0
LINE
  5
BC0F
330
1F
100
AcDbEntity
  8
AM_0
100
AcDbLine
 10
143.4856703277587
 20
185.5
 30
0.0
 11
263.4856703277586
 21
185.4999999999991
 31
0.0
  0
MTEXT
  5
BC10
330
1F
100
AcDbEntity
  8
AM_6
100
AcDbMText
 10
158.4856703277587
 20
189.4999999999998
 30
0.0
 40
3.2
 41
29.99999999999992
 71
     5
 72
     5
  1
品番
 73
     1
 44
1.0
1001
ACAD
1000
MTEXTBEGIN
1070
    73
1070
     1
1070
    44
1040
1.0
1070
    74
1070
     0
1000
MTEXTEND
1000
ACAD_MTEXT_DEFINED_HEIGHT_BEGIN
1070
    46
1040
7.999999999999841
1000
ACAD_MTEXT_DEFINED_HEIGHT_END
  0
LINE
  5
BC11
330
1F
100
AcDbEntity
  8
AM_0
100
AcDbLine
 10
143.4856703277586
 20
193.4999999999999
 30
0.0
 11
263.4856703277586
 21
193.5000000000003
 31
0.0
  0
MTEXT
  5
BC12
330
1F
100
AcDbEntity
  8
AM_6
100
AcDbMText
 10
158.5296719454374
 20
183.0
 30
0.0
 40
3.2
 41
30.08800323535749
 71
     5
 72
     5
  1
SCR-MK102-1
 73
     1
 44
1.0
1001
ACAD
1000
MTEXTBEGIN
1070
    73
1070
     1
1070
    44
1040
1.0
1070
    74
1070
     0
1000
MTEXTEND
1000
ACAD_MTEXT_DEFINED_HEIGHT_BEGIN
1070
    46
1040
4.999999999999943
1000
ACAD_MTEXT_DEFINED_HEIGHT_END
  0
LINE
  5
BC13
330
1F
100
AcDbEntity
  8
AM_2
100
AcDbLine
 10
143.4856703277587
 20
180.5
 30
0.0
 11
173.4856703277587
 21
180.5000000000001
 31
0.0
  0
MTEXT
  5
BC14
330
1F
100
AcDbEntity
  8
AM_6
100
AcDbMText
 10
178.4856703277586
 20
189.4999999999999
 30
0.0
 40
3.2
 41
10.0
 71
     5
 72
     5
  1
%%cA
 73
     1
 44
1.0
1001
ACAD
1000
MTEXTBEGIN
1070
    73
1070
     1
1070
    44
1040
1.0
1070
    74
1070
     0
1000
MTEXTEND
1000
ACAD_MTEXT_DEFINED_HEIGHT_BEGIN
1070
    46
1040
8.000000000000524
1000
ACAD_MTEXT_DEFINED_HEIGHT_END
  0
MTEXT
  5
BC16
330
1F
100
AcDbEntity
  8
AM_6
100
AcDbMText
 10
178.4856703277586
 20
180.4999999999998
 30
0.0
 40
3.2
 41
10.0
 71
     5
 72
     5
  1
12
 73
     1
 44
1.0
1001
ACAD
1000
MTEXTBEGIN
1070
    73
1070
     1
1070
    44
1040
1.0
1070
    74
1070
     0
1000
MTEXTEND
1000
ACAD_MTEXT_DEFINED_HEIGHT_BEGIN
1070
    46
1040
9.9999999999995
1000
ACAD_MTEXT_DEFINED_HEIGHT_END
  0
LINE
  5
BC1D
330
1F
100
AcDbEntity
  8
AM_0
100
AcDbLine
 10
263.4856703277586
 20
193.5000000000003
 30
0.0
 11
263.4856703277586
 21
145.5000000000005
 31
0.0
  0
LINE
  5
BC3B
330
1F
100
AcDbEntity
  8
AM_2
100
AcDbLine
 10
143.4856703277588
 20
175.5
 30
0.0
 11
263.4856703277586
 21
175.5000000000004
 31
0.0
  0
LINE
  5
BC3C
330
1F
100
AcDbEntity
  8
AM_2
100
AcDbLine
 10
143.4856703277588
 20
170.4999999999999
 30
0.0
 11
173.4856703277587
 21
170.5
 31
0.0
  0
LINE
  5
BC3D
330
1F
100
AcDbEntity
  8
AM_2
100
AcDbLine
 10
143.4856703277589
 20
165.5
 30
0.0
 11
173.4856703277587
 21
165.5000000000001
 31
0.0
  0
LINE
  5
BC3E
330
1F
100
AcDbEntity
  8
AM_2
100
AcDbLine
 10
143.4856703277589
 20
160.4999999999999
 30
0.0
 11
173.4856703277587
 21
160.5000000000001
 31
0.0
  0
LINE
  5
BC3F
330
1F
100
AcDbEntity
  8
AM_2
100
AcDbLine
 10
143.485670327759
 20
155.5
 30
0.0
 11
263.4856703277586
 21
155.5000000000003
 31
0.0
  0
LINE
  5
BC40
330
1F
100
AcDbEntity
  8
AM_2
100
AcDbLine
 10
143.485670327759
 20
150.4999999999999
 30
0.0
 11
173.4856703277587
 21
150.5
 31
0.0
  0
LINE
  5
BC5C
330
1F
100
AcDbEntity
  8
AM_2
100
AcDbLine
 10
183.4856703277586
 20
193.5000000000002
 30
0.0
 11
183.4856703277586
 21
145.5000000000001
 31
0.0
  0
LINE
  5
BC5D
330
1F
100
AcDbEntity
  8
AM_2
100
AcDbLine
 10
193.4856703277586
 20
193.5000000000002
 30
0.0
 11
193.4856703277587
 21
145.5000000000001
 31
0.0
  0
LINE
  5
BC5E
330
1F
100
AcDbEntity
  8
AM_2
100
AcDbLine
 10
203.4856703277586
 20
193.5000000000002
 30
0.0
 11
203.4856703277586
 21
145.5000000000002
 31
0.0
  0
LINE
  5
BC5F
330
1F
100
AcDbEntity
  8
AM_2
100
AcDbLine
 10
213.4856703277586
 20
193.5000000000002
 30
0.0
 11
213.4856703277586
 21
145.5000000000002
 31
0.0
  0
LINE
  5
BC60
330
1F
100
AcDbEntity
  8
AM_2
100
AcDbLine
 10
223.4856703277587
 20
193.5000000000002
 30
0.0
 11
223.4856703277587
 21
145.5000000000003
 31
0.0
  0
LINE
  5
BC61
330
1F
100
AcDbEntity
  8
AM_2
100
AcDbLine
 10
233.4856703277587
 20
193.5000000000002
 30
0.0
 11
233.4856703277588
 21
145.5000000000003
 31
0.0
  0
LINE
  5
BC62
330
1F
100
AcDbEntity
  8
AM_2
100
AcDbLine
 10
243.4856703277586
 20
193.5000000000002
 30
0.0
 11
243.4856703277588
 21
145.5000000000004
 31
0.0
  0
LINE
  5
BC63
330
1F
100
AcDbEntity
  8
AM_2
100
AcDbLine
 10
253.4856703277586
 20
193.5000000000002
 30
0.0
 11
253.4856703277588
 21
145.5000000000004
 31
0.0
  0
MTEXT
  5
BC7A
330
1F
100
AcDbEntity
  8
AM_6
100
AcDbMText
 10
188.4856703277586
 20
189.4999999999999
 30
0.0
 40
3.2
 41
10.0
 71
     5
 72
     5
  1
B
 73
     1
 44
1.0
1001
ACAD
1000
MTEXTBEGIN
1070
    73
1070
     1
1070
    44
1040
1.0
1070
    74
1070
     0
1000
MTEXTEND
1000
ACAD_MTEXT_DEFINED_HEIGHT_BEGIN
1070
    46
1040
8.000000000000524
1000
ACAD_MTEXT_DEFINED_HEIGHT_END
  0
MTEXT
  5
BC7B
330
1F
100
AcDbEntity
  8
AM_6
100
AcDbMText
 10
198.4856703277586
 20
189.4999999999999
 30
0.0
 40
3.2
 41
10.0
 71
     5
 72
     5
  1
C
 73
     1
 44
1.0
1001
ACAD
1000
MTEXTBEGIN
1070
    73
1070
     1
1070
    44
1040
1.0
1070
    74
1070
     0
1000
MTEXTEND
1000
ACAD_MTEXT_DEFINED_HEIGHT_BEGIN
1070
    46
1040
8.000000000000524
1000
ACAD_MTEXT_DEFINED_HEIGHT_END
  0
MTEXT
  5
BC7C
330
1F
100
AcDbEntity
  8
AM_6
100
AcDbMText
 10
208.4856703277587
 20
189.4999999999999
 30
0.0
 40
3.2
 41
10.0
 71
     5
 72
     5
  1
D
 73
     1
 44
1.0
1001
ACAD
1000
MTEXTBEGIN
1070
    73
1070
     1
1070
    44
1040
1.0
1070
    74
1070
     0
1000
MTEXTEND
1000
ACAD_MTEXT_DEFINED_HEIGHT_BEGIN
1070
    46
1040
8.000000000000524
1000
ACAD_MTEXT_DEFINED_HEIGHT_END
  0
MTEXT
  5
BC7D
330
1F
100
AcDbEntity
  8
AM_6
100
AcDbMText
 10
218.4856703277586
 20
189.4999999999999
 30
0.0
 40
3.2
 41
10.0
 71
     5
 72
     5
  1
%%cE
 73
     1
 44
1.0
1001
ACAD
1000
MTEXTBEGIN
1070
    73
1070
     1
1070
    44
1040
1.0
1070
    74
1070
     0
1000
MTEXTEND
1000
ACAD_MTEXT_DEFINED_HEIGHT_BEGIN
1070
    46
1040
8.000000000000524
1000
ACAD_MTEXT_DEFINED_HEIGHT_END
  0
MTEXT
  5
BC7E
330
1F
100
AcDbEntity
  8
AM_6
100
AcDbMText
 10
228.4856703277586
 20
189.4999999999999
 30
0.0
 40
3.2
 41
10.0
 71
     5
 72
     5
  1
F
 73
     1
 44
1.0
1001
ACAD
1000
MTEXTBEGIN
1070
    73
1070
     1
1070
    44
1040
1.0
1070
    74
1070
     0
1000
MTEXTEND
1000
ACAD_MTEXT_DEFINED_HEIGHT_BEGIN
1070
    46
1040
8.000000000000524
1000
ACAD_MTEXT_DEFINED_HEIGHT_END
  0
MTEXT
  5
BC7F
330
1F
100
AcDbEntity
  8
AM_6
100
AcDbMText
 10
238.4856703277586
 20
189.4999999999999
 30
0.0
 40
3.2
 41
10.0
 71
     5
 72
     5
  1
G
 73
     1
 44
1.0
1001
ACAD
1000
MTEXTBEGIN
1070
    73
1070
     1
1070
    44
1040
1.0
1070
    74
1070
     0
1000
MTEXTEND
1000
ACAD_MTEXT_DEFINED_HEIGHT_BEGIN
1070
    46
1040
8.000000000000524
1000
ACAD_MTEXT_DEFINED_HEIGHT_END
  0
MTEXT
  5
BC80
330
1F
100
AcDbEntity
  8
AM_6
100
AcDbMText
 10
248.4856703277587
 20
189.4999999999999
 30
0.0
 40
3.2
 41
10.0
 71
     5
 72
     5
  1
H
 73
     1
 44
1.0
1001
ACAD
1000
MTEXTBEGIN
1070
    73
1070
     1
1070
    44
1040
1.0
1070
    74
1070
     0
1000
MTEXTEND
1000
ACAD_MTEXT_DEFINED_HEIGHT_BEGIN
1070
    46
1040
8.000000000000524
1000
ACAD_MTEXT_DEFINED_HEIGHT_END
  0
MTEXT
  5
BC81
330
1F
100
AcDbEntity
  8
AM_6
100
AcDbMText
 10
258.4856703277586
 20
189.4999999999999
 30
0.0
 40
3.2
 41
10.0
 71
     5
 72
     5
  1
%%cＩ
 73
     1
 44
1.0
1001
ACAD
1000
MTEXTBEGIN
1070
    73
1070
     1
1070
    44
1040
1.0
1070
    74
1070
     0
1000
MTEXTEND
1000
ACAD_MTEXT_DEFINED_HEIGHT_BEGIN
1070
    46
1040
8.000000000000524
1000
ACAD_MTEXT_DEFINED_HEIGHT_END
  0
MTEXT
  5
BC82
330
1F
100
AcDbEntity
  8
AM_6
100
AcDbMText
 10
158.5296719454374
 20
178.0
 30
0.0
 40
3.2
 41
30.08800323535749
 71
     5
 72
     5
  1
SCR-MK102-2
 73
     1
 44
1.0
1001
ACAD
1000
MTEXTBEGIN
1070
    73
1070
     1
1070
    44
1040
1.0
1070
    74
1070
     0
1000
MTEXTEND
1000
ACAD_MTEXT_DEFINED_HEIGHT_BEGIN
1070
    46
1040
4.999999999999943
1000
ACAD_MTEXT_DEFINED_HEIGHT_END
  0
MTEXT
  5
BC83
330
1F
100
AcDbEntity
  8
AM_6
100
AcDbMText
 10
158.5296719454375
 20
173.0
 30
0.0
 40
3.2
 41
30.08800323535749
 71
     5
 72
     5
  1
SCR-MK102-3
 73
     1
 44
1.0
1001
ACAD
1000
MTEXTBEGIN
1070
    73
1070
     1
1070
    44
1040
1.0
1070
    74
1070
     0
1000
MTEXTEND
1000
ACAD_MTEXT_DEFINED_HEIGHT_BEGIN
1070
    46
1040
4.999999999999943
1000
ACAD_MTEXT_DEFINED_HEIGHT_END
  0
MTEXT
  5
BC84
330
1F
100
AcDbEntity
  8
AM_6
100
AcDbMText
 10
158.5296719454374
 20
167.9999999999999
 30
0.0
 40
3.2
 41
30.08800323535749
 71
     5
 72
     5
  1
SCR-MK102-4
 73
     1
 44
1.0
1001
ACAD
1000
MTEXTBEGIN
1070
    73
1070
     1
1070
    44
1040
1.0
1070
    74
1070
     0
1000
MTEXTEND
1000
ACAD_MTEXT_DEFINED_HEIGHT_BEGIN
1070
    46
1040
4.999999999999943
1000
ACAD_MTEXT_DEFINED_HEIGHT_END
  0
MTEXT
  5
BC85
330
1F
100
AcDbEntity
  8
AM_6
100
AcDbMText
 10
158.5296719454376
 20
163.0
 30
0.0
 40
3.2
 41
30.08800323535749
 71
     5
 72
     5
  1
SCR-MK102-5
 73
     1
 44
1.0
1001
ACAD
1000
MTEXTBEGIN
1070
    73
1070
     1
1070
    44
1040
1.0
1070
    74
1070
     0
1000
MTEXTEND
1000
ACAD_MTEXT_DEFINED_HEIGHT_BEGIN
1070
    46
1040
4.999999999999943
1000
ACAD_MTEXT_DEFINED_HEIGHT_END
  0
MTEXT
  5
BC86
330
1F
100
AcDbEntity
  8
AM_6
100
AcDbMText
 10
158.5296719454377
 20
158.0
 30
0.0
 40
3.2
 41
30.08800323535749
 71
     5
 72
     5
  1
SCR-MK102-6
 73
     1
 44
1.0
1001
ACAD
1000
MTEXTBEGIN
1070
    73
1070
     1
1070
    44
1040
1.0
1070
    74
1070
     0
1000
MTEXTEND
1000
ACAD_MTEXT_DEFINED_HEIGHT_BEGIN
1070
    46
1040
4.999999999999943
1000
ACAD_MTEXT_DEFINED_HEIGHT_END
  0
MTEXT
  5
BC87
330
1F
100
AcDbEntity
  8
AM_6
100
AcDbMText
 10
158.5296719454377
 20
153.0
 30
0.0
 40
3.2
 41
30.08800323535749
 71
     5
 72
     5
  1
SCR-MK102-7
 73
     1
 44
1.0
1001
ACAD
1000
MTEXTBEGIN
1070
    73
1070
     1
1070
    44
1040
1.0
1070
    74
1070
     0
1000
MTEXTEND
1000
ACAD_MTEXT_DEFINED_HEIGHT_BEGIN
1070
    46
1040
4.999999999999943
1000
ACAD_MTEXT_DEFINED_HEIGHT_END
  0
MTEXT
  5
BC88
330
1F
100
AcDbEntity
  8
AM_6
100
AcDbMText
 10
158.5296719454378
 20
148.0
 30
0.0
 40
3.2
 41
30.08800323535749
 71
     5
 72
     5
  1
SCR-MK102-8
 73
     1
 44
1.0
1001
ACAD
1000
MTEXTBEGIN
1070
    73
1070
     1
1070
    44
1040
1.0
1070
    74
1070
     0
1000
MTEXTEND
1000
ACAD_MTEXT_DEFINED_HEIGHT_BEGIN
1070
    46
1040
4.999999999999943
1000
ACAD_MTEXT_DEFINED_HEIGHT_END
  0
LINE
  5
BC8A
330
1F
100
AcDbEntity
  8
AM_2
100
AcDbLine
 10
193.4856703277586
 20
180.5000000000001
 30
0.0
 11
203.4856703277586
 21
180.5000000000002
 31
0.0
  0
LINE
  5
BC8D
330
1F
100
AcDbEntity
  8
AM_2
100
AcDbLine
 10
193.4856703277587
 20
170.5000000000001
 30
0.0
 11
203.4856703277586
 21
170.5000000000001
 31
0.0
  0
LINE
  5
BC8E
330
1F
100
AcDbEntity
  8
AM_2
100
AcDbLine
 10
193.4856703277587
 20
160.5000000000001
 30
0.0
 11
203.4856703277586
 21
160.5000000000002
 31
0.0
  0
LINE
  5
BC91
330
1F
100
AcDbEntity
  8
AM_2
100
AcDbLine
 10
193.4856703277587
 20
150.5000000000001
 30
0.0
 11
203.4856703277586
 21
150.5000000000001
 31
0.0
  0
LINE
  5
BC92
330
1F
100
AcDbEntity
  8
AM_2
100
AcDbLine
 10
173.4856703277587
 20
193.5
 30
0.0
 11
173.4856703277587
 21
145.5
 31
0.0
  0
MTEXT
  5
BC99
330
1F
100
AcDbEntity
  8
AM_6
100
AcDbMText
 10
188.4856703277586
 20
180.4999999999998
 30
0.0
 40
3.2
 41
10.0
 71
     5
 72
     5
  1
M3
 73
     1
 44
1.0
1001
ACAD
1000
MTEXTBEGIN
1070
    73
1070
     1
1070
    44
1040
1.0
1070
    74
1070
     0
1000
MTEXTEND
1000
ACAD_MTEXT_DEFINED_HEIGHT_BEGIN
1070
    46
1040
9.9999999999995
1000
ACAD_MTEXT_DEFINED_HEIGHT_END
  0
MTEXT
  5
BC9A
330
1F
100
AcDbEntity
  8
AM_6
100
AcDbMText
 10
208.4856703277587
 20
180.4999999999996
 30
0.0
 40
3.2
 41
10.0
 71
     5
 72
     5
  1
8
 73
     1
 44
1.0
1001
ACAD
1000
MTEXTBEGIN
1070
    73
1070
     1
1070
    44
1040
1.0
1070
    74
1070
     0
1000
MTEXTEND
1000
ACAD_MTEXT_DEFINED_HEIGHT_BEGIN
1070
    46
1040
9.9999999999995
1000
ACAD_MTEXT_DEFINED_HEIGHT_END
  0
MTEXT
  5
BC9B
330
1F
100
AcDbEntity
  8
AM_6
100
AcDbMText
 10
218.4856703277586
 20
180.4999999999995
 30
0.0
 40
3.2
 41
10.0
 71
     5
 72
     5
  1
8
 73
     1
 44
1.0
1001
ACAD
1000
MTEXTBEGIN
1070
    73
1070
     1
1070
    44
1040
1.0
1070
    74
1070
     0
1000
MTEXTEND
1000
ACAD_MTEXT_DEFINED_HEIGHT_BEGIN
1070
    46
1040
9.9999999999995
1000
ACAD_MTEXT_DEFINED_HEIGHT_END
  0
MTEXT
  5
BC9C
330
1F
100
AcDbEntity
  8
AM_6
100
AcDbMText
 10
228.4856703277586
 20
180.4999999999995
 30
0.0
 40
3.2
 41
10.0
 71
     5
 72
     5
  1
2
 73
     1
 44
1.0
1001
ACAD
1000
MTEXTBEGIN
1070
    73
1070
     1
1070
    44
1040
1.0
1070
    74
1070
     0
1000
MTEXTEND
1000
ACAD_MTEXT_DEFINED_HEIGHT_BEGIN
1070
    46
1040
9.9999999999995
1000
ACAD_MTEXT_DEFINED_HEIGHT_END
  0
MTEXT
  5
BC9D
330
1F
100
AcDbEntity
  8
AM_6
100
AcDbMText
 10
238.4856703277587
 20
180.4999999999996
 30
0.0
 40
3.2
 41
10.0
 71
     5
 72
     5
  1
2
 73
     1
 44
1.0
1001
ACAD
1000
MTEXTBEGIN
1070
    73
1070
     1
1070
    44
1040
1.0
1070
    74
1070
     0
1000
MTEXTEND
1000
ACAD_MTEXT_DEFINED_HEIGHT_BEGIN
1070
    46
1040
9.999999999999131
1000
ACAD_MTEXT_DEFINED_HEIGHT_END
  0
MTEXT
  5
BC9E
330
1F
100
AcDbEntity
  8
AM_6
100
AcDbMText
 10
248.4856703277587
 20
180.4999999999993
 30
0.0
 40
3.2
 41
10.0
 71
     5
 72
     5
  1
1.7
 73
     1
 44
1.0
1001
ACAD
1000
MTEXTBEGIN
1070
    73
1070
     1
1070
    44
1040
1.0
1070
    74
1070
     0
1000
MTEXTEND
1000
ACAD_MTEXT_DEFINED_HEIGHT_BEGIN
1070
    46
1040
9.9999999999995
1000
ACAD_MTEXT_DEFINED_HEIGHT_END
  0
MTEXT
  5
BC9F
330
1F
100
AcDbEntity
  8
AM_6
100
AcDbMText
 10
258.4856703277586
 20
180.4999999999992
 30
0.0
 40
3.2
 41
10.0
 71
     5
 72
     5
  1
8
 73
     1
 44
1.0
1001
ACAD
1000
MTEXTBEGIN
1070
    73
1070
     1
1070
    44
1040
1.0
1070
    74
1070
     0
1000
MTEXTEND
1000
ACAD_MTEXT_DEFINED_HEIGHT_BEGIN
1070
    46
1040
9.9999999999995
1000
ACAD_MTEXT_DEFINED_HEIGHT_END
  0
MTEXT
  5
BCA0
330
1F
100
AcDbEntity
  8
AM_6
100
AcDbMText
 10
198.4856703277586
 20
182.9999999999998
 30
0.0
 40
3.2
 41
10.0
 71
     5
 72
     5
  1
8
 73
     1
 44
1.0
1001
ACAD
1000
MTEXTBEGIN
1070
    73
1070
     1
1070
    44
1040
1.0
1070
    74
1070
     0
1000
MTEXTEND
1000
ACAD_MTEXT_DEFINED_HEIGHT_BEGIN
1070
    46
1040
4.999999999999273
1000
ACAD_MTEXT_DEFINED_HEIGHT_END
  0
MTEXT
  5
BCA1
330
1F
100
AcDbEntity
  8
AM_6
100
AcDbMText
 10
198.4856703277586
 20
178.0000000000001
 30
0.0
 40
3.2
 41
10.00000000000003
 71
     5
 72
     5
  1
12
 73
     1
 44
1.0
1001
ACAD
1000
MTEXTBEGIN
1070
    73
1070
     1
1070
    44
1040
1.0
1070
    74
1070
     0
1000
MTEXTEND
1000
ACAD_MTEXT_DEFINED_HEIGHT_BEGIN
1070
    46
1040
4.999999999999813
1000
ACAD_MTEXT_DEFINED_HEIGHT_END
  0
LINE
  5
BCF2
330
1F
100
AcDbEntity
  8
AM_2
100
AcDbLine
 10
193.4856703277587
 20
170.5000000000005
 30
0.0
 11
203.4856703277587
 21
170.5000000000005
 31
0.0
  0
MTEXT
  5
BCF3
330
1F
100
AcDbEntity
  8
AM_6
100
AcDbMText
 10
178.4856703277587
 20
165.5
 30
0.0
 40
3.2
 41
10.0
 71
     5
 72
     5
  1
15
 73
     1
 44
1.0
1001
ACAD
1000
MTEXTBEGIN
1070
    73
1070
     1
1070
    44
1040
1.0
1070
    74
1070
     0
1000
MTEXTEND
1000
ACAD_MTEXT_DEFINED_HEIGHT_BEGIN
1070
    46
1040
19.99999999999987
1000
ACAD_MTEXT_DEFINED_HEIGHT_END
  0
MTEXT
  5
BCF4
330
1F
100
AcDbEntity
  8
AM_6
100
AcDbMText
 10
188.4856703277586
 20
170.5000000000002
 30
0.0
 40
3.2
 41
10.0
 71
     5
 72
     5
  1
M4
 73
     1
 44
1.0
1001
ACAD
1000
MTEXTBEGIN
1070
    73
1070
     1
1070
    44
1040
1.0
1070
    74
1070
     0
1000
MTEXTEND
1000
ACAD_MTEXT_DEFINED_HEIGHT_BEGIN
1070
    46
1040
9.9999999999995
1000
ACAD_MTEXT_DEFINED_HEIGHT_END
  0
MTEXT
  5
BCF5
330
1F
100
AcDbEntity
  8
AM_6
100
AcDbMText
 10
208.4856703277587
 20
165.5
 30
0.0
 40
3.2
 41
9.999999999999914
 71
     5
 72
     5
  1
10
 73
     1
 44
1.0
1001
ACAD
1000
MTEXTBEGIN
1070
    73
1070
     1
1070
    44
1040
1.0
1070
    74
1070
     0
1000
MTEXTEND
1000
ACAD_MTEXT_DEFINED_HEIGHT_BEGIN
1070
    46
1040
19.99999999999956
1000
ACAD_MTEXT_DEFINED_HEIGHT_END
  0
MTEXT
  5
BCF6
330
1F
100
AcDbEntity
  8
AM_6
100
AcDbMText
 10
218.4856703277586
 20
170.4999999999999
 30
0.0
 40
3.2
 41
10.0
 71
     5
 72
     5
  1
10
 73
     1
 44
1.0
1001
ACAD
1000
MTEXTBEGIN
1070
    73
1070
     1
1070
    44
1040
1.0
1070
    74
1070
     0
1000
MTEXTEND
1000
ACAD_MTEXT_DEFINED_HEIGHT_BEGIN
1070
    46
1040
9.9999999999995
1000
ACAD_MTEXT_DEFINED_HEIGHT_END
  0
MTEXT
  5
BCF7
330
1F
100
AcDbEntity
  8
AM_6
100
AcDbMText
 10
228.4856703277587
 20
165.4999999999999
 30
0.0
 40
3.2
 41
10.00000000000011
 71
     5
 72
     5
  1
2
 73
     1
 44
1.0
1001
ACAD
1000
MTEXTBEGIN
1070
    73
1070
     1
1070
    44
1040
1.0
1070
    74
1070
     0
1000
MTEXTEND
1000
ACAD_MTEXT_DEFINED_HEIGHT_BEGIN
1070
    46
1040
19.99999999999933
1000
ACAD_MTEXT_DEFINED_HEIGHT_END
  0
MTEXT
  5
BCF8
330
1F
100
AcDbEntity
  8
AM_6
100
AcDbMText
 10
238.4856703277588
 20
165.5000000000001
 30
0.0
 40
3.2
 41
9.999999999999886
 71
     5
 72
     5
  1
2
 73
     1
 44
1.0
1001
ACAD
1000
MTEXTBEGIN
1070
    73
1070
     1
1070
    44
1040
1.0
1070
    74
1070
     0
1000
MTEXTEND
1000
ACAD_MTEXT_DEFINED_HEIGHT_BEGIN
1070
    46
1040
19.99999999999896
1000
ACAD_MTEXT_DEFINED_HEIGHT_END
  0
MTEXT
  5
BCF9
330
1F
100
AcDbEntity
  8
AM_6
100
AcDbMText
 10
248.4856703277587
 20
165.4999999999999
 30
0.0
 40
3.2
 41
10.0
 71
     5
 72
     5
  1
1.7
 73
     1
 44
1.0
1001
ACAD
1000
MTEXTBEGIN
1070
    73
1070
     1
1070
    44
1040
1.0
1070
    74
1070
     0
1000
MTEXTEND
1000
ACAD_MTEXT_DEFINED_HEIGHT_BEGIN
1070
    46
1040
19.99999999999913
1000
ACAD_MTEXT_DEFINED_HEIGHT_END
  0
MTEXT
  5
BCFA
330
1F
100
AcDbEntity
  8
AM_6
100
AcDbMText
 10
258.4856703277586
 20
165.4999999999998
 30
0.0
 40
3.2
 41
10.0
 71
     5
 72
     5
  1
10
 73
     1
 44
1.0
1001
ACAD
1000
MTEXTBEGIN
1070
    73
1070
     1
1070
    44
1040
1.0
1070
    74
1070
     0
1000
MTEXTEND
1000
ACAD_MTEXT_DEFINED_HEIGHT_BEGIN
1070
    46
1040
19.99999999999913
1000
ACAD_MTEXT_DEFINED_HEIGHT_END
  0
MTEXT
  5
BCFB
330
1F
100
AcDbEntity
  8
AM_6
100
AcDbMText
 10
198.4856703277586
 20
173.0000000000002
 30
0.0
 40
3.2
 41
10.0
 71
     5
 72
     5
  1
10
 73
     1
 44
1.0
1001
ACAD
1000
MTEXTBEGIN
1070
    73
1070
     1
1070
    44
1040
1.0
1070
    74
1070
     0
1000
MTEXTEND
1000
ACAD_MTEXT_DEFINED_HEIGHT_BEGIN
1070
    46
1040
4.999999999999273
1000
ACAD_MTEXT_DEFINED_HEIGHT_END
  0
MTEXT
  5
BCFC
330
1F
100
AcDbEntity
  8
AM_6
100
AcDbMText
 10
198.4856703277587
 20
168.0000000000005
 30
0.0
 40
3.2
 41
10.00000000000003
 71
     5
 72
     5
  1
15
 73
     1
 44
1.0
1001
ACAD
1000
MTEXTBEGIN
1070
    73
1070
     1
1070
    44
1040
1.0
1070
    74
1070
     0
1000
MTEXTEND
1000
ACAD_MTEXT_DEFINED_HEIGHT_BEGIN
1070
    46
1040
4.999999999999813
1000
ACAD_MTEXT_DEFINED_HEIGHT_END
  0
LINE
  5
BCFD
330
1F
100
AcDbEntity
  8
AM_2
100
AcDbLine
 10
193.4856703277587
 20
160.5000000000005
 30
0.0
 11
203.4856703277587
 21
160.5000000000005
 31
0.0
  0
MTEXT
  5
BCFF
330
1F
100
AcDbEntity
  8
AM_6
100
AcDbMText
 10
188.4856703277586
 20
160.5000000000001
 30
0.0
 40
3.2
 41
10.0
 71
     5
 72
     5
  1
M5
 73
     1
 44
1.0
1001
ACAD
1000
MTEXTBEGIN
1070
    73
1070
     1
1070
    44
1040
1.0
1070
    74
1070
     0
1000
MTEXTEND
1000
ACAD_MTEXT_DEFINED_HEIGHT_BEGIN
1070
    46
1040
9.9999999999995
1000
ACAD_MTEXT_DEFINED_HEIGHT_END
  0
MTEXT
  5
BD01
330
1F
100
AcDbEntity
  8
AM_6
100
AcDbMText
 10
218.4856703277586
 20
160.4999999999999
 30
0.0
 40
3.2
 41
10.0
 71
     5
 72
     5
  1
12
 73
     1
 44
1.0
1001
ACAD
1000
MTEXTBEGIN
1070
    73
1070
     1
1070
    44
1040
1.0
1070
    74
1070
     0
1000
MTEXTEND
1000
ACAD_MTEXT_DEFINED_HEIGHT_BEGIN
1070
    46
1040
9.9999999999995
1000
ACAD_MTEXT_DEFINED_HEIGHT_END
  0
LINE
  5
BD08
330
1F
100
AcDbEntity
  8
AM_2
100
AcDbLine
 10
193.4856703277587
 20
150.5000000000005
 30
0.0
 11
203.4856703277587
 21
150.5000000000005
 31
0.0
  0
MTEXT
  5
BD09
330
1F
100
AcDbEntity
  8
AM_6
100
AcDbMText
 10
178.4856703277587
 20
150.5000000000002
 30
0.0
 40
3.2
 41
10.0
 71
     5
 72
     5
  1
18
 73
     1
 44
1.0
1001
ACAD
1000
MTEXTBEGIN
1070
    73
1070
     1
1070
    44
1040
1.0
1070
    74
1070
     0
1000
MTEXTEND
1000
ACAD_MTEXT_DEFINED_HEIGHT_BEGIN
1070
    46
1040
9.9999999999995
1000
ACAD_MTEXT_DEFINED_HEIGHT_END
  0
MTEXT
  5
BD0A
330
1F
100
AcDbEntity
  8
AM_6
100
AcDbMText
 10
188.4856703277586
 20
150.5000000000001
 30
0.0
 40
3.2
 41
10.0
 71
     5
 72
     5
  1
M6
 73
     1
 44
1.0
1001
ACAD
1000
MTEXTBEGIN
1070
    73
1070
     1
1070
    44
1040
1.0
1070
    74
1070
     0
1000
MTEXTEND
1000
ACAD_MTEXT_DEFINED_HEIGHT_BEGIN
1070
    46
1040
9.9999999999995
1000
ACAD_MTEXT_DEFINED_HEIGHT_END
  0
MTEXT
  5
BD0B
330
1F
100
AcDbEntity
  8
AM_6
100
AcDbMText
 10
208.4856703277587
 20
150.5
 30
0.0
 40
3.2
 41
10.0
 71
     5
 72
     5
  1
12
 73
     1
 44
1.0
1001
ACAD
1000
MTEXTBEGIN
1070
    73
1070
     1
1070
    44
1040
1.0
1070
    74
1070
     0
1000
MTEXTEND
1000
ACAD_MTEXT_DEFINED_HEIGHT_BEGIN
1070
    46
1040
9.9999999999995
1000
ACAD_MTEXT_DEFINED_HEIGHT_END
  0
MTEXT
  5
BD0C
330
1F
100
AcDbEntity
  8
AM_6
100
AcDbMText
 10
218.4856703277587
 20
150.4999999999999
 30
0.0
 40
3.2
 41
10.0
 71
     5
 72
     5
  1
12
 73
     1
 44
1.0
1001
ACAD
1000
MTEXTBEGIN
1070
    73
1070
     1
1070
    44
1040
1.0
1070
    74
1070
     0
1000
MTEXTEND
1000
ACAD_MTEXT_DEFINED_HEIGHT_BEGIN
1070
    46
1040
9.9999999999995
1000
ACAD_MTEXT_DEFINED_HEIGHT_END
  0
MTEXT
  5
BD0D
330
1F
100
AcDbEntity
  8
AM_6
100
AcDbMText
 10
228.4856703277587
 20
150.4999999999998
 30
0.0
 40
3.2
 41
10.0
 71
     5
 72
     5
  1
2
 73
     1
 44
1.0
1001
ACAD
1000
MTEXTBEGIN
1070
    73
1070
     1
1070
    44
1040
1.0
1070
    74
1070
     0
1000
MTEXTEND
1000
ACAD_MTEXT_DEFINED_HEIGHT_BEGIN
1070
    46
1040
9.9999999999995
1000
ACAD_MTEXT_DEFINED_HEIGHT_END
  0
MTEXT
  5
BD0E
330
1F
100
AcDbEntity
  8
AM_6
100
AcDbMText
 10
238.4856703277587
 20
150.5
 30
0.0
 40
3.2
 41
10.0
 71
     5
 72
     5
  1
2
 73
     1
 44
1.0
1001
ACAD
1000
MTEXTBEGIN
1070
    73
1070
     1
1070
    44
1040
1.0
1070
    74
1070
     0
1000
MTEXTEND
1000
ACAD_MTEXT_DEFINED_HEIGHT_BEGIN
1070
    46
1040
9.999999999999131
1000
ACAD_MTEXT_DEFINED_HEIGHT_END
  0
MTEXT
  5
BD0F
330
1F
100
AcDbEntity
  8
AM_6
100
AcDbMText
 10
248.4856703277587
 20
150.4999999999997
 30
0.0
 40
3.2
 41
10.0
 71
     5
 72
     5
  1
1.7
 73
     1
 44
1.0
1001
ACAD
1000
MTEXTBEGIN
1070
    73
1070
     1
1070
    44
1040
1.0
1070
    74
1070
     0
1000
MTEXTEND
1000
ACAD_MTEXT_DEFINED_HEIGHT_BEGIN
1070
    46
1040
9.9999999999995
1000
ACAD_MTEXT_DEFINED_HEIGHT_END
  0
MTEXT
  5
BD10
330
1F
100
AcDbEntity
  8
AM_6
100
AcDbMText
 10
258.4856703277587
 20
150.4999999999996
 30
0.0
 40
3.2
 41
10.0
 71
     5
 72
     5
  1
12
 73
     1
 44
1.0
1001
ACAD
1000
MTEXTBEGIN
1070
    73
1070
     1
1070
    44
1040
1.0
1070
    74
1070
     0
1000
MTEXTEND
1000
ACAD_MTEXT_DEFINED_HEIGHT_BEGIN
1070
    46
1040
9.9999999999995
1000
ACAD_MTEXT_DEFINED_HEIGHT_END
  0
LINE
  5
BD13
330
1F
100
AcDbEntity
  8
AM_2
100
AcDbLine
 10
183.4856703277585
 20
165.5000000000001
 30
0.0
 11
203.4856703277586
 21
165.5000000000002
 31
0.0
  0
MTEXT
  5
BD14
330
1F
100
AcDbEntity
  8
AM_6
100
AcDbMText
 10
198.4856703277586
 20
163.0000000000002
 30
0.0
 40
3.2
 41
10.0
 71
     5
 72
     5
  1
10
 73
     1
 44
1.0
1001
ACAD
1000
MTEXTBEGIN
1070
    73
1070
     1
1070
    44
1040
1.0
1070
    74
1070
     0
1000
MTEXTEND
1000
ACAD_MTEXT_DEFINED_HEIGHT_BEGIN
1070
    46
1040
4.999999999999273
1000
ACAD_MTEXT_DEFINED_HEIGHT_END
  0
MTEXT
  5
BD15
330
1F
100
AcDbEntity
  8
AM_6
100
AcDbMText
 10
198.4856703277587
 20
158.0000000000005
 30
0.0
 40
3.2
 41
10.00000000000003
 71
     5
 72
     5
  1
15
 73
     1
 44
1.0
1001
ACAD
1000
MTEXTBEGIN
1070
    73
1070
     1
1070
    44
1040
1.0
1070
    74
1070
     0
1000
MTEXTEND
1000
ACAD_MTEXT_DEFINED_HEIGHT_BEGIN
1070
    46
1040
4.999999999999813
1000
ACAD_MTEXT_DEFINED_HEIGHT_END
  0
MTEXT
  5
BD16
330
1F
100
AcDbEntity
  8
AM_6
100
AcDbMText
 10
198.4856703277587
 20
153.0000000000002
 30
0.0
 40
3.2
 41
10.0
 71
     5
 72
     5
  1
10
 73
     1
 44
1.0
1001
ACAD
1000
MTEXTBEGIN
1070
    73
1070
     1
1070
    44
1040
1.0
1070
    74
1070
     0
1000
MTEXTEND
1000
ACAD_MTEXT_DEFINED_HEIGHT_BEGIN
1070
    46
1040
4.999999999999273
1000
ACAD_MTEXT_DEFINED_HEIGHT_END
  0
MTEXT
  5
BD17
330
1F
100
AcDbEntity
  8
AM_6
100
AcDbMText
 10
198.4856703277587
 20
148.0000000000004
 30
0.0
 40
3.2
 41
10.00000000000003
 71
     5
 72
     5
  1
15
 73
     1
 44
1.0
1001
ACAD
1000
MTEXTBEGIN
1070
    73
1070
     1
1070
    44
1040
1.0
1070
    74
1070
     0
1000
MTEXTEND
1000
ACAD_MTEXT_DEFINED_HEIGHT_BEGIN
1070
    46
1040
4.999999999999813
1000
ACAD_MTEXT_DEFINED_HEIGHT_END
  0
LINE
  5
BD18
330
1F
100
AcDbEntity
  8
AM_2
100
AcDbLine
 10
213.4856703277586
 20
165.5000000000002
 30
0.0
 11
223.4856703277587
 21
165.5000000000003
 31
0.0
  0
INSERT
  5
BD1A
330
1F
100
AcDbEntity
  8
AM_5
100
AcDbBlockReference
  2
*S15
 10
0.0
 20
0.0
 30
0.0
  0
TEXT
  5
BDB8
330
1F
100
AcDbEntity
  8
AM_6
 60
     1
100
AcDbText
 10
285.5
 20
8.5
 30
0.0
 40
2.5
  1
!GENTITLE-INSERT
100
AcDbText
  0
TEXT
  5
BDB9
330
1F
100
AcDbEntity
  8
AM_6
 60
     1
100
AcDbText
 10
297.0
 20
210.0
 30
0.0
 40
2.5
  1
!GENTITLE-MAX
100
AcDbText
  0
TEXT
  5
BDBA
330
1F
100
AcDbEntity
  8
AM_6
 60
     1
100
AcDbText
 10
297.0
 20
210.0
 30
0.0
 40
2.5
  1
!GENTITLE-RU
100
AcDbText
  0
LINE
  5
BDBB
330
1F
100
AcDbEntity
  8
size
100
AcDbLine
 10
0.0
 20
210.0
 30
0.0
 11
297.0
 21
210.0
 31
0.0
1001
GENIUS_GENREC_14
1002
{
1000
PYDIR
1011
0.0000000000000142
1021
297.0
1031
0.0
1002
}
1002
{
1000
PXDIR
1011
420.0
1021
0.0
1031
0.0
1002
}
1002
{
1000
PORI
1011
0.0
1021
0.0
1031
0.0
1002
}
1002
{
1000
PINS
1011
210.0
1021
148.4999999999999
1031
0.0
1002
}
1002
{
1000
HVAL
1000
297
1002
}
1002
{
1000
H
1070
     2
1002
}
1002
{
1000
WVAL
1000
420
1002
}
1002
{
1000
W
1070
     2
1002
}
1002
{
1000
C
1070
     4
1002
}
1001
GENIUS_GENOBJ-N-REC_13
1002
{
1000
OWNER
1000
GEN
1002
}
1001
GENIUS_GENODEF_13
1002
{
1000
HIER
1070
     0
1002
}
1002
{
1000
MANEDIT
1070
     0
1002
}
1002
{
1000
NOSEL
1070
     0
1002
}
1002
{
1000
BEHIND
1070
     0
1002
}
1002
{
1000
OTHER
1070
     0
1002
}
1002
{
1000
REACTOR
1002
}
  0
TEXT
  5
BDBC
330
1F
100
AcDbEntity
  8
AM_6
 60
     1
100
AcDbText
 10
0.0
 20
0.0
 30
0.0
 40
2.5
  1
!GENTITLE-LL
100
AcDbText
  0
LINE
  5
BDBD
330
1F
100
AcDbEntity
  8
size
100
AcDbLine
 10
297.0
 20
210.0
 30
0.0
 11
297.0
 21
-0.0000000000000284
 31
0.0
1001
GENIUS_GENREC_14
1002
{
1000
PYDIR
1011
0.0000000000000142
1021
297.0
1031
0.0
1002
}
1002
{
1000
PXDIR
1011
420.0
1021
0.0
1031
0.0
1002
}
1002
{
1000
PORI
1011
0.0
1021
0.0
1031
0.0
1002
}
1002
{
1000
PINS
1011
210.0
1021
148.4999999999999
1031
0.0
1002
}
1002
{
1000
HVAL
1000
297
1002
}
1002
{
1000
H
1070
     2
1002
}
1002
{
1000
WVAL
1000
420
1002
}
1002
{
1000
W
1070
     2
1002
}
1002
{
1000
C
1070
     4
1002
}
1001
GENIUS_GENOBJ-N-REC_13
1002
{
1000
OWNER
1000
GEN
1002
}
1001
GENIUS_GENODEF_13
1002
{
1000
HIER
1070
     0
1002
}
1002
{
1000
MANEDIT
1070
     0
1002
}
1002
{
1000
NOSEL
1070
     0
1002
}
1002
{
1000
BEHIND
1070
     0
1002
}
1002
{
1000
OTHER
1070
     0
1002
}
1002
{
1000
REACTOR
1002
}
  0
LINE
  5
BDBE
330
1F
100
AcDbEntity
  8
waku
100
AcDbLine
 10
11.5
 20
8.5
 30
0.0
 11
285.5
 21
8.5
 31
0.0
1001
GENIUS_GENREC_14
1002
{
1000
PYDIR
1011
0.0000000000000142
1021
297.0
1031
0.0
1002
}
1002
{
1000
PXDIR
1011
420.0
1021
0.0
1031
0.0
1002
}
1002
{
1000
PORI
1011
0.0
1021
0.0
1031
0.0
1002
}
1002
{
1000
PINS
1011
210.0
1021
148.4999999999999
1031
0.0
1002
}
1002
{
1000
HVAL
1000
297
1002
}
1002
{
1000
H
1070
     2
1002
}
1002
{
1000
WVAL
1000
420
1002
}
1002
{
1000
W
1070
     2
1002
}
1002
{
1000
C
1070
     4
1002
}
  0
LINE
  5
BDBF
330
1F
100
AcDbEntity
  8
waku
100
AcDbLine
 10
285.5
 20
201.5
 30
0.0
 11
11.5
 21
201.5
 31
0.0
1001
GENIUS_GENREC_14
1002
{
1000
PYDIR
1011
-123.0
1021
210.0
1031
0.0
1002
}
1002
{
1000
PXDIR
1011
297.0
1021
-87.0
1031
0.0
1002
}
1002
{
1000
PORI
1011
-123.0
1021
-87.0
1031
0.0
1002
}
1002
{
1000
PINS
1011
87.00000000000002
1021
61.49999999999997
1031
0.0
1002
}
1002
{
1000
HVAL
1000
297
1002
}
1002
{
1000
H
1070
     2
1002
}
1002
{
1000
WVAL
1000
420
1002
}
1002
{
1000
W
1070
     2
1002
}
1002
{
1000
C
1070
     4
1002
}
1001
GENIUS_GENOBJ-N-REC_13
1002
{
1000
OWNER
1000
GEN
1002
}
1001
GENIUS_GENODEF_13
1002
{
1000
HIER
1070
     0
1002
}
1002
{
1000
MANEDIT
1070
     0
1002
}
1002
{
1000
NOSEL
1070
     0
1002
}
1002
{
1000
BEHIND
1070
     0
1002
}
1002
{
1000
OTHER
1070
     0
1002
}
1002
{
1000
REACTOR
1002
}
  0
LINE
  5
BDC0
330
1F
100
AcDbEntity
  8
waku
100
AcDbLine
 10
11.50000000000002
 20
201.5
 30
0.0
 11
11.5
 21
8.5
 31
0.0
1001
GENIUS_GENREC_14
1002
{
1000
PYDIR
1011
0.0000000000000142
1021
297.0
1031
0.0
1002
}
1002
{
1000
PXDIR
1011
420.0
1021
0.0
1031
0.0
1002
}
1002
{
1000
PORI
1011
0.0
1021
0.0
1031
0.0
1002
}
1002
{
1000
PINS
1011
210.0
1021
148.4999999999999
1031
0.0
1002
}
1002
{
1000
HVAL
1000
297
1002
}
1002
{
1000
H
1070
     2
1002
}
1002
{
1000
WVAL
1000
420
1002
}
1002
{
1000
W
1070
     2
1002
}
1002
{
1000
C
1070
     4
1002
}
1001
GENIUS_GENOBJ-N-REC_13
1002
{
1000
OWNER
1000
GEN
1002
}
1001
GENIUS_GENODEF_13
1002
{
1000
HIER
1070
     0
1002
}
1002
{
1000
MANEDIT
1070
     0
1002
}
1002
{
1000
NOSEL
1070
     0
1002
}
1002
{
1000
BEHIND
1070
     0
1002
}
1002
{
1000
OTHER
1070
     0
1002
}
1002
{
1000
REACTOR
1002
}
  0
LINE
  5
BDC1
330
1F
100
AcDbEntity
  8
waku
100
AcDbLine
 10
285.5
 20
8.5
 30
0.0
 11
285.5
 21
201.5
 31
0.0
1001
GENIUS_GENREC_14
1002
{
1000
PYDIR
1011
-123.0
1021
216.0
1031
0.0
1002
}
1002
{
1000
PXDIR
1011
297.0
1021
-81.0
1031
0.0
1002
}
1002
{
1000
PORI
1011
-123.0
1021
-81.0
1031
0.0
1002
}
1002
{
1000
PINS
1011
87.00000000000002
1021
67.49999999999997
1031
0.0
1002
}
1002
{
1000
HVAL
1000
297
1002
}
1002
{
1000
H
1070
     2
1002
}
1002
{
1000
WVAL
1000
420
1002
}
1002
{
1000
W
1070
     2
1002
}
1002
{
1000
C
1070
     4
1002
}
1001
GENIUS_GENOBJ-N-REC_13
1002
{
1000
OWNER
1000
GEN
1002
}
1001
GENIUS_GENODEF_13
1002
{
1000
HIER
1070
     0
1002
}
1002
{
1000
MANEDIT
1070
     0
1002
}
1002
{
1000
NOSEL
1070
     0
1002
}
1002
{
1000
BEHIND
1070
     0
1002
}
1002
{
1000
OTHER
1070
     0
1002
}
1002
{
1000
REACTOR
1002
}
  0
LINE
  5
BDC2
330
1F
100
AcDbEntity
  8
size
100
AcDbLine
 10
0.0000000000000213
 20
210.0
 30
0.0
 11
0.0
 21
0.0
 31
0.0
1001
GENIUS_GENREC_14
1002
{
1000
PYDIR
1011
0.0000000000000142
1021
297.0
1031
0.0
1002
}
1002
{
1000
PXDIR
1011
420.0
1021
0.0
1031
0.0
1002
}
1002
{
1000
PORI
1011
0.0
1021
0.0
1031
0.0
1002
}
1002
{
1000
PINS
1011
210.0
1021
148.4999999999999
1031
0.0
1002
}
1002
{
1000
HVAL
1000
297
1002
}
1002
{
1000
H
1070
     2
1002
}
1002
{
1000
WVAL
1000
420
1002
}
1002
{
1000
W
1070
     2
1002
}
1002
{
1000
C
1070
     4
1002
}
1001
GENIUS_GENOBJ-N-REC_13
1002
{
1000
OWNER
1000
GEN
1002
}
1001
GENIUS_GENODEF_13
1002
{
1000
HIER
1070
     0
1002
}
1002
{
1000
MANEDIT
1070
     0
1002
}
1002
{
1000
NOSEL
1070
     0
1002
}
1002
{
1000
BEHIND
1070
     0
1002
}
1002
{
1000
OTHER
1070
     0
1002
}
1002
{
1000
REACTOR
1002
}
  0
LINE
  5
BDC3
330
1F
100
AcDbEntity
  8
size
100
AcDbLine
 10
0.0
 20
0.0
 30
0.0
 11
297.0
 21
0.0
 31
0.0
1001
GENIUS_GENREC_14
1002
{
1000
PYDIR
1011
0.0000000000000142
1021
297.0
1031
0.0
1002
}
1002
{
1000
PXDIR
1011
420.0
1021
0.0
1031
0.0
1002
}
1002
{
1000
PORI
1011
0.0
1021
0.0
1031
0.0
1002
}
1002
{
1000
PINS
1011
210.0
1021
148.4999999999999
1031
0.0
1002
}
1002
{
1000
HVAL
1000
297
1002
}
1002
{
1000
H
1070
     2
1002
}
1002
{
1000
WVAL
1000
420
1002
}
1002
{
1000
W
1070
     2
1002
}
1002
{
1000
C
1070
     4
1002
}
1001
GENIUS_GENOBJ-N-REC_13
1002
{
1000
OWNER
1000
GEN
1002
}
1001
GENIUS_GENODEF_13
1002
{
1000
HIER
1070
     0
1002
}
1002
{
1000
MANEDIT
1070
     0
1002
}
1002
{
1000
NOSEL
1070
     0
1002
}
1002
{
1000
BEHIND
1070
     0
1002
}
1002
{
1000
OTHER
1070
     0
1002
}
1002
{
1000
REACTOR
1002
}
  0
ENDSEC
  0
SECTION
  2
OBJECTS
  0
DICTIONARY
  5
C
330
0
100
AcDbDictionary
281
     1
  3
ACAD_2007HEADERVARS_RT
350
C0D6
  3
ACAD_BGPLOT_KEY
350
AB06
  3
ACAD_COLOR
350
A91D
  3
ACAD_GROUP
350
D
  3
ACAD_LAYOUT
350
1A
  3
ACAD_MATERIAL
350
A91C
  3
ACAD_MLEADERSTYLE
350
BE6A
  3
ACAD_MLINESTYLE
350
17
  3
ACAD_PLOTSETTINGS
350
19
  3
ACAD_PLOTSTYLENAME
350
E
  3
ACAD_SCALELIST
350
BE48
  3
ACAD_TABLESTYLE
350
AAB9
  3
ACAD_VISUALSTYLE
350
B0F1
  3
AcAsAppObject
350
3DA1
  3
ACASGREF_MASTER
350
3DE9
  3
ACDB_RECOMPOSE_DATA
350
BFF4
  3
AcDbVariableDictionary
350
34
  3
AcmDictionary
350
47
  3
AD_GREF_MODULE
350
3DEA
  3
AD_MAPI_MODULE
350
3E06
  3
AMG
350
2B
  3
AMGSNAPSETTINGS
350
7D
  3
ASE_INDEX_DICTIONARY
350
B331
  3
DWGPROPS
350
C0D5
  3
MAPISURF_MODULE
350
3DEB
  0
DICTIONARY
  5
3F95
330
2
100
AcDbDictionary
280
     1
281
     1
  3
ACAD_LAYERFILTERS
360
B466
  3
ACAD_LAYERSTATES
360
3F96
  3
ACLYDICTIONARY
360
B465
  3
AMLAYER_GROUPCOLORS
360
AAB4
  0
DICTIONARY
  5
BFBD
330
10
100
AcDbDictionary
280
     1
281
     1
  3
ADSK_XREC_LAYER_RECONCILED
360
BFBE
  0
DICTIONARY
  5
BFBF
330
5F85
100
AcDbDictionary
280
     1
281
     1
  3
ADSK_XREC_LAYER_RECONCILED
360
BFC0
  0
DICTIONARY
  5
BFC1
330
AC9F
100
AcDbDictionary
280
     1
281
     1
  3
ADSK_XREC_LAYER_RECONCILED
360
BFC2
  0
DICTIONARY
  5
BFC3
330
ACA0
100
AcDbDictionary
280
     1
281
     1
  3
ADSK_XREC_LAYER_RECONCILED
360
BFC4
  0
DICTIONARY
  5
BFC5
330
ACA1
100
AcDbDictionary
280
     1
281
     1
  3
ADSK_XREC_LAYER_RECONCILED
360
BFC6
  0
DICTIONARY
  5
BFC7
330
ACC8
100
AcDbDictionary
280
     1
281
     1
  3
ADSK_XREC_LAYER_RECONCILED
360
BFC8
  0
DICTIONARY
  5
BFC9
330
ACC9
100
AcDbDictionary
280
     1
281
     1
  3
ADSK_XREC_LAYER_RECONCILED
360
BFCA
  0
DICTIONARY
  5
BFCB
330
ACCA
100
AcDbDictionary
280
     1
281
     1
  3
ADSK_XREC_LAYER_RECONCILED
360
BFCC
  0
DICTIONARY
  5
BFCD
330
AD60
100
AcDbDictionary
280
     1
281
     1
  3
ADSK_XREC_LAYER_RECONCILED
360
BFCE
  0
DICTIONARY
  5
BFCF
330
AD64
100
AcDbDictionary
280
     1
281
     1
  3
ADSK_XREC_LAYER_RECONCILED
360
BFD0
  0
DICTIONARY
  5
BFD1
330
AD67
100
AcDbDictionary
280
     1
281
     1
  3
ADSK_XREC_LAYER_RECONCILED
360
BFD2
  0
DICTIONARY
  5
BFD3
330
AD68
100
AcDbDictionary
280
     1
281
     1
  3
ADSK_XREC_LAYER_RECONCILED
360
BFD4
  0
DICTIONARY
  5
BFD5
330
AD69
100
AcDbDictionary
280
     1
281
     1
  3
ADSK_XREC_LAYER_RECONCILED
360
BFD6
  0
DICTIONARY
  5
BFD7
330
AD6A
100
AcDbDictionary
280
     1
281
     1
  3
ADSK_XREC_LAYER_RECONCILED
360
BFD8
  0
DICTIONARY
  5
BFD9
330
AD6E
100
AcDbDictionary
280
     1
281
     1
  3
ADSK_XREC_LAYER_RECONCILED
360
BFDA
  0
DICTIONARY
  5
BFDB
330
AD6F
100
AcDbDictionary
280
     1
281
     1
  3
ADSK_XREC_LAYER_RECONCILED
360
BFDC
  0
DICTIONARY
  5
BFDD
330
B1B6
100
AcDbDictionary
280
     1
281
     1
  3
ADSK_XREC_LAYER_RECONCILED
360
BFDE
  0
DICTIONARY
  5
BFDF
330
B2EB
100
AcDbDictionary
280
     1
281
     1
  3
ADSK_XREC_LAYER_RECONCILED
360
BFE0
  0
DICTIONARY
  5
BFE1
330
B2EC
100
AcDbDictionary
280
     1
281
     1
  3
ADSK_XREC_LAYER_RECONCILED
360
BFE2
  0
DICTIONARY
  5
BFE3
330
B65B
100
AcDbDictionary
280
     1
281
     1
  3
ADSK_XREC_LAYER_RECONCILED
360
BFE4
  0
DICTIONARY
  5
BFE5
330
B65C
100
AcDbDictionary
280
     1
281
     1
  3
ADSK_XREC_LAYER_RECONCILED
360
BFE6
  0
DICTIONARY
  5
BFE7
330
B65D
100
AcDbDictionary
280
     1
281
     1
  3
ADSK_XREC_LAYER_RECONCILED
360
BFE8
  0
DICTIONARY
  5
8A
330
1F
100
AcDbDictionary
280
     1
281
     1
  3
ACAD_SORTENTS
360
B1BA
  0
DICTIONARY
  5
C0D6
102
{ACAD_REACTORS
330
C
102
}
330
C
100
AcDbDictionary
281
     1
  3
DIMARCSYM
350
C0D7
  0
DICTIONARY
  5
AB06
102
{ACAD_REACTORS
330
C
102
}
330
C
100
AcDbDictionary
280
     1
281
     1
  0
DICTIONARY
  5
A91D
102
{ACAD_REACTORS
330
C
102
}
330
C
100
AcDbDictionary
281
     1
  0
DICTIONARY
  5
D
102
{ACAD_REACTORS
330
C
102
}
330
C
100
AcDbDictionary
281
     1
  0
DICTIONARY
  5
1A
102
{ACAD_REACTORS
330
C
102
}
330
C
100
AcDbDictionary
281
     1
  3
Model
350
22
  3
ﾚｲｱｳﾄ1
350
1E
  3
ﾚｲｱｳﾄ2
350
26
  0
DICTIONARY
  5
A91C
102
{ACAD_REACTORS
330
C
102
}
330
C
100
AcDbDictionary
281
     1
  3
ByBlock
350
B0EF
  3
ByLayer
350
B0EE
  3
Global
350
B0F0
  0
DICTIONARY
  5
BE6A
102
{ACAD_REACTORS
330
C
102
}
330
C
100
AcDbDictionary
281
     1
  3
Standard
350
BE6B
  0
DICTIONARY
  5
17
102
{ACAD_REACTORS
330
C
102
}
330
C
100
AcDbDictionary
281
     1
  3
Standard
350
18
  0
DICTIONARY
  5
19
102
{ACAD_REACTORS
330
C
102
}
330
C
100
AcDbDictionary
281
     1
  0
ACDBDICTIONARYWDFLT
  5
E
102
{ACAD_REACTORS
330
C
102
}
330
C
100
AcDbDictionary
281
     1
  3
Normal
350
F
100
AcDbDictionaryWithDefault
340
F
  0
DICTIONARY
  5
BE48
102
{ACAD_REACTORS
330
C
102
}
330
C
100
AcDbDictionary
281
     1
  3
A0
350
BE49
  3
A1
350
BE4A
  3
A2
350
BE4B
  3
A3
350
BE4C
  3
A4
350
BE4D
  3
A5
350
BE4E
  3
A6
350
BE4F
  3
A7
350
BE50
  3
A8
350
BE51
  3
A9
350
BE52
  3
B0
350
BE53
  3
B1
350
BE54
  3
B2
350
BE55
  3
B3
350
BE56
  3
B4
350
BE57
  3
B5
350
BE58
  3
B6
350
BE59
  3
B7
350
BE5A
  3
B8
350
BE5B
  3
B9
350
BE5C
  3
C0
350
BE5D
  3
C1
350
BE5E
  3
C2
350
BE5F
  3
C3
350
BE60
  3
C4
350
BE61
  3
C5
350
BE62
  3
C6
350
BE63
  3
C7
350
BE64
  3
C8
350
BE65
  3
C9
350
BE66
  3
D0
350
BE67
  3
D1
350
BE68
  3
D2
350
BE69
  0
DICTIONARY
  5
AAB9
102
{ACAD_REACTORS
330
C
102
}
330
C
100
AcDbDictionary
281
     1
  3
Standard
350
AABA
  0
DICTIONARY
  5
B0F1
102
{ACAD_REACTORS
330
C
102
}
330
C
100
AcDbDictionary
281
     1
  3
2dWireframe
350
B0F7
  3
3D Hidden
350
B0F9
  3
3dWireframe
350
B0F8
  3
Basic
350
B0F6
  3
Brighten
350
B0FD
  3
ColorChange
350
B101
  3
Conceptual
350
B0FA
  3
Dim
350
B0FC
  3
Facepattern
350
B100
  3
Flat
350
B0F2
  3
FlatWithEdges
350
B0F3
  3
Gouraud
350
B0F4
  3
GouraudWithEdges
350
B0F5
  3
Linepattern
350
B0FF
  3
Realistic
350
B0FB
  3
Thicken
350
B0FE
  0
ACAD_PROXY_OBJECT
  5
3DA1
102
{ACAD_REACTORS
330
C
102
}
330
C
100
AcDbProxyObject
 90
      499
 91
      576
 95
   917527
 70
     0
 93
       10
310
407F
 94
        0
1001
ACAD
1000
AcRTDxfName
1000
ASAPP
  0
ACAD_PROXY_OBJECT
  5
3DE9
102
{ACAD_REACTORS
330
C
102
}
330
C
100
AcDbProxyObject
 90
      499
 91
      581
 95
   917527
 70
     0
 93
       34
310
010000407F
 94
        0
1001
ACAD
1000
AcRTDxfName
1000
ACASGREFMASTER
  0
XRECORD
  5
BFF4
102
{ACAD_REACTORS
330
C
102
}
330
C
100
AcDbXrecord
280
     1
 90
        1
330
AABA
  0
DICTIONARY
  5
34
102
{ACAD_REACTORS
330
C
102
}
330
C
100
AcDbDictionary
281
     1
  3
CANNOSCALE
350
BFF7
  3
CMLEADERSTYLE
350
BFF5
  3
CTABLESTYLE
350
AAF3
  3
DIMASSOC
350
A10C
  3
FIELDEVAL
350
AB07
  3
INDEXCTL
350
35
  3
LIGHTINGUNITS
350
BFF8
  3
MSLTSCALE
350
BFF6
  3
SORTENTS
350
194C
  0
DICTIONARY
  5
47
102
{ACAD_REACTORS
330
C
102
}
330
C
100
AcDbDictionary
281
     1
  3
AcmBOM
350
7E8
  3
AcmStdDictionary
350
4C
  3
AMDTSECTSYM_ARROWCOLOR
350
A929
  0
ACAD_PROXY_OBJECT
  5
3DEA
102
{ACAD_REACTORS
330
C
102
}
330
C
100
AcDbProxyObject
 90
      499
 91
      582
 95
   917527
 70
     0
 93
      114
310
00000043800000000000000000003F
 94
        0
1001
ACAD
1000
AcRTDxfName
1000
ACADGREFMODULE
  0
ACAD_PROXY_OBJECT
  5
3E06
102
{ACAD_REACTORS
330
C
102
}
330
C
100
AcDbProxyObject
 90
      499
 91
      594
 95
   917527
 70
     0
 93
       34
310
05000044FF
 94
        0
1001
ACAD
1000
AcRTDxfName
1000
MAPIADMODULE
  0
DICTIONARY
  5
2B
102
{ACAD_REACTORS
330
C
102
}
330
C
100
AcDbDictionary
281
     1
  0
DICTIONARY
  5
7D
102
{ACAD_REACTORS
330
C
102
}
330
C
100
AcDbDictionary
281
     1
  0
DICTIONARY
  5
B331
102
{ACAD_REACTORS
330
C
102
}
330
C
100
AcDbDictionary
281
     1
  3
ASEBlockHierarchyIndexRecord
350
B332
1001
DCO15
1040
1594111214.218
  0
XRECORD
  5
C0D5
102
{ACAD_REACTORS
330
C
102
}
330
C
100
AcDbXrecord
280
     1
  1
DWGPROPS COOKIE
  2

  3

  4

  6

  7

  8
Administrator
  9

300
AmdtFileType=84
301
=
302
=
303
=
304
=
305
=
306
=
307
=
308
=
309
=
 40
0.0873940277777778
 41
2456129.601273322
 42
2456267.596429398
  1

 90
        1
  0
ACAD_PROXY_OBJECT
  5
3DEB
102
{ACAD_REACTORS
330
C
102
}
330
C
100
AcDbProxyObject
 90
      499
 91
      583
 95
   917527
 70
     0
 93
        8
310
047E
 94
        0
1001
ACAD
1000
AcRTDxfName
1000
AMDTMAPISURFMOUDULE
  0
DICTIONARY
  5
B466
102
{ACAD_REACTORS
330
3F95
102
}
330
3F95
100
AcDbDictionary
281
     1
  0
DICTIONARY
  5
3F96
102
{ACAD_REACTORS
330
3F95
102
}
330
3F95
100
AcDbDictionary
281
     1
  3
20011210
350
3FB7
  0
DICTIONARY
  5
B465
102
{ACAD_REACTORS
330
3F95
102
}
330
3F95
100
AcDbDictionary
281
     1
1001
ACAD
1000
<All
  0
DICTIONARY
  5
AAB4
102
{ACAD_REACTORS
330
3F95
102
}
330
3F95
100
AcDbDictionary
280
     1
281
     1
  0
XRECORD
  5
BFBE
102
{ACAD_REACTORS
330
BFBD
102
}
330
BFBD
100
AcDbXrecord
280
     1
290
     1
  0
XRECORD
  5
BFC0
102
{ACAD_REACTORS
330
BFBF
102
}
330
BFBF
100
AcDbXrecord
280
     1
290
     1
  0
XRECORD
  5
BFC2
102
{ACAD_REACTORS
330
BFC1
102
}
330
BFC1
100
AcDbXrecord
280
     1
290
     1
  0
XRECORD
  5
BFC4
102
{ACAD_REACTORS
330
BFC3
102
}
330
BFC3
100
AcDbXrecord
280
     1
290
     1
  0
XRECORD
  5
BFC6
102
{ACAD_REACTORS
330
BFC5
102
}
330
BFC5
100
AcDbXrecord
280
     1
290
     1
  0
XRECORD
  5
BFC8
102
{ACAD_REACTORS
330
BFC7
102
}
330
BFC7
100
AcDbXrecord
280
     1
290
     1
  0
XRECORD
  5
BFCA
102
{ACAD_REACTORS
330
BFC9
102
}
330
BFC9
100
AcDbXrecord
280
     1
290
     1
  0
XRECORD
  5
BFCC
102
{ACAD_REACTORS
330
BFCB
102
}
330
BFCB
100
AcDbXrecord
280
     1
290
     1
  0
XRECORD
  5
BFCE
102
{ACAD_REACTORS
330
BFCD
102
}
330
BFCD
100
AcDbXrecord
280
     1
290
     1
  0
XRECORD
  5
BFD0
102
{ACAD_REACTORS
330
BFCF
102
}
330
BFCF
100
AcDbXrecord
280
     1
290
     1
  0
XRECORD
  5
BFD2
102
{ACAD_REACTORS
330
BFD1
102
}
330
BFD1
100
AcDbXrecord
280
     1
290
     1
  0
XRECORD
  5
BFD4
102
{ACAD_REACTORS
330
BFD3
102
}
330
BFD3
100
AcDbXrecord
280
     1
290
     1
  0
XRECORD
  5
BFD6
102
{ACAD_REACTORS
330
BFD5
102
}
330
BFD5
100
AcDbXrecord
280
     1
290
     1
  0
XRECORD
  5
BFD8
102
{ACAD_REACTORS
330
BFD7
102
}
330
BFD7
100
AcDbXrecord
280
     1
290
     1
  0
XRECORD
  5
BFDA
102
{ACAD_REACTORS
330
BFD9
102
}
330
BFD9
100
AcDbXrecord
280
     1
290
     1
  0
XRECORD
  5
BFDC
102
{ACAD_REACTORS
330
BFDB
102
}
330
BFDB
100
AcDbXrecord
280
     1
290
     1
  0
XRECORD
  5
BFDE
102
{ACAD_REACTORS
330
BFDD
102
}
330
BFDD
100
AcDbXrecord
280
     1
290
     1
  0
XRECORD
  5
BFE0
102
{ACAD_REACTORS
330
BFDF
102
}
330
BFDF
100
AcDbXrecord
280
     1
290
     1
  0
XRECORD
  5
BFE2
102
{ACAD_REACTORS
330
BFE1
102
}
330
BFE1
100
AcDbXrecord
280
     1
290
     1
  0
XRECORD
  5
BFE4
102
{ACAD_REACTORS
330
BFE3
102
}
330
BFE3
100
AcDbXrecord
280
     1
290
     1
  0
XRECORD
  5
BFE6
102
{ACAD_REACTORS
330
BFE5
102
}
330
BFE5
100
AcDbXrecord
280
     1
290
     1
  0
XRECORD
  5
BFE8
102
{ACAD_REACTORS
330
BFE7
102
}
330
BFE7
100
AcDbXrecord
280
     1
290
     1
  0
SORTENTSTABLE
  5
B1BA
102
{ACAD_REACTORS
330
8A
102
}
330
8A
100
AcDbSortentsTable
330
1F
331
BD08
  5
BDB9
331
BD10
  5
BDC1
331
B90F
  5
B91E
331
B946
  5
B9AB
331
B917
  5
B926
331
B94E
  5
B9B6
331
BC81
  5
BCA3
331
B91F
  5
B92E
331
BC12
  5
BC7D
331
BD18
  5
BC88
331
BC91
  5
BC8D
331
BDB8
  5
B90B
331
BC99
  5
BCFB
331
BDC0
  5
B913
331
BCA1
  5
BD0B
331
B927
  5
B938
331
B9AE
  5
B9EF
331
B9B6
  5
BB26
331
B92F
  5
B941
331
B937
  5
B949
331
BBCB
  5
BC5C
331
BC62
  5
BC9A
331
BCF9
  5
BD15
331
BD01
  5
BDB8
331
BD09
  5
BDBA
331
BC7A
  5
BC9C
331
B910
  5
B91F
331
B947
  5
B9AD
331
B918
  5
B927
331
B94F
  5
B9B8
331
BA4D
  5
BC1D
331
BC82
  5
BCA4
331
BC8A
  5
BC7F
331
BC13
  5
BC7E
331
BC92
  5
BC60
331
BDB9
  5
B90C
331
BC9A
  5
BCFC
331
BDC1
  5
B914
331
BCF2
  5
BD0C
331
B920
  5
B92F
331
B928
  5
B939
331
B9AF
  5
BA1F
331
BC3B
  5
BC83
331
B930
  5
B942
331
B938
  5
B94A
331
B9C7
  5
BC12
331
BC63
  5
BC9B
331
BCFA
  5
BD16
331
BD0A
  5
BDBB
331
B940
  5
B983
331
B911
  5
B920
331
B948
  5
B9AE
331
BC7B
  5
BC9D
331
BC83
  5
BCF5
331
BC0C
  5
BC5E
331
B919
  5
B928
331
B950
  5
B9B9
331
B9EF
  5
BC13
331
BC14
  5
BC80
331
BD1A
  5
BDC6
331
BDBA
  5
B90D
331
BC9B
  5
BCFD
331
BDC2
  5
B915
331
BCF3
  5
BD0D
331
B921
  5
B930
331
B9B0
  5
BA4D
331
B929
  5
B93A
331
BC3C
  5
BC84
331
B9B8
  5
BB4E
331
B931
  5
B945
331
B939
  5
B94B
331
BA1F
  5
BC14
331
BC5C
  5
BC8E
331
BCFB
  5
BD17
331
BD0B
  5
BDBC
331
BD13
  5
BC87
331
B941
  5
B984
331
BC7C
  5
BC9E
331
B912
  5
B921
331
B949
  5
B9AF
331
BC84
  5
BCF6
331
B91A
  5
B929
331
BC0D
  5
BC5F
331
BB26
  5
BC3F
331
BC1D
  5
BC82
331
BDBB
  5
B90E
331
BC9C
  5
BCFE
331
BDC3
  5
B916
331
BCF4
  5
BD0E
331
B922
  5
B931
331
B9B1
  5
BABA
331
B92A
  5
B93B
331
BC3D
  5
BC86
331
B9B9
  5
BBCB
331
BB4E
  5
BC40
331
B93A
  5
B94C
331
BC5D
  5
BC8F
331
BB07
  5
BC3E
331
BCFC
  5
BD18
331
BD0C
  5
BDBD
331
BD14
  5
BDC2
331
B90B
  5
B91A
331
B942
  5
B985
331
B913
  5
B922
331
B94A
  5
B9B0
331
BC7D
  5
BC9F
331
B91B
  5
B92A
331
BC85
  5
BCF7
331
BC8D
  5
BC85
331
BC16
  5
BC81
331
BC9D
  5
BD00
331
BDBC
  5
B90F
331
BCF5
  5
BD0F
331
B923
  5
B934
331
B9AA
  5
B9C4
331
BC3E
  5
BC89
331
B92B
  5
B93C
331
B9BA
  5
BC0C
331
B93B
  5
B94D
331
BC5E
  5
BC90
331
BCFD
  5
BD19
331
BD0D
  5
BDBE
331
BD15
  5
BDC3
331
B90C
  5
B91B
331
B914
  5
B923
331
B94B
  5
B9B1
331
BC7E
  5
BCA0
331
BC86
  5
BCF8
331
B91C
  5
B92B
331
BC0F
  5
BC63
331
BC8E
  5
BC8A
331
B983
  5
B9BA
331
BC9E
  5
BD01
331
BDBD
  5
B910
331
BCF6
  5
BD10
331
B924
  5
B935
331
B9AB
  5
B9C5
331
BAD9
  5
BC3D
331
B9B3
  5
BAD9
331
B92C
  5
B93D
331
BC3F
  5
BC8B
331
B934
  5
B946
331
B93C
  5
B94E
331
BC5F
  5
BC91
331
BD0E
  5
BDBF
331
BD16
  5
BDC4
331
B90D
  5
B91C
331
B915
  5
B924
331
B94C
  5
B9B3
331
BC7F
  5
BCA1
331
BC87
  5
BCF9
331
BC10
  5
BC7A
331
B91D
  5
B92C
331
B984
  5
B9BC
331
BABA
  5
BC3C
331
BDBE
  5
B911
331
BC9F
  5
BD02
331
BCF7
  5
BD11
331
B925
  5
B936
331
B92D
  5
B93E
331
B9B4
  5
BB07
331
BC40
  5
BC8C
331
B935
  5
B947
331
B9BC
  5
BC0D
331
B93D
  5
B94F
331
B9C4
  5
BC10
331
BC60
  5
BC92
331
BCFF
  5
BD1A
331
BD0F
  5
BDC0
331
BD17
  5
BDC5
331
B90E
  5
B91D
331
B945
  5
B9AA
331
B916
  5
B925
331
B94D
  5
B9B4
331
BC80
  5
BCA2
331
BC88
  5
BCFA
331
B91E
  5
B92D
331
BC11
  5
BC7C
331
B985
  5
B9BD
331
BDBF
  5
B912
331
BCA0
  5
BD04
331
B926
  5
B937
331
B9AD
  5
B9C7
331
B92E
  5
B940
331
B936
  5
B948
331
B9BD
  5
BC0F
331
B93E
  5
B950
331
B9C5
  5
BC11
331
BC61
  5
BC99
331
BCF8
  5
BD14
  0
XRECORD
  5
C0D7
102
{ACAD_REACTORS
330
C0D6
102
}
330
C0D6
100
AcDbXrecord
280
     1
 70
     1
  0
LAYOUT
  5
22
102
{ACAD_XDICTIONARY
360
C0DA
102
}
102
{ACAD_REACTORS
330
1A
102
}
330
1A
100
AcDbPlotSettings
  1

  2
Adobe PDF
  4
A4
  6
AM_VIEW1
 40
3.174999952316284
 41
3.174999952316284
 42
3.175003051757812
 43
3.17498779296875
 44
209.9733276367187
 45
297.0318298339844
 46
-3.188337683677687
 47
-3.159078955650329
 48
0.0
 49
-0.0000000000000284
140
297.0
141
210.0
142
1.0
143
1.0
 70
  3748
 72
     1
 73
     1
 74
     4
  7
monochrome.ctb
 75
     0
147
0.9532055446079798
148
0.0
149
0.0000000000000284
100
AcDbLayout
  1
Model
 70
     1
 71
     0
 10
0.0
 20
0.0
 11
12.0
 21
9.0
 12
0.0
 22
0.0
 32
0.0
 14
0.0
 24
0.0
 34
0.0
 15
0.0
 25
0.0
 35
0.0
146
0.0
 13
0.0
 23
0.0
 33
0.0
 16
1.0
 26
0.0
 36
0.0
 17
0.0
 27
1.0
 37
0.0
 76
     0
330
1F
331
B0EC
1001
ACAD_PSEXT
1000
Adobe PDF
1000
Adobe PDF Converter
1000
My Documents\*.pdf
1000

1070
     0
  0
LAYOUT
  5
1E
102
{ACAD_XDICTIONARY
360
C0D8
102
}
102
{ACAD_REACTORS
330
1A
102
}
330
1A
100
AcDbPlotSettings
  1

  2
\\ML370\XEROX
  4
A4
  6

 40
3.174999952316284
 41
3.174999952316284
 42
3.175003051757812
 43
3.17498779296875
 44
209.8674926757813
 45
296.6719970703125
 46
0.0
 47
0.0
 48
0.0
 49
0.0
140
0.0
141
0.0
142
1.0
143
1.0
 70
   688
 72
     1
 73
     1
 74
     5
  7
monochrome.ctb
 75
    16
147
1.0
148
0.0
149
0.0
100
AcDbLayout
  1
ﾚｲｱｳﾄ1
 70
     1
 71
     1
 10
-3.17498779296875
 20
-3.174999952316284
 11
293.4970092773438
 21
206.692492723465
 12
0.0
 22
0.0
 32
0.0
 14
1.000000000000000E+20
 24
1.000000000000000E+20
 34
1.000000000000000E+20
 15
-1.000000000000000E+20
 25
-1.000000000000000E+20
 35
-1.000000000000000E+20
146
0.0
 13
0.0
 23
0.0
 33
0.0
 16
1.0
 26
0.0
 36
0.0
 17
0.0
 27
1.0
 37
0.0
 76
     0
330
1B
  0
LAYOUT
  5
26
102
{ACAD_XDICTIONARY
360
C0DC
102
}
102
{ACAD_REACTORS
330
1A
102
}
330
1A
100
AcDbPlotSettings
  1

  2
\\ML370\XEROX
  4

  6

 40
0.0
 41
0.0
 42
0.0
 43
0.0
 44
0.0
 45
0.0
 46
0.0
 47
0.0
 48
0.0
 49
0.0
140
0.0
141
0.0
142
1.0
143
1.0
 70
   688
 72
     0
 73
     0
 74
     5
  7
monochrome.ctb
 75
    16
147
1.0
148
0.0
149
0.0
100
AcDbLayout
  1
ﾚｲｱｳﾄ2
 70
     1
 71
     2
 10
0.0
 20
0.0
 11
12.0
 21
9.0
 12
0.0
 22
0.0
 32
0.0
 14
0.0
 24
0.0
 34
0.0
 15
0.0
 25
0.0
 35
0.0
146
0.0
 13
0.0
 23
0.0
 33
0.0
 16
1.0
 26
0.0
 36
0.0
 17
0.0
 27
1.0
 37
0.0
 76
     0
330
23
  0
MATERIAL
  5
B0EF
102
{ACAD_XDICTIONARY
360
C0E1
102
}
102
{ACAD_REACTORS
330
A91C
102
}
330
A91C
100
AcDbMaterial
  1
ByBlock
  0
MATERIAL
  5
B0EE
102
{ACAD_XDICTIONARY
360
C0DF
102
}
102
{ACAD_REACTORS
330
A91C
102
}
330
A91C
100
AcDbMaterial
  1
ByLayer
  0
MATERIAL
  5
B0F0
102
{ACAD_XDICTIONARY
360
C0E3
102
}
102
{ACAD_REACTORS
330
A91C
102
}
330
A91C
100
AcDbMaterial
  1
Global
  0
ACAD_PROXY_OBJECT
  5
BE6B
102
{ACAD_REACTORS
330
BE6A
102
}
330
BE6A
100
AcDbProxyObject
 90
      499
 91
      629
 95
  1703963
 70
     0
 93
      817
310
40901902A40600000030400FEFFFFFF8000000000000008102B5E8DC0F42B5CFC0000000000001040405064068000000C1000000000000000410000000000000004102000000304015D94000000000000C03F4214C01D0018401B80190018401C80190028C00CC
340
14
340
0
340
11
340
0
 94
        0
1001
ACAD_MLEADERVER
1070
     2
1001
ACAD
1000
AcRTDxfName
1000
MLEADERSTYLE
  0
MLINESTYLE
  5
18
102
{ACAD_REACTORS
330
17
102
}
330
17
100
AcDbMlineStyle
  2
STANDARD
 70
     0
  3

 62
   256
 51
90.0
 52
90.0
 71
     2
 49
0.5
 62
   256
  6
BYLAYER
 49
-0.5
 62
   256
  6
BYLAYER
  0
ACDBPLACEHOLDER
  5
F
102
{ACAD_REACTORS
330
E
102
}
330
E
  0
ACAD_PROXY_OBJECT
  5
BE49
102
{ACAD_REACTORS
330
BE48
102
}
330
BE48
100
AcDbProxyObject
 90
      499
 91
      628
 95
  1703963
 70
     0
 93
       82
310
968198801D0018801D004C
 94
        0
1001
ACAD
1000
AcRTDxfName
1000
SCALE
  0
ACAD_PROXY_OBJECT
  5
BE4A
102
{ACAD_REACTORS
330
BE48
102
}
330
BE48
100
AcDbProxyObject
 90
      499
 91
      628
 95
  1703963
 70
     0
 93
      146
310
9000000000000001008198801D0019001D004C
 94
        0
1001
ACAD
1000
AcRTDxfName
1000
SCALE
  0
ACAD_PROXY_OBJECT
  5
BE4B
102
{ACAD_REACTORS
330
BE48
102
}
330
BE48
100
AcDbProxyObject
 90
      499
 91
      628
 95
  1703963
 70
     0
 93
      146
310
9000000000000041008198801D001A001D004C
 94
        0
1001
ACAD
1000
AcRTDxfName
1000
SCALE
  0
ACAD_PROXY_OBJECT
  5
BE4C
102
{ACAD_REACTORS
330
BE48
102
}
330
BE48
100
AcDbProxyObject
 90
      499
 91
      628
 95
  1703963
 70
     0
 93
      146
310
9000000000000051008198801D001A801D004C
 94
        0
1001
ACAD
1000
AcRTDxfName
1000
SCALE
  0
ACAD_PROXY_OBJECT
  5
BE4D
102
{ACAD_REACTORS
330
BE48
102
}
330
BE48
100
AcDbProxyObject
 90
      499
 91
      628
 95
  1703963
 70
     0
 93
      146
310
9000000000000081008198801D001C001D004C
 94
        0
1001
ACAD
1000
AcRTDxfName
1000
SCALE
  0
ACAD_PROXY_OBJECT
  5
BE4E
102
{ACAD_REACTORS
330
BE48
102
}
330
BE48
100
AcDbProxyObject
 90
      499
 91
      628
 95
  1703963
 70
     0
 93
      162
310
9000000000000091008218801D001880180025004C
 94
        0
1001
ACAD
1000
AcRTDxfName
1000
SCALE
  0
ACAD_PROXY_OBJECT
  5
BE4F
102
{ACAD_REACTORS
330
BE48
102
}
330
BE48
100
AcDbProxyObject
 90
      499
 91
      628
 95
  1703963
 70
     0
 93
      162
310
90000000000000C1008218801D0018801B0025004C
 94
        0
1001
ACAD
1000
AcRTDxfName
1000
SCALE
  0
ACAD_PROXY_OBJECT
  5
BE50
102
{ACAD_REACTORS
330
BE48
102
}
330
BE48
100
AcDbProxyObject
 90
      499
 91
      628
 95
  1703963
 70
     0
 93
      162
310
90000000000000D1008218801D001900180025004C
 94
        0
1001
ACAD
1000
AcRTDxfName
1000
SCALE
  0
ACAD_PROXY_OBJECT
  5
BE51
102
{ACAD_REACTORS
330
BE48
102
}
330
BE48
100
AcDbProxyObject
 90
      499
 91
      628
 95
  1703963
 70
     0
 93
      162
310
90000000000000F9008218801D001980180025004C
 94
        0
1001
ACAD
1000
AcRTDxfName
1000
SCALE
  0
ACAD_PROXY_OBJECT
  5
BE52
102
{ACAD_REACTORS
330
BE48
102
}
330
BE48
100
AcDbProxyObject
 90
      499
 91
      628
 95
  1703963
 70
     0
 93
      162
310
9000000000000111008218801D001A00180025004C
 94
        0
1001
ACAD
1000
AcRTDxfName
1000
SCALE
  0
ACAD_PROXY_OBJECT
  5
BE53
102
{ACAD_REACTORS
330
BE48
102
}
330
BE48
100
AcDbProxyObject
 90
      499
 91
      628
 95
  1703963
 70
     0
 93
      162
310
9000000000000125008218801D001A80180025004C
 94
        0
1001
ACAD
1000
AcRTDxfName
1000
SCALE
  0
ACAD_PROXY_OBJECT
  5
BE54
102
{ACAD_REACTORS
330
BE48
102
}
330
BE48
100
AcDbProxyObject
 90
      499
 91
      628
 95
  1703963
 70
     0
 93
      178
310
9000000000000165008298801D001880180018002D004C
 94
        0
1001
ACAD
1000
AcRTDxfName
1000
SCALE
  0
ACAD_PROXY_OBJECT
  5
BE55
102
{ACAD_REACTORS
330
BE48
102
}
330
BE48
100
AcDbProxyObject
 90
      499
 91
      628
 95
  1703963
 70
     0
 93
      146
310
8000000000000004048199001D0018801D004C
 94
        0
1001
ACAD
1000
AcRTDxfName
1000
SCALE
  0
ACAD_PROXY_OBJECT
  5
BE56
102
{ACAD_REACTORS
330
BE48
102
}
330
BE48
100
AcDbProxyObject
 90
      499
 91
      628
 95
  1703963
 70
     0
 93
      146
310
800000000000010404819A001D0018801D004C
 94
        0
1001
ACAD
1000
AcRTDxfName
1000
SCALE
  0
ACAD_PROXY_OBJECT
  5
BE57
102
{ACAD_REACTORS
330
BE48
102
}
330
BE48
100
AcDbProxyObject
 90
      499
 91
      628
 95
  1703963
 70
     0
 93
      146
310
800000000000020404819C001D0018801D004C
 94
        0
1001
ACAD
1000
AcRTDxfName
1000
SCALE
  0
ACAD_PROXY_OBJECT
  5
BE58
102
{ACAD_REACTORS
330
BE48
102
}
330
BE48
100
AcDbProxyObject
 90
      499
 91
      628
 95
  1703963
 70
     0
 93
      162
310
80000000000002440482188018001D00188025004C
 94
        0
1001
ACAD
1000
AcRTDxfName
1000
SCALE
  0
ACAD_PROXY_OBJECT
  5
BE59
102
{ACAD_REACTORS
330
BE48
102
}
330
BE48
100
AcDbProxyObject
 90
      499
 91
      628
 95
  1703963
 70
     0
 93
      178
310
800000000000059404829880180018001D0018802D004C
 94
        0
1001
ACAD
1000
AcRTDxfName
1000
SCALE
  0
ACAD_PROXY_OBJECT
  5
BE5A
102
{ACAD_REACTORS
330
BE48
102
}
330
BE48
100
AcDbProxyObject
 90
      499
 91
      628
 95
  1703963
 70
     0
 93
      386
310
8000000000000803F0000000000000A1008718801780188019001C00110010001E8010001880138016801800110075004C
 94
        0
1001
ACAD
1000
AcRTDxfName
1000
SCALE
  0
ACAD_PROXY_OBJECT
  5
BE5B
102
{ACAD_REACTORS
330
BE48
102
}
330
BE48
100
AcDbProxyObject
 90
      499
 91
      628
 95
  1703963
 70
     0
 93
      370
310
8000000000000903F0000000000000A10086988017801B001A00110010001E801000188013801680180011006D004C
 94
        0
1001
ACAD
1000
AcRTDxfName
1000
SCALE
  0
ACAD_PROXY_OBJECT
  5
BE5C
102
{ACAD_REACTORS
330
BE48
102
}
330
BE48
100
AcDbProxyObject
 90
      499
 91
      628
 95
  1703963
 70
     0
 93
      370
310
8000000000000A03F0000000000000A100869880178019801900110010001E801000188013801680180011006D004C
 94
        0
1001
ACAD
1000
AcRTDxfName
1000
SCALE
  0
ACAD_PROXY_OBJECT
  5
BE5D
102
{ACAD_REACTORS
330
BE48
102
}
330
BE48
100
AcDbProxyObject
 90
      499
 91
      628
 95
  1703963
 70
     0
 93
      370
310
8000000000000B03F0000000000000A100869880178018801B00110010001E801000188013801680180011006D004C
 94
        0
1001
ACAD
1000
AcRTDxfName
1000
SCALE
  0
ACAD_PROXY_OBJECT
  5
BE5E
102
{ACAD_REACTORS
330
BE48
102
}
330
BE48
100
AcDbProxyObject
 90
      499
 91
      628
 95
  1703963
 70
     0
 93
      370
310
8000000000000B83F0000000000000A100869980178019801900110010001E801000188013801680180011006D004C
 94
        0
1001
ACAD
1000
AcRTDxfName
1000
SCALE
  0
ACAD_PROXY_OBJECT
  5
BE5F
102
{ACAD_REACTORS
330
BE48
102
}
330
BE48
100
AcDbProxyObject
 90
      499
 91
      628
 95
  1703963
 70
     0
 93
      354
310
8000000000000C03F0000000000000A10086188017801C00110010001E8010001880138016801800110065004C
 94
        0
1001
ACAD
1000
AcRTDxfName
1000
SCALE
  0
ACAD_PROXY_OBJECT
  5
BE60
102
{ACAD_REACTORS
330
BE48
102
}
330
BE48
100
AcDbProxyObject
 90
      499
 91
      628
 95
  1703963
 70
     0
 93
      370
310
8000000000000C83F0000000000000A100869980178018801B00110010001E801000188013801680180011006D004C
 94
        0
1001
ACAD
1000
AcRTDxfName
1000
SCALE
  0
ACAD_PROXY_OBJECT
  5
BE61
102
{ACAD_REACTORS
330
BE48
102
}
330
BE48
100
AcDbProxyObject
 90
      499
 91
      628
 95
  1703963
 70
     0
 93
      354
310
8000000000000D03F0000000000000A10086188017801A00110010001E8010001880138016801800110065004C
 94
        0
1001
ACAD
1000
AcRTDxfName
1000
SCALE
  0
ACAD_PROXY_OBJECT
  5
BE62
102
{ACAD_REACTORS
330
BE48
102
}
330
BE48
100
AcDbProxyObject
 90
      499
 91
      628
 95
  1703963
 70
     0
 93
      354
310
8000000000000D83F0000000000000A10086198017801C00110010001E8010001880138016801800110065004C
 94
        0
1001
ACAD
1000
AcRTDxfName
1000
SCALE
  0
ACAD_PROXY_OBJECT
  5
BE63
102
{ACAD_REACTORS
330
BE48
102
}
330
BE48
100
AcDbProxyObject
 90
      499
 91
      628
 95
  1703963
 70
     0
 93
      354
310
8000000000000E03F0000000000000A10086188017801900110010001E8010001880138016801800110065004C
 94
        0
1001
ACAD
1000
AcRTDxfName
1000
SCALE
  0
ACAD_PROXY_OBJECT
  5
BE64
102
{ACAD_REACTORS
330
BE48
102
}
330
BE48
100
AcDbProxyObject
 90
      499
 91
      628
 95
  1703963
 70
     0
 93
      354
310
8000000000000E83F0000000000000A10086198017801A00110010001E8010001880138016801800110065004C
 94
        0
1001
ACAD
1000
AcRTDxfName
1000
SCALE
  0
ACAD_PROXY_OBJECT
  5
BE65
102
{ACAD_REACTORS
330
BE48
102
}
330
BE48
100
AcDbProxyObject
 90
      499
 91
      628
 95
  1703963
 70
     0
 93
      258
310
90000000000000A100851880110010001E8010001880138016801800110055004C
 94
        0
1001
ACAD
1000
AcRTDxfName
1000
SCALE
  0
ACAD_PROXY_OBJECT
  5
BE66
102
{ACAD_REACTORS
330
BE48
102
}
330
BE48
100
AcDbProxyObject
 90
      499
 91
      628
 95
  1703963
 70
     0
 93
      386
310
8000000000000F83F0000000000000A1008718801680188017801900110010001E8010001880138016801800110075004C
 94
        0
1001
ACAD
1000
AcRTDxfName
1000
SCALE
  0
ACAD_PROXY_OBJECT
  5
BE67
102
{ACAD_REACTORS
330
BE48
102
}
330
BE48
100
AcDbProxyObject
 90
      499
 91
      628
 95
  1703963
 70
     0
 93
      322
310
800000000000008400000000000000A100851980110010001E8010001880138016801800110055004C
 94
        0
1001
ACAD
1000
AcRTDxfName
1000
SCALE
  0
ACAD_PROXY_OBJECT
  5
BE68
102
{ACAD_REACTORS
330
BE48
102
}
330
BE48
100
AcDbProxyObject
 90
      499
 91
      628
 95
  1703963
 70
     0
 93
      322
310
800000000000018400000000000000A100851B00110010001E8010001880138016801800110055004C
 94
        0
1001
ACAD
1000
AcRTDxfName
1000
SCALE
  0
ACAD_PROXY_OBJECT
  5
BE69
102
{ACAD_REACTORS
330
BE48
102
}
330
BE48
100
AcDbProxyObject
 90
      499
 91
      628
 95
  1703963
 70
     0
 93
      370
310
800000000000028400000000000000A100869880138016801800110010001E801000188013801680180011006D004C
 94
        0
1001
ACAD
1000
AcRTDxfName
1000
SCALE
  0
TABLESTYLE
  5
AABA
102
{ACAD_XDICTIONARY
360
BFF2
102
}
102
{ACAD_REACTORS
330
AAB9
102
}
330
AAB9
100
AcDbTableStyle
  3
Standard
 70
     0
 71
     0
 40
1.5
 41
1.5
280
     0
281
     0
  7
STANDARD
140
4.5
170
     2
 62
     0
 63
     7
283
     0
274
    -2
284
     1
 64
     0
275
    -2
285
     1
 65
     0
276
    -2
286
     1
 66
     0
277
    -2
287
     1
 67
     0
278
    -2
288
     1
 68
     0
279
    -2
289
     1
 69
     0
  7
STANDARD
140
6.0
170
     5
 62
     0
 63
     7
283
     0
274
    -2
284
     1
 64
     0
275
    -2
285
     1
 65
     0
276
    -2
286
     1
 66
     0
277
    -2
287
     1
 67
     0
278
    -2
288
     1
 68
     0
279
    -2
289
     1
 69
     0
  7
STANDARD
140
4.5
170
     5
 62
     0
 63
     7
283
     0
274
    -2
284
     1
 64
     0
275
    -2
285
     1
 65
     0
276
    -2
286
     1
 66
     0
277
    -2
287
     1
 67
     0
278
    -2
288
     1
 68
     0
279
    -2
289
     1
 69
     0
  0
VISUALSTYLE
  5
B0F7
102
{ACAD_REACTORS
330
B0F1
102
}
330
B0F1
100
AcDbVisualStyle
  2
2dWireframe
 70
     4
 71
     0
 72
     2
 73
     0
 90
        0
 40
-0.6
 41
-30.0
 62
     5
 63
     7
 74
     1
 91
        4
 64
     7
 65
   257
 75
     1
175
     1
 42
1.0
 92
        0
 66
   257
 43
1.0
 76
     1
 77
     6
 78
     2
 67
     7
 79
     5
170
     0
171
     0
290
     0
174
     0
 93
        1
 44
0.0
173
     0
291
     0
 45
0.0
1001
ACAD
1000
AcDbSavedByObjectVersion
1070
     0
  0
VISUALSTYLE
  5
B0F9
102
{ACAD_REACTORS
330
B0F1
102
}
330
B0F1
100
AcDbVisualStyle
  2
3D Hidden
 70
     6
 71
     1
 72
     2
 73
     2
 90
        0
 40
-0.6
 41
-30.0
 62
     5
 63
     7
 74
     2
 91
        2
 64
     7
 65
   257
 75
     2
175
     1
 42
40.0
 92
        0
 66
   257
 43
1.0
 76
     1
 77
     6
 78
     2
 67
     7
 79
     3
170
     0
171
     0
290
     0
174
     0
 93
        1
 44
0.0
173
     0
291
     0
 45
0.0
1001
ACAD
1000
AcDbSavedByObjectVersion
1070
     0
  0
VISUALSTYLE
  5
B0F8
102
{ACAD_REACTORS
330
B0F1
102
}
330
B0F1
100
AcDbVisualStyle
  2
3dWireframe
 70
     5
 71
     0
 72
     2
 73
     0
 90
        0
 40
-0.6
 41
-30.0
 62
     5
 63
     7
 74
     1
 91
        4
 64
     7
 65
   257
 75
     1
175
     1
 42
1.0
 92
        0
 66
   257
 43
1.0
 76
     1
 77
     6
 78
     2
 67
     7
 79
     5
170
     0
171
     0
290
     0
174
     0
 93
        1
 44
0.0
173
     0
291
     0
 45
0.0
1001
ACAD
1000
AcDbSavedByObjectVersion
1070
     0
  0
VISUALSTYLE
  5
B0F6
102
{ACAD_REACTORS
330
B0F1
102
}
330
B0F1
100
AcDbVisualStyle
  2
Basic
 70
     7
 71
     1
 72
     0
 73
     1
 90
        0
 40
-0.6
 41
-30.0
 62
     5
 63
     7
 74
     0
 91
        4
 64
     7
 65
   257
 75
     1
175
     1
 42
1.0
 92
        8
 66
     7
 43
1.0
 76
     1
 77
     6
 78
     2
 67
     7
 79
     5
170
     0
171
     0
290
     0
174
     0
 93
        1
 44
0.0
173
     0
291
     1
 45
0.0
1001
ACAD
1000
AcDbSavedByObjectVersion
1070
     0
  0
VISUALSTYLE
  5
B0FD
102
{ACAD_REACTORS
330
B0F1
102
}
330
B0F1
100
AcDbVisualStyle
  2
Brighten
 70
    12
 71
     2
 72
     2
 73
     0
 90
        0
 40
-0.6
 41
-30.0
 62
     5
 63
     7
 74
     1
 91
        4
 64
     7
 65
   257
 75
     1
175
     1
 42
1.0
 92
        8
 66
     7
 43
1.0
 76
     1
 77
     6
 78
     2
 67
     7
 79
     5
170
     0
171
     0
290
     0
174
     0
 93
        1
 44
50.0
173
     0
291
     1
 45
0.0
1001
ACAD
1000
AcDbSavedByObjectVersion
1070
     0
  0
VISUALSTYLE
  5
B101
102
{ACAD_REACTORS
330
B0F1
102
}
330
B0F1
100
AcDbVisualStyle
  2
ColorChange
 70
    16
 71
     2
 72
     2
 73
     3
 90
        0
 40
-0.6
 41
-30.0
 62
     5
 63
     8
 74
     1
 91
        4
 64
     7
 65
   257
 75
     1
175
     1
 42
1.0
 92
        8
 66
     8
 43
1.0
 76
     1
 77
     6
 78
     2
 67
     7
 79
     5
170
     0
171
     0
290
     0
174
     0
 93
        1
 44
0.0
173
     0
291
     1
 45
0.0
1001
ACAD
1000
AcDbSavedByObjectVersion
1070
     0
  0
VISUALSTYLE
  5
B0FA
102
{ACAD_REACTORS
330
B0F1
102
}
330
B0F1
100
AcDbVisualStyle
  2
Conceptual
 70
     9
 71
     3
 72
     2
 73
     0
 90
        0
 40
-0.6
 41
-30.0
 62
     5
 63
     7
 74
     2
 91
        2
 64
     7
 65
   257
 75
     1
175
     1
 42
40.0
 92
        8
 66
     7
 43
1.0
 76
     1
 77
     6
 78
     2
 67
     7
 79
     3
170
     0
171
     0
290
     0
174
     0
 93
        1
 44
0.0
173
     0
291
     0
 45
0.0
1001
ACAD
1000
AcDbSavedByObjectVersion
1070
     0
  0
VISUALSTYLE
  5
B0FC
102
{ACAD_REACTORS
330
B0F1
102
}
330
B0F1
100
AcDbVisualStyle
  2
Dim
 70
    11
 71
     2
 72
     2
 73
     0
 90
        0
 40
-0.6
 41
-30.0
 62
     5
 63
     7
 74
     1
 91
        4
 64
     7
 65
   257
 75
     1
175
     1
 42
1.0
 92
        8
 66
     7
 43
1.0
 76
     1
 77
     6
 78
     2
 67
     7
 79
     5
170
     0
171
     0
290
     0
174
     0
 93
        1
 44
-50.0
173
     0
291
     1
 45
0.0
1001
ACAD
1000
AcDbSavedByObjectVersion
1070
     0
  0
VISUALSTYLE
  5
B100
102
{ACAD_REACTORS
330
B0F1
102
}
330
B0F1
100
AcDbVisualStyle
  2
Facepattern
 70
    15
 71
     2
 72
     2
 73
     0
 90
        0
 40
-0.6
 41
-30.0
 62
     5
 63
     7
 74
     1
 91
        4
 64
     7
 65
   257
 75
     1
175
     1
 42
1.0
 92
        8
 66
     7
 43
1.0
 76
     1
 77
     6
 78
     2
 67
     7
 79
     5
170
     0
171
     0
290
     0
174
     0
 93
        1
 44
0.0
173
     0
291
     1
 45
0.0
1001
ACAD
1000
AcDbSavedByObjectVersion
1070
     0
  0
VISUALSTYLE
  5
B0F2
102
{ACAD_REACTORS
330
B0F1
102
}
330
B0F1
100
AcDbVisualStyle
  2
Flat
 70
     0
 71
     2
 72
     1
 73
     1
 90
        2
 40
-0.6
 41
30.0
 62
     5
 63
     7
 74
     0
 91
        4
 64
     7
 65
   257
 75
     1
175
     1
 42
1.0
 92
        8
 66
     7
 43
1.0
 76
     1
 77
     6
 78
     2
 67
     7
 79
     5
170
     0
171
     0
290
     0
174
     0
 93
       13
 44
0.0
173
     0
291
     1
 45
0.0
1001
ACAD
1000
AcDbSavedByObjectVersion
1070
     0
  0
VISUALSTYLE
  5
B0F3
102
{ACAD_REACTORS
330
B0F1
102
}
330
B0F1
100
AcDbVisualStyle
  2
FlatWithEdges
 70
     1
 71
     2
 72
     1
 73
     1
 90
        2
 40
-0.6
 41
30.0
 62
     5
 63
     7
 74
     1
 91
        4
 64
     7
 65
   257
 75
     1
175
     1
 42
1.0
 92
        0
 66
   257
 43
1.0
 76
     1
 77
     6
 78
     2
 67
     7
 79
     5
170
     0
171
     0
290
     0
174
     0
 93
       13
 44
0.0
173
     0
291
     1
 45
0.0
1001
ACAD
1000
AcDbSavedByObjectVersion
1070
     0
  0
VISUALSTYLE
  5
B0F4
102
{ACAD_REACTORS
330
B0F1
102
}
330
B0F1
100
AcDbVisualStyle
  2
Gouraud
 70
     2
 71
     2
 72
     2
 73
     1
 90
        2
 40
-0.6
 41
30.0
 62
     5
 63
     7
 74
     0
 91
        4
 64
     7
 65
   257
 75
     1
175
     1
 42
1.0
 92
        0
 66
     7
 43
1.0
 76
     1
 77
     6
 78
     2
 67
     7
 79
     5
170
     0
171
     0
290
     0
174
     0
 93
       13
 44
0.0
173
     0
291
     1
 45
0.0
1001
ACAD
1000
AcDbSavedByObjectVersion
1070
     0
  0
VISUALSTYLE
  5
B0F5
102
{ACAD_REACTORS
330
B0F1
102
}
330
B0F1
100
AcDbVisualStyle
  2
GouraudWithEdges
 70
     3
 71
     2
 72
     2
 73
     1
 90
        2
 40
-0.6
 41
30.0
 62
     5
 63
     7
 74
     1
 91
        4
 64
     7
 65
   257
 75
     1
175
     1
 42
1.0
 92
        0
 66
   257
 43
1.0
 76
     1
 77
     6
 78
     2
 67
     7
 79
     5
170
     0
171
     0
290
     0
174
     0
 93
       13
 44
0.0
173
     0
291
     1
 45
0.0
1001
ACAD
1000
AcDbSavedByObjectVersion
1070
     0
  0
VISUALSTYLE
  5
B0FF
102
{ACAD_REACTORS
330
B0F1
102
}
330
B0F1
100
AcDbVisualStyle
  2
Linepattern
 70
    14
 71
     2
 72
     2
 73
     0
 90
        0
 40
-0.6
 41
-30.0
 62
     5
 63
     7
 74
     1
 91
        4
 64
     7
 65
   257
 75
     7
175
     7
 42
1.0
 92
        8
 66
     7
 43
1.0
 76
     1
 77
     6
 78
     2
 67
     7
 79
     5
170
     0
171
     0
290
     0
174
     0
 93
        1
 44
0.0
173
     0
291
     1
 45
0.0
1001
ACAD
1000
AcDbSavedByObjectVersion
1070
     0
  0
VISUALSTYLE
  5
B0FB
102
{ACAD_REACTORS
330
B0F1
102
}
330
B0F1
100
AcDbVisualStyle
  2
Realistic
 70
     8
 71
     2
 72
     2
 73
     0
 90
        0
 40
-0.6
 41
-30.0
 62
     5
 63
     7
 74
     1
 91
        0
 64
     7
 65
   257
 75
     1
175
     1
 42
1.0
 92
        8
 66
     8
 43
1.0
 76
     1
 77
     6
 78
     2
 67
     7
 79
     5
170
     0
171
     0
290
     0
174
     0
 93
       13
 44
0.0
173
     0
291
     0
 45
0.0
1001
ACAD
1000
AcDbSavedByObjectVersion
1070
     0
  0
VISUALSTYLE
  5
B0FE
102
{ACAD_REACTORS
330
B0F1
102
}
330
B0F1
100
AcDbVisualStyle
  2
Thicken
 70
    13
 71
     2
 72
     2
 73
     0
 90
        0
 40
-0.6
 41
-30.0
 62
     5
 63
     7
 74
     1
 91
        4
 64
     7
 65
   257
 75
     1
175
     1
 42
1.0
 92
       12
 66
     7
 43
1.0
 76
     1
 77
     6
 78
     2
 67
     7
 79
     5
170
     0
171
     0
290
     0
174
     0
 93
        1
 44
0.0
173
     0
291
     1
 45
0.0
1001
ACAD
1000
AcDbSavedByObjectVersion
1070
     0
  0
DICTIONARYVAR
  5
BFF7
102
{ACAD_REACTORS
330
34
102
}
330
34
100
DictionaryVariables
280
     0
  1
1:1
  0
DICTIONARYVAR
  5
BFF5
102
{ACAD_REACTORS
330
34
102
}
330
34
100
DictionaryVariables
280
     0
  1
STANDARD
  0
DICTIONARYVAR
  5
AAF3
102
{ACAD_REACTORS
330
34
102
}
330
34
100
DictionaryVariables
280
     0
  1
STANDARD
  0
DICTIONARYVAR
  5
A10C
102
{ACAD_REACTORS
330
34
102
}
330
34
100
DictionaryVariables
280
     0
  1
1
  0
DICTIONARYVAR
  5
AB07
102
{ACAD_REACTORS
330
34
102
}
330
34
100
DictionaryVariables
280
     0
  1
4
  0
DICTIONARYVAR
  5
35
102
{ACAD_REACTORS
330
34
102
}
330
34
100
DictionaryVariables
280
     0
  1
0
  0
DICTIONARYVAR
  5
BFF8
102
{ACAD_REACTORS
330
34
102
}
330
34
100
DictionaryVariables
280
     0
  1
0
  0
DICTIONARYVAR
  5
BFF6
102
{ACAD_REACTORS
330
34
102
}
330
34
100
DictionaryVariables
280
     0
  1
0
  0
DICTIONARYVAR
  5
194C
102
{ACAD_REACTORS
330
34
102
}
330
34
100
DictionaryVariables
280
     0
  1
96
  0
DICTIONARY
  5
7E8
102
{ACAD_REACTORS
330
47
102
}
330
47
100
AcDbDictionary
281
     1
  0
DICTIONARY
  5
4C
102
{ACAD_REACTORS
330
47
102
}
330
47
100
AcDbDictionary
281
     1
  0
XRECORD
  5
A929
102
{ACAD_REACTORS
330
47
102
}
330
47
100
AcDbXrecord
280
     1
 90
-1023410169
  0
XRECORD
  5
B332
102
{ACAD_REACTORS
330
B331
102
}
330
B331
100
AcDbXrecord
280
     1
  0
XRECORD
  5
3FB7
102
{ACAD_REACTORS
330
3F96
102
}
330
3F96
100
AcDbXrecord
280
     1
 91
        3
330
0
 90
        8
 62
     7
370
    40
331
16
  1
Color_7
330
0
 90
        0
 62
    14
370
    -3
331
16
  1
Color_14
330
0
 90
        8
 62
     7
370
    20
331
16
  1
Color_7
330
6D1
 90
        0
 62
     7
370
    -3
331
16
  1
Color_7
330
0
 90
        8
 62
     7
370
    50
331
16
  1
Color_7
330
0
 90
        8
 62
     2
370
    35
331
16
  1
Color_2
330
0
 90
        8
 62
     7
370
    -3
331
16
  1
Color_7
330
10
 90
        8
 62
     7
370
    -3
331
16
  1
Color_7
  0
DICTIONARY
  5
C0DA
330
22
100
AcDbDictionary
280
     1
281
     1
  3
ACAD_XREC_ROUNDTRIP
360
C0DB
  0
DICTIONARY
  5
C0D8
330
1E
100
AcDbDictionary
280
     1
281
     1
  3
ACAD_XREC_ROUNDTRIP
360
C0D9
  0
DICTIONARY
  5
C0DC
330
26
100
AcDbDictionary
280
     1
281
     1
  3
ACAD_XREC_ROUNDTRIP
360
C0DD
  0
DICTIONARY
  5
C0E1
330
B0EF
100
AcDbDictionary
280
     1
281
     1
  3
ACAD_XREC_ROUNDTRIP
360
C0E2
  0
DICTIONARY
  5
C0DF
330
B0EE
100
AcDbDictionary
280
     1
281
     1
  3
ACAD_XREC_ROUNDTRIP
360
C0E0
  0
DICTIONARY
  5
C0E3
330
B0F0
100
AcDbDictionary
280
     1
281
     1
  3
ACAD_XREC_ROUNDTRIP
360
C0E4
  0
DICTIONARY
  5
BFF2
330
AABA
100
AcDbDictionary
280
     1
281
     1
  3
ACAD_ROUNDTRIP_2008_TABLESTYLE_CELLSTYLEMAP
360
C089
  3
ACAD_XREC_ROUNDTRIP
360
C0DE
  0
XRECORD
  5
C0DB
102
{ACAD_REACTORS
330
C0DA
102
}
330
C0DA
100
AcDbXrecord
280
     1
102
SHADEPLOT
 70
     0
102
SHADEPLOTRESLEVEL
 70
     2
102
SHADEPLOTCUSTOMDPI
 70
   200
  0
XRECORD
  5
C0D9
102
{ACAD_REACTORS
330
C0D8
102
}
330
C0D8
100
AcDbXrecord
280
     1
102
SHADEPLOT
 70
     0
102
SHADEPLOTRESLEVEL
 70
     2
102
SHADEPLOTCUSTOMDPI
 70
   300
  0
XRECORD
  5
C0DD
102
{ACAD_REACTORS
330
C0DC
102
}
330
C0DC
100
AcDbXrecord
280
     1
102
SHADEPLOT
 70
     0
102
SHADEPLOTRESLEVEL
 70
     2
102
SHADEPLOTCUSTOMDPI
 70
   300
  0
XRECORD
  5
C0E2
102
{ACAD_REACTORS
330
C0E1
102
}
330
C0E1
100
AcDbXrecord
280
     1
102
MATERIAL
148
0.0
149
0.0
149
0.0
 93
        0
 94
       63
282
     0
 72
     1
 77
     1
171
     1
175
     1
179
     1
273
     0
  0
XRECORD
  5
C0E0
102
{ACAD_REACTORS
330
C0DF
102
}
330
C0DF
100
AcDbXrecord
280
     1
102
MATERIAL
148
0.0
149
0.0
149
0.0
 93
        0
 94
       63
282
     0
 72
     1
 77
     1
171
     1
175
     1
179
     1
273
     0
  0
XRECORD
  5
C0E4
102
{ACAD_REACTORS
330
C0E3
102
}
330
C0E3
100
AcDbXrecord
280
     1
102
MATERIAL
148
0.0
149
0.0
149
0.0
 93
        0
 94
       63
282
     0
 72
     1
 77
     1
171
     1
175
     1
179
     1
273
     0
  0
ACAD_PROXY_OBJECT
  5
C089
102
{ACAD_REACTORS
330
BFF2
102
}
330
BFF2
100
AcDbProxyObject
 90
      499
 91
      632
 95
  1703963
 70
     0
 93
     5369
310
40D054060020000020000003200101A4129416000000304000000000000001840404000000000000F83F0000000000003E0FC000000000000F83F0000000000003E0FC0AD7A3703D0AC73F02B5E8DC0F42B1CFD0640640600000030400FEFFFFFF80AD7A3703D0AA73F40A40600000030400FEFFFFFF80AD7A3703D0AA73F4
310
1240600000030400FEFFFFFF80AD7A3703D0AA73F42240600000030400FEFFFFFF80AD7A3703D0AA73F44240600000030400FEFFFFFF80AD7A3703D0AA73F48240600000030400FEFFFFFF80AD7A3703D0AA73F4050141501A8000000C800406904A5058000000C10000000000000004901010000000000003E0FC00000000
310
0000F83F0000000000003E0FC000000000000F83F02B5E8DC0F42B1CFC0AD7A3703D0AC73F419019018000000C1003FBFFFFFE02B5E8DC0F42A9CFD029018000000C1003FBFFFFFE02B5E8DC0F42A9CFD049018000000C1003FBFFFFFE02B5E8DC0F42A9CFD089018000000C1003FBFFFFFE02B5E8DC0F42A9CFD109018000
310
000C1003FBFFFFFE02B5E8DC0F42A9CFD209018000000C1003FBFFFFFE02B5E8DC0F42A9CFD0240505406A0000003200101A412940A000000304000000000000001240404000000000000F83F0000000000003E0FC000000000000F83F0000000000003E0FC0AD7A3703D0AC73F02B5E8DC0F42B1CFD064064060000003040
310
0FEFFFFFF80AD7A3703D0AA73F40A40600000030400FEFFFFFF80AD7A3703D0AA73F41240600000030400FEFFFFFF80AD7A3703D0AA73F42240600000030400FEFFFFFF80AD7A3703D0AA73F44240600000030400FEFFFFFF80AD7A3703D0AA73F48240600000030400FEFFFFFF80AD7A3703D0AA73F40D029065F00540049
310
0054004C0045009075F004800450041004400450052009055F0044004100540041004401CC
340
11
340
0
340
0
340
0
340
0
340
0
340
0
340
11
340
0
340
0
340
0
340
0
340
0
340
0
340
11
340
0
340
0
340
0
340
0
340
0
340
0
 94
        0
1001
ACAD
1000
AcRTDxfName
1000
CELLSTYLEMAP
  0
XRECORD
  5
C0DE
102
{ACAD_REACTORS
330
BFF2
102
}
330
BFF2
100
AcDbXrecord
280
     1
102
ACAD_ROUNDTRIP_PRE2007_TABLESTYLE
 90
        4
 91
        0
  1

 92
        4
 93
        0
  2

 94
        4
 95
        0
  3

  0
ENDSEC
  0
EOF
