  0
SECTION
  2
HEADER
  9
$ACADVER
  1
AC1015
  9
$ACADMAINTVER
 70
    20
  9
$DWGCODEPAGE
  3
ANSI_932
  9
$INSBASE
 10
0.0
 20
0.0
 30
0.0
  9
$EXTMIN
 10
-0.004528679247187
 20
-0.0032020964374055
 30
-0.0000000000112498
  9
$EXTMAX
 10
297.0045328285427
 20
210.0032050302828
 30
0.0000000000002956
  9
$LIMMIN
 10
0.0
 20
-0.0000000000000284
  9
$LIMMAX
 10
297.0
 20
210.0
  9
$ORTHOMODE
 70
     0
  9
$REGENMODE
 70
     1
  9
$FILLMODE
 70
     1
  9
$QTEXTMODE
 70
     0
  9
$MIRRTEXT
 70
     0
  9
$LTSCALE
 40
1.0
  9
$ATTMODE
 70
     1
  9
$TEXTSIZE
 40
3.2
  9
$TRACEWID
 40
1.0
  9
$TEXTSTYLE
  7
STANDARD
  9
$CLAYER
  8
AM_0
  9
$CELTYPE
  6
ByLayer
  9
$CECOLOR
 62
   256
  9
$CELTSCALE
 40
1.0
  9
$DISPSILH
 70
     0
  9
$DIMSCALE
 40
1.0
  9
$DIMASZ
 40
1.0
  9
$DIMEXO
 40
1.0
  9
$DIMDLI
 40
10.0
  9
$DIMRND
 40
0.0
  9
$DIMDLE
 40
0.0
  9
$DIMEXE
 40
1.0
  9
$DIMTP
 40
0.1
  9
$DIMTM
 40
0.1
  9
$DIMTXT
 40
3.5
  9
$DIMCEN
 40
0.0
  9
$DIMTSZ
 40
0.0
  9
$DIMTOL
 70
     0
  9
$DIMLIM
 70
     0
  9
$DIMTIH
 70
     0
  9
$DIMTOH
 70
     0
  9
$DIMSE1
 70
     0
  9
$DIMSE2
 70
     0
  9
$DIMTAD
 70
     1
  9
$DIMZIN
 70
     8
  9
$DIMBLK
  1

  9
$DIMASO
 70
     1
  9
$DIMSHO
 70
     1
  9
$DIMPOST
  1

  9
$DIMAPOST
  1
"
  9
$DIMALT
 70
     0
  9
$DIMALTD
 70
     2
  9
$DIMALTF
 40
0.0393701
  9
$DIMLFAC
 40
1.0
  9
$DIMTOFL
 70
     1
  9
$DIMTVP
 40
0.0
  9
$DIMTIX
 70
     0
  9
$DIMSOXD
 70
     0
  9
$DIMSAH
 70
     0
  9
$DIMBLK1
  1

  9
$DIMBLK2
  1

  9
$DIMSTYLE
  2
SYS
  9
$DIMCLRD
 70
   256
  9
$DIMCLRE
 70
   256
  9
$DIMCLRT
 70
     7
  9
$DIMTFAC
 40
0.71
  9
$DIMGAP
 40
1.5
  9
$DIMJUST
 70
     0
  9
$DIMSD1
 70
     0
  9
$DIMSD2
 70
     0
  9
$DIMTOLJ
 70
     0
  9
$DIMTZIN
 70
     8
  9
$DIMALTZ
 70
     0
  9
$DIMALTTZ
 70
     0
  9
$DIMUPT
 70
     0
  9
$DIMDEC
 70
     2
  9
$DIMTDEC
 70
     2
  9
$DIMALTU
 70
     2
  9
$DIMALTTD
 70
     2
  9
$DIMTXSTY
  7
STANDARD
  9
$DIMAUNIT
 70
     0
  9
$DIMADEC
 70
     0
  9
$DIMALTRND
 40
0.0
  9
$DIMAZIN
 70
     2
  9
$DIMDSEP
 70
    46
  9
$DIMATFIT
 70
     3
  9
$DIMFRAC
 70
     0
  9
$DIMLDRBLK
  1

  9
$DIMLUNIT
 70
     2
  9
$DIMLWD
 70
    -1
  9
$DIMLWE
 70
    -1
  9
$DIMTMOVE
 70
     0
  9
$LUNITS
 70
     2
  9
$LUPREC
 70
     2
  9
$SKETCHINC
 40
1.0
  9
$FILLETRAD
 40
0.0
  9
$AUNITS
 70
     0
  9
$AUPREC
 70
     0
  9
$MENU
  1
.
  9
$ELEVATION
 40
0.0
  9
$PELEVATION
 40
0.0
  9
$THICKNESS
 40
0.0
  9
$LIMCHECK
 70
     0
  9
$CHAMFERA
 40
0.0
  9
$CHAMFERB
 40
0.0
  9
$CHAMFERC
 40
20.0
  9
$CHAMFERD
 40
0.0
  9
$SKPOLY
 70
     0
  9
$TDCREATE
 40
2456129.601273322
  9
$TDUCREATE
 40
2456129.226273322
  9
$TDUPDATE
 40
2456267.597557327
  9
$TDUUPDATE
 40
2456267.222557326
  9
$TDINDWG
 40
0.0892153125
  9
$TDUSRTIMER
 40
0.0892151389
  9
$USRTIMER
 70
     1
  9
$ANGBASE
 50
0.0
  9
$ANGDIR
 70
     0
  9
$PDMODE
 70
     0
  9
$PDSIZE
 40
-3.0
  9
$PLINEWID
 40
0.0
  9
$SPLFRAME
 70
     0
  9
$SPLINETYPE
 70
     6
  9
$SPLINESEGS
 70
     8
  9
$HANDSEED
  5
C517
  9
$SURFTAB1
 70
     6
  9
$SURFTAB2
 70
     6
  9
$SURFTYPE
 70
     6
  9
$SURFU
 70
     6
  9
$SURFV
 70
     6
  9
$UCSBASE
  2

  9
$UCSNAME
  2

  9
$UCSORG
 10
0.0
 20
0.0
 30
0.0
  9
$UCSXDIR
 10
1.0
 20
0.0
 30
0.0
  9
$UCSYDIR
 10
0.0
 20
1.0
 30
0.0
  9
$UCSORTHOREF
  2

  9
$UCSORTHOVIEW
 70
     0
  9
$UCSORGTOP
 10
0.0
 20
0.0
 30
0.0
  9
$UCSORGBOTTOM
 10
0.0
 20
0.0
 30
0.0
  9
$UCSORGLEFT
 10
0.0
 20
0.0
 30
0.0
  9
$UCSORGRIGHT
 10
0.0
 20
0.0
 30
0.0
  9
$UCSORGFRONT
 10
0.0
 20
0.0
 30
0.0
  9
$UCSORGBACK
 10
0.0
 20
0.0
 30
0.0
  9
$PUCSBASE
  2

  9
$PUCSNAME
  2

  9
$PUCSORG
 10
0.0
 20
0.0
 30
0.0
  9
$PUCSXDIR
 10
1.0
 20
0.0
 30
0.0
  9
$PUCSYDIR
 10
0.0
 20
1.0
 30
0.0
  9
$PUCSORTHOREF
  2

  9
$PUCSORTHOVIEW
 70
     0
  9
$PUCSORGTOP
 10
0.0
 20
0.0
 30
0.0
  9
$PUCSORGBOTTOM
 10
0.0
 20
0.0
 30
0.0
  9
$PUCSORGLEFT
 10
0.0
 20
0.0
 30
0.0
  9
$PUCSORGRIGHT
 10
0.0
 20
0.0
 30
0.0
  9
$PUCSORGFRONT
 10
0.0
 20
0.0
 30
0.0
  9
$PUCSORGBACK
 10
0.0
 20
0.0
 30
0.0
  9
$USERI1
 70
     0
  9
$USERI2
 70
     0
  9
$USERI3
 70
     0
  9
$USERI4
 70
     0
  9
$USERI5
 70
     0
  9
$USERR1
 40
0.0
  9
$USERR2
 40
0.0
  9
$USERR3
 40
0.0
  9
$USERR4
 40
0.0
  9
$USERR5
 40
0.0
  9
$WORLDVIEW
 70
     1
  9
$SHADEDGE
 70
     3
  9
$SHADEDIF
 70
    70
  9
$TILEMODE
 70
     1
  9
$MAXACTVP
 70
    64
  9
$PINSBASE
 10
0.0
 20
0.0
 30
0.0
  9
$PLIMCHECK
 70
     0
  9
$PEXTMIN
 10
1.000000000000000E+20
 20
1.000000000000000E+20
 30
1.000000000000000E+20
  9
$PEXTMAX
 10
-1.000000000000000E+20
 20
-1.000000000000000E+20
 30
-1.000000000000000E+20
  9
$PLIMMIN
 10
-3.17498779296875
 20
-3.174999952316284
  9
$PLIMMAX
 10
293.4970092773438
 20
206.692492723465
  9
$UNITMODE
 70
     0
  9
$VISRETAIN
 70
     1
  9
$PLINEGEN
 70
     0
  9
$PSLTSCALE
 70
     1
  9
$TREEDEPTH
 70
  3020
  9
$CMLSTYLE
  2
Standard
  9
$CMLJUST
 70
     0
  9
$CMLSCALE
 40
20.0
  9
$PROXYGRAPHICS
 70
     1
  9
$MEASUREMENT
 70
     1
  9
$CELWEIGHT
370
    -1
  9
$ENDCAPS
280
     0
  9
$JOINSTYLE
280
     0
  9
$LWDISPLAY
290
     1
  9
$INSUNITS
 70
     4
  9
$HYPERLINKBASE
  1

  9
$STYLESHEET
  1
monochrome.ctb
  9
$XEDIT
290
     1
  9
$CEPSNTYPE
380
     0
  9
$PSTYLEMODE
290
     1
  9
$FINGERPRINTGUID
  2
{F2AABAAB-A2A7-4552-A172-6D87E628289B}
  9
$VERSIONGUID
  2
{C9CFF08C-804A-4864-95E1-E05B2C361D6E}
  9
$EXTNAMES
290
     1
  9
$PSVPSCALE
 40
0.0
  9
$OLESTARTUP
290
     0
  0
ENDSEC
  0
SECTION
  2
CLASSES
  0
CLASS
  1
ACDBDICTIONARYWDFLT
  2
AcDbDictionaryWithDefault
  3
ObjectDBX Classes
 90
        0
280
     0
281
     0
  0
CLASS
  1
ACDBPLACEHOLDER
  2
AcDbPlaceHolder
  3
ObjectDBX Classes
 90
        0
280
     0
281
     0
  0
CLASS
  1
LAYOUT
  2
AcDbLayout
  3
ObjectDBX Classes
 90
        0
280
     0
281
     0
  0
CLASS
  1
AMGSETTINGSOBJ
  2
AmgSettingsObj
  3
"AcadM|Product Description: AutoCAD Mechanical|Company: Autodesk"
 90
        0
280
     0
281
     0
  0
CLASS
  1
ACME_DOCUMENT
  2
AcMeDbDoc
  3
AcMeServices
 90
        0
280
     0
281
     0
  0
CLASS
  1
ACMESCOPE
  2
AcMeScope
  3
AcMeServices
 90
        0
280
     0
281
     0
  0
CLASS
  1
ACMECOMMANDHISTORY
  2
AcMeCommandHistory
  3
AcMeServices
 90
        0
280
     0
281
     0
  0
CLASS
  1
DICTIONARYVAR
  2
AcDbDictionaryVar
  3
ObjectDBX Classes
 90
        0
280
     0
281
     0
  0
CLASS
  1
ACIMSYSVARMAN
  2
AcImSysVarManager
  3
AcMeServices
 90
        0
280
     0
281
     0
  0
CLASS
  1
ACIMREALSYSVAR
  2
AcImRealSysVar
  3
AcMeServices
 90
        0
280
     0
281
     0
  0
CLASS
  1
ACIMINTSYSVAR
  2
AcImIntSysVar
  3
AcMeServices
 90
        0
280
     0
281
     0
  0
CLASS
  1
ACMEDRAWINGMAN
  2
AcMeDrawingMan
  3
AcMeServices
 90
        0
280
     0
281
     0
  0
CLASS
  1
ACMEVIEW
  2
AcMeView
  3
AcMeServices
 90
        0
280
     0
281
     0
  0
CLASS
  1
ACDBENTITYCACHE
  2
AcMeEntityCache
  3
AcMeServices
 90
        0
280
     0
281
     0
  0
CLASS
  1
GSMANAGER
  2
AcMeGSManager
  3
AcMeServices
 90
        0
280
     0
281
     0
  0
CLASS
  1
AMDTINTERNALREACTOR
  2
AmdtInternalReactor
  3
AcMeServices
 90
        0
280
     0
281
     0
  0
CLASS
  1
ACMESTATEMGR
  2
AcMeStateMgr
  3
AcMeServices
 90
        0
280
     0
281
     0
  0
CLASS
  1
ACGREFMASTER
  2
AcGrefMaster
  3
AcAttribServices
 90
        0
280
     0
281
     0
  0
CLASS
  1
ACME_DATABASE
  2
AcMeDbDatabase
  3
AcMeServices
 90
        0
280
     0
281
     0
  0
CLASS
  1
ACRFINSADJUSTERMGR
  2
AcRfInsAdjusterMgr
  3
AcMeServices
 90
        0
280
     0
281
     0
  0
CLASS
  1
ACGREFACADMASTER
  2
AcGrefacadMaster
  3
AcGrefServices
 90
        0
280
     0
281
     0
  0
CLASS
  1
AMIMASTER
  2
AmiMaster
  3
AmiServices
 90
        0
280
     0
281
     0
  0
CLASS
  1
ACMDATADICTIONARY
  2
AcmDataDictionary
  3
"AcmSymBB|Product Description: AutoCAD Mechanical|Company: Autodesk"
 90
        0
280
     0
281
     0
  0
CLASS
  1
ACMDATAENTRYBLOCK
  2
AcmDataEntryBlock
  3
"AcmSymBB|Product Description: AutoCAD Mechanical|Company: Autodesk"
 90
        0
280
     0
281
     0
  0
CLASS
  1
ACIMSTRSYSVAR
  2
AcImStrSysVar
  3
AcMeServices
 90
        0
280
     0
281
     0
  0
CLASS
  1
ACMSTANDARDISO
  2
AcmStandardISO
  3
"Amdt_StdImp|Product Description: AutoCAD Mechanical|Company: Autodesk"
 90
        0
280
     0
281
     0
  0
CLASS
  1
AMGOBJPROPCFG
  2
AmgObjPropCfg
  3
"AmgLay|Product Description: AutoCAD Mechanical|Company: Autodesk"
 90
        1
280
     0
281
     0
  0
CLASS
  1
AMDTEDGESTANDARDISO
  2
AmdtEdgeStdISO
  3
"Amdt_StdImp|Product Description: AutoCAD Mechanical|Company: Autodesk"
 90
        0
280
     0
281
     0
  0
CLASS
  1
ACMSURFSTANDARDISO
  2
AcmSurfTextStdISO
  3
"Amdt_StdImp|Product Description: AutoCAD Mechanical|Company: Autodesk"
 90
        0
280
     0
281
     0
  0
CLASS
  1
ACMFCFSTANDARDISO
  2
AcmFCFStdISO
  3
"Amdt_StdImp|Product Description: AutoCAD Mechanical|Company: Autodesk"
 90
        0
280
     0
281
     0
  0
CLASS
  1
ACMWELDSTANDARDISO
  2
AcmWeldingStdISO
  3
"Amdt_StdImp|Product Description: AutoCAD Mechanical|Company: Autodesk"
 90
        0
280
     0
281
     0
  0
CLASS
  1
ACMIDSTANDARDISO
  2
AcmIdStdISO
  3
"Amdt_StdImp|Product Description: AutoCAD Mechanical|Company: Autodesk"
 90
        0
280
     0
281
     0
  0
CLASS
  1
ACMDATUMSTANDARDISO
  2
AcmDatumStdISO
  3
"Amdt_StdImp|Product Description: AutoCAD Mechanical|Company: Autodesk"
 90
        0
280
     0
281
     0
  0
CLASS
  1
ACMBOMSTANDARDISO
  2
AcmBOMStdISO
  3
"Amdt_StdImp|Product Description: AutoCAD Mechanical|Company: Autodesk"
 90
        0
280
     0
281
     0
  0
CLASS
  1
ACMDETAILSTANDARDISO
  2
AmdtDetailSymStdISO
  3
"Amdt_StdImp|Product Description: AutoCAD Mechanical|Company: Autodesk"
 90
        0
280
     0
281
     0
  0
CLASS
  1
ACMSECTIONSTANDARDISO
  2
AmdtSectionSymStdISO
  3
"Amdt_StdImp|Product Description: AutoCAD Mechanical|Company: Autodesk"
 90
        0
280
     0
281
     0
  0
CLASS
  1
ACMCENTERLINESTANDARDISO
  2
AmdtCenterLineStdISO
  3
"Amdt_StdImp|Product Description: AutoCAD Mechanical|Company: Autodesk"
 90
        0
280
     0
281
     0
  0
CLASS
  1
ACAMGLAYSTD
  2
AcAmgLayStd
  3
"AmgLay|Product Description: AutoCAD Mechanical|Company: Autodesk"
 90
        0
280
     0
281
     0
  0
CLASS
  1
ACAMGDIMSTD
  2
AcAmgDimStd
  3
"AmgDim|Product Description: AutoCAD Mechanical|Company: Autodesk"
 90
        0
280
     0
281
     0
  0
CLASS
  1
ACAMGTITLESTD
  2
AcAmgTitleStd
  3
"AmgTitle|Product Description: AutoCAD Mechanical|Company: Autodesk"
 90
        0
280
     0
281
     0
  0
CLASS
  1
ACAMGFILTERDAT
  2
AcAmgFilterDat
  3
"AcadM|Product Description: AutoCAD Mechanical|Company: Autodesk"
 90
        0
280
     0
281
     0
  0
CLASS
  1
LAYER_INDEX
  2
AcDbLayerIndex
  3
ObjectDBX Classes
 90
    32768
280
     0
281
     0
  0
CLASS
  1
IDBUFFER
  2
AcDbIdBuffer
  3
ObjectDBX Classes
 90
    32768
280
     0
281
     0
  0
CLASS
  1
PLOTSETTINGS
  2
AcDbPlotSettings
  3
ObjectDBX Classes
 90
    32768
280
     0
281
     0
  0
CLASS
  1
AMDTFORMULAUPDATEDISPATCHER
  2
AmdtFormulaUpdateDispatcher
  3
AcMeServices
 90
        0
280
     0
281
     0
  0
CLASS
  1
ACMSTANDARDANSI
  2
AcmStandardANSI
  3
"Amdt_StdImp|Product Description: AutoCAD Mechanical|Company: Autodesk"
 90
        0
280
     0
281
     0
  0
CLASS
  1
ACMSURFSTANDARDANSI
  2
AcmSurfTextStdANSI
  3
"Amdt_StdImp|Product Description: AutoCAD Mechanical|Company: Autodesk"
 90
        0
280
     0
281
     0
  0
CLASS
  1
ACMFCFSTANDARDANSI
  2
AcmFCFStdANSI
  3
"Amdt_StdImp|Product Description: AutoCAD Mechanical|Company: Autodesk"
 90
        0
280
     0
281
     0
  0
CLASS
  1
ACMWELDSTANDARDANSI
  2
AcmWeldingStdANSI
  3
"Amdt_StdImp|Product Description: AutoCAD Mechanical|Company: Autodesk"
 90
        0
280
     0
281
     0
  0
CLASS
  1
ACMIDSTANDARDANSI
  2
AcmIdStdANSI
  3
"Amdt_StdImp|Product Description: AutoCAD Mechanical|Company: Autodesk"
 90
        0
280
     0
281
     0
  0
CLASS
  1
ACMDATUMSTANDARDANSI
  2
AcmDatumStdANSI
  3
"Amdt_StdImp|Product Description: AutoCAD Mechanical|Company: Autodesk"
 90
        0
280
     0
281
     0
  0
CLASS
  1
ACMBOMSTANDARDANSI
  2
AcmBOMStdANSI
  3
"Amdt_StdImp|Product Description: AutoCAD Mechanical|Company: Autodesk"
 90
        0
280
     0
281
     0
  0
CLASS
  1
ACMDETAILSTANDARDANSI
  2
AmdtDetailSymStdANSI
  3
"Amdt_StdImp|Product Description: AutoCAD Mechanical|Company: Autodesk"
 90
        0
280
     0
281
     0
  0
CLASS
  1
ACMSECTIONSTANDARDANSI
  2
AmdtSectionSymStdANSI
  3
"Amdt_StdImp|Product Description: AutoCAD Mechanical|Company: Autodesk"
 90
        0
280
     0
281
     0
  0
CLASS
  1
ACMCENTERLINESTANDARDANSI
  2
AmdtCenterLineStdANSI
  3
"Amdt_StdImp|Product Description: AutoCAD Mechanical|Company: Autodesk"
 90
        0
280
     0
281
     0
  0
CLASS
  1
ACMBOM
  2
AcmBom
  3
"AcmSymBB|Product Description: AutoCAD Mechanical|Company: Autodesk"
 90
        0
280
     0
281
     0
  0
CLASS
  1
ACMDATAENTRYPART
  2
AcmDataEntryPart
  3
"AcmSymBB|Product Description: AutoCAD Mechanical|Company: Autodesk"
 90
    32768
280
     0
281
     0
  0
CLASS
  1
ACMPARTREF
  2
AcmPartRef
  3
"AcmSymBB|Product Description: AutoCAD Mechanical|Company: Autodesk"
 90
    35839
280
     0
281
     1
  0
CLASS
  1
ACDBCIRCARCRES
  2
AcDbCircArcRes
  3
AcGrefServices
 90
    32768
280
     0
281
     0
  0
CLASS
  1
ACMBOMROW
  2
AcmBomRow
  3
"AcmSymBB|Product Description: AutoCAD Mechanical|Company: Autodesk"
 90
    32768
280
     0
281
     0
  0
CLASS
  1
ACMBALLOON
  2
AcmBalloon
  3
"AcmSymBB|Product Description: AutoCAD Mechanical|Company: Autodesk"
 90
    35839
280
     0
281
     1
  0
CLASS
  1
AMDTNOTE
  2
AmdtNote
  3
"AcmSymBB|Product Description: AutoCAD Mechanical|Company: Autodesk"
 90
     3071
280
     0
281
     1
  0
CLASS
  1
STDPART2D
  2
AmgStdPart
  3
"g3vace|Class: AmgStdPart|Product Description: AutoCAD Mechanical|Company: Autodesk"
 90
    35839
280
     0
281
     1
  0
CLASS
  1
ACDBSTDPARTRES_LINE
  2
AcDbStdPartRes_Line
  3
"g3vace|Class: AcDbStdPartRes_Line|Product Description: AutoCAD Mechanical|Company: Autodesk"
 90
    32768
280
     0
281
     0
  0
CLASS
  1
ACMDATAENTRY
  2
AcmDataEntry
  3
"AcmSymBB|Product Description: AutoCAD Mechanical|Company: Autodesk"
 90
        0
280
     0
281
     0
  0
CLASS
  1
ACDBOPPOLYLINERES
  2
AcDbOpPolylineRes
  3
AcGrefServices
 90
    32768
280
     0
281
     0
  0
CLASS
  1
ACMPARTLIST
  2
AcmPartList
  3
"AcmSymBB|Product Description: AutoCAD Mechanical|Company: Autodesk"
 90
    35839
280
     0
281
     1
  0
CLASS
  1
ACDBLINERES
  2
AcDbLineRes
  3
AcGrefServices
 90
    32768
280
     0
281
     0
  0
CLASS
  1
ACRFINSADJ
  2
AcRfInsAdjuster
  3
AcMeServices
 90
    32768
280
     0
281
     0
  0
CLASS
  1
AM_DRAWING_MGR
  2
AcDmDwgMgr
  3
AcMechDwgViewMgmt
 90
        0
280
     0
281
     0
  0
CLASS
  1
AM_DWG_DOCUMENT
  2
AcDmDwgDocument
  3
AcMechDwgViewMgmt
 90
        0
280
     0
281
     0
  0
CLASS
  1
AM_DWG_SHEET
  2
AcDmSheet
  3
AcMechDwgViewMgmt
 90
        0
280
     0
281
     0
  0
CLASS
  1
AM_VIEWDIMPARMAP
  2
AcDmViewDimParMap
  3
AcMechDwgViewMgmt
 90
        0
280
     0
281
     0
  0
CLASS
  1
AM_DWGMGR_NAME
  2
AcDmDwgMgrName
  3
AcMechDwgViewMgmt
 90
        0
280
     0
281
     0
  0
CLASS
  1
AMDTMENUSTATEMGR
  2
AmdtMenuStateMgr
  3
McadcomServices
 90
        0
280
     0
281
     0
  0
CLASS
  1
AMDTMCOMMENUSTATE
  2
AmdtMcomMenuState
  3
McadcomServices
 90
        0
280
     0
281
     0
  0
CLASS
  1
ASAPP
  2
AcAsAppObject
  3
AutoSurfServices
 90
        0
280
     0
281
     0
  0
CLASS
  1
IM_STATIC_MAN
  2
AcImStaticVarManager
  3
AcMeServices
 90
        0
280
     0
281
     0
  0
CLASS
  1
ACIMDBLSTATICVAR
  2
AcImDblStaticVar
  3
AcMeServices
 90
        0
280
     0
281
     0
  0
CLASS
  1
ACIMSTRSTATICVAR
  2
AcImStrStaticVar
  3
AcMeServices
 90
        0
280
     0
281
     0
  0
CLASS
  1
ACIMINTSTATICVAR
  2
AcImIntStaticVar
  3
AcMeServices
 90
        0
280
     0
281
     0
  0
CLASS
  1
ACASGREFMASTER
  2
AcAsGrefMaster
  3
AutoSurfResolverServices
 90
        0
280
     0
281
     0
  0
CLASS
  1
ACADGREFMODULE
  2
AcAdGrefModule
  3
AdGrefServices
 90
        0
280
     0
281
     0
  0
CLASS
  1
AMDTMAPISURFMOUDULE
  2
AmdtMApiSurfModule
  3
MApiSurfServices
 90
        0
280
     0
281
     0
  0
CLASS
  1
MAPIAMMOUDLE
  2
MApiAmModule
  3
MApiAmServices
 90
        0
280
     0
281
     0
  0
CLASS
  1
AMDTADMENUSTATE
  2
AmdtAdMenuState
  3
DesignerServices
 90
        0
280
     0
281
     0
  0
CLASS
  1
ADAPPL
  2
AcAdAppl
  3
DesignerServices
 90
        0
280
     0
281
     0
  0
CLASS
  1
DEPMGR
  2
AcAdDepMgr
  3
DesignerServices
 90
        0
280
     0
281
     0
  0
CLASS
  1
PARAMMGR
  2
AcAdParamMgr
  3
DesignerServices
 90
        0
280
     0
281
     0
  0
CLASS
  1
PARAMSCOPE
  2
AcAdParamScope
  3
DesignerServices
 90
        0
280
     0
281
     0
  0
CLASS
  1
NAMEDAPPL
  2
AcAdNamedAppl
  3
DesignerServices
 90
        0
280
     0
281
     0
  0
CLASS
  1
ADHNTMPLT
  2
AdHoleNoteTemplateMgr
  3
DesignerServices
 90
    32768
280
     0
281
     0
  0
CLASS
  1
AM_HNTEMPLATE_MGR_NAME
  2
AdHoleNoteTemplateMgrName
  3
DesignerServices
 90
    32768
280
     0
281
     0
  0
CLASS
  1
AMDTDMMENUSTATE
  2
AmdtDmMenuState
  3
AcMechDwgViewMgmt
 90
        0
280
     0
281
     0
  0
CLASS
  1
MAPIADMODULE
  2
MApiAdModule
  3
MApiAdServices
 90
        0
280
     0
281
     0
  0
CLASS
  1
AMDTAMMENUSTATE
  2
AmdtAmMenuState
  3
DesignerAssemblies
 90
        0
280
     0
281
     0
  0
CLASS
  1
ACAMPROJECT
  2
AcAmProject
  3
DesignerAssemblies
 90
        0
280
     0
281
     0
  0
CLASS
  1
ACAMGRCOMPDEF
  2
AcAmGrCompDef
  3
DesignerAssemblies
 90
        0
280
     0
281
     0
  0
CLASS
  1
ACCMCONTEXT
  2
AcCmContext
  3
DesignerAssemblies
 90
        0
280
     0
281
     0
  0
CLASS
  1
ACAMCOMPDEF
  2
AcAmCompDef
  3
DesignerAssemblies
 90
        0
280
     0
281
     0
  0
CLASS
  1
ACAMCOMPDEFMGR
  2
AcAmCompDefMgr
  3
DesignerAssemblies
 90
        0
280
     0
281
     0
  0
CLASS
  1
AMCONTEXTMGR
  2
AcAmContextMgr
  3
DesignerAssemblies
 90
        0
280
     0
281
     0
  0
CLASS
  1
ACAMCONTEXTMODELER
  2
AcAmContextModeler
  3
DesignerAssemblies
 90
        0
280
     0
281
     0
  0
CLASS
  1
CATALOGSTATE
  2
AcAmCatalogState
  3
DesignerAssemblies
 90
        0
280
     0
281
     0
  0
CLASS
  1
ACAMGRCOMPDEFSET
  2
AcAmGrCompDefSet
  3
DesignerAssemblies
 90
        0
280
     0
281
     0
  0
CLASS
  1
AMDTBROWSERDBTAB
  2
AmdtBrowserDbTab
  3
McadcomServices
 90
        0
280
     0
281
     0
  0
CLASS
  1
CBROWSERAPPOBJECT
  2
CBrowserAppObject
  3
McadcomServices
 90
        0
280
     0
281
     0
  0
CLASS
  1
DM_PLACEHOLDER
  2
AcDmSelsetPlaceholder
  3
AcMechDwgViewMgmt
 90
        0
280
     0
281
     0
  0
CLASS
  1
ACMPICKOBJ
  2
AcmPickEnt
  3
"AcmSymBB|Product Description: AutoCAD Mechanical|Company: Autodesk"
 90
    32768
280
     0
281
     1
  0
CLASS
  1
ACMNOTESTANDARDISO
  2
AmdtNoteStdISO
  3
"Amdt_StdImp|Product Description: AutoCAD Mechanical|Company: Autodesk"
 90
        0
280
     0
281
     0
  0
CLASS
  1
ACMNOTESTANDARDANSI
  2
AmdtNoteStdANSI
  3
"Amdt_StdImp|Product Description: AutoCAD Mechanical|Company: Autodesk"
 90
        0
280
     0
281
     0
  0
CLASS
  1
ACMTHREADLINESTANDARDISO
  2
AmdtThreadLineStdISO
  3
"Amdt_StdImp|Product Description: AutoCAD Mechanical|Company: Autodesk"
 90
        0
280
     0
281
     0
  0
CLASS
  1
ACMTHREADLINESTANDARDANSI
  2
AmdtThreadLineStdANSI
  3
"Amdt_StdImp|Product Description: AutoCAD Mechanical|Company: Autodesk"
 90
        0
280
     0
281
     0
  0
CLASS
  1
TABLESTYLE
  2
AcDbTableStyle
  3
ObjectDBX Classes
 90
     4095
280
     0
281
     0
  0
CLASS
  1
SORTENTSTABLE
  2
AcDbSortentsTable
  3
ObjectDBX Classes
 90
        0
280
     0
281
     0
  0
CLASS
  1
MATERIAL
  2
AcDbMaterial
  3
ObjectDBX Classes
 90
     1024
280
     0
281
     0
  0
CLASS
  1
VISUALSTYLE
  2
AcDbVisualStyle
  3
ObjectDBX Classes
 90
     4095
280
     0
281
     0
  0
CLASS
  1
ACRFATTGENMGR
  2
AcRfAttGeneralMgr
  3
AcAttribServices
 90
        0
280
     0
281
     0
  0
CLASS
  1
ACRFOBJATTMGR
  2
AcRfObjAttGroupMgr
  3
AcAttribServices
 90
        0
280
     0
281
     0
  0
CLASS
  1
ACRFMCADAPIATTHOLDER
  2
AcRfMCADAPIAttHolder
  3
AcAttribServices
 90
        0
280
     0
281
     0
  0
CLASS
  1
AMDTSYSATTR
  2
AmdtSystemAttribute
  3
AcAttribServices
 90
        0
280
     0
281
     0
  0
CLASS
  1
ACMTAPERSTANDARDISO
  2
AcmTaperStdISO
  3
"Amdt_StdImp|Product Description: AutoCAD Mechanical|Company: Autodesk"
 90
        0
280
     0
281
     0
  0
CLASS
  1
CAMSSTRUCTBTNSTATE
  2
StructBtnState
  3
L"DesignerAssemblies"
 90
        0
280
     0
281
     0
  0
CLASS
  1
DIMASSOC
  2
AcDbDimAssoc
  3
"AcDbDimAssoc|Product Desc:     AcDim ARX App For Dimension|Company:          Autodesk, Inc.|WEB Address:      www.autodesk.com"
 90
    32768
280
     0
281
     0
  0
CLASS
  1
AMDTACMWBLOCKBOMENTITY
  2
AmdtAcmWblockBomEntity
  3
"AcmSymBB|Product Description: AutoCAD Mechanical|Company: Autodesk"
 90
    35839
280
     0
281
     1
  0
CLASS
  1
AMDTNOTETEMPLATEDB
  2
AmdtNoteTemplateDB
  3
AMDT_STDIMP_MODULE_NAME
 90
        0
280
     0
281
     0
  0
CLASS
  1
ACMTAPERSTANDARDANSI
  2
AcmTaperStdANSI
  3
"Amdt_StdImp|Product Description: AutoCAD Mechanical|Company: Autodesk"
 90
        0
280
     0
281
     0
  0
CLASS
  1
ACAMGHOLECHARTSTDANSI
  2
AcAmgHoleChartStdANSI
  3
ACMSYMBB_MODULE_NAME
 90
        0
280
     0
281
     0
  0
CLASS
  1
SCALE
  2
AcDbScale
  3
ObjectDBX Classes
 90
     1153
280
     0
281
     0
  0
CLASS
  1
MLEADERSTYLE
  2
AcDbMLeaderStyle
  3
ACDB_MLEADERSTYLE_CLASS
 90
     4095
280
     0
281
     0
  0
CLASS
  1
ACMANOOTATIONVIEWSTANDARDISO
  2
AmdtAnViewStdISO
  3
"Amdt_StdImp|Product Description: AutoCAD Mechanical|Company: Autodesk, Inc."
 90
    33792
280
     0
281
     0
  0
CLASS
  1
ACMANOOTATIONVIEWSTANDARDANSI
  2
AmdtAnViewStdANSI
  3
"Amdt_StdImp|Product Description: AutoCAD Mechanical|Company: Autodesk, Inc."
 90
    33792
280
     0
281
     0
  0
CLASS
  1
CELLSTYLEMAP
  2
AcDbCellStyleMap
  3
ObjectDBX Classes
 90
     1152
280
     0
281
     0
  0
ENDSEC
  0
SECTION
  2
TABLES
  0
TABLE
  2
VPORT
  5
8
330
0
100
AcDbSymbolTable
 70
     1
  0
VPORT
  5
B0EC
330
8
100
AcDbSymbolTableRecord
100
AcDbViewportTableRecord
  2
*Active
 70
     0
 10
0.0
 20
0.0
 11
1.0
 21
1.0
 12
148.5000020746477
 22
105.0000014669227
 13
0.0
 23
0.0
 14
2.5
 24
2.5
 15
10.0
 25
10.0
 16
0.0
 26
0.0
 36
1.0
 17
0.0
 27
0.0
 37
0.0
 40
211.55246656569
 41
1.648648648648648
 42
50.0
 43
-1370.695619172058
 44
-1370.695619172058
 50
0.0
 51
0.0
 71
     0
 72
   100
 73
     1
 74
     3
 75
     0
 76
     0
 77
     0
 78
     0
281
     0
 65
     0
110
0.0
120
0.0
130
0.0
111
1.0
121
0.0
131
0.0
112
0.0
122
1.0
132
0.0
 79
     0
146
0.0
  0
ENDTAB
  0
TABLE
  2
LTYPE
  5
5
330
0
100
AcDbSymbolTable
 70
    33
  0
LTYPE
  5
14
330
5
100
AcDbSymbolTableRecord
100
AcDbLinetypeTableRecord
  2
ByBlock
 70
     0
  3

 72
    65
 73
     0
 40
0.0
  0
LTYPE
  5
15
330
5
100
AcDbSymbolTableRecord
100
AcDbLinetypeTableRecord
  2
ByLayer
 70
     0
  3

 72
    65
 73
     0
 40
0.0
  0
LTYPE
  5
16
330
5
100
AcDbSymbolTableRecord
100
AcDbLinetypeTableRecord
  2
Continuous
 70
     0
  3
Solid line
 72
    65
 73
     0
 40
0.0
  0
LTYPE
  5
4F
330
5
100
AcDbSymbolTableRecord
100
AcDbLinetypeTableRecord
  2
AM_ISO02W050
 70
     0
  3
__ __ __ __ __ __ __ __ __ __ __ __ __ __ __
 72
    65
 73
     2
 40
7.5
 49
6.0
 74
     0
 49
-1.5
 74
     0
  0
LTYPE
  5
52
330
5
100
AcDbSymbolTableRecord
100
AcDbLinetypeTableRecord
  2
Amconstr
 70
     0
  3
_______________________
 72
    65
 73
     2
 40
9999.0
 49
9999.0
 74
     0
 49
0.0
 74
     0
  0
LTYPE
  5
64
330
5
100
AcDbSymbolTableRecord
100
AcDbLinetypeTableRecord
  2
ACISOWELD
 70
     0
  3
_ _ _ _ _
 72
    65
 73
     2
 40
2.0
 49
2.0
 74
     0
 49
-1.0
 74
     0
  0
LTYPE
  5
65
330
5
100
AcDbSymbolTableRecord
100
AcDbLinetypeTableRecord
  2
ACISOTGB
 70
     0
  3
__ . . __ . .
 72
    65
 73
     6
 40
9.0
 49
4.0
 74
     0
 49
-1.0
 74
     0
 49
1.0
 74
     0
 49
-1.0
 74
     0
 49
1.0
 74
     0
 49
-1.0
 74
     0
  0
LTYPE
  5
66
330
5
100
AcDbSymbolTableRecord
100
AcDbLinetypeTableRecord
  2
ACISOTGL
 70
     0
  3
_ _ _ _ _
 72
    65
 73
     2
 40
3.0
 49
2.0
 74
     0
 49
-1.0
 74
     0
  0
LTYPE
  5
69
330
5
100
AcDbSymbolTableRecord
100
AcDbLinetypeTableRecord
  2
CENTER
 70
     0
  3
__ . __
 72
    65
 73
     4
 40
7.0
 49
4.0
 74
     0
 49
-1.0
 74
     0
 49
1.0
 74
     0
 49
-1.0
 74
     0
  0
LTYPE
  5
A6E
330
5
100
AcDbSymbolTableRecord
100
AcDbLinetypeTableRecord
  2
PHANTOM2
 70
     0
  3
Phantom (.5x) ___ _ _ ___ _ _ ___ _ _ ___ _ _
 72
    65
 73
     6
 40
31.75
 49
15.875
 74
     0
 49
-3.174999999999999
 74
     0
 49
3.174999999999999
 74
     0
 49
-3.174999999999999
 74
     0
 49
3.174999999999999
 74
     0
 49
-3.174999999999999
 74
     0
  0
LTYPE
  5
4DED
330
5
100
AcDbSymbolTableRecord
100
AcDbLinetypeTableRecord
  2
中線
 70
     0
  3
___________________
 72
    65
 73
     2
 40
2.0
 49
1.0
 74
     0
 49
1.0
 74
     0
  0
LTYPE
  5
4DF6
330
5
100
AcDbSymbolTableRecord
100
AcDbLinetypeTableRecord
  2
細線
 70
     0
  3
___________________
 72
    65
 73
     2
 40
2.0
 49
1.0
 74
     0
 49
1.0
 74
     0
  0
LTYPE
  5
4DF7
330
5
100
AcDbSymbolTableRecord
100
AcDbLinetypeTableRecord
  2
太線
 70
     0
  3
___________________
 72
    65
 73
     2
 40
2.0
 49
1.0
 74
     0
 49
1.0
 74
     0
  0
LTYPE
  5
4EA7
330
5
100
AcDbSymbolTableRecord
100
AcDbLinetypeTableRecord
  2
文字
 70
     0
  3
_________________
 72
    65
 73
     2
 40
2.0
 49
1.0
 74
     0
 49
1.0
 74
     0
  0
LTYPE
  5
4EA9
330
5
100
AcDbSymbolTableRecord
100
AcDbLinetypeTableRecord
  2
寸法線
 70
     0
  3
________________
 72
    65
 73
     2
 40
2.0
 49
1.0
 74
     0
 49
1.0
 74
     0
  0
LTYPE
  5
4F12
330
5
100
AcDbSymbolTableRecord
100
AcDbLinetypeTableRecord
  2
ハッチング
 70
     0
  3
_________________
 72
    65
 73
     2
 40
2.0
 49
1.0
 74
     0
 49
1.0
 74
     0
  0
LTYPE
  5
5180
330
5
100
AcDbSymbolTableRecord
100
AcDbLinetypeTableRecord
  2
陰線1
 70
     0
  3
__ __ __ __
 72
    65
 73
     2
 40
4.0
 49
2.2
 74
     0
 49
-1.8
 74
     0
  0
LTYPE
  5
5182
330
5
100
AcDbSymbolTableRecord
100
AcDbLinetypeTableRecord
  2
切断線
 70
     0
  3
/\/-/\/-/\/-/\/-/\/-/\/
 72
    65
 73
     2
 40
11.0001
 49
0.0001
 74
     4
 75
   135
340
56
 46
0.04
 50
0.0
 44
0.0
 45
0.0
 49
-11.0
 74
     0
  0
LTYPE
  5
5183
330
5
100
AcDbSymbolTableRecord
100
AcDbLinetypeTableRecord
  2
想像線1
 70
     0
  3
__ __ __ _____ __ __ ____
 72
    65
 73
     6
 40
14.5
 49
6.0
 74
     0
 49
-1.5
 74
     0
 49
2.0
 74
     0
 49
-1.5
 74
     0
 49
2.0
 74
     0
 49
-1.5
 74
     0
  0
LTYPE
  5
5185
330
5
100
AcDbSymbolTableRecord
100
AcDbLinetypeTableRecord
  2
中心線1
 70
     0
  3
___ _ ___ _ ___
 72
    65
 73
     4
 40
18.0
 49
12.0
 74
     0
 49
-2.0
 74
     0
 49
2.0
 74
     0
 49
-2.0
 74
     0
  0
LTYPE
  5
5188
330
5
100
AcDbSymbolTableRecord
100
AcDbLinetypeTableRecord
  2
補助線
 70
     0
  3
______________
 72
    65
 73
     2
 40
2.0
 49
1.0
 74
     0
 49
1.0
 74
     0
  0
LTYPE
  5
6427
330
5
100
AcDbSymbolTableRecord
100
AcDbLinetypeTableRecord
  2
HIDDEN
 70
     0
  3
Hidden __ __ __ __ __ __ __ __ __ __ __ __ __ _
 72
    65
 73
     2
 40
0.375
 49
0.25
 74
     0
 49
-0.125
 74
     0
  0
LTYPE
  5
AC81
330
5
100
AcDbSymbolTableRecord
100
AcDbLinetypeTableRecord
  2
破断線
 70
     0
  3
/\/-/\/-/\/-/\/-/\/-/\/
 72
    65
 73
     2
 40
0.4401
 49
0.0001
 74
     4
 75
   136
340
AC80
 46
0.0016
 50
0.0
 44
0.0
 45
0.0
 49
-0.4400000000000001
 74
     0
  0
LTYPE
  5
AC9E
330
5
100
AcDbSymbolTableRecord
100
AcDbLinetypeTableRecord
  2
Amzigzag
 70
     0
  3
/\/-/\/-/\/-/\/-/\/-/\/
 72
    65
 73
     2
 40
11.0001
 49
0.0001
 74
     4
 75
   135
340
56
 46
0.04
 50
0.0
 44
0.0
 45
0.0
 49
-11.0
 74
     0
  0
LTYPE
  5
AF0F
330
5
100
AcDbSymbolTableRecord
100
AcDbLinetypeTableRecord
  2
genzigzag
 70
     0
  3
/\/-/\/-/\/-/\/-/\/-/\/
 72
    65
 73
     2
 40
12.0001
 49
0.0001
 74
     4
 75
   135
340
AC80
 46
2.0
 50
0.0
 44
0.0
 45
0.0
 49
-12.0
 74
     0
  0
LTYPE
  5
AF95
330
5
100
AcDbSymbolTableRecord
100
AcDbLinetypeTableRecord
  2
AM_ISO08W050
 70
     0
  3
____ . ____ . ____ . ____ . ____ . ____ . ____
 72
    65
 73
     4
 40
18.0
 49
12.0
 74
     0
 49
-1.5
 74
     0
 49
3.0
 74
     0
 49
-1.5
 74
     0
  0
LTYPE
  5
AF96
330
5
100
AcDbSymbolTableRecord
100
AcDbLinetypeTableRecord
  2
AM_ISO09W050
 70
     0
  3
_____ . . _____ . . _____ . . ____ .. ____
 72
    65
 73
     6
 40
22.5
 49
12.0
 74
     0
 49
-1.5
 74
     0
 49
3.0
 74
     0
 49
-1.5
 74
     0
 49
3.0
 74
     0
 49
-1.5
 74
     0
  0
LTYPE
  5
AF97
330
5
100
AcDbSymbolTableRecord
100
AcDbLinetypeTableRecord
  2
AM_ISO08W050x2
 70
     0
  3
__ . __ . __ . __ . __ . __
 72
    65
 73
     4
 40
9.0
 49
6.0
 74
     0
 49
-0.75
 74
     0
 49
1.5
 74
     0
 49
-0.75
 74
     0
  0
LTYPE
  5
AF98
330
5
100
AcDbSymbolTableRecord
100
AcDbLinetypeTableRecord
  2
AM_ISO02W050x2
 70
     0
  3
 _ _ _ _ _ _ _ _ _ _ _ _
 72
    65
 73
     2
 40
3.75
 49
3.0
 74
     0
 49
-0.75
 74
     0
  0
LTYPE
  5
B655
330
5
100
AcDbSymbolTableRecord
100
AcDbLinetypeTableRecord
  2
DOT
 70
     0
  3
･ ･ ･ ･ ･ ･ ･ ･ 
 72
    65
 73
     2
 40
8.0
 49
6.0
 74
     0
 49
-2.0
 74
     0
  0
LTYPE
  5
B656
330
5
100
AcDbSymbolTableRecord
100
AcDbLinetypeTableRecord
  2
CENTER2
 70
     0
  3
Center (.5x) ___ _ ___ _ ___ _ ___ _ ___ _ ___
 72
    65
 73
     4
 40
1.125
 49
0.75
 74
     0
 49
-0.125
 74
     0
 49
0.125
 74
     0
 49
-0.125
 74
     0
  0
LTYPE
  5
B657
330
5
100
AcDbSymbolTableRecord
100
AcDbLinetypeTableRecord
  2
HIDDEN2
 70
     0
  3
Hidden (.5x) _ _ _ _ _ _ _ _ _ _ _ _ _ _ _ _ _
 72
    65
 73
     2
 40
0.1875
 49
0.125
 74
     0
 49
-0.0625
 74
     0
  0
LTYPE
  5
B658
330
5
100
AcDbSymbolTableRecord
100
AcDbLinetypeTableRecord
  2
Amzigzag2
 70
     0
  3
/\/-/\/-/\/-/\/-/\/-/\/
 72
    65
 73
     2
 40
0.4401
 49
0.0001
 74
     4
 75
   136
340
AC80
 46
0.0016
 50
0.0
 44
0.0
 45
0.0
 49
-0.4400000000000001
 74
     0
  0
LTYPE
  5
B659
330
5
100
AcDbSymbolTableRecord
100
AcDbLinetypeTableRecord
  2
ACANSTGB
 70
     0
  3
__ . . __ . .
 72
    65
 73
     6
 40
0.35433070866
 49
0.15748031496
 74
     0
 49
-0.03937007874
 74
     0
 49
0.03937007874
 74
     0
 49
-0.03937007874
 74
     0
 49
0.03937007874
 74
     0
 49
-0.03937007874
 74
     0
  0
LTYPE
  5
B65A
330
5
100
AcDbSymbolTableRecord
100
AcDbLinetypeTableRecord
  2
ACANSTGL
 70
     0
  3
_ _ _ _ _
 72
    65
 73
     2
 40
0.11811023622
 49
0.07874015748
 74
     0
 49
-0.03937007874
 74
     0
  0
ENDTAB
  0
TABLE
  2
LAYER
  5
2
102
{ACAD_XDICTIONARY
360
3F95
102
}
330
0
100
AcDbSymbolTable
 70
    23
  0
LAYER
  5
10
102
{ACAD_XDICTIONARY
360
C363
102
}
330
2
100
AcDbSymbolTableRecord
100
AcDbLayerTableRecord
  2
0
 70
     0
 62
     7
  6
Continuous
370
    -3
390
F
  0
LAYER
  5
6D1
330
2
100
AcDbSymbolTableRecord
100
AcDbLayerTableRecord
  2
Defpoints
 70
     0
 62
     7
  6
Continuous
290
     0
370
    -3
390
F
  0
LAYER
  5
5F85
102
{ACAD_XDICTIONARY
360
C365
102
}
330
2
100
AcDbSymbolTableRecord
100
AcDbLayerTableRecord
  2
AM_0
 70
     0
 62
     7
  6
中線
370
    30
390
F
1001
AcAecLayerStandard
1000

1000

  0
LAYER
  5
AC9F
102
{ACAD_XDICTIONARY
360
C367
102
}
330
2
100
AcDbSymbolTableRecord
100
AcDbLayerTableRecord
  2
size
 70
     0
 62
     5
  6
Continuous
290
     0
370
    25
390
F
  0
LAYER
  5
ACA0
102
{ACAD_XDICTIONARY
360
C369
102
}
330
2
100
AcDbSymbolTableRecord
100
AcDbLayerTableRecord
  2
waku
 70
     0
 62
     7
  6
Continuous
370
    35
390
F
  0
LAYER
  5
ACA1
102
{ACAD_XDICTIONARY
360
C36B
102
}
330
2
100
AcDbSymbolTableRecord
100
AcDbLayerTableRecord
  2
AM_6
 70
     0
 62
     2
  6
文字
370
    13
390
F
1001
AcAecLayerStandard
1000

1000

  0
LAYER
  5
ACC8
102
{ACAD_XDICTIONARY
360
C36D
102
}
330
2
100
AcDbSymbolTableRecord
100
AcDbLayerTableRecord
  2
hyomoji
 70
     0
 62
     2
  6
Continuous
370
    13
390
F
  0
LAYER
  5
ACC9
102
{ACAD_XDICTIONARY
360
C36F
102
}
330
2
100
AcDbSymbolTableRecord
100
AcDbLayerTableRecord
  2
hyosen1
 70
     0
 62
     1
  6
Continuous
370
    25
390
F
  0
LAYER
  5
ACCA
102
{ACAD_XDICTIONARY
360
C371
102
}
330
2
100
AcDbSymbolTableRecord
100
AcDbLayerTableRecord
  2
hyosen2
 70
     0
 62
     1
  6
Continuous
370
    13
390
F
  0
LAYER
  5
AD60
102
{ACAD_XDICTIONARY
360
C373
102
}
330
2
100
AcDbSymbolTableRecord
100
AcDbLayerTableRecord
  2
AM_1
 70
     0
 62
    30
  6
太線
370
    40
390
F
1001
AcAecLayerStandard
1000

1000

  0
LAYER
  5
AD64
102
{ACAD_XDICTIONARY
360
C375
102
}
330
2
100
AcDbSymbolTableRecord
100
AcDbLayerTableRecord
  2
AM_2
 70
     0
 62
     1
  6
細線
370
    13
390
F
1001
AcAecLayerStandard
1000

1000

  0
LAYER
  5
AD67
102
{ACAD_XDICTIONARY
360
C377
102
}
330
2
100
AcDbSymbolTableRecord
100
AcDbLayerTableRecord
  2
AM_3
 70
     0
 62
     6
  6
陰線1
370
    13
390
F
1001
AcAecLayerStandard
1000

1000

  0
LAYER
  5
AD68
102
{ACAD_XDICTIONARY
360
C379
102
}
330
2
100
AcDbSymbolTableRecord
100
AcDbLayerTableRecord
  2
AM_5
 70
     0
 62
     3
  6
寸法線
370
    13
390
F
1001
AcAecLayerStandard
1000

1000

  0
LAYER
  5
AD69
102
{ACAD_XDICTIONARY
360
C37B
102
}
330
2
100
AcDbSymbolTableRecord
100
AcDbLayerTableRecord
  2
AM_7
 70
     0
 62
     4
  6
中心線1
370
    13
390
F
1001
AcAecLayerStandard
1000

1000

  0
LAYER
  5
AD6A
102
{ACAD_XDICTIONARY
360
C37D
102
}
330
2
100
AcDbSymbolTableRecord
100
AcDbLayerTableRecord
  2
AM_8
 70
     0
 62
     1
  6
ハッチング
370
    13
390
F
1001
AcAecLayerStandard
1000

1000

  0
LAYER
  5
AD6E
102
{ACAD_XDICTIONARY
360
C37F
102
}
330
2
100
AcDbSymbolTableRecord
100
AcDbLayerTableRecord
  2
AM_10
 70
     0
 62
     7
  6
切断線
370
    13
390
F
1001
AcAecLayerStandard
1000

1000

  0
LAYER
  5
AD6F
102
{ACAD_XDICTIONARY
360
C381
102
}
330
2
100
AcDbSymbolTableRecord
100
AcDbLayerTableRecord
  2
AM_11
 70
     0
 62
     2
  6
想像線1
370
    13
390
F
1001
AcAecLayerStandard
1000

1000

  0
LAYER
  5
B1B6
102
{ACAD_XDICTIONARY
360
C383
102
}
330
2
100
AcDbSymbolTableRecord
100
AcDbLayerTableRecord
  2
AM_CL
 70
     1
 62
    -1
  6
Amconstr
370
    15
390
F
1001
AcAecLayerStandard
1000

1000

  0
LAYER
  5
B2EB
102
{ACAD_XDICTIONARY
360
C385
102
}
330
2
100
AcDbSymbolTableRecord
100
AcDbLayerTableRecord
  2
AM_14
 70
     0
 62
     5
  6
細線
370
     9
390
F
1001
AcAecLayerStandard
1000

1000

  0
LAYER
  5
B2EC
102
{ACAD_XDICTIONARY
360
C387
102
}
330
2
100
AcDbSymbolTableRecord
100
AcDbLayerTableRecord
  2
AM_15
 70
     0
 62
     6
  6
陰線1
370
     9
390
F
1001
AcAecLayerStandard
1000

1000

  0
LAYER
  5
B65B
102
{ACAD_XDICTIONARY
360
C389
102
}
330
2
100
AcDbSymbolTableRecord
100
AcDbLayerTableRecord
  2
1
 70
     0
 62
     7
  6
Continuous
370
    -3
390
F
  0
LAYER
  5
B65C
102
{ACAD_XDICTIONARY
360
C38B
102
}
330
2
100
AcDbSymbolTableRecord
100
AcDbLayerTableRecord
  2
2
 70
     0
 62
     7
  6
Continuous
370
    -3
390
F
  0
LAYER
  5
B65D
102
{ACAD_XDICTIONARY
360
C38D
102
}
330
2
100
AcDbSymbolTableRecord
100
AcDbLayerTableRecord
  2
20
 70
     0
 62
    94
  6
Continuous
370
    -3
390
F
  0
ENDTAB
  0
TABLE
  2
STYLE
  5
3
330
0
100
AcDbSymbolTable
 70
     8
  0
STYLE
  5
11
330
3
100
AcDbSymbolTableRecord
100
AcDbTextStyleTableRecord
  2
STANDARD
 70
     0
 40
0.0
 41
0.7
 50
0.0
 71
     0
 42
3.2
  3
romans.shx
  4
extfont.shx
  0
STYLE
  5
56
330
3
100
AcDbSymbolTableRecord
100
AcDbTextStyleTableRecord
  2

 70
     1
 40
0.0
 41
1.0
 50
0.0
 71
     0
 42
2.5
  3
ltypeshp.shx
  4

  0
STYLE
  5
58
330
3
100
AcDbSymbolTableRecord
100
AcDbTextStyleTableRecord
  2
ACISOTS
 70
     0
 40
1.0
 41
1.0
 50
0.0
 71
     0
 42
2.5
  3
isocp.shx
  4
extfont.shx
  0
STYLE
  5
63
330
3
100
AcDbSymbolTableRecord
100
AcDbTextStyleTableRecord
  2
ACISOGDT
 70
     0
 40
0.0
 41
1.0
 50
0.0
 71
     0
 42
2.5
  3
amgdt.shx
  4

  0
STYLE
  5
A74
330
3
100
AcDbSymbolTableRecord
100
AcDbTextStyleTableRecord
  2
DIM
 70
     0
 40
0.0
 41
1.0
 50
0.0
 71
     0
 42
2.5
  3
monotxt.shx
  4
extfont.shx
  0
STYLE
  5
AC80
330
3
100
AcDbSymbolTableRecord
100
AcDbTextStyleTableRecord
  2

 70
     1
 40
0.0
 41
1.0
 50
0.0
 71
     0
 42
3.2
  3
genltshp.shx
  4

  0
STYLE
  5
B65E
330
3
100
AcDbSymbolTableRecord
100
AcDbTextStyleTableRecord
  2
ACANSTS
 70
     0
 40
1.0
 41
1.0
 50
0.0
 71
     0
 42
5.0
  3
romans.shx
  4
extfont.shx
  0
STYLE
  5
B65F
330
3
100
AcDbSymbolTableRecord
100
AcDbTextStyleTableRecord
  2
ACANSGDT
 70
     0
 40
0.0
 41
1.0
 50
0.0
 71
     0
 42
5.0
  3
amgdt.shx
  4

  0
ENDTAB
  0
TABLE
  2
VIEW
  5
6
330
0
100
AcDbSymbolTable
 70
     6
  0
VIEW
  5
AE1
330
6
100
AcDbSymbolTableRecord
100
AcDbViewTableRecord
  2
AM_VIEW1
 70
     0
 40
119.3150289017341
 10
74.25
 20
150.3424855491329
 41
148.5
 11
0.0
 21
0.0
 31
1.0
 12
0.0
 22
0.0
 32
0.0
 42
50.0
 43
-1370.695619172058
 44
-1370.695619172058
 50
0.0
 71
     0
281
     0
 72
     0
  0
VIEW
  5
AE2
330
6
100
AcDbSymbolTableRecord
100
AcDbViewTableRecord
  2
AM_VIEW2
 70
     0
 40
119.3150289017341
 10
222.75
 20
150.3424855491329
 41
148.5
 11
0.0
 21
0.0
 31
1.0
 12
0.0
 22
0.0
 32
0.0
 42
50.0
 43
-1370.695619172058
 44
-1370.695619172058
 50
0.0
 71
     0
281
     0
 72
     0
  0
VIEW
  5
AE3
330
6
100
AcDbSymbolTableRecord
100
AcDbViewTableRecord
  2
AM_VIEW3
 70
     0
 40
119.3150289017341
 10
74.25
 20
59.65751445086702
 41
148.5
 11
0.0
 21
0.0
 31
1.0
 12
0.0
 22
0.0
 32
0.0
 42
50.0
 43
-1370.695619172058
 44
-1370.695619172058
 50
0.0
 71
     0
281
     0
 72
     0
  0
VIEW
  5
AE4
330
6
100
AcDbSymbolTableRecord
100
AcDbViewTableRecord
  2
AM_VIEW4
 70
     0
 40
119.3150289017341
 10
222.75
 20
59.65751445086702
 41
148.5
 11
0.0
 21
0.0
 31
1.0
 12
0.0
 22
0.0
 32
0.0
 42
50.0
 43
-1370.695619172058
 44
-1370.695619172058
 50
0.0
 71
     0
281
     0
 72
     0
  0
VIEW
  5
AE5
330
6
100
AcDbSymbolTableRecord
100
AcDbViewTableRecord
  2
AM_VIEW5
 70
     0
 40
119.3150289017341
 10
148.5
 20
105.0
 41
148.5
 11
0.0
 21
0.0
 31
1.0
 12
0.0
 22
0.0
 32
0.0
 42
50.0
 43
-1370.695619172058
 44
-1370.695619172058
 50
0.0
 71
     0
281
     0
 72
     0
  0
VIEW
  5
AE6
330
6
100
AcDbSymbolTableRecord
100
AcDbViewTableRecord
  2
AM_VIEW6
 70
     0
 40
238.6276715028902
 10
148.5
 20
105.0
 41
296.99703
 11
0.0
 21
0.0
 31
1.0
 12
0.0
 22
0.0
 32
0.0
 42
50.0
 43
-1370.695619172058
 44
-1370.695619172058
 50
0.0
 71
     0
281
     0
 72
     0
  0
ENDTAB
  0
TABLE
  2
UCS
  5
7
330
0
100
AcDbSymbolTable
 70
     0
  0
ENDTAB
  0
TABLE
  2
APPID
  5
9
330
0
100
AcDbSymbolTable
 70
    60
  0
APPID
  5
12
330
9
100
AcDbSymbolTableRecord
100
AcDbRegAppTableRecord
  2
ACAD
 70
     0
  0
APPID
  5
30
330
9
100
AcDbSymbolTableRecord
100
AcDbRegAppTableRecord
  2
MCAD_NO_VIS
 70
     0
  0
APPID
  5
31
330
9
100
AcDbSymbolTableRecord
100
AcDbRegAppTableRecord
  2
ACAD_TEMP_GRAPHIC
 70
     0
  0
APPID
  5
44
330
9
100
AcDbSymbolTableRecord
100
AcDbRegAppTableRecord
  2
ACATTRIBSERVICES
 70
     0
  0
APPID
  5
7A1
330
9
100
AcDbSymbolTableRecord
100
AcDbRegAppTableRecord
  2
GENIUS_GENDIMSH_14
 70
     0
  0
APPID
  5
A49
330
9
100
AcDbSymbolTableRecord
100
AcDbRegAppTableRecord
  2
GENIUS_GENREC_14
 70
     0
  0
APPID
  5
A4A
330
9
100
AcDbSymbolTableRecord
100
AcDbRegAppTableRecord
  2
GENIUS_GENOBJ-N-REC_13
 70
     0
  0
APPID
  5
A4B
330
9
100
AcDbSymbolTableRecord
100
AcDbRegAppTableRecord
  2
GENIUS_GENODEF_13
 70
     0
  0
APPID
  5
A4C
330
9
100
AcDbSymbolTableRecord
100
AcDbRegAppTableRecord
  2
DCO15
 70
     0
  0
APPID
  5
ADC
330
9
100
AcDbSymbolTableRecord
100
AcDbRegAppTableRecord
  2
GENIUS_GENOLIS_13
 70
     0
  0
APPID
  5
ADD
330
9
100
AcDbSymbolTableRecord
100
AcDbRegAppTableRecord
  2
GENIUS_GENOENT_13
 70
     0
  0
APPID
  5
ADE
330
9
100
AcDbSymbolTableRecord
100
AcDbRegAppTableRecord
  2
GENIUS_GENOBJ-N-TIT_13
 70
     0
  0
APPID
  5
ADF
330
9
100
AcDbSymbolTableRecord
100
AcDbRegAppTableRecord
  2
GENIUS_GENTITLE_13
 70
     0
  0
APPID
  5
AE0
330
9
100
AcDbSymbolTableRecord
100
AcDbRegAppTableRecord
  2
GENIUS_GENOREF_13
 70
     0
  0
APPID
  5
AE7
330
9
100
AcDbSymbolTableRecord
100
AcDbRegAppTableRecord
  2
GENIUS_GENSCREG_15
 70
     0
  0
APPID
  5
AE8
330
9
100
AcDbSymbolTableRecord
100
AcDbRegAppTableRecord
  2
GENIUS_GENOBJ-N-SDF_13
 70
     0
  0
APPID
  5
FAF
330
9
100
AcDbSymbolTableRecord
100
AcDbRegAppTableRecord
  2
GENIUS_GENBLLY_14
 70
     0
  0
APPID
  5
FB0
330
9
100
AcDbSymbolTableRecord
100
AcDbRegAppTableRecord
  2
GENIUS_GENTRA_14
 70
     0
  0
APPID
  5
1285
330
9
100
AcDbSymbolTableRecord
100
AcDbRegAppTableRecord
  2
GENIUS_GENDTOL_13
 70
     0
  0
APPID
  5
142D
330
9
100
AcDbSymbolTableRecord
100
AcDbRegAppTableRecord
  2
GENIUS_GENOBJ-N-CEN_13
 70
     0
  0
APPID
  5
1AB5
330
9
100
AcDbSymbolTableRecord
100
AcDbRegAppTableRecord
  2
GENIUS_GENOBJ-N-CRS_13
 70
     0
  0
APPID
  5
1B36
330
9
100
AcDbSymbolTableRecord
100
AcDbRegAppTableRecord
  2
GENIUS_GENOBJ-N-HTC_13
 70
     0
  0
APPID
  5
1B37
330
9
100
AcDbSymbolTableRecord
100
AcDbRegAppTableRecord
  2
GENIUS_GENHATCH_13
 70
     0
  0
APPID
  5
216D
330
9
100
AcDbSymbolTableRecord
100
AcDbRegAppTableRecord
  2
GENIUS_GENOBJ-N-FIL_13
 70
     0
  0
APPID
  5
2356
330
9
100
AcDbSymbolTableRecord
100
AcDbRegAppTableRecord
  2
GEVID990412420
 70
     0
  0
APPID
  5
2357
330
9
100
AcDbSymbolTableRecord
100
AcDbRegAppTableRecord
  2
GEVDC
 70
     0
  0
APPID
  5
2358
330
9
100
AcDbSymbolTableRecord
100
AcDbRegAppTableRecord
  2
GEVCON
 70
     0
  0
APPID
  5
235B
330
9
100
AcDbSymbolTableRecord
100
AcDbRegAppTableRecord
  2
GEVRADREF
 70
     0
  0
APPID
  5
2360
330
9
100
AcDbSymbolTableRecord
100
AcDbRegAppTableRecord
  2
GENIUS_GENBH_13
 70
     0
  0
APPID
  5
2362
330
9
100
AcDbSymbolTableRecord
100
AcDbRegAppTableRecord
  2
GENIUS_GENOBJ-NBEHI-BHF_13
 70
     0
  0
APPID
  5
2364
330
9
100
AcDbSymbolTableRecord
100
AcDbRegAppTableRecord
  2
GENIUS_GENOBJ-NBEHI-BHB_13
 70
     0
  0
APPID
  5
2379
330
9
100
AcDbSymbolTableRecord
100
AcDbRegAppTableRecord
  2
GENIUS_GENOBJ-F-SCPASSM_13
 70
     0
  0
APPID
  5
3D74
330
9
100
AcDbSymbolTableRecord
100
AcDbRegAppTableRecord
  2
GENIUS_GENDIM_13
 70
     0
  0
APPID
  5
3D76
330
9
100
AcDbSymbolTableRecord
100
AcDbRegAppTableRecord
  2
GENIUS_GE3DTOL_13
 70
     0
  0
APPID
  5
3D9C
330
9
100
AcDbSymbolTableRecord
100
AcDbRegAppTableRecord
  2
AD_DRAW
 70
     0
  0
APPID
  5
3DE8
330
9
100
AcDbSymbolTableRecord
100
AcDbRegAppTableRecord
  2
ASURF_PCURVE_APPNAME
 70
     0
  0
APPID
  5
3DED
330
9
100
AcDbSymbolTableRecord
100
AcDbRegAppTableRecord
  2
AMG_3D2D_5.0
 70
     0
  0
APPID
  5
3E1B
330
9
100
AcDbSymbolTableRecord
100
AcDbRegAppTableRecord
  2
DESIGNERASSEMBLIES
 70
     0
  0
APPID
  5
3E20
330
9
100
AcDbSymbolTableRecord
100
AcDbRegAppTableRecord
  2
ACADM_DIM_EDIT
 70
     0
  0
APPID
  5
3E21
330
9
100
AcDbSymbolTableRecord
100
AcDbRegAppTableRecord
  2
AMDT_DM_ADJ
 70
     0
  0
APPID
  5
4143
330
9
100
AcDbSymbolTableRecord
100
AcDbRegAppTableRecord
  2
GENIUS_GENFIL_13
 70
     0
  0
APPID
  5
4144
330
9
100
AcDbSymbolTableRecord
100
AcDbRegAppTableRecord
  2
GENIUS_GENOBJ-N-CHA_13
 70
     0
  0
APPID
  5
4E17
330
9
100
AcDbSymbolTableRecord
100
AcDbRegAppTableRecord
  2
GEVID1008153417
 70
     0
  0
APPID
  5
4E58
330
9
100
AcDbSymbolTableRecord
100
AcDbRegAppTableRecord
  2
GEVID1008153418
 70
     0
  0
APPID
  5
4E5E
330
9
100
AcDbSymbolTableRecord
100
AcDbRegAppTableRecord
  2
GEVID1008153419
 70
     0
  0
APPID
  5
4E64
330
9
100
AcDbSymbolTableRecord
100
AcDbRegAppTableRecord
  2
GEVID1008153420
 70
     0
  0
APPID
  5
4E75
330
9
100
AcDbSymbolTableRecord
100
AcDbRegAppTableRecord
  2
GEVID1008153421
 70
     0
  0
APPID
  5
4EB7
330
9
100
AcDbSymbolTableRecord
100
AcDbRegAppTableRecord
  2
GENIUS_AMGTXT_16
 70
     0
  0
APPID
  5
7645
330
9
100
AcDbSymbolTableRecord
100
AcDbRegAppTableRecord
  2
GENIUS_GENOBJ-N-DIM_13
 70
     0
  0
APPID
  5
AAD0
330
9
100
AcDbSymbolTableRecord
100
AcDbRegAppTableRecord
  2
ACAD_DSTYLE_DIMARC_LENGTH_SYMBOL
 70
     0
  0
APPID
  5
AAD1
330
9
100
AcDbSymbolTableRecord
100
AcDbRegAppTableRecord
  2
ACAD_DSTYLE_DIMJOGGED_JOGANGLE_SYMBOL
 70
     0
  0
APPID
  5
AAFD
330
9
100
AcDbSymbolTableRecord
100
AcDbRegAppTableRecord
  2
ACAD_PSEXT
 70
     0
  0
APPID
  5
AD61
330
9
100
AcDbSymbolTableRecord
100
AcDbRegAppTableRecord
  2
AcAecLayerStandard
 70
     0
  0
APPID
  5
AEE3
330
9
100
AcDbSymbolTableRecord
100
AcDbRegAppTableRecord
  2
ACAD_EXEMPT_FROM_CAD_STANDARDS
 70
     0
  0
APPID
  5
B1BE
330
9
100
AcDbSymbolTableRecord
100
AcDbRegAppTableRecord
  2
GENIUS_GENCEN_19
 70
     0
  0
APPID
  5
B505
330
9
100
AcDbSymbolTableRecord
100
AcDbRegAppTableRecord
  2
ACAD_MLEADERVER
 70
     0
  0
APPID
  5
B52B
330
9
100
AcDbSymbolTableRecord
100
AcDbRegAppTableRecord
  2
ACAUTHENVIRON
 70
     0
  0
APPID
  5
B52C
330
9
100
AcDbSymbolTableRecord
100
AcDbRegAppTableRecord
  2
AcDbDynamicBlockTrueName
 70
     0
  0
APPID
  5
B52D
330
9
100
AcDbSymbolTableRecord
100
AcDbRegAppTableRecord
  2
AcDbDynamicBlockGUID
 70
     0
  0
APPID
  5
B52E
330
9
100
AcDbSymbolTableRecord
100
AcDbRegAppTableRecord
  2
ACDBBLOCKREPETAG
 70
     0
  0
ENDTAB
  0
TABLE
  2
DIMSTYLE
  5
A
330
0
100
AcDbSymbolTable
 70
    23
100
AcDbDimStyleTable
 71
     1
340
2515
  0
DIMSTYLE
105
A76
330
A
100
AcDbSymbolTableRecord
100
AcDbDimStyleTableRecord
  2
STANDARD
 70
     0
 41
3.0
 42
1.0
 43
7.0
 44
2.0
 73
     0
 74
     0
 77
     1
140
2.799999999999999
141
0.0
143
0.0394
147
0.7
171
     4
172
     1
173
     1
176
     3
177
     3
178
     2
271
     3
272
     3
273
     8
274
     4
289
     0
340
A74
341
A66
343
A66
344
A66
  0
DIMSTYLE
105
2515
330
A
100
AcDbSymbolTableRecord
100
AcDbDimStyleTableRecord
  2
SYS
 70
     0
  4
"
 41
1.0
 42
1.0
 43
10.0
 44
1.0
 47
0.1
 48
0.1
 73
     0
 74
     0
 77
     1
 78
     8
 79
     2
140
3.5
141
0.0
143
0.0393701
146
0.71
147
1.5
172
     1
176
   256
177
   256
178
     7
271
     2
272
     2
283
     0
284
     8
340
11
371
    -1
372
    -1
1001
ACAD_DSTYLE_DIMJOGGED_JOGANGLE_SYMBOL
1070
   384
1040
0.7853981633974483
1001
ACAD_DSTYLE_DIMARC_LENGTH_SYMBOL
1070
   379
1070
     1
  0
DIMSTYLE
105
2516
330
A
100
AcDbSymbolTableRecord
100
AcDbDimStyleTableRecord
  2
SYS$3
 70
     0
  4
"
 41
2.0
 42
1.0
 43
10.0
 44
1.0
 47
0.1
 48
0.1
 73
     0
 77
     1
 78
     8
 79
     2
140
3.5
141
0.0
143
0.0393701
146
0.71
147
1.5
176
   256
177
   256
178
     2
271
     2
272
     2
283
     0
284
     8
288
     1
340
11
342
A66
371
    -1
372
    -1
1001
ACAD_DSTYLE_DIMJOGGED_JOGANGLE_SYMBOL
1070
   384
1040
0.7853981633974483
1001
ACAD_DSTYLE_DIMARC_LENGTH_SYMBOL
1070
   379
1070
     1
  0
DIMSTYLE
105
2517
330
A
100
AcDbSymbolTableRecord
100
AcDbDimStyleTableRecord
  2
SYS$4
 70
     0
  4
"
 41
2.0
 42
1.0
 43
10.0
 44
1.0
 47
0.1
 48
0.1
 73
     0
 77
     1
 78
     8
 79
     2
140
3.5
141
0.0
143
0.0393701
146
0.71
147
1.5
173
     1
176
   256
177
   256
178
     2
271
     2
272
     2
283
     0
284
     8
288
     1
340
11
344
A66
371
    -1
372
    -1
1001
ACAD_DSTYLE_DIMJOGGED_JOGANGLE_SYMBOL
1070
   384
1040
0.7853981633974483
1001
ACAD_DSTYLE_DIMARC_LENGTH_SYMBOL
1070
   379
1070
     1
  0
DIMSTYLE
105
2518
330
A
100
AcDbSymbolTableRecord
100
AcDbDimStyleTableRecord
  2
SYS$6
 70
     0
  4
"
 41
2.0
 42
1.0
 43
10.0
 44
1.0
 47
0.1
 48
0.1
 73
     0
 74
     0
 78
     8
 79
     2
140
3.5
141
0.0
143
0.0393701
146
0.71
147
1.5
172
     1
176
   256
177
   256
178
     2
271
     2
272
     2
283
     0
284
     8
340
11
341
A66
371
    -1
372
    -1
1001
ACAD_DSTYLE_DIMJOGGED_JOGANGLE_SYMBOL
1070
   384
1040
0.7853981633974483
1001
ACAD_DSTYLE_DIMARC_LENGTH_SYMBOL
1070
   379
1070
     1
  0
DIMSTYLE
105
2519
330
A
100
AcDbSymbolTableRecord
100
AcDbDimStyleTableRecord
  2
SYS$7
 70
     0
  4
"
 41
2.0
 42
1.0
 43
10.0
 44
1.0
 47
0.1
 48
0.1
 73
     0
 74
     0
 77
     1
 78
     8
 79
     2
140
5.0
141
0.0
143
0.0393701
146
0.71
147
1.5
172
     1
176
   256
177
   256
178
     2
271
     2
272
     2
283
     0
284
     8
340
11
341
A66
342
A66
371
    -1
372
    -1
1001
ACAD_DSTYLE_DIMJOGGED_JOGANGLE_SYMBOL
1070
   384
1040
0.7853981633974483
1001
ACAD_DSTYLE_DIMARC_LENGTH_SYMBOL
1070
   379
1070
     1
  0
DIMSTYLE
105
251A
330
A
100
AcDbSymbolTableRecord
100
AcDbDimStyleTableRecord
  2
SYS$SF
 70
     0
  4
"
 41
2.5
 42
1.0
 43
10.0
 44
1.0
 47
0.1
 48
0.1
 73
     0
 74
     0
 75
     1
 76
     1
 77
     1
 78
     8
 79
     2
140
3.5
141
0.0
143
0.0393701
146
0.71
147
1.5
172
     1
176
   256
177
   256
178
     2
271
     2
272
     3
283
     0
284
     8
340
11
341
6C4
342
6C4
371
    -1
372
    -1
1001
ACAD_DSTYLE_DIMJOGGED_JOGANGLE_SYMBOL
1070
   384
1040
0.7853981633974483
1001
ACAD_DSTYLE_DIMARC_LENGTH_SYMBOL
1070
   379
1070
     1
  0
DIMSTYLE
105
251B
330
A
100
AcDbSymbolTableRecord
100
AcDbDimStyleTableRecord
  2
SYS$SH
 70
     0
  4
"
 41
2.5
 42
1.0
 43
10.0
 44
1.0
 47
0.1
 48
0.1
 73
     0
 74
     0
 75
     1
 76
     1
 77
     1
 78
     8
 79
     2
140
3.5
141
0.0
143
0.0393701
144
2.0
146
0.71
147
1.5
172
     1
173
     1
176
   256
177
   256
178
     2
271
     2
272
     3
283
     0
284
     8
340
11
341
6C4
343
72
344
6C4
371
    -1
372
    -1
1001
ACAD_DSTYLE_DIMJOGGED_JOGANGLE_SYMBOL
1070
   384
1040
0.7853981633974483
1001
ACAD_DSTYLE_DIMARC_LENGTH_SYMBOL
1070
   379
1070
     1
  0
DIMSTYLE
105
2A59
330
A
100
AcDbSymbolTableRecord
100
AcDbDimStyleTableRecord
  2
SYS$2
 70
     0
  4
"
 41
1.0
 42
1.0
 43
10.0
 44
1.0
 47
0.1
 48
0.1
 73
     0
 74
     0
 77
     1
 78
     8
 79
     2
140
3.5
141
0.0
143
0.0393701
146
0.71
147
1.5
172
     1
176
   256
177
   256
178
     2
271
     2
272
     2
283
     0
284
     8
340
11
342
6C4
371
    -1
372
    -1
1001
ACAD_DSTYLE_DIMJOGGED_JOGANGLE_SYMBOL
1070
   384
1040
0.7853981633974483
1001
ACAD_DSTYLE_DIMARC_LENGTH_SYMBOL
1070
   379
1070
     1
  0
DIMSTYLE
105
2AAB
102
{ACAD_REACTORS
330
B9C7
330
B9EF
330
BA1F
330
BA4D
330
BABA
330
BAD9
330
BB07
330
BB26
330
BB4E
330
BBCB
102
}
330
A
100
AcDbSymbolTableRecord
100
AcDbDimStyleTableRecord
  2
SYS$0
 70
     0
  4
"
 41
1.0
 42
1.0
 43
10.0
 44
1.0
 47
0.1
 48
0.1
 73
     0
 74
     0
 77
     1
 78
     8
 79
     2
140
3.200000000000001
141
0.0
143
0.0393701
146
0.71
147
1.5
172
     1
176
   256
177
   256
178
     2
271
     2
272
     2
283
     0
284
     8
340
11
341
A66
342
6C4
371
    -1
372
    -1
1001
ACAD_DSTYLE_DIMJOGGED_JOGANGLE_SYMBOL
1070
   384
1040
0.7853981633974483
1001
ACAD_DSTYLE_DIMARC_LENGTH_SYMBOL
1070
   379
1070
     1
  0
DIMSTYLE
105
AF99
330
A
100
AcDbSymbolTableRecord
100
AcDbDimStyleTableRecord
  2
AM_ISO
 70
     0
  4
"
 41
2.5
 42
1.0
 43
10.0
 44
1.0
 47
0.1
 48
0.1
 73
     0
 74
     0
 77
     1
 78
     8
 79
     2
140
3.5
141
0.0
143
0.0393701
146
0.71
147
1.5
172
     1
176
   256
177
   256
178
     2
271
     2
272
     3
274
     4
283
     0
284
     8
340
11
371
    -1
372
    -1
  0
DIMSTYLE
105
AF9A
330
A
100
AcDbSymbolTableRecord
100
AcDbDimStyleTableRecord
  2
AM_ISO$3
 70
     0
  4
"
 41
2.5
 42
1.0
 43
10.0
 44
1.0
 47
0.1
 48
0.1
 73
     0
 77
     1
 78
     8
 79
     2
140
3.5
141
0.0
143
0.0393701
146
0.71
147
1.5
176
   256
177
   256
178
     2
271
     2
272
     3
274
     4
283
     0
284
     8
288
     1
289
     0
340
11
371
    -1
372
    -1
  0
DIMSTYLE
105
AF9B
330
A
100
AcDbSymbolTableRecord
100
AcDbDimStyleTableRecord
  2
AM_ISO$4
 70
     0
  4
"
 41
2.5
 42
1.0
 43
10.0
 44
1.0
 47
0.1
 48
0.1
 73
     0
 77
     1
 78
     8
 79
     2
140
3.5
141
0.0
143
0.0393701
146
0.71
147
1.5
176
   256
177
   256
178
     2
271
     2
272
     3
274
     4
283
     0
284
     8
288
     1
289
     0
340
11
371
    -1
372
    -1
  0
DIMSTYLE
105
AF9C
330
A
100
AcDbSymbolTableRecord
100
AcDbDimStyleTableRecord
  2
AM_ISO$6
 70
     0
  4
"
 41
2.5
 42
1.0
 43
10.0
 44
1.0
 47
0.1
 48
0.1
 73
     0
 74
     0
 78
     8
 79
     2
140
3.5
141
0.0
143
0.0393701
146
0.71
147
1.5
172
     1
176
   256
177
   256
178
     2
271
     2
272
     3
274
     4
283
     0
284
     8
340
11
371
    -1
372
    -1
  0
DIMSTYLE
105
AF9D
330
A
100
AcDbSymbolTableRecord
100
AcDbDimStyleTableRecord
  2
AM_ISO$7
 70
     0
  4
"
 41
2.5
 42
1.0
 43
10.0
 44
1.0
 47
0.1
 48
0.1
 73
     0
 74
     0
 77
     1
 78
     8
 79
     2
140
5.0
141
0.0
143
0.0393701
146
0.71
147
1.5
172
     1
176
   256
177
   256
178
     2
271
     2
272
     3
274
     4
283
     0
284
     8
340
11
371
    -1
372
    -1
  0
DIMSTYLE
105
AF9E
330
A
100
AcDbSymbolTableRecord
100
AcDbDimStyleTableRecord
  2
AM_ISO$SF
 70
     0
  4
"
 41
2.5
 42
1.0
 43
10.0
 44
1.0
 47
0.1
 48
0.1
 73
     0
 74
     0
 75
     1
 76
     1
 77
     1
 78
     8
 79
     2
140
3.5
141
0.0
143
0.0393701
146
0.71
147
1.5
172
     1
176
   256
177
   256
178
     2
271
     2
272
     3
274
     4
283
     0
284
     8
340
11
371
    -1
372
    -1
  0
DIMSTYLE
105
AF9F
330
A
100
AcDbSymbolTableRecord
100
AcDbDimStyleTableRecord
  2
AM_ISO$SH
 70
     0
  4
"
 41
2.5
 42
1.0
 43
10.0
 44
1.0
 47
0.1
 48
0.1
 73
     0
 74
     0
 75
     1
 76
     1
 77
     1
 78
     8
 79
     2
140
3.5
141
0.0
143
0.0393701
144
2.0
146
0.71
147
1.5
172
     1
173
     1
176
   256
177
   256
178
     2
271
     2
272
     3
274
     4
283
     0
284
     8
340
11
343
72
371
    -1
372
    -1
  0
DIMSTYLE
105
B660
330
A
100
AcDbSymbolTableRecord
100
AcDbDimStyleTableRecord
  2
AM_ANSI
 70
     0
  4
mm
 41
0.1
 42
0.05
 43
0.5
 44
0.1
 47
0.1
 48
0.1
 78
     7
 79
     2
140
0.12
141
0.0
146
0.71
147
0.06
176
   256
177
   256
178
     2
274
     4
284
     7
340
11
371
    -1
372
    -1
1001
ACAD_DSTYLE_DIMARC_LENGTH_SYMBOL
1070
   379
1070
     1
  0
DIMSTYLE
105
B661
330
A
100
AcDbSymbolTableRecord
100
AcDbDimStyleTableRecord
  2
AM_ANSI$3
 70
     0
  4
mm
 41
0.1
 42
0.05
 43
0.5
 44
0.1
 47
0.1
 48
0.1
 78
     7
 79
     2
140
0.12
141
0.0
146
0.71
147
0.06
176
   256
177
   256
178
     2
274
     4
284
     7
288
     1
289
     0
340
11
371
    -1
372
    -1
1001
ACAD_DSTYLE_DIMARC_LENGTH_SYMBOL
1070
   379
1070
     1
  0
DIMSTYLE
105
B662
330
A
100
AcDbSymbolTableRecord
100
AcDbDimStyleTableRecord
  2
AM_ANSI$4
 70
     0
  4
mm
 41
0.1
 42
0.05
 43
0.5
 44
0.1
 47
0.1
 48
0.1
 78
     7
 79
     2
140
0.12
141
0.0
146
0.71
147
0.06
176
   256
177
   256
178
     2
274
     4
284
     7
288
     1
289
     0
340
11
371
    -1
372
    -1
1001
ACAD_DSTYLE_DIMARC_LENGTH_SYMBOL
1070
   379
1070
     1
  0
DIMSTYLE
105
B663
330
A
100
AcDbSymbolTableRecord
100
AcDbDimStyleTableRecord
  2
AM_ANSI$7
 70
     0
  4
mm
 41
0.1
 42
0.05
 43
0.5
 44
0.1
 47
0.1
 48
0.1
 78
     7
 79
     2
140
0.24
141
0.0
146
0.71
147
0.06
176
   256
177
   256
178
     2
274
     4
284
     7
340
11
371
    -1
372
    -1
1001
ACAD_DSTYLE_DIMARC_LENGTH_SYMBOL
1070
   379
1070
     1
  0
DIMSTYLE
105
B664
330
A
100
AcDbSymbolTableRecord
100
AcDbDimStyleTableRecord
  2
AM_ANSI$SF
 70
     0
  4
mm
 41
0.1
 42
0.05
 43
0.5
 44
0.1
 47
0.1
 48
0.1
 75
     1
 76
     1
 78
     7
 79
     2
140
0.12
141
0.0
146
0.71
147
0.06
176
   256
177
   256
178
     2
274
     4
284
     7
340
11
371
    -1
372
    -1
1001
ACAD_DSTYLE_DIMARC_LENGTH_SYMBOL
1070
   379
1070
     1
  0
DIMSTYLE
105
B665
330
A
100
AcDbSymbolTableRecord
100
AcDbDimStyleTableRecord
  2
AM_ANSI$SH
 70
     0
  4
mm
 41
0.1
 42
0.05
 43
0.5
 44
0.1
 47
0.1
 48
0.1
 75
     1
 76
     1
 78
     7
 79
     2
140
0.12
141
0.0
146
0.71
147
0.06
173
     1
176
   256
177
   256
178
     2
274
     4
284
     7
340
11
343
72
371
    -1
372
    -1
1001
ACAD_DSTYLE_DIMARC_LENGTH_SYMBOL
1070
   379
1070
     1
  0
ENDTAB
  0
TABLE
  2
BLOCK_RECORD
  5
1
330
0
100
AcDbSymbolTable
 70
    37
  0
BLOCK_RECORD
  5
1F
102
{ACAD_XDICTIONARY
360
8A
102
}
330
1
100
AcDbSymbolTableRecord
100
AcDbBlockTableRecord
  2
*Model_Space
340
22
  0
BLOCK_RECORD
  5
1B
330
1
100
AcDbSymbolTableRecord
100
AcDbBlockTableRecord
  2
*Paper_Space
340
1E
  0
BLOCK_RECORD
  5
23
330
1
100
AcDbSymbolTableRecord
100
AcDbBlockTableRecord
  2
*Paper_Space0
340
26
  0
BLOCK_RECORD
  5
72
330
1
100
AcDbSymbolTableRecord
100
AcDbBlockTableRecord
  2
GENAXEH
340
0
  0
BLOCK_RECORD
  5
6C4
330
1
100
AcDbSymbolTableRecord
100
AcDbBlockTableRecord
  2
_Dot
340
0
102
{BLKREFS
331
C452
331
C453
331
C45D
331
C45E
331
C467
331
C468
331
C472
331
C473
331
C47B
331
C47C
331
C486
331
C487
331
C48F
331
C490
331
C498
331
C499
331
C4A1
331
C4A2
331
C4AC
331
C4AD
102
}
  0
BLOCK_RECORD
  5
A66
330
1
100
AcDbSymbolTableRecord
100
AcDbBlockTableRecord
  2
_OPEN30
340
0
102
{BLKREFS
331
C213
331
C214
331
C221
331
C222
331
C22F
331
C230
331
C23D
331
C23E
331
C249
331
C24A
102
}
  0
BLOCK_RECORD
  5
B9C8
330
1
100
AcDbSymbolTableRecord
100
AcDbBlockTableRecord
  2
*D5
340
0
  0
BLOCK_RECORD
  5
B9F0
330
1
100
AcDbSymbolTableRecord
100
AcDbBlockTableRecord
  2
*D6
340
0
  0
BLOCK_RECORD
  5
BA20
330
1
100
AcDbSymbolTableRecord
100
AcDbBlockTableRecord
  2
*D7
340
0
  0
BLOCK_RECORD
  5
BA4E
330
1
100
AcDbSymbolTableRecord
100
AcDbBlockTableRecord
  2
*D8
340
0
  0
BLOCK_RECORD
  5
BABB
330
1
100
AcDbSymbolTableRecord
100
AcDbBlockTableRecord
  2
*D9
340
0
  0
BLOCK_RECORD
  5
BADA
330
1
100
AcDbSymbolTableRecord
100
AcDbBlockTableRecord
  2
*D10
340
0
  0
BLOCK_RECORD
  5
BB08
330
1
100
AcDbSymbolTableRecord
100
AcDbBlockTableRecord
  2
*D11
340
0
  0
BLOCK_RECORD
  5
BB27
330
1
100
AcDbSymbolTableRecord
100
AcDbBlockTableRecord
  2
*D12
340
0
  0
BLOCK_RECORD
  5
BB4F
330
1
100
AcDbSymbolTableRecord
100
AcDbBlockTableRecord
  2
*D13
340
0
  0
BLOCK_RECORD
  5
BBCC
330
1
100
AcDbSymbolTableRecord
100
AcDbBlockTableRecord
  2
*D14
340
0
  0
BLOCK_RECORD
  5
BE8B
330
1
100
AcDbSymbolTableRecord
100
AcDbBlockTableRecord
  2
*D15
340
0
  0
BLOCK_RECORD
  5
BE96
330
1
100
AcDbSymbolTableRecord
100
AcDbBlockTableRecord
  2
*D16
340
0
  0
BLOCK_RECORD
  5
BEA1
330
1
100
AcDbSymbolTableRecord
100
AcDbBlockTableRecord
  2
*D17
340
0
  0
BLOCK_RECORD
  5
BEAB
330
1
100
AcDbSymbolTableRecord
100
AcDbBlockTableRecord
  2
*D18
340
0
  0
BLOCK_RECORD
  5
BEB6
330
1
100
AcDbSymbolTableRecord
100
AcDbBlockTableRecord
  2
*D19
340
0
  0
BLOCK_RECORD
  5
BEC1
330
1
100
AcDbSymbolTableRecord
100
AcDbBlockTableRecord
  2
*G1020
340
0
  0
BLOCK_RECORD
  5
BEFF
330
1
100
AcDbSymbolTableRecord
100
AcDbBlockTableRecord
  2
*G1121
340
0
102
{BLKREFS
331
BEFC
102
}
  0
BLOCK_RECORD
  5
C0E0
330
1
100
AcDbSymbolTableRecord
100
AcDbBlockTableRecord
  2
*D22
340
0
  0
BLOCK_RECORD
  5
C0EB
330
1
100
AcDbSymbolTableRecord
100
AcDbBlockTableRecord
  2
*D23
340
0
  0
BLOCK_RECORD
  5
C0F6
330
1
100
AcDbSymbolTableRecord
100
AcDbBlockTableRecord
  2
*D24
340
0
  0
BLOCK_RECORD
  5
C100
330
1
100
AcDbSymbolTableRecord
100
AcDbBlockTableRecord
  2
*D25
340
0
  0
BLOCK_RECORD
  5
C10B
330
1
100
AcDbSymbolTableRecord
100
AcDbBlockTableRecord
  2
*D26
340
0
  0
BLOCK_RECORD
  5
C116
330
1
100
AcDbSymbolTableRecord
100
AcDbBlockTableRecord
  2
*G1027
340
0
102
{BLKREFS
331
C209
102
}
  0
BLOCK_RECORD
  5
C154
330
1
100
AcDbSymbolTableRecord
100
AcDbBlockTableRecord
  2
*G1128
340
0
102
{BLKREFS
331
C151
102
}
  0
BLOCK_RECORD
  5
C158
330
1
100
AcDbSymbolTableRecord
100
AcDbBlockTableRecord
  2
A$C19AA6A89
340
0
  0
BLOCK_RECORD
  5
C20E
330
1
100
AcDbSymbolTableRecord
100
AcDbBlockTableRecord
  2
*D30
340
0
  0
BLOCK_RECORD
  5
C21A
330
1
100
AcDbSymbolTableRecord
100
AcDbBlockTableRecord
  2
*D31
340
0
  0
BLOCK_RECORD
  5
C228
330
1
100
AcDbSymbolTableRecord
100
AcDbBlockTableRecord
  2
*D32
340
0
  0
BLOCK_RECORD
  5
C236
330
1
100
AcDbSymbolTableRecord
100
AcDbBlockTableRecord
  2
*D33
340
0
  0
BLOCK_RECORD
  5
C244
330
1
100
AcDbSymbolTableRecord
100
AcDbBlockTableRecord
  2
*D34
340
0
  0
BLOCK_RECORD
  5
C250
102
{ACAD_XDICTIONARY
360
C297
102
}
330
1
100
AcDbSymbolTableRecord
100
AcDbBlockTableRecord
  2
A$C58B951FD
340
0
1001
ACAD
1000
DesignCenter Data
1002
{
1070
     1
1070
     4
1002
}
  0
BLOCK_RECORD
  5
C4FD
330
1
100
AcDbSymbolTableRecord
100
AcDbBlockTableRecord
  2
*S36
340
0
  0
ENDTAB
  0
ENDSEC
  0
SECTION
  2
BLOCKS
  0
BLOCK
  5
20
330
1F
100
AcDbEntity
  8
0
100
AcDbBlockBegin
  2
*Model_Space
 70
     0
 10
0.0
 20
0.0
 30
0.0
  3
*Model_Space
  1

  0
ENDBLK
  5
21
330
1F
100
AcDbEntity
  8
0
100
AcDbBlockEnd
  0
BLOCK
  5
1C
330
1B
100
AcDbEntity
 67
     1
  8
0
100
AcDbBlockBegin
  2
*Paper_Space
 70
     0
 10
0.0
 20
0.0
 30
0.0
  3
*Paper_Space
  1

  0
ENDBLK
  5
1D
330
1B
100
AcDbEntity
 67
     1
  8
0
100
AcDbBlockEnd
  0
BLOCK
  5
24
330
23
100
AcDbEntity
 67
     1
  8
0
100
AcDbBlockBegin
  2
*Paper_Space0
 70
     0
 10
0.0
 20
0.0
 30
0.0
  3
*Paper_Space0
  1

  0
ENDBLK
  5
25
330
23
100
AcDbEntity
 67
     1
  8
0
100
AcDbBlockEnd
  0
BLOCK
  5
74
330
72
100
AcDbEntity
  8
0
100
AcDbBlockBegin
  2
GENAXEH
 70
     0
 10
0.0
 20
0.0
 30
0.0
  3
GENAXEH
  1

  0
LINE
  5
73
330
72
100
AcDbEntity
  8
0
100
AcDbLine
 10
-1.0
 20
0.0
 30
0.0
 11
1.0
 21
0.0
 31
0.0
  0
ENDBLK
  5
75
330
72
100
AcDbEntity
  8
0
100
AcDbBlockEnd
  0
BLOCK
  5
6C7
330
6C4
100
AcDbEntity
  8
0
100
AcDbBlockBegin
  2
_Dot
 70
     0
 10
0.0
 20
0.0
 30
0.0
  3
_Dot
  1

  0
LWPOLYLINE
  5
6C5
330
6C4
100
AcDbEntity
  8
0
  6
ByBlock
 62
     0
100
AcDbPolyline
 90
        2
 70
     1
 43
0.5
 10
-0.25
 20
0.0
 42
1.0
 10
0.25
 20
0.0
 42
1.0
  0
LINE
  5
6C6
330
6C4
100
AcDbEntity
  8
0
  6
ByBlock
 62
     0
370
    -2
100
AcDbLine
 10
-0.5
 20
0.0
 30
0.0
 11
-1.0
 21
0.0
 31
0.0
  0
ENDBLK
  5
6C8
330
6C4
100
AcDbEntity
  8
0
100
AcDbBlockEnd
  0
BLOCK
  5
A6A
330
A66
100
AcDbEntity
  8
0
100
AcDbBlockBegin
  2
_OPEN30
 70
     0
 10
0.0
 20
0.0
 30
0.0
  3
_OPEN30
  1

  0
LINE
  5
A67
330
A66
100
AcDbEntity
  8
0
  6
ByBlock
 62
     0
100
AcDbLine
 10
-1.0
 20
0.26794919
 30
0.0
 11
0.0
 21
0.0
 31
0.0
  0
LINE
  5
A68
330
A66
100
AcDbEntity
  8
0
  6
ByBlock
 62
     0
100
AcDbLine
 10
0.0
 20
0.0
 30
0.0
 11
-1.0
 21
-0.26794919
 31
0.0
  0
LINE
  5
A69
330
A66
100
AcDbEntity
  8
0
  6
ByBlock
 62
     0
100
AcDbLine
 10
0.0
 20
0.0
 30
0.0
 11
-1.0
 21
0.0
 31
0.0
  0
ENDBLK
  5
A6B
330
A66
100
AcDbEntity
  8
0
100
AcDbBlockEnd
  0
BLOCK
  5
B9D2
330
B9C8
100
AcDbEntity
  8
0
100
AcDbBlockBegin
  2
*D5
 70
     1
 10
0.0
 20
0.0
 30
0.0
  3
*D5
  1

  0
LINE
  5
C44F
330
B9C8
100
AcDbEntity
  8
AM_5
100
AcDbLine
 10
154.3198216100448
 20
89.50589672922914
 30
0.0
 11
132.3198216100448
 21
89.50589672922914
 31
0.0
  0
LINE
  5
C450
330
B9C8
100
AcDbEntity
  8
AM_5
100
AcDbLine
 10
154.3198216100448
 20
74.50589672922913
 30
0.0
 11
132.3198216100448
 21
74.50589672922913
 31
0.0
  0
LINE
  5
C451
330
B9C8
100
AcDbEntity
  8
AM_5
100
AcDbLine
 10
133.3198216100448
 20
88.50589672922913
 30
0.0
 11
133.3198216100448
 21
75.50589672922914
 31
0.0
  0
INSERT
  5
C452
330
B9C8
100
AcDbEntity
  8
AM_5
100
AcDbBlockReference
  2
_Dot
 10
133.3198216100448
 20
89.50589672922914
 30
0.0
 50
90.0
  0
INSERT
  5
C453
330
B9C8
100
AcDbEntity
  8
AM_5
100
AcDbBlockReference
  2
_Dot
 10
133.3198216100448
 20
74.50589672922913
 30
0.0
 50
270.0
  0
MTEXT
  5
C454
330
B9C8
100
AcDbEntity
  8
AM_5
 62
     2
100
AcDbMText
 10
130.2198216100448
 20
82.00589672922914
 30
0.0
 40
3.200000000000001
 41
0.0
 71
     5
 72
     1
  1
%%cA
 11
0.0000000000000001
 21
1.0
 31
0.0
 73
     1
 44
1.0
1001
ACAD
1000
MTEXTBEGIN
1070
    73
1070
     1
1070
    44
1040
1.0
1070
    74
1070
     0
1000
MTEXTEND
  0
POINT
  5
C455
330
B9C8
100
AcDbEntity
  8
Defpoints
 62
     0
100
AcDbPoint
 10
155.3198216100448
 20
89.50589672922914
 30
0.0
  0
POINT
  5
C456
330
B9C8
100
AcDbEntity
  8
Defpoints
 62
     0
100
AcDbPoint
 10
155.3198216100448
 20
74.50589672922913
 30
0.0
  0
POINT
  5
C457
330
B9C8
100
AcDbEntity
  8
Defpoints
 62
     0
100
AcDbPoint
 10
133.3198216100448
 20
74.50589672922913
 30
0.0
  0
ENDBLK
  5
B9D3
330
B9C8
100
AcDbEntity
  8
0
100
AcDbBlockEnd
  0
BLOCK
  5
B9FC
330
B9F0
100
AcDbEntity
  8
0
100
AcDbBlockBegin
  2
*D6
 70
     1
 10
0.0
 20
0.0
 30
0.0
  3
*D6
  1

  0
LINE
  5
C458
330
B9F0
100
AcDbEntity
  8
AM_5
100
AcDbLine
 10
154.8198216100448
 20
90.00589672922913
 30
0.0
 11
154.8198216100448
 21
102.0058967292291
 31
0.0
  0
LINE
  5
C459
330
B9F0
100
AcDbEntity
  8
AM_5
100
AcDbLine
 10
156.8198216100448
 20
83.90589672922914
 30
0.0
 11
156.8198216100448
 21
102.0058967292291
 31
0.0
  0
LINE
  5
C45A
330
B9F0
100
AcDbEntity
  8
AM_5
100
AcDbLine
 10
153.8198216100448
 20
101.0058967292291
 30
0.0
 11
152.8198216100448
 21
101.0058967292291
 31
0.0
  0
LINE
  5
C45B
330
B9F0
100
AcDbEntity
  8
AM_5
100
AcDbLine
 10
157.8198216100448
 20
101.0058967292291
 30
0.0
 11
166.2571549433782
 21
101.0058967292291
 31
0.0
  0
LINE
  5
C45C
330
B9F0
100
AcDbEntity
  8
AM_5
100
AcDbLine
 10
154.8198216100448
 20
101.0058967292291
 30
0.0
 11
156.8198216100448
 21
101.0058967292291
 31
0.0
  0
INSERT
  5
C45D
330
B9F0
100
AcDbEntity
  8
AM_5
100
AcDbBlockReference
  2
_Dot
 10
154.8198216100448
 20
101.0058967292291
 30
0.0
  0
INSERT
  5
C45E
330
B9F0
100
AcDbEntity
  8
AM_5
100
AcDbBlockReference
  2
_Dot
 10
156.8198216100448
 20
101.0058967292291
 30
0.0
 50
180.0
  0
MTEXT
  5
C45F
330
B9F0
100
AcDbEntity
  8
AM_5
 62
     2
100
AcDbMText
 10
162.5384882767115
 20
104.1058967292291
 30
0.0
 40
3.200000000000001
 41
0.0
 71
     5
 72
     1
  1
（H）
 73
     1
 44
1.0
1001
ACAD
1000
MTEXTBEGIN
1070
    73
1070
     1
1070
    44
1040
1.0
1070
    74
1070
     0
1000
MTEXTEND
  0
POINT
  5
C460
330
B9F0
100
AcDbEntity
  8
Defpoints
 62
     0
100
AcDbPoint
 10
154.8198216100448
 20
89.00589672922913
 30
0.0
  0
POINT
  5
C461
330
B9F0
100
AcDbEntity
  8
Defpoints
 62
     0
100
AcDbPoint
 10
156.8198216100448
 20
82.90589672922914
 30
0.0
  0
POINT
  5
C462
330
B9F0
100
AcDbEntity
  8
Defpoints
 62
     0
100
AcDbPoint
 10
156.8198216100448
 20
101.0058967292291
 30
0.0
  0
ENDBLK
  5
B9FD
330
B9F0
100
AcDbEntity
  8
0
100
AcDbBlockEnd
  0
BLOCK
  5
BA2C
330
BA20
100
AcDbEntity
  8
0
100
AcDbBlockBegin
  2
*D7
 70
     1
 10
0.0
 20
0.0
 30
0.0
  3
*D7
  1

  0
LINE
  5
C463
330
BA20
100
AcDbEntity
  8
AM_5
100
AcDbLine
 10
167.1198216100448
 20
79.50589672922913
 30
0.0
 11
173.0435225671987
 21
79.50589672922913
 31
0.0
  0
LINE
  5
C464
330
BA20
100
AcDbEntity
  8
AM_5
100
AcDbLine
 10
167.1198216100448
 20
84.50589672922914
 30
0.0
 11
173.0435225671987
 21
84.50589672922914
 31
0.0
  0
LINE
  5
C465
330
BA20
100
AcDbEntity
  8
AM_5
100
AcDbLine
 10
172.0435225671987
 20
83.50589672922913
 30
0.0
 11
172.0435225671987
 21
80.50589672922914
 31
0.0
  0
LINE
  5
C466
330
BA20
100
AcDbEntity
  8
AM_5
100
AcDbLine
 10
172.0435225671987
 20
79.50589672922913
 30
0.0
 11
172.0435225671987
 21
68.46392238294843
 31
0.0
  0
INSERT
  5
C467
330
BA20
100
AcDbEntity
  8
AM_5
100
AcDbBlockReference
  2
_Dot
 10
172.0435225671987
 20
84.50589672922914
 30
0.0
 50
90.0
  0
INSERT
  5
C468
330
BA20
100
AcDbEntity
  8
AM_5
100
AcDbBlockReference
  2
_Dot
 10
172.0435225671987
 20
79.50589672922913
 30
0.0
 50
270.0
  0
MTEXT
  5
C469
330
BA20
100
AcDbEntity
  8
AM_5
 62
     2
100
AcDbMText
 10
168.9435225671986
 20
70.71058904961512
 30
0.0
 40
3.200000000000001
 41
0.0
 71
     5
 72
     1
  1
B
 11
0.0000000000000001
 21
1.0
 31
0.0
 73
     1
 44
1.0
1001
ACAD
1000
MTEXTBEGIN
1070
    73
1070
     1
1070
    44
1040
1.0
1070
    74
1070
     0
1000
MTEXTEND
  0
POINT
  5
C46A
330
BA20
100
AcDbEntity
  8
Defpoints
 62
     0
100
AcDbPoint
 10
166.1198216100448
 20
79.50589672922913
 30
0.0
  0
POINT
  5
C46B
330
BA20
100
AcDbEntity
  8
Defpoints
 62
     0
100
AcDbPoint
 10
166.1198216100448
 20
84.50589672922914
 30
0.0
  0
POINT
  5
C46C
330
BA20
100
AcDbEntity
  8
Defpoints
 62
     0
100
AcDbPoint
 10
172.0435225671987
 20
84.50589672922914
 30
0.0
  0
ENDBLK
  5
BA2D
330
BA20
100
AcDbEntity
  8
0
100
AcDbBlockEnd
  0
BLOCK
  5
BA5A
330
BA4E
100
AcDbEntity
  8
0
100
AcDbBlockBegin
  2
*D8
 70
     1
 10
0.0
 20
0.0
 30
0.0
  3
*D8
  1

  0
LINE
  5
C46D
330
BA4E
100
AcDbEntity
  8
AM_5
100
AcDbLine
 10
153.8198216100448
 20
81.10589672922914
 30
0.0
 11
142.3198216100448
 21
81.10589672922914
 31
0.0
  0
LINE
  5
C46E
330
BA4E
100
AcDbEntity
  8
AM_5
100
AcDbLine
 10
153.8198216100448
 20
82.90589672922914
 30
0.0
 11
142.3198216100448
 21
82.90589672922914
 31
0.0
  0
LINE
  5
C46F
330
BA4E
100
AcDbEntity
  8
AM_5
100
AcDbLine
 10
143.3198216100448
 20
80.10589672922915
 30
0.0
 11
143.3198216100448
 21
79.10589672922914
 31
0.0
  0
LINE
  5
C470
330
BA4E
100
AcDbEntity
  8
AM_5
100
AcDbLine
 10
143.3198216100448
 20
83.90589672922914
 30
0.0
 11
143.3198216100448
 21
95.18008695121821
 31
0.0
  0
LINE
  5
C471
330
BA4E
100
AcDbEntity
  8
AM_5
100
AcDbLine
 10
143.3198216100448
 20
81.10589672922914
 30
0.0
 11
143.3198216100448
 21
82.90589672922914
 31
0.0
  0
INSERT
  5
C472
330
BA4E
100
AcDbEntity
  8
AM_5
100
AcDbBlockReference
  2
_Dot
 10
143.3198216100448
 20
81.10589672922914
 30
0.0
 50
90.0
  0
INSERT
  5
C473
330
BA4E
100
AcDbEntity
  8
AM_5
100
AcDbBlockReference
  2
_Dot
 10
143.3198216100448
 20
82.90589672922914
 30
0.0
 50
270.0
  0
MTEXT
  5
C474
330
BA4E
100
AcDbEntity
  8
AM_5
 62
     2
100
AcDbMText
 10
140.2198216100448
 20
92.88008695121822
 30
0.0
 40
3.200000000000001
 41
0.0
 71
     5
 72
     1
  1
G
 11
0.0000000000000001
 21
1.0
 31
0.0
 73
     1
 44
1.0
1001
ACAD
1000
MTEXTBEGIN
1070
    73
1070
     1
1070
    44
1040
1.0
1070
    74
1070
     0
1000
MTEXTEND
  0
POINT
  5
C475
330
BA4E
100
AcDbEntity
  8
Defpoints
 62
     0
100
AcDbPoint
 10
154.8198216100448
 20
81.10589672922914
 30
0.0
  0
POINT
  5
C476
330
BA4E
100
AcDbEntity
  8
Defpoints
 62
     0
100
AcDbPoint
 10
154.8198216100448
 20
82.90589672922914
 30
0.0
  0
POINT
  5
C477
330
BA4E
100
AcDbEntity
  8
Defpoints
 62
     0
100
AcDbPoint
 10
143.3198216100448
 20
82.90589672922914
 30
0.0
  0
ENDBLK
  5
BA5B
330
BA4E
100
AcDbEntity
  8
0
100
AcDbBlockEnd
  0
BLOCK
  5
BAC5
330
BABB
100
AcDbEntity
  8
0
100
AcDbBlockBegin
  2
*D9
 70
     1
 10
0.0
 20
0.0
 30
0.0
  3
*D9
  1

  0
LINE
  5
C478
330
BABB
100
AcDbEntity
  8
AM_5
100
AcDbLine
 10
154.8198216100448
 20
74.00589672922913
 30
0.0
 11
154.8198216100448
 21
52.00589672922913
 31
0.0
  0
LINE
  5
C479
330
BABB
100
AcDbEntity
  8
AM_5
100
AcDbLine
 10
164.8198216100448
 20
75.00589672922913
 30
0.0
 11
164.8198216100448
 21
52.00589672922912
 31
0.0
  0
LINE
  5
C47A
330
BABB
100
AcDbEntity
  8
AM_5
100
AcDbLine
 10
155.8198216100448
 20
53.00589672922914
 30
0.0
 11
163.8198216100447
 21
53.00589672922912
 31
0.0
  0
INSERT
  5
C47B
330
BABB
100
AcDbEntity
  8
AM_5
100
AcDbBlockReference
  2
_Dot
 10
154.8198216100448
 20
53.00589672922914
 30
0.0
 50
179.9999999999999
  0
INSERT
  5
C47C
330
BABB
100
AcDbEntity
  8
AM_5
100
AcDbBlockReference
  2
_Dot
 10
164.8198216100448
 20
53.00589672922912
 30
0.0
 50
359.9999999999999
  0
MTEXT
  5
C47D
330
BABB
100
AcDbEntity
  8
AM_5
 62
     2
100
AcDbMText
 10
159.8198216100448
 20
56.10589672922912
 30
0.0
 40
3.200000000000001
 41
0.0
 71
     5
 72
     1
  1
D
 73
     1
 44
1.0
1001
ACAD
1000
MTEXTBEGIN
1070
    73
1070
     1
1070
    44
1040
1.0
1070
    74
1070
     0
1000
MTEXTEND
  0
POINT
  5
C47E
330
BABB
100
AcDbEntity
  8
Defpoints
 62
     0
100
AcDbPoint
 10
154.8198216100448
 20
75.00589672922913
 30
0.0
  0
POINT
  5
C47F
330
BABB
100
AcDbEntity
  8
Defpoints
 62
     0
100
AcDbPoint
 10
164.8198216100448
 20
76.00589672922914
 30
0.0
  0
POINT
  5
C480
330
BABB
100
AcDbEntity
  8
Defpoints
 62
     0
100
AcDbPoint
 10
164.8198216100448
 20
53.00589672922912
 30
0.0
  0
ENDBLK
  5
BAC6
330
BABB
100
AcDbEntity
  8
0
100
AcDbBlockEnd
  0
BLOCK
  5
BAE6
330
BADA
100
AcDbEntity
  8
0
100
AcDbBlockBegin
  2
*D10
 70
     1
 10
0.0
 20
0.0
 30
0.0
  3
*D10
  1

  0
LINE
  5
C481
330
BADA
100
AcDbEntity
  8
AM_5
100
AcDbLine
 10
164.8198216100448
 20
75.00589672922913
 30
0.0
 11
164.8198216100448
 21
62.00589672922905
 31
0.0
  0
LINE
  5
C482
330
BADA
100
AcDbEntity
  8
AM_5
100
AcDbLine
 10
162.8198216100448
 20
73.80589672922913
 30
0.0
 11
162.8198216100448
 21
62.00589672922905
 31
0.0
  0
LINE
  5
C483
330
BADA
100
AcDbEntity
  8
AM_5
100
AcDbLine
 10
165.8198216100448
 20
63.00589672922905
 30
0.0
 11
166.8198216100448
 21
63.00589672922904
 31
0.0
  0
LINE
  5
C484
330
BADA
100
AcDbEntity
  8
AM_5
100
AcDbLine
 10
161.8198216100448
 20
63.00589672922906
 30
0.0
 11
156.4331549433781
 21
63.00589672922907
 31
0.0
  0
LINE
  5
C485
330
BADA
100
AcDbEntity
  8
AM_5
100
AcDbLine
 10
164.8198216100448
 20
63.00589672922905
 30
0.0
 11
162.8198216100448
 21
63.00589672922905
 31
0.0
  0
INSERT
  5
C486
330
BADA
100
AcDbEntity
  8
AM_5
100
AcDbBlockReference
  2
_Dot
 10
164.8198216100448
 20
63.00589672922905
 30
0.0
 50
179.9999999999999
  0
INSERT
  5
C487
330
BADA
100
AcDbEntity
  8
AM_5
100
AcDbBlockReference
  2
_Dot
 10
162.8198216100448
 20
63.00589672922905
 30
0.0
 50
359.9999999999999
  0
MTEXT
  5
C488
330
BADA
100
AcDbEntity
  8
AM_5
 62
     2
100
AcDbMText
 10
158.6264882767115
 20
66.10589672922905
 30
0.0
 40
3.200000000000001
 41
0.0
 71
     5
 72
     1
  1
F
 73
     1
 44
1.0
1001
ACAD
1000
MTEXTBEGIN
1070
    73
1070
     1
1070
    44
1040
1.0
1070
    74
1070
     0
1000
MTEXTEND
  0
POINT
  5
C489
330
BADA
100
AcDbEntity
  8
Defpoints
 62
     0
100
AcDbPoint
 10
164.8198216100448
 20
76.00589672922914
 30
0.0
  0
POINT
  5
C48A
330
BADA
100
AcDbEntity
  8
Defpoints
 62
     0
100
AcDbPoint
 10
162.8198216100448
 20
74.80589672922913
 30
0.0
  0
POINT
  5
C48B
330
BADA
100
AcDbEntity
  8
Defpoints
 62
     0
100
AcDbPoint
 10
162.8198216100448
 20
63.00589672922905
 30
0.0
  0
ENDBLK
  5
BAE7
330
BADA
100
AcDbEntity
  8
0
100
AcDbBlockEnd
  0
BLOCK
  5
BB12
330
BB08
100
AcDbEntity
  8
0
100
AcDbBlockBegin
  2
*D11
 70
     1
 10
0.0
 20
0.0
 30
0.0
  3
*D11
  1

  0
LINE
  5
C48C
330
BB08
100
AcDbEntity
  8
AM_5
100
AcDbLine
 10
164.8198216100448
 20
75.00589672922913
 30
0.0
 11
164.8198216100448
 21
52.00589672922906
 31
0.0
  0
LINE
  5
C48D
330
BB08
100
AcDbEntity
  8
AM_5
100
AcDbLine
 10
179.8198216100449
 20
81.00589672922913
 30
0.0
 11
179.8198216100448
 21
52.00589672922903
 31
0.0
  0
LINE
  5
C48E
330
BB08
100
AcDbEntity
  8
AM_5
100
AcDbLine
 10
165.8198216100448
 20
53.00589672922907
 30
0.0
 11
178.8198216100448
 21
53.00589672922903
 31
0.0
  0
INSERT
  5
C48F
330
BB08
100
AcDbEntity
  8
AM_5
100
AcDbBlockReference
  2
_Dot
 10
164.8198216100448
 20
53.00589672922907
 30
0.0
 50
179.9999999999999
  0
INSERT
  5
C490
330
BB08
100
AcDbEntity
  8
AM_5
100
AcDbBlockReference
  2
_Dot
 10
179.8198216100448
 20
53.00589672922903
 30
0.0
 50
359.9999999999999
  0
MTEXT
  5
C491
330
BB08
100
AcDbEntity
  8
AM_5
 62
     2
100
AcDbMText
 10
172.3198216100448
 20
56.10589672922905
 30
0.0
 40
3.200000000000001
 41
0.0
 71
     5
 72
     1
  1
C
 73
     1
 44
1.0
1001
ACAD
1000
MTEXTBEGIN
1070
    73
1070
     1
1070
    44
1040
1.0
1070
    74
1070
     0
1000
MTEXTEND
  0
POINT
  5
C492
330
BB08
100
AcDbEntity
  8
Defpoints
 62
     0
100
AcDbPoint
 10
164.8198216100448
 20
76.00589672922914
 30
0.0
  0
POINT
  5
C493
330
BB08
100
AcDbEntity
  8
Defpoints
 62
     0
100
AcDbPoint
 10
179.8198216100449
 20
82.00589672922914
 30
0.0
  0
POINT
  5
C494
330
BB08
100
AcDbEntity
  8
Defpoints
 62
     0
100
AcDbPoint
 10
179.8198216100448
 20
53.00589672922903
 30
0.0
  0
ENDBLK
  5
BB13
330
BB08
100
AcDbEntity
  8
0
100
AcDbBlockEnd
  0
BLOCK
  5
BB31
330
BB27
100
AcDbEntity
  8
0
100
AcDbBlockBegin
  2
*D12
 70
     1
 10
0.0
 20
0.0
 30
0.0
  3
*D12
  1

  0
LINE
  5
C495
330
BB27
100
AcDbEntity
  8
AM_5
100
AcDbLine
 10
175.8198216100448
 20
78.00589672922914
 30
0.0
 11
192.8198226100448
 21
78.00589672922914
 31
0.0
  0
LINE
  5
C496
330
BB27
100
AcDbEntity
  8
AM_5
100
AcDbLine
 10
175.8198216100448
 20
86.00589672922913
 30
0.0
 11
192.8198226100448
 21
86.00589672922913
 31
0.0
  0
LINE
  5
C497
330
BB27
100
AcDbEntity
  8
AM_5
100
AcDbLine
 10
191.8198226100448
 20
79.00589672922913
 30
0.0
 11
191.8198226100448
 21
85.00589672922913
 31
0.0
  0
INSERT
  5
C498
330
BB27
100
AcDbEntity
  8
AM_5
100
AcDbBlockReference
  2
_Dot
 10
191.8198226100448
 20
78.00589672922914
 30
0.0
 50
270.0
  0
INSERT
  5
C499
330
BB27
100
AcDbEntity
  8
AM_5
100
AcDbBlockReference
  2
_Dot
 10
191.8198226100448
 20
86.00589672922913
 30
0.0
 50
90.0
  0
MTEXT
  5
C49A
330
BB27
100
AcDbEntity
  8
AM_5
 62
     2
100
AcDbMText
 10
188.7198226100448
 20
82.00589672922916
 30
0.0
 40
3.200000000000001
 41
0.0
 71
     5
 72
     1
  1
%%cＩ
 11
0.0000000000000001
 21
1.0
 31
0.0
 73
     1
 44
1.0
1001
ACAD
1000
MTEXTBEGIN
1070
    73
1070
     1
1070
    44
1040
1.0
1070
    74
1070
     0
1000
MTEXTEND
  0
POINT
  5
C49B
330
BB27
100
AcDbEntity
  8
Defpoints
 62
     0
100
AcDbPoint
 10
174.8198216100448
 20
78.00589672922914
 30
0.0
  0
POINT
  5
C49C
330
BB27
100
AcDbEntity
  8
Defpoints
 62
     0
100
AcDbPoint
 10
174.8198216100448
 20
86.00589672922913
 30
0.0
  0
POINT
  5
C49D
330
BB27
100
AcDbEntity
  8
Defpoints
 62
     0
100
AcDbPoint
 10
191.8198226100448
 20
86.00589672922913
 30
0.0
  0
ENDBLK
  5
BB32
330
BB27
100
AcDbEntity
  8
0
100
AcDbBlockEnd
  0
BLOCK
  5
BB59
330
BB4F
100
AcDbEntity
  8
0
100
AcDbBlockBegin
  2
*D13
 70
     1
 10
0.0
 20
0.0
 30
0.0
  3
*D13
  1

  0
LINE
  5
C49E
330
BB4F
100
AcDbEntity
  8
AM_5
100
AcDbLine
 10
165.8198216100448
 20
88.00589672922914
 30
0.0
 11
202.8198226100448
 21
88.00589672922914
 31
0.0
  0
LINE
  5
C49F
330
BB4F
100
AcDbEntity
  8
AM_5
100
AcDbLine
 10
165.8198216100448
 20
76.00589672922914
 30
0.0
 11
202.8198226100448
 21
76.00589672922914
 31
0.0
  0
LINE
  5
C4A0
330
BB4F
100
AcDbEntity
  8
AM_5
100
AcDbLine
 10
201.8198226100448
 20
87.00589672922914
 30
0.0
 11
201.8198226100448
 21
77.00589672922913
 31
0.0
  0
INSERT
  5
C4A1
330
BB4F
100
AcDbEntity
  8
AM_5
100
AcDbBlockReference
  2
_Dot
 10
201.8198226100448
 20
88.00589672922914
 30
0.0
 50
90.0
  0
INSERT
  5
C4A2
330
BB4F
100
AcDbEntity
  8
AM_5
100
AcDbBlockReference
  2
_Dot
 10
201.8198226100448
 20
76.00589672922914
 30
0.0
 50
270.0
  0
MTEXT
  5
C4A3
330
BB4F
100
AcDbEntity
  8
AM_5
 62
     2
100
AcDbMText
 10
198.7198226100448
 20
82.00589672922916
 30
0.0
 40
3.200000000000001
 41
0.0
 71
     5
 72
     1
  1
%%cE
 11
0.0000000000000001
 21
1.0
 31
0.0
 73
     1
 44
1.0
1001
ACAD
1000
MTEXTBEGIN
1070
    73
1070
     1
1070
    44
1040
1.0
1070
    74
1070
     0
1000
MTEXTEND
  0
POINT
  5
C4A4
330
BB4F
100
AcDbEntity
  8
Defpoints
 62
     0
100
AcDbPoint
 10
164.8198216100448
 20
88.00589672922914
 30
0.0
  0
POINT
  5
C4A5
330
BB4F
100
AcDbEntity
  8
Defpoints
 62
     0
100
AcDbPoint
 10
164.8198216100448
 20
76.00589672922914
 30
0.0
  0
POINT
  5
C4A6
330
BB4F
100
AcDbEntity
  8
Defpoints
 62
     0
100
AcDbPoint
 10
201.8198226100448
 20
76.00589672922914
 30
0.0
  0
ENDBLK
  5
BB5A
330
BB4F
100
AcDbEntity
  8
0
100
AcDbBlockEnd
  0
BLOCK
  5
BBD8
330
BBCC
100
AcDbEntity
  8
0
100
AcDbBlockBegin
  2
*D14
 70
     1
 10
0.0
 20
0.0
 30
0.0
  3
*D14
  1

  0
LINE
  5
C4A7
330
BBCC
100
AcDbEntity
  8
AM_5
100
AcDbLine
 10
173.8198216100448
 20
87.00589672922914
 30
0.0
 11
173.8198216100448
 21
102.0058967292291
 31
0.0
  0
LINE
  5
C4A8
330
BBCC
100
AcDbEntity
  8
AM_5
100
AcDbLine
 10
174.8198216100448
 20
87.00589672922914
 30
0.0
 11
174.8198216100448
 21
102.0058967292291
 31
0.0
  0
LINE
  5
C4A9
330
BBCC
100
AcDbEntity
  8
AM_5
100
AcDbLine
 10
172.8198216100448
 20
101.0058967292291
 30
0.0
 11
171.8198216100448
 21
101.0058967292291
 31
0.0
  0
LINE
  5
C4AA
330
BBCC
100
AcDbEntity
  8
AM_5
100
AcDbLine
 10
175.8198216100448
 20
101.0058967292291
 30
0.0
 11
180.3531549433781
 21
101.0058967292291
 31
0.0
  0
LINE
  5
C4AB
330
BBCC
100
AcDbEntity
  8
AM_5
100
AcDbLine
 10
173.8198216100448
 20
101.0058967292291
 30
0.0
 11
174.8198216100448
 21
101.0058967292291
 31
0.0
  0
INSERT
  5
C4AC
330
BBCC
100
AcDbEntity
  8
AM_5
100
AcDbBlockReference
  2
_Dot
 10
173.8198216100448
 20
101.0058967292291
 30
0.0
  0
INSERT
  5
C4AD
330
BBCC
100
AcDbEntity
  8
AM_5
100
AcDbBlockReference
  2
_Dot
 10
174.8198216100448
 20
101.0058967292291
 30
0.0
 50
180.0
  0
MTEXT
  5
C4AE
330
BBCC
100
AcDbEntity
  8
AM_5
 62
     2
100
AcDbMText
 10
178.5864882767115
 20
104.1058967292291
 30
0.0
 40
3.200000000000001
 41
0.0
 71
     5
 72
     1
  1
1
 73
     1
 44
1.0
1001
ACAD
1000
MTEXTBEGIN
1070
    73
1070
     1
1070
    44
1040
1.0
1070
    74
1070
     0
1000
MTEXTEND
  0
POINT
  5
C4AF
330
BBCC
100
AcDbEntity
  8
Defpoints
 62
     0
100
AcDbPoint
 10
173.8198216100448
 20
86.00589672922913
 30
0.0
  0
POINT
  5
C4B0
330
BBCC
100
AcDbEntity
  8
Defpoints
 62
     0
100
AcDbPoint
 10
174.8198216100448
 20
86.00589672922913
 30
0.0
  0
POINT
  5
C4B1
330
BBCC
100
AcDbEntity
  8
Defpoints
 62
     0
100
AcDbPoint
 10
174.8198216100448
 20
101.0058967292291
 30
0.0
  0
ENDBLK
  5
BBD9
330
BBCC
100
AcDbEntity
  8
0
100
AcDbBlockEnd
  0
BLOCK
  5
BE8C
330
BE8B
100
AcDbEntity
  8
2
  6
Continuous
 62
     7
370
     9
100
AcDbBlockBegin
  2
*D15
 70
     0
 10
0.0
 20
0.0
 30
0.0
  3
*D15
  1

  0
LINE
  5
BE8D
330
BE8B
100
AcDbEntity
  8
2
  6
Continuous
 62
     7
370
     9
100
AcDbLine
 10
157.677379
 20
112.84755
 30
0.0
 11
157.677379
 21
97.84755
 31
0.0
  0
LINE
  5
BE8E
330
BE8B
100
AcDbEntity
  8
2
  6
Continuous
 62
     7
370
     9
100
AcDbLine
 10
158.677379
 20
112.84755
 30
0.0
 11
145.550123
 21
112.84755
 31
0.0
  0
LINE
  5
BE8F
330
BE8B
100
AcDbEntity
  8
2
  6
Continuous
 62
     7
370
     9
100
AcDbLine
 10
158.677379
 20
97.84755
 30
0.0
 11
145.550123
 21
97.84755
 31
0.0
  0
LINE
  5
BE90
330
BE8B
100
AcDbEntity
  8
2
  6
Continuous
 62
     7
370
     9
100
AcDbLine
 10
157.677379
 20
112.84755
 30
0.0
 11
158.1950169999999
 21
110.915698
 31
0.0
  0
LINE
  5
BE91
330
BE8B
100
AcDbEntity
  8
2
  6
Continuous
 62
     7
370
     9
100
AcDbLine
 10
157.677379
 20
112.84755
 30
0.0
 11
157.159741
 21
110.915698
 31
0.0
  0
LINE
  5
BE92
330
BE8B
100
AcDbEntity
  8
2
  6
Continuous
 62
     7
370
     9
100
AcDbLine
 10
157.677379
 20
97.84755
 30
0.0
 11
157.159741
 21
99.77940100000001
 31
0.0
  0
LINE
  5
BE93
330
BE8B
100
AcDbEntity
  8
2
  6
Continuous
 62
     7
370
     9
100
AcDbLine
 10
157.677379
 20
97.84755
 30
0.0
 11
158.1950169999999
 21
99.77940100000001
 31
0.0
  0
TEXT
  5
BE94
330
BE8B
100
AcDbEntity
  8
2
  6
Continuous
 62
     7
370
     9
100
AcDbText
 10
157.677379
 20
102.34755
 30
0.0
 40
4.0
  1
φA
 50
90.0
 41
0.75
 51
15.0
 11
157.677379
 21
102.34755
 31
0.0
100
AcDbText
 73
     1
  0
ENDBLK
  5
BE95
330
BE8B
100
AcDbEntity
  8
2
  6
Continuous
 62
     7
370
     9
100
AcDbBlockEnd
  0
BLOCK
  5
BE97
330
BE96
100
AcDbEntity
  8
2
  6
Continuous
 62
     7
370
     9
100
AcDbBlockBegin
  2
*D16
 70
     0
 10
0.0
 20
0.0
 30
0.0
  3
*D16
  1

  0
LINE
  5
BE98
330
BE96
100
AcDbEntity
  8
2
  6
Continuous
 62
     7
370
     9
100
AcDbLine
 10
120.050123
 20
84.64764399999999
 30
0.0
 11
135.050123
 21
84.64764399999999
 31
0.0
  0
LINE
  5
BE99
330
BE96
100
AcDbEntity
  8
2
  6
Continuous
 62
     7
370
     9
100
AcDbLine
 10
120.050123
 20
83.647644
 30
0.0
 11
120.050123
 21
104.34755
 31
0.0
  0
LINE
  5
BE9A
330
BE96
100
AcDbEntity
  8
2
  6
Continuous
 62
     7
370
     9
100
AcDbLine
 10
135.050123
 20
83.647644
 30
0.0
 11
135.050123
 21
98.34755000000001
 31
0.0
  0
LINE
  5
BE9B
330
BE96
100
AcDbEntity
  8
2
  6
Continuous
 62
     7
370
     9
100
AcDbLine
 10
120.050123
 20
84.64764399999999
 30
0.0
 11
121.981975
 21
85.16528199999999
 31
0.0
  0
LINE
  5
BE9C
330
BE96
100
AcDbEntity
  8
2
  6
Continuous
 62
     7
370
     9
100
AcDbLine
 10
120.050123
 20
84.64764399999999
 30
0.0
 11
121.981975
 21
84.13000600000001
 31
0.0
  0
LINE
  5
BE9D
330
BE96
100
AcDbEntity
  8
2
  6
Continuous
 62
     7
370
     9
100
AcDbLine
 10
135.050123
 20
84.64764399999999
 30
0.0
 11
133.118271
 21
84.13000600000001
 31
0.0
  0
LINE
  5
BE9E
330
BE96
100
AcDbEntity
  8
2
  6
Continuous
 62
     7
370
     9
100
AcDbLine
 10
135.050123
 20
84.64764399999999
 30
0.0
 11
133.118271
 21
85.16528199999999
 31
0.0
  0
TEXT
  5
BE9F
330
BE96
100
AcDbEntity
  8
2
  6
Continuous
 62
     7
370
     9
100
AcDbText
 10
126.550123
 20
84.64764399999999
 30
0.0
 40
4.0
  1
C
 41
0.5
 51
15.0
 11
126.550123
 21
84.64764399999999
 31
0.0
100
AcDbText
 73
     1
  0
ENDBLK
  5
BEA0
330
BE96
100
AcDbEntity
  8
2
  6
Continuous
 62
     7
370
     9
100
AcDbBlockEnd
  0
BLOCK
  5
BEA2
330
BEA1
100
AcDbEntity
  8
2
  6
Continuous
 62
     7
370
     9
100
AcDbBlockBegin
  2
*D17
 70
     0
 10
0.0
 20
0.0
 30
0.0
  3
*D17
  1

  0
LINE
  5
BEA3
330
BEA1
100
AcDbEntity
  8
2
  6
Continuous
 62
     7
370
     9
100
AcDbLine
 10
135.050123
 20
84.64764399999999
 30
0.0
 11
145.050123
 21
84.64764399999999
 31
0.0
  0
LINE
  5
BEA4
330
BEA1
100
AcDbEntity
  8
2
  6
Continuous
 62
     7
370
     9
100
AcDbLine
 10
145.050123
 20
83.647644
 30
0.0
 11
145.050123
 21
97.34754999999999
 31
0.0
  0
LINE
  5
BEA5
330
BEA1
100
AcDbEntity
  8
2
  6
Continuous
 62
     7
370
     9
100
AcDbLine
 10
135.050123
 20
84.64764399999999
 30
0.0
 11
136.981975
 21
85.16528199999999
 31
0.0
  0
LINE
  5
BEA6
330
BEA1
100
AcDbEntity
  8
2
  6
Continuous
 62
     7
370
     9
100
AcDbLine
 10
135.050123
 20
84.64764399999999
 30
0.0
 11
136.981975
 21
84.13000600000001
 31
0.0
  0
LINE
  5
BEA7
330
BEA1
100
AcDbEntity
  8
2
  6
Continuous
 62
     7
370
     9
100
AcDbLine
 10
145.050123
 20
84.64764399999999
 30
0.0
 11
143.118271
 21
84.13000600000001
 31
0.0
  0
LINE
  5
BEA8
330
BEA1
100
AcDbEntity
  8
2
  6
Continuous
 62
     7
370
     9
100
AcDbLine
 10
145.050123
 20
84.64764399999999
 30
0.0
 11
143.118271
 21
85.16528199999999
 31
0.0
  0
TEXT
  5
BEA9
330
BEA1
100
AcDbEntity
  8
2
  6
Continuous
 62
     7
370
     9
100
AcDbText
 10
139.050123
 20
84.64764399999999
 30
0.0
 40
4.0
  1
D
 41
0.5
 51
15.0
 11
139.050123
 21
84.64764399999999
 31
0.0
100
AcDbText
 73
     1
  0
ENDBLK
  5
BEAA
330
BEA1
100
AcDbEntity
  8
2
  6
Continuous
 62
     7
370
     9
100
AcDbBlockEnd
  0
BLOCK
  5
BEAC
330
BEAB
100
AcDbEntity
  8
2
  6
Continuous
 62
     7
370
     9
100
AcDbBlockBegin
  2
*D18
 70
     0
 10
0.0
 20
0.0
 30
0.0
  3
*D18
  1

  0
LINE
  5
BEAD
330
BEAB
100
AcDbEntity
  8
2
  6
Continuous
 62
     7
370
     9
100
AcDbLine
 10
132.050123
 20
90.296873
 30
0.0
 11
141.379978
 21
90.296873
 31
0.0
  0
LINE
  5
BEAE
330
BEAB
100
AcDbEntity
  8
2
  6
Continuous
 62
     7
370
     9
100
AcDbLine
 10
135.050123
 20
89.29687300000001
 30
0.0
 11
135.050123
 21
98.34755000000001
 31
0.0
  0
LINE
  5
BEAF
330
BEAB
100
AcDbEntity
  8
2
  6
Continuous
 62
     7
370
     9
100
AcDbLine
 10
137.050123
 20
89.29687300000001
 30
0.0
 11
137.050123
 21
97.14755
 31
0.0
  0
LINE
  5
BEB0
330
BEAB
100
AcDbEntity
  8
2
  6
Continuous
 62
     7
370
     9
100
AcDbLine
 10
135.050123
 20
90.296873
 30
0.0
 11
133.118271
 21
89.77923500000001
 31
0.0
  0
LINE
  5
BEB1
330
BEAB
100
AcDbEntity
  8
2
  6
Continuous
 62
     7
370
     9
100
AcDbLine
 10
135.050123
 20
90.296873
 30
0.0
 11
133.118271
 21
90.814511
 31
0.0
  0
LINE
  5
BEB2
330
BEAB
100
AcDbEntity
  8
2
  6
Continuous
 62
     7
370
     9
100
AcDbLine
 10
137.050123
 20
90.296873
 30
0.0
 11
138.981975
 21
90.814511
 31
0.0
  0
LINE
  5
BEB3
330
BEAB
100
AcDbEntity
  8
2
  6
Continuous
 62
     7
370
     9
100
AcDbLine
 10
137.050123
 20
90.296873
 30
0.0
 11
138.981975
 21
89.77923500000001
 31
0.0
  0
TEXT
  5
BEB4
330
BEAB
100
AcDbEntity
  8
2
  6
Continuous
 62
     7
370
     9
100
AcDbText
 10
139.379978
 20
90.296873
 30
0.0
 40
4.0
  1
F
 41
0.5
 51
15.0
 11
139.379978
 21
90.296873
 31
0.0
100
AcDbText
 73
     1
  0
ENDBLK
  5
BEB5
330
BEAB
100
AcDbEntity
  8
2
  6
Continuous
 62
     7
370
     9
100
AcDbBlockEnd
  0
BLOCK
  5
BEB7
330
BEB6
100
AcDbEntity
  8
2
  6
Continuous
 62
     7
370
     9
100
AcDbBlockBegin
  2
*D19
 70
     0
 10
0.0
 20
0.0
 30
0.0
  3
*D19
  1

  0
LINE
  5
BEB8
330
BEB6
100
AcDbEntity
  8
2
  6
Continuous
 62
     7
370
     9
100
AcDbLine
 10
151.436326
 20
109.24755
 30
0.0
 11
151.436326
 21
100.514627
 31
0.0
  0
LINE
  5
BEB9
330
BEB6
100
AcDbEntity
  8
2
  6
Continuous
 62
     7
370
     9
100
AcDbLine
 10
152.436326
 20
106.24755
 30
0.0
 11
146.050123
 21
106.24755
 31
0.0
  0
LINE
  5
BEBA
330
BEB6
100
AcDbEntity
  8
2
  6
Continuous
 62
     7
370
     9
100
AcDbLine
 10
152.436326
 20
104.44755
 30
0.0
 11
146.050123
 21
104.44755
 31
0.0
  0
LINE
  5
BEBB
330
BEB6
100
AcDbEntity
  8
2
  6
Continuous
 62
     7
370
     9
100
AcDbLine
 10
151.436326
 20
106.24755
 30
0.0
 11
150.9186879999999
 21
108.179401
 31
0.0
  0
LINE
  5
BEBC
330
BEB6
100
AcDbEntity
  8
2
  6
Continuous
 62
     7
370
     9
100
AcDbLine
 10
151.436326
 20
106.24755
 30
0.0
 11
151.953964
 21
108.179401
 31
0.0
  0
LINE
  5
BEBD
330
BEB6
100
AcDbEntity
  8
2
  6
Continuous
 62
     7
370
     9
100
AcDbLine
 10
151.436326
 20
104.44755
 30
0.0
 11
151.953964
 21
102.515698
 31
0.0
  0
LINE
  5
BEBE
330
BEB6
100
AcDbEntity
  8
2
  6
Continuous
 62
     7
370
     9
100
AcDbLine
 10
151.436326
 20
104.44755
 30
0.0
 11
150.9186879999999
 21
102.515698
 31
0.0
  0
TEXT
  5
BEBF
330
BEB6
100
AcDbEntity
  8
2
  6
Continuous
 62
     7
370
     9
100
AcDbText
 10
151.436326
 20
100.514627
 30
0.0
 40
4.0
  1
G
 50
90.0
 41
0.5
 51
15.0
 11
151.436326
 21
100.514627
 31
0.0
100
AcDbText
 73
     1
  0
ENDBLK
  5
BEC0
330
BEB6
100
AcDbEntity
  8
2
  6
Continuous
 62
     7
370
     9
100
AcDbBlockEnd
  0
BLOCK
  5
BEC2
330
BEC1
100
AcDbEntity
  8
0
  6
Continuous
 62
     7
370
     9
100
AcDbBlockBegin
  2
*G1020
 70
     0
 10
0.0
 20
0.0
 30
0.0
  3
*G1020
  1

  0
LINE
  5
BEC3
330
BEC1
100
AcDbEntity
  8
1
  6
Continuous
 62
     7
370
    30
100
AcDbLine
 10
13.684211
 20
8.152122
 30
0.0
 11
13.684211
 21
190.526316
 31
0.0
  0
LINE
  5
BEC4
330
BEC1
100
AcDbEntity
  8
1
  6
Continuous
 62
     7
370
    30
100
AcDbLine
 10
13.684211
 20
8.152122
 30
0.0
 11
279.473684
 21
8.152122
 31
0.0
  0
LINE
  5
BEC5
330
BEC1
100
AcDbEntity
  8
1
  6
Continuous
 62
     7
370
    30
100
AcDbLine
 10
279.473684
 20
8.152122
 30
0.0
 11
279.473684
 21
190.526316
 31
0.0
  0
LINE
  5
BEC6
330
BEC1
100
AcDbEntity
  8
1
  6
Continuous
 62
     7
370
    30
100
AcDbLine
 10
13.684211
 20
190.526316
 30
0.0
 11
279.473684
 21
190.526316
 31
0.0
  0
LINE
  5
BEC7
330
BEC1
100
AcDbEntity
  8
1
  6
Continuous
 62
     7
370
    30
100
AcDbLine
 10
239.514248
 20
12.152122
 30
0.0
 11
279.473684
 21
12.152122
 31
0.0
  0
LINE
  5
BEC8
330
BEC1
100
AcDbEntity
  8
1
  6
Continuous
 62
     7
370
    30
100
AcDbLine
 10
88.684211
 20
44.152122
 30
0.0
 11
88.684211
 21
20.152122
 31
0.0
  0
LINE
  5
BEC9
330
BEC1
100
AcDbEntity
  8
1
  6
Continuous
 62
     7
370
    30
100
AcDbLine
 10
96.68421100000001
 20
20.152122
 30
0.0
 11
96.68421100000001
 21
44.152122
 31
0.0
  0
LINE
  5
BECA
330
BEC1
100
AcDbEntity
  8
1
  6
Continuous
 62
     7
370
    30
100
AcDbLine
 10
132.374566
 20
32.152122
 30
0.0
 11
132.374566
 21
20.152122
 31
0.0
  0
LINE
  5
BECB
330
BEC1
100
AcDbEntity
  8
1
  6
Continuous
 62
     7
370
    30
100
AcDbLine
 10
140.374566
 20
32.152122
 30
0.0
 11
140.374566
 21
20.152122
 31
0.0
  0
LINE
  5
BECC
330
BEC1
100
AcDbEntity
  8
1
  6
Continuous
 62
     7
370
    30
100
AcDbLine
 10
171.684211
 20
8.152122
 30
0.0
 11
171.684211
 21
44.152122
 31
0.0
  0
LINE
  5
BECD
330
BEC1
100
AcDbEntity
  8
1
  6
Continuous
 62
     7
370
    30
100
AcDbLine
 10
171.684211
 20
12.152122
 30
0.0
 11
239.514248
 21
12.152122
 31
0.0
  0
LINE
  5
BECE
330
BEC1
100
AcDbEntity
  8
1
  6
Continuous
 62
     7
370
    30
100
AcDbLine
 10
255.021245
 20
12.152122
 30
0.0
 11
255.021245
 21
8.152122
 31
0.0
  0
LINE
  5
BECF
330
BEC1
100
AcDbEntity
  8
1
  6
Continuous
 62
     7
370
    30
100
AcDbLine
 10
21.684211
 20
44.152122
 30
0.0
 11
21.684211
 21
8.152122
 31
0.0
  0
LINE
  5
BED0
330
BEC1
100
AcDbEntity
  8
1
  6
Continuous
 62
     7
370
    30
100
AcDbLine
 10
58.529862
 20
20.152122
 30
0.0
 11
58.529862
 21
8.152122
 31
0.0
  0
LINE
  5
BED1
330
BEC1
100
AcDbEntity
  8
1
  6
Continuous
 62
     7
370
    30
100
AcDbLine
 10
265.473684
 20
32.152122
 30
0.0
 11
265.473684
 21
12.152122
 31
0.0
  0
LINE
  5
BED2
330
BEC1
100
AcDbEntity
  8
1
  6
Continuous
 62
     7
370
    30
100
AcDbLine
 10
251.473684
 20
32.152122
 30
0.0
 11
251.473684
 21
12.152122
 31
0.0
  0
LINE
  5
BED3
330
BEC1
100
AcDbEntity
  8
1
  6
Continuous
 62
     7
370
    30
100
AcDbLine
 10
237.473684
 20
12.152122
 30
0.0
 11
237.473684
 21
32.152122
 31
0.0
  0
LINE
  5
BED4
330
BEC1
100
AcDbEntity
  8
1
  6
Continuous
 62
     7
370
    30
100
AcDbLine
 10
171.684211
 20
32.152122
 30
0.0
 11
279.473684
 21
32.152122
 31
0.0
  0
LINE
  5
BED5
330
BEC1
100
AcDbEntity
  8
1
  6
Continuous
 62
     7
370
    30
100
AcDbLine
 10
237.473684
 20
32.152122
 30
0.0
 11
237.473684
 21
44.152122
 31
0.0
  0
LINE
  5
BED6
330
BEC1
100
AcDbEntity
  8
1
  6
Continuous
 62
     7
370
    30
100
AcDbLine
 10
237.473684
 20
44.152122
 30
0.0
 11
171.684211
 21
44.152122
 31
0.0
  0
LINE
  5
BED7
330
BEC1
100
AcDbEntity
  8
1
  6
Continuous
 62
     7
370
    30
100
AcDbLine
 10
171.684211
 20
40.15212199999999
 30
0.0
 11
237.473684
 21
40.15212199999999
 31
0.0
  0
LINE
  5
BED8
330
BEC1
100
AcDbEntity
  8
1
  6
Continuous
 62
     7
370
    30
100
AcDbLine
 10
237.473684
 20
36.152122
 30
0.0
 11
171.684211
 21
36.152122
 31
0.0
  0
LINE
  5
BED9
330
BEC1
100
AcDbEntity
  8
1
  6
Continuous
 62
     7
370
    30
100
AcDbLine
 10
171.684211
 20
28.152122
 30
0.0
 11
279.473684
 21
28.152122
 31
0.0
  0
LINE
  5
BEDA
330
BEC1
100
AcDbEntity
  8
1
  6
Continuous
 62
     7
370
    30
100
AcDbLine
 10
237.473684
 20
24.152122
 30
0.0
 11
171.684211
 21
24.152122
 31
0.0
  0
LINE
  5
BEDB
330
BEC1
100
AcDbEntity
  8
1
  6
Continuous
 62
     7
370
    30
100
AcDbLine
 10
171.684211
 20
20.152122
 30
0.0
 11
237.473684
 21
20.152122
 31
0.0
  0
LINE
  5
BEDC
330
BEC1
100
AcDbEntity
  8
1
  6
Continuous
 62
     7
370
    30
100
AcDbLine
 10
237.473684
 20
16.152122
 30
0.0
 11
171.684211
 21
16.152122
 31
0.0
  0
LINE
  5
BEDD
330
BEC1
100
AcDbEntity
  8
1
  6
Continuous
 62
     7
370
    30
100
AcDbLine
 10
237.473684
 20
12.152122
 30
0.0
 11
237.473684
 21
8.152122
 31
0.0
  0
LINE
  5
BEDE
330
BEC1
100
AcDbEntity
  8
1
  6
DOT
 62
     7
370
    30
100
AcDbLine
 10
223.473684
 20
44.152122
 30
0.0
 11
223.473684
 21
8.152122
 31
0.0
  0
LINE
  5
BEDF
330
BEC1
100
AcDbEntity
  8
1
  6
DOT
 62
     7
370
    30
100
AcDbLine
 10
195.473684
 20
44.152122
 30
0.0
 11
195.473684
 21
8.152122
 31
0.0
  0
LINE
  5
BEE0
330
BEC1
100
AcDbEntity
  8
1
  6
Continuous
 62
     7
370
    30
100
AcDbLine
 10
171.684211
 20
44.152122
 30
0.0
 11
13.684211
 21
44.152122
 31
0.0
  0
LINE
  5
BEE1
330
BEC1
100
AcDbEntity
  8
1
  6
Continuous
 62
     7
370
    30
100
AcDbLine
 10
171.684211
 20
32.152122
 30
0.0
 11
96.68421100000001
 21
32.152122
 31
0.0
  0
LINE
  5
BEE2
330
BEC1
100
AcDbEntity
  8
1
  6
Continuous
 62
     7
370
    30
100
AcDbLine
 10
96.68421100000001
 20
32.152122
 30
0.0
 11
13.684211
 21
32.152122
 31
0.0
  0
LINE
  5
BEE3
330
BEC1
100
AcDbEntity
  8
1
  6
Continuous
 62
     7
370
    30
100
AcDbLine
 10
13.684211
 20
20.152122
 30
0.0
 11
171.684211
 21
20.152122
 31
0.0
  0
TEXT
  5
BEE4
330
BEC1
100
AcDbEntity
  8
1
  6
Continuous
 62
     7
370
    30
100
AcDbText
 10
253.596308
 20
28.728161
 30
0.0
 40
2.799999999999999
  1
検　図
 11
253.596308
 21
28.728161
 31
0.0
100
AcDbText
 73
     1
  0
TEXT
  5
BEE5
330
BEC1
100
AcDbEntity
  8
1
  6
Continuous
 62
     7
370
    30
100
AcDbText
 10
177.685735
 20
8.736550999999998
 30
0.0
 40
2.799999999999999
  1
日　　付
 11
177.685735
 21
8.736550999999998
 31
0.0
100
AcDbText
 73
     1
  0
TEXT
  5
BEE6
330
BEC1
100
AcDbEntity
  8
1
  6
Continuous
 62
     7
370
    30
100
AcDbText
 10
200.128042
 20
8.590405999999999
 30
0.0
 40
2.799999999999999
  1
変　更　箇　所
 11
200.128042
 21
8.590405999999999
 31
0.0
100
AcDbText
 73
     1
  0
TEXT
  5
BEE7
330
BEC1
100
AcDbEntity
  8
1
  6
Continuous
 62
     7
370
    30
100
AcDbText
 10
226.202094
 20
8.736550999999998
 30
0.0
 40
2.799999999999999
  1
担　当
 11
226.202094
 21
8.736550999999998
 31
0.0
100
AcDbText
 73
     1
  0
TEXT
  5
BEE8
330
BEC1
100
AcDbEntity
  8
1
  6
Continuous
 62
     7
370
    30
100
AcDbText
 10
92.469418
 20
42.29073699999999
 30
0.0
 40
2.0
  1
品番
 50
-90.0
 41
4.0
 71
     4
 11
90.469418
 21
42.29073699999999
 31
0.0
100
AcDbText
 73
     3
  0
TEXT
  5
BEE9
330
BEC1
100
AcDbEntity
  8
1
  6
Continuous
 62
     7
370
    30
100
AcDbText
 10
92.28808800000001
 20
30.137053
 30
0.0
 40
2.0
  1
硬度
 50
-90.0
 41
4.0
 71
     4
 11
90.288088
 21
30.137053
 31
0.0
100
AcDbText
 73
     3
  0
TEXT
  5
BEEA
330
BEC1
100
AcDbEntity
  8
1
  6
Continuous
 62
     7
370
    30
100
AcDbText
 10
136.030627
 20
30.137053
 30
0.0
 40
2.0
  1
尺度
 50
-90.0
 41
4.0
 71
     4
 11
134.030627
 21
30.137053
 31
0.0
100
AcDbText
 73
     3
  0
TEXT
  5
BEEB
330
BEC1
100
AcDbEntity
  8
1
  6
Continuous
 62
     7
370
    30
100
AcDbText
 10
13.822385
 20
10.992461
 30
0.0
 40
4.0
  1
処理
 41
0.875
 11
13.822385
 21
10.992461
 31
0.0
100
AcDbText
 73
     1
  0
TEXT
  5
BEEC
330
BEC1
100
AcDbEntity
  8
1
  6
Continuous
 62
     7
370
    30
100
AcDbText
 10
13.915991
 20
14.618052
 30
0.0
 40
4.0
  1
表面
 41
0.875
 11
13.915991
 21
14.618052
 31
0.0
100
AcDbText
 73
     1
  0
TEXT
  5
BEED
330
BEC1
100
AcDbEntity
  8
1
  6
Continuous
 62
     7
370
    30
100
AcDbText
 10
17.324431
 20
42.727902
 30
0.0
 40
2.0
  1
品名
 50
-90.0
 41
4.0
 71
     4
 11
15.324431
 21
42.727902
 31
0.0
100
AcDbText
 73
     3
  0
TEXT
  5
BEEE
330
BEC1
100
AcDbEntity
  8
1
  6
Continuous
 62
     7
370
    30
100
AcDbText
 10
17.324431
 20
30.392167
 30
0.0
 40
2.0
  1
材質
 50
-90.0
 41
4.0
 71
     4
 11
15.324431
 21
30.392167
 31
0.0
100
AcDbText
 73
     3
  0
TEXT
  5
BEEF
330
BEC1
100
AcDbEntity
  8
1
  6
DOT
 62
     7
370
    30
100
AcDbText
 10
14.746792
 20
185.970517
 30
0.0
 40
4.0
  1
指示ナキ角部ハ　　取リトスル
 11
14.746792
 21
185.970517
 31
0.0
100
AcDbText
 73
     1
  0
TEXT
  5
BEF0
330
BEC1
100
AcDbEntity
  8
1
  6
DOT
 62
     7
370
    30
100
AcDbText
 10
14.746792
 20
180.970517
 30
0.0
 40
4.0
  1
指示ナキ Ｒ ハ　　 Ｒ トスル
 41
0.875
 11
14.746792
 21
180.970517
 31
0.0
100
AcDbText
 73
     1
  0
LINE
  5
BEF1
330
BEC1
100
AcDbEntity
  8
1
  6
Continuous
 62
     7
370
    30
100
AcDbLine
 10
13.684211
 20
185.5263159999999
 30
0.0
 11
72.77616899999999
 21
185.5263159999999
 31
0.0
  0
LINE
  5
BEF2
330
BEC1
100
AcDbEntity
  8
1
  6
Continuous
 62
     7
370
    30
100
AcDbLine
 10
72.77616899999999
 20
190.526316
 30
0.0
 11
72.77616899999999
 21
180.5263159999999
 31
0.0
  0
LINE
  5
BEF3
330
BEC1
100
AcDbEntity
  8
1
  6
Continuous
 62
     7
370
    30
100
AcDbLine
 10
72.77616899999999
 20
180.5263159999999
 30
0.0
 11
13.684211
 21
180.5263159999999
 31
0.0
  0
TEXT
  5
BEF4
330
BEC1
100
AcDbEntity
  8
1
  6
Continuous
 62
     7
370
    30
100
AcDbText
 10
237.841376
 20
8.71105
 30
0.0
 40
2.799999999999999
  1
作図・年・月・日
 41
0.714286
 11
237.841376
 21
8.71105
 31
0.0
100
AcDbText
 73
     1
  0
TEXT
  5
BEF5
330
BEC1
100
AcDbEntity
  8
1
  6
Continuous
 62
     7
370
    30
100
AcDbText
 10
267.8382
 20
28.728161
 30
0.0
 40
2.799999999999999
  1
作　図
 11
267.8382
 21
28.728161
 31
0.0
100
AcDbText
 73
     1
  0
TEXT
  5
BEF6
330
BEC1
100
AcDbEntity
  8
1
  6
Continuous
 62
     7
370
    30
100
AcDbText
 10
239.953009
 20
28.728161
 30
0.0
 40
2.799999999999999
  1
承　認
 11
239.953009
 21
28.728161
 31
0.0
100
AcDbText
 73
     1
  0
TEXT
  5
BEF7
330
BEC1
100
AcDbEntity
  8
2
  6
Continuous
 62
     7
370
     9
100
AcDbText
 10
22.684211
 20
35.652122
 30
0.0
 40
5.0
  1
ステンレスローレットビスＳ
 11
22.684211
 21
35.652122
 31
0.0
100
AcDbText
 73
     1
  0
TEXT
  5
BEF8
330
BEC1
100
AcDbEntity
  8
2
  6
Continuous
 62
     7
370
     9
100
AcDbText
 10
129.184211
 20
35.652122
 30
0.0
 40
5.0
  1
SRBS
 41
0.5
 11
129.184211
 21
35.652122
 31
0.0
100
AcDbText
 73
     1
  0
TEXT
  5
BEF9
330
BEC1
100
AcDbEntity
  8
2
  6
Continuous
 62
     7
370
     9
100
AcDbText
 10
152.279388
 20
23.652122
 30
0.0
 40
5.0
  1
1/1
 41
0.5
 11
152.279388
 21
23.652122
 31
0.0
100
AcDbText
 73
     1
  0
TEXT
  5
BEFA
330
BEC1
100
AcDbEntity
  8
2
  6
Continuous
 62
     7
370
     9
100
AcDbText
 10
268.723684
 20
17.652122
 30
0.0
 40
5.0
  1
H.M
 41
0.5
 11
268.723684
 21
17.652122
 31
0.0
100
AcDbText
 73
     1
  0
TEXT
  5
BEFB
330
BEC1
100
AcDbEntity
  8
2
  6
Continuous
 62
     7
370
     9
100
AcDbText
 10
258.247465
 20
8.152122
 30
0.0
 40
4.0
  1
2012年6月1日
 41
0.5
 11
258.247465
 21
8.152122
 31
0.0
100
AcDbText
 73
     1
  0
INSERT
  5
BEFC
330
BEC1
100
AcDbEntity
  8
0
  6
Continuous
 62
     7
370
     9
100
AcDbBlockReference
  2
*G1121
 10
0.0
 20
0.0
 30
0.0
  0
TEXT
  5
BEFD
330
BEC1
100
AcDbEntity
  8
20
  6
Continuous
 62
    94
370
    30
100
AcDbText
 10
71.599329
 20
10.254603
 30
0.0
 40
8.0
  1
株式会社　宮川公製作所
 11
71.599329
 21
10.254603
 31
0.0
100
AcDbText
 73
     1
  0
ENDBLK
  5
BEFE
330
BEC1
100
AcDbEntity
  8
0
100
AcDbBlockEnd
  0
BLOCK
  5
BF00
330
BEFF
100
AcDbEntity
  8
0
  6
Continuous
 62
     7
370
     9
100
AcDbBlockBegin
  2
*G1121
 70
     0
 10
0.0
 20
0.0
 30
0.0
  3
*G1121
  1

  0
TEXT
  5
BF01
330
BEFF
100
AcDbEntity
  8
2
  6
Continuous
 62
     7
370
     9
100
AcDbText
 10
74.554777
 20
184.715717
 30
0.0
 40
4.0
  1
バリ、カエリ無キ事
 11
74.554777
 21
184.715717
 31
0.0
100
AcDbText
 73
     1
  0
ENDBLK
  5
BF02
330
BEFF
100
AcDbEntity
  8
0
100
AcDbBlockEnd
  0
BLOCK
  5
C0E1
330
C0E0
100
AcDbEntity
  8
2
  6
Continuous
 62
     7
370
     9
100
AcDbBlockBegin
  2
*D22
 70
     0
 10
0.0
 20
0.0
 30
0.0
  3
*D22
  1

  0
LINE
  5
C0E2
330
C0E0
100
AcDbEntity
  8
2
  6
Continuous
 62
     7
370
     9
100
AcDbLine
 10
157.677379
 20
112.84755
 30
0.0
 11
157.677379
 21
97.84755
 31
0.0
  0
LINE
  5
C0E3
330
C0E0
100
AcDbEntity
  8
2
  6
Continuous
 62
     7
370
     9
100
AcDbLine
 10
158.677379
 20
112.84755
 30
0.0
 11
145.550123
 21
112.84755
 31
0.0
  0
LINE
  5
C0E4
330
C0E0
100
AcDbEntity
  8
2
  6
Continuous
 62
     7
370
     9
100
AcDbLine
 10
158.677379
 20
97.84755
 30
0.0
 11
145.550123
 21
97.84755
 31
0.0
  0
LINE
  5
C0E5
330
C0E0
100
AcDbEntity
  8
2
  6
Continuous
 62
     7
370
     9
100
AcDbLine
 10
157.677379
 20
112.84755
 30
0.0
 11
158.1950169999999
 21
110.915698
 31
0.0
  0
LINE
  5
C0E6
330
C0E0
100
AcDbEntity
  8
2
  6
Continuous
 62
     7
370
     9
100
AcDbLine
 10
157.677379
 20
112.84755
 30
0.0
 11
157.159741
 21
110.915698
 31
0.0
  0
LINE
  5
C0E7
330
C0E0
100
AcDbEntity
  8
2
  6
Continuous
 62
     7
370
     9
100
AcDbLine
 10
157.677379
 20
97.84755
 30
0.0
 11
157.159741
 21
99.77940100000001
 31
0.0
  0
LINE
  5
C0E8
330
C0E0
100
AcDbEntity
  8
2
  6
Continuous
 62
     7
370
     9
100
AcDbLine
 10
157.677379
 20
97.84755
 30
0.0
 11
158.1950169999999
 21
99.77940100000001
 31
0.0
  0
TEXT
  5
C0E9
330
C0E0
100
AcDbEntity
  8
2
  6
Continuous
 62
     7
370
     9
100
AcDbText
 10
157.677379
 20
102.34755
 30
0.0
 40
4.0
  1
φA
 50
90.0
 41
0.75
 51
15.0
 11
157.677379
 21
102.34755
 31
0.0
100
AcDbText
 73
     1
  0
ENDBLK
  5
C0EA
330
C0E0
100
AcDbEntity
  8
2
  6
Continuous
 62
     7
370
     9
100
AcDbBlockEnd
  0
BLOCK
  5
C0EC
330
C0EB
100
AcDbEntity
  8
2
  6
Continuous
 62
     7
370
     9
100
AcDbBlockBegin
  2
*D23
 70
     0
 10
0.0
 20
0.0
 30
0.0
  3
*D23
  1

  0
LINE
  5
C0ED
330
C0EB
100
AcDbEntity
  8
2
  6
Continuous
 62
     7
370
     9
100
AcDbLine
 10
120.050123
 20
84.64764399999999
 30
0.0
 11
135.050123
 21
84.64764399999999
 31
0.0
  0
LINE
  5
C0EE
330
C0EB
100
AcDbEntity
  8
2
  6
Continuous
 62
     7
370
     9
100
AcDbLine
 10
120.050123
 20
83.647644
 30
0.0
 11
120.050123
 21
104.34755
 31
0.0
  0
LINE
  5
C0EF
330
C0EB
100
AcDbEntity
  8
2
  6
Continuous
 62
     7
370
     9
100
AcDbLine
 10
135.050123
 20
83.647644
 30
0.0
 11
135.050123
 21
98.34755000000001
 31
0.0
  0
LINE
  5
C0F0
330
C0EB
100
AcDbEntity
  8
2
  6
Continuous
 62
     7
370
     9
100
AcDbLine
 10
120.050123
 20
84.64764399999999
 30
0.0
 11
121.981975
 21
85.16528199999999
 31
0.0
  0
LINE
  5
C0F1
330
C0EB
100
AcDbEntity
  8
2
  6
Continuous
 62
     7
370
     9
100
AcDbLine
 10
120.050123
 20
84.64764399999999
 30
0.0
 11
121.981975
 21
84.13000600000001
 31
0.0
  0
LINE
  5
C0F2
330
C0EB
100
AcDbEntity
  8
2
  6
Continuous
 62
     7
370
     9
100
AcDbLine
 10
135.050123
 20
84.64764399999999
 30
0.0
 11
133.118271
 21
84.13000600000001
 31
0.0
  0
LINE
  5
C0F3
330
C0EB
100
AcDbEntity
  8
2
  6
Continuous
 62
     7
370
     9
100
AcDbLine
 10
135.050123
 20
84.64764399999999
 30
0.0
 11
133.118271
 21
85.16528199999999
 31
0.0
  0
TEXT
  5
C0F4
330
C0EB
100
AcDbEntity
  8
2
  6
Continuous
 62
     7
370
     9
100
AcDbText
 10
126.550123
 20
84.64764399999999
 30
0.0
 40
4.0
  1
C
 41
0.5
 51
15.0
 11
126.550123
 21
84.64764399999999
 31
0.0
100
AcDbText
 73
     1
  0
ENDBLK
  5
C0F5
330
C0EB
100
AcDbEntity
  8
2
  6
Continuous
 62
     7
370
     9
100
AcDbBlockEnd
  0
BLOCK
  5
C0F7
330
C0F6
100
AcDbEntity
  8
2
  6
Continuous
 62
     7
370
     9
100
AcDbBlockBegin
  2
*D24
 70
     0
 10
0.0
 20
0.0
 30
0.0
  3
*D24
  1

  0
LINE
  5
C0F8
330
C0F6
100
AcDbEntity
  8
2
  6
Continuous
 62
     7
370
     9
100
AcDbLine
 10
135.050123
 20
84.64764399999999
 30
0.0
 11
145.050123
 21
84.64764399999999
 31
0.0
  0
LINE
  5
C0F9
330
C0F6
100
AcDbEntity
  8
2
  6
Continuous
 62
     7
370
     9
100
AcDbLine
 10
145.050123
 20
83.647644
 30
0.0
 11
145.050123
 21
97.34754999999999
 31
0.0
  0
LINE
  5
C0FA
330
C0F6
100
AcDbEntity
  8
2
  6
Continuous
 62
     7
370
     9
100
AcDbLine
 10
135.050123
 20
84.64764399999999
 30
0.0
 11
136.981975
 21
85.16528199999999
 31
0.0
  0
LINE
  5
C0FB
330
C0F6
100
AcDbEntity
  8
2
  6
Continuous
 62
     7
370
     9
100
AcDbLine
 10
135.050123
 20
84.64764399999999
 30
0.0
 11
136.981975
 21
84.13000600000001
 31
0.0
  0
LINE
  5
C0FC
330
C0F6
100
AcDbEntity
  8
2
  6
Continuous
 62
     7
370
     9
100
AcDbLine
 10
145.050123
 20
84.64764399999999
 30
0.0
 11
143.118271
 21
84.13000600000001
 31
0.0
  0
LINE
  5
C0FD
330
C0F6
100
AcDbEntity
  8
2
  6
Continuous
 62
     7
370
     9
100
AcDbLine
 10
145.050123
 20
84.64764399999999
 30
0.0
 11
143.118271
 21
85.16528199999999
 31
0.0
  0
TEXT
  5
C0FE
330
C0F6
100
AcDbEntity
  8
2
  6
Continuous
 62
     7
370
     9
100
AcDbText
 10
139.050123
 20
84.64764399999999
 30
0.0
 40
4.0
  1
D
 41
0.5
 51
15.0
 11
139.050123
 21
84.64764399999999
 31
0.0
100
AcDbText
 73
     1
  0
ENDBLK
  5
C0FF
330
C0F6
100
AcDbEntity
  8
2
  6
Continuous
 62
     7
370
     9
100
AcDbBlockEnd
  0
BLOCK
  5
C101
330
C100
100
AcDbEntity
  8
2
  6
Continuous
 62
     7
370
     9
100
AcDbBlockBegin
  2
*D25
 70
     0
 10
0.0
 20
0.0
 30
0.0
  3
*D25
  1

  0
LINE
  5
C102
330
C100
100
AcDbEntity
  8
2
  6
Continuous
 62
     7
370
     9
100
AcDbLine
 10
132.050123
 20
90.296873
 30
0.0
 11
141.379978
 21
90.296873
 31
0.0
  0
LINE
  5
C103
330
C100
100
AcDbEntity
  8
2
  6
Continuous
 62
     7
370
     9
100
AcDbLine
 10
135.050123
 20
89.29687300000001
 30
0.0
 11
135.050123
 21
98.34755000000001
 31
0.0
  0
LINE
  5
C104
330
C100
100
AcDbEntity
  8
2
  6
Continuous
 62
     7
370
     9
100
AcDbLine
 10
137.050123
 20
89.29687300000001
 30
0.0
 11
137.050123
 21
97.14755
 31
0.0
  0
LINE
  5
C105
330
C100
100
AcDbEntity
  8
2
  6
Continuous
 62
     7
370
     9
100
AcDbLine
 10
135.050123
 20
90.296873
 30
0.0
 11
133.118271
 21
89.77923500000001
 31
0.0
  0
LINE
  5
C106
330
C100
100
AcDbEntity
  8
2
  6
Continuous
 62
     7
370
     9
100
AcDbLine
 10
135.050123
 20
90.296873
 30
0.0
 11
133.118271
 21
90.814511
 31
0.0
  0
LINE
  5
C107
330
C100
100
AcDbEntity
  8
2
  6
Continuous
 62
     7
370
     9
100
AcDbLine
 10
137.050123
 20
90.296873
 30
0.0
 11
138.981975
 21
90.814511
 31
0.0
  0
LINE
  5
C108
330
C100
100
AcDbEntity
  8
2
  6
Continuous
 62
     7
370
     9
100
AcDbLine
 10
137.050123
 20
90.296873
 30
0.0
 11
138.981975
 21
89.77923500000001
 31
0.0
  0
TEXT
  5
C109
330
C100
100
AcDbEntity
  8
2
  6
Continuous
 62
     7
370
     9
100
AcDbText
 10
139.379978
 20
90.296873
 30
0.0
 40
4.0
  1
F
 41
0.5
 51
15.0
 11
139.379978
 21
90.296873
 31
0.0
100
AcDbText
 73
     1
  0
ENDBLK
  5
C10A
330
C100
100
AcDbEntity
  8
2
  6
Continuous
 62
     7
370
     9
100
AcDbBlockEnd
  0
BLOCK
  5
C10C
330
C10B
100
AcDbEntity
  8
2
  6
Continuous
 62
     7
370
     9
100
AcDbBlockBegin
  2
*D26
 70
     0
 10
0.0
 20
0.0
 30
0.0
  3
*D26
  1

  0
LINE
  5
C10D
330
C10B
100
AcDbEntity
  8
2
  6
Continuous
 62
     7
370
     9
100
AcDbLine
 10
151.436326
 20
109.24755
 30
0.0
 11
151.436326
 21
100.514627
 31
0.0
  0
LINE
  5
C10E
330
C10B
100
AcDbEntity
  8
2
  6
Continuous
 62
     7
370
     9
100
AcDbLine
 10
152.436326
 20
106.24755
 30
0.0
 11
146.050123
 21
106.24755
 31
0.0
  0
LINE
  5
C10F
330
C10B
100
AcDbEntity
  8
2
  6
Continuous
 62
     7
370
     9
100
AcDbLine
 10
152.436326
 20
104.44755
 30
0.0
 11
146.050123
 21
104.44755
 31
0.0
  0
LINE
  5
C110
330
C10B
100
AcDbEntity
  8
2
  6
Continuous
 62
     7
370
     9
100
AcDbLine
 10
151.436326
 20
106.24755
 30
0.0
 11
150.9186879999999
 21
108.179401
 31
0.0
  0
LINE
  5
C111
330
C10B
100
AcDbEntity
  8
2
  6
Continuous
 62
     7
370
     9
100
AcDbLine
 10
151.436326
 20
106.24755
 30
0.0
 11
151.953964
 21
108.179401
 31
0.0
  0
LINE
  5
C112
330
C10B
100
AcDbEntity
  8
2
  6
Continuous
 62
     7
370
     9
100
AcDbLine
 10
151.436326
 20
104.44755
 30
0.0
 11
151.953964
 21
102.515698
 31
0.0
  0
LINE
  5
C113
330
C10B
100
AcDbEntity
  8
2
  6
Continuous
 62
     7
370
     9
100
AcDbLine
 10
151.436326
 20
104.44755
 30
0.0
 11
150.9186879999999
 21
102.515698
 31
0.0
  0
TEXT
  5
C114
330
C10B
100
AcDbEntity
  8
2
  6
Continuous
 62
     7
370
     9
100
AcDbText
 10
151.436326
 20
100.514627
 30
0.0
 40
4.0
  1
G
 50
90.0
 41
0.5
 51
15.0
 11
151.436326
 21
100.514627
 31
0.0
100
AcDbText
 73
     1
  0
ENDBLK
  5
C115
330
C10B
100
AcDbEntity
  8
2
  6
Continuous
 62
     7
370
     9
100
AcDbBlockEnd
  0
BLOCK
  5
C117
330
C116
100
AcDbEntity
  8
0
  6
Continuous
 62
     7
370
     9
100
AcDbBlockBegin
  2
*G1027
 70
     0
 10
0.0
 20
0.0
 30
0.0
  3
*G1027
  1

  0
LINE
  5
C118
330
C116
100
AcDbEntity
  8
1
  6
Continuous
 62
     7
370
    30
100
AcDbLine
 10
13.684211
 20
8.152122
 30
0.0
 11
13.684211
 21
190.526316
 31
0.0
  0
LINE
  5
C119
330
C116
100
AcDbEntity
  8
1
  6
Continuous
 62
     7
370
    30
100
AcDbLine
 10
13.684211
 20
8.152122
 30
0.0
 11
279.473684
 21
8.152122
 31
0.0
  0
LINE
  5
C11A
330
C116
100
AcDbEntity
  8
1
  6
Continuous
 62
     7
370
    30
100
AcDbLine
 10
279.473684
 20
8.152122
 30
0.0
 11
279.473684
 21
190.526316
 31
0.0
  0
LINE
  5
C11B
330
C116
100
AcDbEntity
  8
1
  6
Continuous
 62
     7
370
    30
100
AcDbLine
 10
13.684211
 20
190.526316
 30
0.0
 11
279.473684
 21
190.526316
 31
0.0
  0
LINE
  5
C11C
330
C116
100
AcDbEntity
  8
1
  6
Continuous
 62
     7
370
    30
100
AcDbLine
 10
239.514248
 20
12.152122
 30
0.0
 11
279.473684
 21
12.152122
 31
0.0
  0
LINE
  5
C11D
330
C116
100
AcDbEntity
  8
1
  6
Continuous
 62
     7
370
    30
100
AcDbLine
 10
88.684211
 20
44.152122
 30
0.0
 11
88.684211
 21
20.152122
 31
0.0
  0
LINE
  5
C11E
330
C116
100
AcDbEntity
  8
1
  6
Continuous
 62
     7
370
    30
100
AcDbLine
 10
96.68421100000001
 20
20.152122
 30
0.0
 11
96.68421100000001
 21
44.152122
 31
0.0
  0
LINE
  5
C11F
330
C116
100
AcDbEntity
  8
1
  6
Continuous
 62
     7
370
    30
100
AcDbLine
 10
132.374566
 20
32.152122
 30
0.0
 11
132.374566
 21
20.152122
 31
0.0
  0
LINE
  5
C120
330
C116
100
AcDbEntity
  8
1
  6
Continuous
 62
     7
370
    30
100
AcDbLine
 10
140.374566
 20
32.152122
 30
0.0
 11
140.374566
 21
20.152122
 31
0.0
  0
LINE
  5
C121
330
C116
100
AcDbEntity
  8
1
  6
Continuous
 62
     7
370
    30
100
AcDbLine
 10
171.684211
 20
8.152122
 30
0.0
 11
171.684211
 21
44.152122
 31
0.0
  0
LINE
  5
C122
330
C116
100
AcDbEntity
  8
1
  6
Continuous
 62
     7
370
    30
100
AcDbLine
 10
171.684211
 20
12.152122
 30
0.0
 11
239.514248
 21
12.152122
 31
0.0
  0
LINE
  5
C123
330
C116
100
AcDbEntity
  8
1
  6
Continuous
 62
     7
370
    30
100
AcDbLine
 10
255.021245
 20
12.152122
 30
0.0
 11
255.021245
 21
8.152122
 31
0.0
  0
LINE
  5
C124
330
C116
100
AcDbEntity
  8
1
  6
Continuous
 62
     7
370
    30
100
AcDbLine
 10
21.684211
 20
44.152122
 30
0.0
 11
21.684211
 21
8.152122
 31
0.0
  0
LINE
  5
C125
330
C116
100
AcDbEntity
  8
1
  6
Continuous
 62
     7
370
    30
100
AcDbLine
 10
58.529862
 20
20.152122
 30
0.0
 11
58.529862
 21
8.152122
 31
0.0
  0
LINE
  5
C126
330
C116
100
AcDbEntity
  8
1
  6
Continuous
 62
     7
370
    30
100
AcDbLine
 10
265.473684
 20
32.152122
 30
0.0
 11
265.473684
 21
12.152122
 31
0.0
  0
LINE
  5
C127
330
C116
100
AcDbEntity
  8
1
  6
Continuous
 62
     7
370
    30
100
AcDbLine
 10
251.473684
 20
32.152122
 30
0.0
 11
251.473684
 21
12.152122
 31
0.0
  0
LINE
  5
C128
330
C116
100
AcDbEntity
  8
1
  6
Continuous
 62
     7
370
    30
100
AcDbLine
 10
237.473684
 20
12.152122
 30
0.0
 11
237.473684
 21
32.152122
 31
0.0
  0
LINE
  5
C129
330
C116
100
AcDbEntity
  8
1
  6
Continuous
 62
     7
370
    30
100
AcDbLine
 10
171.684211
 20
32.152122
 30
0.0
 11
279.473684
 21
32.152122
 31
0.0
  0
LINE
  5
C12A
330
C116
100
AcDbEntity
  8
1
  6
Continuous
 62
     7
370
    30
100
AcDbLine
 10
237.473684
 20
32.152122
 30
0.0
 11
237.473684
 21
44.152122
 31
0.0
  0
LINE
  5
C12B
330
C116
100
AcDbEntity
  8
1
  6
Continuous
 62
     7
370
    30
100
AcDbLine
 10
237.473684
 20
44.152122
 30
0.0
 11
171.684211
 21
44.152122
 31
0.0
  0
LINE
  5
C12C
330
C116
100
AcDbEntity
  8
1
  6
Continuous
 62
     7
370
    30
100
AcDbLine
 10
171.684211
 20
40.15212199999999
 30
0.0
 11
237.473684
 21
40.15212199999999
 31
0.0
  0
LINE
  5
C12D
330
C116
100
AcDbEntity
  8
1
  6
Continuous
 62
     7
370
    30
100
AcDbLine
 10
237.473684
 20
36.152122
 30
0.0
 11
171.684211
 21
36.152122
 31
0.0
  0
LINE
  5
C12E
330
C116
100
AcDbEntity
  8
1
  6
Continuous
 62
     7
370
    30
100
AcDbLine
 10
171.684211
 20
28.152122
 30
0.0
 11
279.473684
 21
28.152122
 31
0.0
  0
LINE
  5
C12F
330
C116
100
AcDbEntity
  8
1
  6
Continuous
 62
     7
370
    30
100
AcDbLine
 10
237.473684
 20
24.152122
 30
0.0
 11
171.684211
 21
24.152122
 31
0.0
  0
LINE
  5
C130
330
C116
100
AcDbEntity
  8
1
  6
Continuous
 62
     7
370
    30
100
AcDbLine
 10
171.684211
 20
20.152122
 30
0.0
 11
237.473684
 21
20.152122
 31
0.0
  0
LINE
  5
C131
330
C116
100
AcDbEntity
  8
1
  6
Continuous
 62
     7
370
    30
100
AcDbLine
 10
237.473684
 20
16.152122
 30
0.0
 11
171.684211
 21
16.152122
 31
0.0
  0
LINE
  5
C132
330
C116
100
AcDbEntity
  8
1
  6
Continuous
 62
     7
370
    30
100
AcDbLine
 10
237.473684
 20
12.152122
 30
0.0
 11
237.473684
 21
8.152122
 31
0.0
  0
LINE
  5
C133
330
C116
100
AcDbEntity
  8
1
  6
DOT
 62
     7
370
    30
100
AcDbLine
 10
223.473684
 20
44.152122
 30
0.0
 11
223.473684
 21
8.152122
 31
0.0
  0
LINE
  5
C134
330
C116
100
AcDbEntity
  8
1
  6
DOT
 62
     7
370
    30
100
AcDbLine
 10
195.473684
 20
44.152122
 30
0.0
 11
195.473684
 21
8.152122
 31
0.0
  0
LINE
  5
C135
330
C116
100
AcDbEntity
  8
1
  6
Continuous
 62
     7
370
    30
100
AcDbLine
 10
171.684211
 20
44.152122
 30
0.0
 11
13.684211
 21
44.152122
 31
0.0
  0
LINE
  5
C136
330
C116
100
AcDbEntity
  8
1
  6
Continuous
 62
     7
370
    30
100
AcDbLine
 10
171.684211
 20
32.152122
 30
0.0
 11
96.68421100000001
 21
32.152122
 31
0.0
  0
LINE
  5
C137
330
C116
100
AcDbEntity
  8
1
  6
Continuous
 62
     7
370
    30
100
AcDbLine
 10
96.68421100000001
 20
32.152122
 30
0.0
 11
13.684211
 21
32.152122
 31
0.0
  0
LINE
  5
C138
330
C116
100
AcDbEntity
  8
1
  6
Continuous
 62
     7
370
    30
100
AcDbLine
 10
13.684211
 20
20.152122
 30
0.0
 11
171.684211
 21
20.152122
 31
0.0
  0
TEXT
  5
C139
330
C116
100
AcDbEntity
  8
1
  6
Continuous
 62
     7
370
    30
100
AcDbText
 10
253.596308
 20
28.728161
 30
0.0
 40
2.799999999999999
  1
検　図
 11
253.596308
 21
28.728161
 31
0.0
100
AcDbText
 73
     1
  0
TEXT
  5
C13A
330
C116
100
AcDbEntity
  8
1
  6
Continuous
 62
     7
370
    30
100
AcDbText
 10
177.685735
 20
8.736550999999998
 30
0.0
 40
2.799999999999999
  1
日　　付
 11
177.685735
 21
8.736550999999998
 31
0.0
100
AcDbText
 73
     1
  0
TEXT
  5
C13B
330
C116
100
AcDbEntity
  8
1
  6
Continuous
 62
     7
370
    30
100
AcDbText
 10
200.128042
 20
8.590405999999999
 30
0.0
 40
2.799999999999999
  1
変　更　箇　所
 11
200.128042
 21
8.590405999999999
 31
0.0
100
AcDbText
 73
     1
  0
TEXT
  5
C13C
330
C116
100
AcDbEntity
  8
1
  6
Continuous
 62
     7
370
    30
100
AcDbText
 10
226.202094
 20
8.736550999999998
 30
0.0
 40
2.799999999999999
  1
担　当
 11
226.202094
 21
8.736550999999998
 31
0.0
100
AcDbText
 73
     1
  0
TEXT
  5
C13D
330
C116
100
AcDbEntity
  8
1
  6
Continuous
 62
     7
370
    30
100
AcDbText
 10
92.469418
 20
42.29073699999999
 30
0.0
 40
2.0
  1
品番
 50
-90.0
 41
4.0
 71
     4
 11
90.469418
 21
42.29073699999999
 31
0.0
100
AcDbText
 73
     3
  0
TEXT
  5
C13E
330
C116
100
AcDbEntity
  8
1
  6
Continuous
 62
     7
370
    30
100
AcDbText
 10
92.28808800000001
 20
30.137053
 30
0.0
 40
2.0
  1
硬度
 50
-90.0
 41
4.0
 71
     4
 11
90.288088
 21
30.137053
 31
0.0
100
AcDbText
 73
     3
  0
TEXT
  5
C13F
330
C116
100
AcDbEntity
  8
1
  6
Continuous
 62
     7
370
    30
100
AcDbText
 10
136.030627
 20
30.137053
 30
0.0
 40
2.0
  1
尺度
 50
-90.0
 41
4.0
 71
     4
 11
134.030627
 21
30.137053
 31
0.0
100
AcDbText
 73
     3
  0
TEXT
  5
C140
330
C116
100
AcDbEntity
  8
1
  6
Continuous
 62
     7
370
    30
100
AcDbText
 10
13.822385
 20
10.992461
 30
0.0
 40
4.0
  1
処理
 41
0.875
 11
13.822385
 21
10.992461
 31
0.0
100
AcDbText
 73
     1
  0
TEXT
  5
C141
330
C116
100
AcDbEntity
  8
1
  6
Continuous
 62
     7
370
    30
100
AcDbText
 10
13.915991
 20
14.618052
 30
0.0
 40
4.0
  1
表面
 41
0.875
 11
13.915991
 21
14.618052
 31
0.0
100
AcDbText
 73
     1
  0
TEXT
  5
C142
330
C116
100
AcDbEntity
  8
1
  6
Continuous
 62
     7
370
    30
100
AcDbText
 10
17.324431
 20
42.727902
 30
0.0
 40
2.0
  1
品名
 50
-90.0
 41
4.0
 71
     4
 11
15.324431
 21
42.727902
 31
0.0
100
AcDbText
 73
     3
  0
TEXT
  5
C143
330
C116
100
AcDbEntity
  8
1
  6
Continuous
 62
     7
370
    30
100
AcDbText
 10
17.324431
 20
30.392167
 30
0.0
 40
2.0
  1
材質
 50
-90.0
 41
4.0
 71
     4
 11
15.324431
 21
30.392167
 31
0.0
100
AcDbText
 73
     3
  0
TEXT
  5
C144
330
C116
100
AcDbEntity
  8
1
  6
DOT
 62
     7
370
    30
100
AcDbText
 10
14.746792
 20
185.970517
 30
0.0
 40
4.0
  1
指示ナキ角部ハ　　取リトスル
 11
14.746792
 21
185.970517
 31
0.0
100
AcDbText
 73
     1
  0
TEXT
  5
C145
330
C116
100
AcDbEntity
  8
1
  6
DOT
 62
     7
370
    30
100
AcDbText
 10
14.746792
 20
180.970517
 30
0.0
 40
4.0
  1
指示ナキ Ｒ ハ　　 Ｒ トスル
 41
0.875
 11
14.746792
 21
180.970517
 31
0.0
100
AcDbText
 73
     1
  0
LINE
  5
C146
330
C116
100
AcDbEntity
  8
1
  6
Continuous
 62
     7
370
    30
100
AcDbLine
 10
13.684211
 20
185.5263159999999
 30
0.0
 11
72.77616899999999
 21
185.5263159999999
 31
0.0
  0
LINE
  5
C147
330
C116
100
AcDbEntity
  8
1
  6
Continuous
 62
     7
370
    30
100
AcDbLine
 10
72.77616899999999
 20
190.526316
 30
0.0
 11
72.77616899999999
 21
180.5263159999999
 31
0.0
  0
LINE
  5
C148
330
C116
100
AcDbEntity
  8
1
  6
Continuous
 62
     7
370
    30
100
AcDbLine
 10
72.77616899999999
 20
180.5263159999999
 30
0.0
 11
13.684211
 21
180.5263159999999
 31
0.0
  0
TEXT
  5
C149
330
C116
100
AcDbEntity
  8
1
  6
Continuous
 62
     7
370
    30
100
AcDbText
 10
237.841376
 20
8.71105
 30
0.0
 40
2.799999999999999
  1
作図・年・月・日
 41
0.714286
 11
237.841376
 21
8.71105
 31
0.0
100
AcDbText
 73
     1
  0
TEXT
  5
C14A
330
C116
100
AcDbEntity
  8
1
  6
Continuous
 62
     7
370
    30
100
AcDbText
 10
267.8382
 20
28.728161
 30
0.0
 40
2.799999999999999
  1
作　図
 11
267.8382
 21
28.728161
 31
0.0
100
AcDbText
 73
     1
  0
TEXT
  5
C14B
330
C116
100
AcDbEntity
  8
1
  6
Continuous
 62
     7
370
    30
100
AcDbText
 10
239.953009
 20
28.728161
 30
0.0
 40
2.799999999999999
  1
承　認
 11
239.953009
 21
28.728161
 31
0.0
100
AcDbText
 73
     1
  0
TEXT
  5
C14C
330
C116
100
AcDbEntity
  8
2
  6
Continuous
 62
     7
370
     9
100
AcDbText
 10
22.684211
 20
35.652122
 30
0.0
 40
5.0
  1
ステンレスローレットビスＳ
 11
22.684211
 21
35.652122
 31
0.0
100
AcDbText
 73
     1
  0
TEXT
  5
C14D
330
C116
100
AcDbEntity
  8
2
  6
Continuous
 62
     7
370
     9
100
AcDbText
 10
129.184211
 20
35.652122
 30
0.0
 40
5.0
  1
SRBS
 41
0.5
 11
129.184211
 21
35.652122
 31
0.0
100
AcDbText
 73
     1
  0
TEXT
  5
C14E
330
C116
100
AcDbEntity
  8
2
  6
Continuous
 62
     7
370
     9
100
AcDbText
 10
152.279388
 20
23.652122
 30
0.0
 40
5.0
  1
1/1
 41
0.5
 11
152.279388
 21
23.652122
 31
0.0
100
AcDbText
 73
     1
  0
TEXT
  5
C14F
330
C116
100
AcDbEntity
  8
2
  6
Continuous
 62
     7
370
     9
100
AcDbText
 10
268.723684
 20
17.652122
 30
0.0
 40
5.0
  1
H.M
 41
0.5
 11
268.723684
 21
17.652122
 31
0.0
100
AcDbText
 73
     1
  0
TEXT
  5
C150
330
C116
100
AcDbEntity
  8
2
  6
Continuous
 62
     7
370
     9
100
AcDbText
 10
258.247465
 20
8.152122
 30
0.0
 40
4.0
  1
2012年6月1日
 41
0.5
 11
258.247465
 21
8.152122
 31
0.0
100
AcDbText
 73
     1
  0
INSERT
  5
C151
330
C116
100
AcDbEntity
  8
0
  6
Continuous
 62
     7
370
     9
100
AcDbBlockReference
  2
*G1128
 10
0.0
 20
0.0
 30
0.0
  0
TEXT
  5
C152
330
C116
100
AcDbEntity
  8
20
  6
Continuous
 62
    94
370
    30
100
AcDbText
 10
71.599329
 20
10.254603
 30
0.0
 40
8.0
  1
株式会社　宮川公製作所
 11
71.599329
 21
10.254603
 31
0.0
100
AcDbText
 73
     1
  0
ENDBLK
  5
C153
330
C116
100
AcDbEntity
  8
0
100
AcDbBlockEnd
  0
BLOCK
  5
C155
330
C154
100
AcDbEntity
  8
0
  6
Continuous
 62
     7
370
     9
100
AcDbBlockBegin
  2
*G1128
 70
     0
 10
0.0
 20
0.0
 30
0.0
  3
*G1128
  1

  0
TEXT
  5
C156
330
C154
100
AcDbEntity
  8
2
  6
Continuous
 62
     7
370
     9
100
AcDbText
 10
74.554777
 20
184.715717
 30
0.0
 40
4.0
  1
バリ、カエリ無キ事
 11
74.554777
 21
184.715717
 31
0.0
100
AcDbText
 73
     1
  0
ENDBLK
  5
C157
330
C154
100
AcDbEntity
  8
0
100
AcDbBlockEnd
  0
BLOCK
  5
C20B
330
C158
100
AcDbEntity
  8
0
100
AcDbBlockBegin
  2
A$C19AA6A89
 70
     0
 10
0.0
 20
0.0
 30
0.0
  3
A$C19AA6A89
  1

  0
LINE
  5
C159
330
C158
100
AcDbEntity
  8
1
  6
Continuous
 62
     7
370
     9
100
AcDbLine
 10
131.3659116268232
 20
98.09542818731515
 30
0.0
 11
131.3659116268232
 21
104.1954281873151
 31
0.0
  0
LINE
  5
C15A
330
C158
100
AcDbEntity
  8
1
  6
Continuous
 62
     7
370
     9
100
AcDbLine
 10
123.6659116268233
 20
98.59542818731513
 30
0.0
 11
130.8659116268233
 21
98.59542818731513
 31
0.0
  0
LINE
  5
C15B
330
C158
100
AcDbEntity
  8
1
  6
Continuous
 62
     7
370
     9
100
AcDbLine
 10
123.6659116268233
 20
97.69542818731514
 30
0.0
 11
129.3659116268232
 21
97.69542818731514
 31
0.0
  0
LINE
  5
C15C
330
C158
100
AcDbEntity
  8
1
  6
Continuous
 62
     7
370
     9
100
AcDbLine
 10
123.6659116268233
 20
96.69542818731514
 30
0.0
 11
129.3659116268232
 21
96.69542818731514
 31
0.0
  0
LINE
  5
C15D
330
C158
100
AcDbEntity
  8
1
  6
Continuous
 62
     7
370
     9
100
AcDbLine
 10
123.6659116268233
 20
95.79542818731514
 30
0.0
 11
130.8659116268233
 21
95.79542818731514
 31
0.0
  0
LINE
  5
C15E
330
C158
100
AcDbEntity
  8
1
  6
Continuous
 62
     7
370
     9
100
AcDbLine
 10
123.6659116268233
 20
94.99542818731512
 30
0.0
 11
130.8659116268233
 21
94.99542818731512
 31
0.0
  0
LINE
  5
C15F
330
C158
100
AcDbEntity
  8
1
  6
Continuous
 62
     7
370
     9
100
AcDbLine
 10
123.6659116268233
 20
94.19542818731512
 30
0.0
 11
130.8659116268233
 21
94.19542818731512
 31
0.0
  0
LINE
  5
C160
330
C158
100
AcDbEntity
  8
1
  6
Continuous
 62
     7
370
     9
100
AcDbLine
 10
123.6659116268233
 20
93.49542818731512
 30
0.0
 11
130.8659116268233
 21
93.49542818731512
 31
0.0
  0
LINE
  5
C161
330
C158
100
AcDbEntity
  8
1
  6
Continuous
 62
     7
370
     9
100
AcDbLine
 10
123.6659116268233
 20
92.89542818731513
 30
0.0
 11
130.8659116268233
 21
92.89542818731513
 31
0.0
  0
LINE
  5
C162
330
C158
100
AcDbEntity
  8
1
  6
Continuous
 62
     7
370
     9
100
AcDbLine
 10
123.6659116268233
 20
92.29542818731514
 30
0.0
 11
130.8659116268233
 21
92.29542818731514
 31
0.0
  0
LINE
  5
C163
330
C158
100
AcDbEntity
  8
1
  6
Continuous
 62
     7
370
     9
100
AcDbLine
 10
123.6659116268233
 20
91.69542818731512
 30
0.0
 11
130.8659116268233
 21
91.69542818731512
 31
0.0
  0
LINE
  5
C164
330
C158
100
AcDbEntity
  8
1
  6
Continuous
 62
     7
370
     9
100
AcDbLine
 10
123.6659116268233
 20
91.19542818731513
 30
0.0
 11
130.8659116268233
 21
91.19542818731513
 31
0.0
  0
LINE
  5
C165
330
C158
100
AcDbEntity
  8
1
  6
Continuous
 62
     7
370
     9
100
AcDbLine
 10
123.6659116268233
 20
90.69542818731513
 30
0.0
 11
130.8659116268233
 21
90.69542818731513
 31
0.0
  0
LINE
  5
C166
330
C158
100
AcDbEntity
  8
1
  6
Continuous
 62
     7
370
     9
100
AcDbLine
 10
123.6659116268233
 20
90.19542818731514
 30
0.0
 11
130.8659116268233
 21
90.19542818731514
 31
0.0
  0
LINE
  5
C167
330
C158
100
AcDbEntity
  8
1
  6
Continuous
 62
     7
370
     9
100
AcDbLine
 10
123.6659116268233
 20
89.79542818731514
 30
0.0
 11
130.8659116268233
 21
89.79542818731514
 31
0.0
  0
ARC
  5
C168
330
C158
100
AcDbEntity
  8
1
  6
Continuous
 62
     7
370
     9
100
AcDbCircle
 10
161.4647636268233
 20
97.19542818731513
 30
0.0
 40
7.0
100
AcDbArc
 50
7.387047999999951
 51
172.612952
  0
LINE
  5
C169
330
C158
100
AcDbEntity
  8
1
  6
Continuous
 62
     7
370
     9
100
AcDbLine
 10
123.6659116268233
 20
99.39542818731514
 30
0.0
 11
130.8659116268233
 21
99.39542818731514
 31
0.0
  0
LINE
  5
C16A
330
C158
100
AcDbEntity
  8
1
  6
Continuous
 62
     7
370
     9
100
AcDbLine
 10
123.6659116268233
 20
100.1954281873151
 30
0.0
 11
130.8659116268233
 21
100.1954281873151
 31
0.0
  0
LINE
  5
C16B
330
C158
100
AcDbEntity
  8
1
  6
Continuous
 62
     7
370
     9
100
AcDbLine
 10
123.6659116268233
 20
100.8954281873151
 30
0.0
 11
130.8659116268233
 21
100.8954281873151
 31
0.0
  0
LINE
  5
C16C
330
C158
100
AcDbEntity
  8
1
  6
Continuous
 62
     7
370
     9
100
AcDbLine
 10
123.6659116268233
 20
101.4954281873151
 30
0.0
 11
130.8659116268233
 21
101.4954281873151
 31
0.0
  0
LINE
  5
C16D
330
C158
100
AcDbEntity
  8
1
  6
Continuous
 62
     7
370
     9
100
AcDbLine
 10
123.6659116268233
 20
104.6954281873151
 30
0.0
 11
123.6659116268233
 21
89.69542818731513
 31
0.0
  0
LINE
  5
C16E
330
C158
100
AcDbEntity
  8
1
  6
Continuous
 62
     7
370
     9
100
AcDbLine
 10
123.6659116268233
 20
89.69542818731513
 30
0.0
 11
123.3659116268233
 21
89.99542818731512
 31
0.0
  0
LINE
  5
C16F
330
C158
100
AcDbEntity
  8
1
  6
Continuous
 62
     7
370
     9
100
AcDbLine
 10
123.3659116268233
 20
104.3954281873151
 30
0.0
 11
123.6659116268233
 21
104.6954281873151
 31
0.0
  0
LINE
  5
C170
330
C158
100
AcDbEntity
  8
1
  6
Continuous
 62
     7
370
     9
100
AcDbLine
 10
130.8659116268233
 20
96.29542818731515
 30
0.0
 11
130.8659116268233
 21
89.69542818731513
 31
0.0
  0
LINE
  5
C171
330
C158
100
AcDbEntity
  8
1
  6
Continuous
 62
     7
370
     9
100
AcDbLine
 10
130.8659116268233
 20
104.6954281873151
 30
0.0
 11
130.8659116268233
 21
98.09542818731515
 31
0.0
  0
LINE
  5
C172
330
C158
100
AcDbEntity
  8
1
  6
Continuous
 62
     7
370
     9
100
AcDbLine
 10
123.6659116268233
 20
102.0954281873151
 30
0.0
 11
130.8659116268233
 21
102.0954281873151
 31
0.0
  0
LINE
  5
C173
330
C158
100
AcDbEntity
  8
1
  6
Continuous
 62
     7
370
     9
100
AcDbLine
 10
131.3659116268232
 20
90.19542818731514
 30
0.0
 11
130.8659116268233
 21
89.69542818731513
 31
0.0
  0
LINE
  5
C174
330
C158
100
AcDbEntity
  8
1
  6
Continuous
 62
     7
370
     9
100
AcDbLine
 10
106.3659116268233
 20
97.19542818731513
 30
0.0
 11
108.8659116268233
 21
94.69542818731513
 31
0.0
  0
LINE
  5
C175
330
C158
100
AcDbEntity
  8
1
  6
Continuous
 62
     7
370
     9
100
AcDbLine
 10
108.8659116268233
 20
99.69542818731513
 30
0.0
 11
106.3659116268233
 21
97.19542818731513
 31
0.0
  0
LINE
  5
C176
330
C158
100
AcDbEntity
  8
1
  6
Continuous
 62
     7
370
     9
100
AcDbLine
 10
123.6659116268233
 20
102.6954281873151
 30
0.0
 11
130.8659116268233
 21
102.6954281873151
 31
0.0
  0
LINE
  5
C177
330
C158
100
AcDbEntity
  8
1
  6
Continuous
 62
     7
370
     9
100
AcDbLine
 10
123.6659116268233
 20
103.1954281873151
 30
0.0
 11
130.8659116268233
 21
103.1954281873151
 31
0.0
  0
LINE
  5
C178
330
C158
100
AcDbEntity
  8
1
  6
Continuous
 62
     7
370
     9
100
AcDbLine
 10
123.6659116268233
 20
103.6954281873151
 30
0.0
 11
130.8659116268233
 21
103.6954281873151
 31
0.0
  0
LINE
  5
C179
330
C158
100
AcDbEntity
  8
1
  6
Continuous
 62
     7
370
     9
100
AcDbLine
 10
123.6659116268233
 20
104.1954281873151
 30
0.0
 11
130.8659116268233
 21
104.1954281873151
 31
0.0
  0
LINE
  5
C17A
330
C158
100
AcDbEntity
  8
1
  6
Continuous
 62
     7
370
     9
100
AcDbLine
 10
123.6659116268233
 20
104.5954281873151
 30
0.0
 11
130.8659116268233
 21
104.5954281873151
 31
0.0
  0
LINE
  5
C17B
330
C158
100
AcDbEntity
  8
1
  6
Continuous
 62
     7
370
     9
100
AcDbLine
 10
154.0189596268232
 20
96.29542818731515
 30
0.0
 11
168.9105676268233
 21
96.29542818731515
 31
0.0
  0
LINE
  5
C17C
330
C158
100
AcDbEntity
  8
1
  6
Continuous
 62
     7
370
     9
100
AcDbLine
 10
129.3659116268232
 20
96.29542818731515
 30
0.0
 11
131.3659116268232
 21
96.29542818731515
 31
0.0
  0
LINE
  5
C17D
330
C158
100
AcDbEntity
  8
1
  6
Continuous
 62
     7
370
     9
100
AcDbLine
 10
129.3659116268232
 20
98.09542818731515
 30
0.0
 11
129.3659116268232
 21
96.29542818731515
 31
0.0
  0
LINE
  5
C17E
330
C158
100
AcDbEntity
  8
1
  6
Continuous
 62
     7
370
     9
100
AcDbLine
 10
131.3659116268232
 20
98.09542818731515
 30
0.0
 11
129.3659116268232
 21
98.09542818731515
 31
0.0
  0
LINE
  5
C17F
330
C158
100
AcDbEntity
  8
1
  6
Continuous
 62
     7
370
     9
100
AcDbLine
 10
154.0189596268232
 20
98.09542818731515
 30
0.0
 11
168.9105676268233
 21
98.09542818731515
 31
0.0
  0
LINE
  5
C180
330
C158
100
AcDbEntity
  8
1
  6
CENTER
 62
     7
370
     9
100
AcDbLine
 10
161.4647636268233
 20
106.8747811873151
 30
0.0
 11
161.4647636268233
 21
86.59399618731514
 31
0.0
  0
LINE
  5
C181
330
C158
100
AcDbEntity
  8
1
  6
CENTER
 62
     7
370
     9
100
AcDbLine
 10
150.8719556268232
 20
97.19542818731513
 30
0.0
 11
172.0791226268233
 21
97.19542818731513
 31
0.0
  0
LINE
  5
C182
330
C158
100
AcDbEntity
  8
1
  6
Continuous
 62
     7
370
     9
100
AcDbLine
 10
130.8659116268233
 20
104.6954281873151
 30
0.0
 11
123.6659116268233
 21
104.6954281873151
 31
0.0
  0
LINE
  5
C183
330
C158
100
AcDbEntity
  8
1
  6
Continuous
 62
     7
370
     9
100
AcDbLine
 10
131.3659116268232
 20
90.19542818731514
 30
0.0
 11
131.3659116268232
 21
96.29542818731515
 31
0.0
  0
LINE
  5
C184
330
C158
100
AcDbEntity
  8
1
  6
Continuous
 62
     7
370
     9
100
AcDbLine
 10
123.6659116268233
 20
89.69542818731513
 30
0.0
 11
130.8659116268233
 21
89.69542818731513
 31
0.0
  0
LINE
  5
C185
330
C158
100
AcDbEntity
  8
1
  6
Continuous
 62
     7
370
     9
100
AcDbLine
 10
123.3659116268233
 20
104.3954281873151
 30
0.0
 11
123.3659116268233
 21
89.99542818731512
 31
0.0
  0
LINE
  5
C186
330
C158
100
AcDbEntity
  8
1
  6
Continuous
 62
     7
370
     9
100
AcDbLine
 10
121.3659116268233
 20
91.19542818731513
 30
0.0
 11
123.3659116268233
 21
91.19542818731513
 31
0.0
  0
LINE
  5
C187
330
C158
100
AcDbEntity
  8
1
  6
Continuous
 62
     7
370
     9
100
AcDbLine
 10
121.3659116268233
 20
103.1954281873151
 30
0.0
 11
121.3659116268233
 21
91.19542818731513
 31
0.0
  0
LINE
  5
C188
330
C158
100
AcDbEntity
  8
1
  6
Continuous
 62
     7
370
     9
100
AcDbLine
 10
123.3659116268233
 20
103.1954281873151
 30
0.0
 11
121.3659116268233
 21
103.1954281873151
 31
0.0
  0
LINE
  5
C189
330
C158
100
AcDbEntity
  8
1
  6
Continuous
 62
     7
370
     9
100
AcDbLine
 10
130.8659116268233
 20
104.6954281873151
 30
0.0
 11
131.3659116268232
 21
104.1954281873151
 31
0.0
  0
ARC
  5
C18A
330
C158
100
AcDbEntity
  8
1
  6
Continuous
 62
     7
370
     9
100
AcDbCircle
 10
161.4647636268233
 20
97.19542818731513
 30
0.0
 40
7.0
100
AcDbArc
 50
187.3870479999999
 51
352.6129520000001
  0
CIRCLE
  5
C18B
330
C158
100
AcDbEntity
  8
1
  6
Continuous
 62
     7
370
     9
100
AcDbCircle
 10
161.4647636268233
 20
97.19542818731513
 30
0.0
 40
7.5
  0
LINE
  5
C18C
330
C158
100
AcDbEntity
  8
1
  6
Continuous
 62
     7
370
     9
100
AcDbLine
 10
108.8659116268233
 20
99.69542818731513
 30
0.0
 11
108.8659116268233
 21
94.69542818731513
 31
0.0
  0
LINE
  5
C18D
330
C158
100
AcDbEntity
  8
1
  6
CENTER
 62
     7
370
     9
100
AcDbLine
 10
104.4760946268233
 20
97.19542818731513
 30
0.0
 11
133.8659116268233
 21
97.19542818731513
 31
0.0
  0
LINE
  5
C18E
330
C158
100
AcDbEntity
  8
1
  6
Continuous
 62
     7
370
     9
100
AcDbLine
 10
120.0659116268233
 20
95.04542818731513
 30
0.0
 11
120.4159116268233
 21
94.69542818731513
 31
0.0
  0
LINE
  5
C18F
330
C158
100
AcDbEntity
  8
1
  6
Continuous
 62
     7
370
     9
100
AcDbLine
 10
120.4159116268233
 20
99.69542818731513
 30
0.0
 11
120.0659116268233
 21
99.34542818731515
 31
0.0
  0
LINE
  5
C190
330
C158
100
AcDbEntity
  8
1
  6
Continuous
 62
     7
370
     9
100
AcDbLine
 10
120.0659116268233
 20
94.69542818731513
 30
0.0
 11
120.0659116268233
 21
99.69542818731513
 31
0.0
  0
DIMENSION
  5
C191
330
C158
100
AcDbEntity
  8
2
  6
Continuous
 62
     7
370
     9
100
AcDbDimension
  2
*D22
 10
143.9931676268233
 20
104.6954281873151
 30
0.0
 11
141.9931676268233
 21
97.19542818731513
 31
0.0
 12
-13.68421137317671
 22
-8.152121812684868
 32
0.0
  1
φA
 71
     5
 42
0.0
  3
STANDARD
100
AcDbAlignedDimension
 13
131.8659116268233
 23
104.6954281873151
 33
0.0
 14
131.8659116268233
 24
89.69542818731513
 34
0.0
 50
90.0
100
AcDbRotatedDimension
  0
DIMENSION
  5
C192
330
C158
100
AcDbEntity
  8
2
  6
Continuous
 62
     7
370
     9
100
AcDbDimension
  2
*D23
 10
106.3659116268233
 20
76.49552218731513
 30
0.0
 11
113.8659116268233
 21
78.49552218731513
 31
0.0
 12
-13.68421137317671
 22
-8.152121812684868
 32
0.0
  1
C
 71
     5
 42
0.0
  3
STANDARD
100
AcDbAlignedDimension
 13
106.3659116268233
 23
96.19542818731513
 33
0.0
 14
121.3659116268233
 24
90.19542818731514
 34
0.0
100
AcDbRotatedDimension
  0
DIMENSION
  5
C193
330
C158
100
AcDbEntity
  8
2
  6
Continuous
 62
     7
370
     9
100
AcDbDimension
  2
*D24
 10
121.3659116268233
 20
76.49552218731513
 30
0.0
 11
126.3659116268232
 21
78.49552218731513
 31
0.0
 12
-13.68421137317671
 22
-8.152121812684868
 32
0.0
  1
D
 71
     5
 42
0.0
  3
STANDARD
100
AcDbAlignedDimension
 13
121.3659116268233
 23
76.49552218731513
 33
0.0
 14
131.3659116268232
 24
89.19542818731512
 34
0.0
100
AcDbRotatedDimension
  0
DIMENSION
  5
C194
330
C158
100
AcDbEntity
  8
2
  6
Continuous
 62
     7
370
     9
100
AcDbDimension
  2
*D25
 10
121.3659116268233
 20
82.14475118731513
 30
0.0
 11
126.6957666268233
 21
84.14475118731514
 31
0.0
 12
-13.68421137317671
 22
-8.152121812684868
 32
0.0
  1
F
 71
     5
 42
0.0
  3
STANDARD
100
AcDbAlignedDimension
 13
121.3659116268233
 23
90.19542818731514
 33
0.0
 14
123.3659116268233
 24
88.99542818731513
 34
0.0
100
AcDbRotatedDimension
  0
DIMENSION
  5
C195
330
C158
100
AcDbEntity
  8
2
  6
Continuous
 62
     7
370
     9
100
AcDbDimension
  2
*D26
 10
137.7521146268233
 20
98.09542818731515
 30
0.0
 11
135.7521146268233
 21
93.36250518731514
 31
0.0
 12
-13.68421137317671
 22
-8.152121812684868
 32
0.0
  1
G
 71
     5
 42
0.0
  3
STANDARD
100
AcDbAlignedDimension
 13
132.3659116268232
 23
98.09542818731515
 33
0.0
 14
132.3659116268232
 24
96.29542818731515
 34
0.0
 50
90.0
100
AcDbRotatedDimension
  0
TEXT
  5
C196
330
C158
100
AcDbEntity
  8
2
  6
Continuous
 62
     7
370
     9
100
AcDbText
 10
34.1694656268233
 20
14.90883818731513
 30
0.0
 40
5.0
  1
SUS303
 41
0.5
 11
34.1694656268233
 21
14.90883818731513
 31
0.0
100
AcDbText
 73
     1
  0
TEXT
  5
C197
330
C158
100
AcDbEntity
  8
2
  6
Continuous
 62
     7
370
     9
100
AcDbText
 10
6.205782626823292
 20
38.87770918731514
 30
0.0
 40
5.0
  1
頭部：ヘアライン
 11
6.205782626823292
 21
38.87770918731514
 31
0.0
100
AcDbText
 73
     1
  0
LINE
  5
C198
330
C158
100
AcDbEntity
  8
2
  6
Continuous
 62
     7
370
     9
100
AcDbLine
 10
111.3659116268233
 20
101.1954281873151
 30
0.0
 11
112.3659116268233
 21
101.1954281873151
 31
0.0
  0
LINE
  5
C199
330
C158
100
AcDbEntity
  8
2
  6
Continuous
 62
     7
370
     9
100
AcDbLine
 10
112.3659116268233
 20
101.1954281873151
 30
0.0
 11
112.3659116268233
 21
93.19542818731513
 31
0.0
  0
LINE
  5
C19A
330
C158
100
AcDbEntity
  8
2
  6
Continuous
 62
     7
370
     9
100
AcDbLine
 10
111.3659116268233
 20
93.19542818731513
 30
0.0
 11
112.3659116268233
 21
93.19542818731513
 31
0.0
  0
LINE
  5
C19B
330
C158
100
AcDbEntity
  8
2
  6
Continuous
 62
     7
370
     9
100
AcDbLine
 10
111.3659116268233
 20
101.1954281873151
 30
0.0
 11
111.3659116268233
 21
93.19542818731513
 31
0.0
  0
LINE
  5
C19C
330
C158
100
AcDbEntity
  8
1
  6
Continuous
 62
     7
370
     9
100
AcDbLine
 10
108.8659116268233
 20
99.69542818731513
 30
0.0
 11
111.3659116268233
 21
99.69542818731513
 31
0.0
  0
LINE
  5
C19D
330
C158
100
AcDbEntity
  8
1
  6
Continuous
 62
     7
370
     9
100
AcDbLine
 10
112.3659116268233
 20
99.69542818731513
 30
0.0
 11
121.3659116268233
 21
99.69542818731513
 31
0.0
  0
LINE
  5
C19E
330
C158
100
AcDbEntity
  8
1
  6
Continuous
 62
     7
370
     9
100
AcDbLine
 10
108.5159116268233
 20
99.34542818731515
 30
0.0
 11
111.3659116268233
 21
99.34542818731515
 31
0.0
  0
LINE
  5
C19F
330
C158
100
AcDbEntity
  8
1
  6
Continuous
 62
     7
370
     9
100
AcDbLine
 10
112.4962256268233
 20
99.34542818731515
 30
0.0
 11
120.0659116268233
 21
99.34542818731515
 31
0.0
  0
LINE
  5
C1A0
330
C158
100
AcDbEntity
  8
1
  6
Continuous
 62
     7
370
     9
100
AcDbLine
 10
108.5159116268233
 20
95.04542818731513
 30
0.0
 11
111.3659116268233
 21
95.04542818731513
 31
0.0
  0
LINE
  5
C1A1
330
C158
100
AcDbEntity
  8
1
  6
Continuous
 62
     7
370
     9
100
AcDbLine
 10
112.3659116268233
 20
95.04542818731513
 30
0.0
 11
120.0659116268233
 21
95.04542818731513
 31
0.0
  0
LINE
  5
C1A2
330
C158
100
AcDbEntity
  8
1
  6
Continuous
 62
     7
370
     9
100
AcDbLine
 10
108.8659116268233
 20
94.69542818731513
 30
0.0
 11
111.3659116268233
 21
94.69542818731513
 31
0.0
  0
LINE
  5
C1A3
330
C158
100
AcDbEntity
  8
1
  6
Continuous
 62
     7
370
     9
100
AcDbLine
 10
112.3659116268233
 20
94.69542818731513
 30
0.0
 11
121.3659116268233
 21
94.69542818731513
 31
0.0
  0
DIMENSION
  5
C1A4
330
C158
100
AcDbEntity
  8
2
  6
Continuous
 62
     7
370
     9
100
AcDbDimension
  2
*D5
 10
111.3659116268233
 20
84.50245718731514
 30
0.0
 11
109.4534126268233
 21
86.50245718731513
 31
0.0
 12
-13.68421137317671
 22
-8.152121812684868
 32
0.0
  1
1
 71
     5
 42
0.0
  3
STANDARD
100
AcDbAlignedDimension
 13
111.3659116268233
 23
92.19542818731513
 33
0.0
 14
112.3659116268233
 24
92.19542818731513
 34
0.0
100
AcDbRotatedDimension
  0
DIMENSION
  5
C1A5
330
C158
100
AcDbEntity
  8
2
  6
Continuous
 62
     7
370
     9
100
AcDbDimension
  2
*D6
 10
101.8673056268233
 20
101.1954281873151
 30
0.0
 11
99.86730562682328
 21
97.19542818731513
 31
0.0
 12
-13.68421137317671
 22
-8.152121812684868
 32
0.0
  1
φI
 71
     5
 42
0.0
  3
STANDARD
100
AcDbAlignedDimension
 13
110.3659116268233
 23
101.1954281873151
 33
0.0
 14
110.3659116268233
 24
93.19542818731513
 34
0.0
 50
90.0
100
AcDbRotatedDimension
  0
DIMENSION
  5
C1A6
330
C158
100
AcDbEntity
  8
2
  6
Continuous
 62
     7
370
     9
100
AcDbDimension
  2
*D7
 10
92.9361436268233
 20
103.1954281873151
 30
0.0
 11
90.93614362682329
 21
97.19542818731513
 31
0.0
 12
-13.68421137317671
 22
-8.152121812684868
 32
0.0
  1
φE
 71
     5
 42
0.0
  3
STANDARD
100
AcDbAlignedDimension
 13
120.3659116268233
 23
103.1954281873151
 33
0.0
 14
120.3659116268233
 24
91.19542818731513
 34
0.0
 50
90.0
100
AcDbRotatedDimension
  0
LINE
  5
C1A7
330
C158
100
AcDbEntity
  8
2
  6
Continuous
 62
     7
370
     9
100
AcDbLine
 10
116.8680256268233
 20
99.69542818731513
 30
0.0
 11
115.5048066268233
 21
101.1588591873151
 31
0.0
  0
LINE
  5
C1A8
330
C158
100
AcDbEntity
  8
2
  6
Continuous
 62
     7
370
     9
100
AcDbLine
 10
116.8680256268233
 20
99.69542818731513
 30
0.0
 11
116.4191586268233
 21
101.6444071873151
 31
0.0
  0
POLYLINE
  5
C1A9
330
C158
100
AcDbEntity
  8
2
  6
Continuous
 62
     7
370
     9
100
AcDb2dPolyline
 66
     1
 10
0.0
 20
0.0
 30
0.0
  0
VERTEX
  5
C1AA
330
C1A9
100
AcDbEntity
  8
2
  6
Continuous
 62
     7
370
     9
100
AcDbVertex
100
AcDb2dVertex
 10
116.8680256268233
 20
99.69542818731513
 30
0.0
  0
VERTEX
  5
C1AB
330
C1A9
100
AcDbEntity
  8
2
  6
Continuous
 62
     7
370
     9
100
AcDbVertex
100
AcDb2dVertex
 10
107.9099626268233
 20
116.5646961873151
 30
0.0
  0
VERTEX
  5
C1AC
330
C1A9
100
AcDbEntity
  8
2
  6
Continuous
 62
     7
370
     9
100
AcDbVertex
100
AcDb2dVertex
 10
106.4099626268233
 20
116.5646961873151
 30
0.0
  0
SEQEND
  5
C1AD
330
C1A9
100
AcDbEntity
  8
2
  6
Continuous
 62
     7
370
     9
  0
TEXT
  5
C1AE
330
C158
100
AcDbEntity
  8
2
  6
Continuous
 62
     7
370
     9
100
AcDbText
 10
106.4099626268233
 20
116.5646961873151
 30
0.0
 40
3.0
  1
B
 41
0.5
 51
15.0
 11
106.4099626268233
 21
116.5646961873151
 31
0.0
100
AcDbText
 73
     1
  0
LINE
  5
C1AF
330
C158
100
AcDbEntity
  8
2
  6
Continuous
 62
     7
370
     9
100
AcDbLine
 10
111.3659116268233
 20
101.1954281873151
 30
0.0
 11
109.4866466268233
 21
101.8797971873151
 31
0.0
  0
LINE
  5
C1B0
330
C158
100
AcDbEntity
  8
2
  6
Continuous
 62
     7
370
     9
100
AcDbLine
 10
111.3659116268233
 20
101.1954281873151
 30
0.0
 11
110.0806046268233
 21
102.7277421873151
 31
0.0
  0
POLYLINE
  5
C1B1
330
C158
100
AcDbEntity
  8
2
  6
Continuous
 62
     7
370
     9
100
AcDb2dPolyline
 66
     1
 10
0.0
 20
0.0
 30
0.0
  0
VERTEX
  5
C1B2
330
C1B1
100
AcDbEntity
  8
2
  6
Continuous
 62
     7
370
     9
100
AcDbVertex
100
AcDb2dVertex
 10
111.3659116268233
 20
101.1954281873151
 30
0.0
  0
VERTEX
  5
C1B3
330
C1B1
100
AcDbEntity
  8
2
  6
Continuous
 62
     7
370
     9
100
AcDbVertex
100
AcDb2dVertex
 10
101.8572176268233
 20
107.8559661873151
 30
0.0
  0
VERTEX
  5
C1B4
330
C1B1
100
AcDbEntity
  8
2
  6
Continuous
 62
     7
370
     9
100
AcDbVertex
100
AcDb2dVertex
 10
77.8572176268233
 20
107.8559661873151
 30
0.0
  0
SEQEND
  5
C1B5
330
C1B1
100
AcDbEntity
  8
2
  6
Continuous
 62
     7
370
     9
  0
TEXT
  5
C1B6
330
C158
100
AcDbEntity
  8
2
  6
Continuous
 62
     7
370
     9
100
AcDbText
 10
77.8572176268233
 20
107.8559661873151
 30
0.0
 40
3.0
  1
ナイロンワッシャ
 51
15.0
 11
77.8572176268233
 21
107.8559661873151
 31
0.0
100
AcDbText
 73
     1
  0
TEXT
  5
C1B7
330
C158
100
AcDbEntity
  8
2
  6
Continuous
 62
     7
370
     9
100
AcDbText
 10
250.0517366268233
 20
174.1729721873151
 30
0.0
 40
5.0
  1
H
 41
0.5
 11
250.0517366268233
 21
174.1729721873151
 31
0.0
100
AcDbText
 73
     1
  0
TEXT
  5
C1B8
330
C158
100
AcDbEntity
  8
2
  6
Continuous
 62
     7
370
     9
100
AcDbText
 10
239.2443216268233
 20
174.3768861873151
 30
0.0
 40
5.0
  1
G
 41
0.5
 11
239.2443216268233
 21
174.3768861873151
 31
0.0
100
AcDbText
 73
     1
  0
TEXT
  5
C1B9
330
C158
100
AcDbEntity
  8
2
  6
Continuous
 62
     7
370
     9
100
AcDbText
 10
229.8643006268233
 20
174.3768861873151
 30
0.0
 40
5.0
  1
F
 41
0.5
 11
229.8643006268233
 21
174.3768861873151
 31
0.0
100
AcDbText
 73
     1
  0
TEXT
  5
C1BA
330
C158
100
AcDbEntity
  8
2
  6
Continuous
 62
     7
370
     9
100
AcDbText
 10
219.6686256268233
 20
174.7847131873151
 30
0.0
 40
5.0
  1
E
 41
0.5
 11
219.6686256268233
 21
174.7847131873151
 31
0.0
100
AcDbText
 73
     1
  0
TEXT
  5
C1BB
330
C158
100
AcDbEntity
  8
2
  6
Continuous
 62
     7
370
     9
100
AcDbText
 10
209.6768646268233
 20
174.9886261873151
 30
0.0
 40
5.0
  1
D
 41
0.5
 11
209.6768646268233
 21
174.9886261873151
 31
0.0
100
AcDbText
 73
     1
  0
TEXT
  5
C1BC
330
C158
100
AcDbEntity
  8
2
  6
Continuous
 62
     7
370
     9
100
AcDbText
 10
199.6851036268233
 20
174.5807991873151
 30
0.0
 40
5.0
  1
C
 41
0.5
 11
199.6851036268233
 21
174.5807991873151
 31
0.0
100
AcDbText
 73
     1
  0
TEXT
  5
C1BD
330
C158
100
AcDbEntity
  8
2
  6
Continuous
 62
     7
370
     9
100
AcDbText
 10
189.2855156268233
 20
174.7847131873151
 30
0.0
 40
5.0
  1
B
 41
0.5
 11
189.2855156268233
 21
174.7847131873151
 31
0.0
100
AcDbText
 73
     1
  0
TEXT
  5
C1BE
330
C158
100
AcDbEntity
  8
2
  6
Continuous
 62
     7
370
     9
100
AcDbText
 10
179.4976686268233
 20
174.7847131873151
 30
0.0
 40
5.0
  1
A
 41
0.5
 11
179.4976686268233
 21
174.7847131873151
 31
0.0
100
AcDbText
 73
     1
  0
TEXT
  5
C1BF
330
C158
100
AcDbEntity
  8
2
  6
Continuous
 62
     7
370
     9
100
AcDbText
 10
151.1876786268232
 20
175.0226121873151
 30
0.0
 40
5.0
  1
品　　番
 11
151.1876786268232
 21
175.0226121873151
 31
0.0
100
AcDbText
 73
     1
  0
LINE
  5
C1C0
330
C158
100
AcDbEntity
  8
2
  6
Continuous
 62
     7
370
     9
100
AcDbLine
 10
145.5901306268233
 20
167.3741941873151
 30
0.0
 11
175.5901306268233
 21
167.3741941873151
 31
0.0
  0
LINE
  5
C1C1
330
C158
100
AcDbEntity
  8
2
  6
Continuous
 62
     7
370
     9
100
AcDbLine
 10
145.5901306268233
 20
157.3741941873151
 30
0.0
 11
175.5901306268233
 21
157.3741941873151
 31
0.0
  0
LINE
  5
C1C2
330
C158
100
AcDbEntity
  8
2
  6
Continuous
 62
     7
370
     9
100
AcDbLine
 10
145.5901306268233
 20
147.3741941873151
 30
0.0
 11
175.5901306268233
 21
147.3741941873151
 31
0.0
  0
LINE
  5
C1C3
330
C158
100
AcDbEntity
  8
2
  6
Continuous
 62
     7
370
     9
100
AcDbLine
 10
145.5901306268233
 20
142.3741941873151
 30
0.0
 11
175.5901306268233
 21
142.3741941873151
 31
0.0
  0
LINE
  5
C1C4
330
C158
100
AcDbEntity
  8
2
  6
Continuous
 62
     7
370
     9
100
AcDbLine
 10
195.5901306268233
 20
142.3741941873151
 30
0.0
 11
215.5901306268233
 21
142.3741941873151
 31
0.0
  0
TEXT
  5
C1C5
330
C158
100
AcDbEntity
  8
2
  6
Continuous
 62
     7
370
     9
100
AcDbText
 10
149.3751136268233
 20
167.3741941873151
 30
0.0
 40
4.0
  1
SRBS-12-M3-8
 41
0.5
 11
149.3751136268233
 21
167.3741941873151
 31
0.0
100
AcDbText
 73
     1
  0
TEXT
  5
C1C6
330
C158
100
AcDbEntity
  8
2
  6
Continuous
 62
     7
370
     9
100
AcDbText
 10
149.3751136268233
 20
162.3741941873151
 30
0.0
 40
4.0
  1
SRBS-12-M3-12
 41
0.5
 11
149.3751136268233
 21
162.3741941873151
 31
0.0
100
AcDbText
 73
     1
  0
TEXT
  5
C1C7
330
C158
100
AcDbEntity
  8
2
  6
Continuous
 62
     7
370
     9
100
AcDbText
 10
149.3751136268233
 20
157.3741941873151
 30
0.0
 40
4.0
  1
SRBS-15-M4-10
 41
0.5
 11
149.3751136268233
 21
157.3741941873151
 31
0.0
100
AcDbText
 73
     1
  0
TEXT
  5
C1C8
330
C158
100
AcDbEntity
  8
2
  6
Continuous
 62
     7
370
     9
100
AcDbText
 10
149.3751136268233
 20
152.3741941873151
 30
0.0
 40
4.0
  1
SRBS-15-M4-15
 41
0.5
 11
149.3751136268233
 21
152.3741941873151
 31
0.0
100
AcDbText
 73
     1
  0
TEXT
  5
C1C9
330
C158
100
AcDbEntity
  8
2
  6
Continuous
 62
     7
370
     9
100
AcDbText
 10
149.3751136268233
 20
147.3741941873151
 30
0.0
 40
4.0
  1
SRBS-15-M5-10
 41
0.5
 11
149.3751136268233
 21
147.3741941873151
 31
0.0
100
AcDbText
 73
     1
  0
TEXT
  5
C1CA
330
C158
100
AcDbEntity
  8
2
  6
Continuous
 62
     7
370
     9
100
AcDbText
 10
149.3751136268233
 20
142.3741941873151
 30
0.0
 40
4.0
  1
SRBS-15-M5-15
 41
0.5
 11
149.3751136268233
 21
142.3741941873151
 31
0.0
100
AcDbText
 73
     1
  0
TEXT
  5
C1CB
330
C158
100
AcDbEntity
  8
2
  6
Continuous
 62
     7
370
     9
100
AcDbText
 10
149.3751136268233
 20
137.3741941873151
 30
0.0
 40
4.0
  1
SRBS-18-M6-10
 41
0.5
 11
149.3751136268233
 21
137.3741941873151
 31
0.0
100
AcDbText
 73
     1
  0
TEXT
  5
C1CC
330
C158
100
AcDbEntity
  8
2
  6
Continuous
 62
     7
370
     9
100
AcDbText
 10
149.3751136268233
 20
132.3741941873151
 30
0.0
 40
4.0
  1
SRBS-18-M6-15
 41
0.5
 11
149.3751136268233
 21
132.3741941873151
 31
0.0
100
AcDbText
 73
     1
  0
LINE
  5
C1CD
330
C158
100
AcDbEntity
  8
2
  6
Continuous
 62
     7
370
     9
100
AcDbLine
 10
145.5901306268233
 20
132.3741941873151
 30
0.0
 11
145.5901306268233
 21
182.3741941873151
 31
0.0
  0
LINE
  5
C1CE
330
C158
100
AcDbEntity
  8
2
  6
Continuous
 62
     7
370
     9
100
AcDbLine
 10
175.5901306268233
 20
132.3741941873151
 30
0.0
 11
175.5901306268233
 21
182.3741941873151
 31
0.0
  0
LINE
  5
C1CF
330
C158
100
AcDbEntity
  8
2
  6
Continuous
 62
     7
370
     9
100
AcDbLine
 10
185.5901306268233
 20
132.3741941873151
 30
0.0
 11
185.5901306268233
 21
182.3741941873151
 31
0.0
  0
LINE
  5
C1D0
330
C158
100
AcDbEntity
  8
2
  6
Continuous
 62
     7
370
     9
100
AcDbLine
 10
195.5901306268233
 20
132.3741941873151
 30
0.0
 11
195.5901306268233
 21
182.3741941873151
 31
0.0
  0
LINE
  5
C1D1
330
C158
100
AcDbEntity
  8
2
  6
Continuous
 62
     7
370
     9
100
AcDbLine
 10
205.5901306268233
 20
132.3741941873151
 30
0.0
 11
205.5901306268233
 21
182.3741941873151
 31
0.0
  0
LINE
  5
C1D2
330
C158
100
AcDbEntity
  8
2
  6
Continuous
 62
     7
370
     9
100
AcDbLine
 10
215.5901306268233
 20
132.3741941873151
 30
0.0
 11
215.5901306268233
 21
182.3741941873151
 31
0.0
  0
TEXT
  5
C1D3
330
C158
100
AcDbEntity
  8
2
  6
Continuous
 62
     7
370
     9
100
AcDbText
 10
220.0473366268233
 20
165.2415471873151
 30
0.0
 40
4.0
  1
8
 41
0.5
 11
220.0473366268233
 21
165.2415471873151
 31
0.0
100
AcDbText
 73
     1
  0
LINE
  5
C1D4
330
C158
100
AcDbEntity
  8
2
  6
Continuous
 62
     7
370
     9
100
AcDbLine
 10
225.7894726268233
 20
133.0465341873151
 30
0.0
 11
225.7894726268233
 21
182.3741941873151
 31
0.0
  0
LINE
  5
C1D5
330
C158
100
AcDbEntity
  8
2
  6
Continuous
 62
     7
370
     9
100
AcDbLine
 10
235.7894726268233
 20
132.3741941873151
 30
0.0
 11
235.7894726268233
 21
182.3741941873151
 31
0.0
  0
TEXT
  5
C1D6
330
C158
100
AcDbEntity
  8
2
  6
Continuous
 62
     7
370
     9
100
AcDbText
 10
178.7368146268233
 20
150.7443401873151
 30
0.0
 40
4.0
  1
15
 41
0.5
 11
178.7368146268233
 21
150.7443401873151
 31
0.0
100
AcDbText
 73
     1
  0
LINE
  5
C1D7
330
C158
100
AcDbEntity
  8
2
  6
Continuous
 62
     7
370
     9
100
AcDbLine
 10
255.7894726268233
 20
132.3741941873151
 30
0.0
 11
255.7894726268233
 21
182.3741941873151
 31
0.0
  0
LINE
  5
C1D8
330
C158
100
AcDbEntity
  8
2
  6
Continuous
 62
     7
370
     9
100
AcDbLine
 10
245.7894726268233
 20
132.3741941873151
 30
0.0
 11
245.7894726268233
 21
182.3741941873151
 31
0.0
  0
LINE
  5
C1D9
330
C158
100
AcDbEntity
  8
2
  6
Continuous
 62
     7
370
     9
100
AcDbLine
 10
145.5901306268233
 20
137.3741941873151
 30
0.0
 11
175.5901306268233
 21
137.3741941873151
 31
0.0
  0
TEXT
  5
C1DA
330
C158
100
AcDbEntity
  8
2
  6
Continuous
 62
     7
370
     9
100
AcDbText
 10
188.4339606268232
 20
135.2370271873151
 30
0.0
 40
4.0
  1
M6
 41
0.5
 11
188.4339606268232
 21
135.2370271873151
 31
0.0
100
AcDbText
 73
     1
  0
TEXT
  5
C1DB
330
C158
100
AcDbEntity
  8
2
  6
Continuous
 62
     7
370
     9
100
AcDbText
 10
198.8229346268233
 20
157.3741941873151
 30
0.0
 40
4.0
  1
10
 41
0.5
 11
198.8229346268233
 21
157.3741941873151
 31
0.0
100
AcDbText
 73
     1
  0
TEXT
  5
C1DC
330
C158
100
AcDbEntity
  8
2
  6
Continuous
 62
     7
370
     9
100
AcDbText
 10
198.8229346268233
 20
152.3741941873151
 30
0.0
 40
4.0
  1
15
 41
0.5
 11
198.8229346268233
 21
152.3741941873151
 31
0.0
100
AcDbText
 73
     1
  0
TEXT
  5
C1DD
330
C158
100
AcDbEntity
  8
2
  6
Continuous
 62
     7
370
     9
100
AcDbText
 10
198.8229346268233
 20
147.3741941873151
 30
0.0
 40
4.0
  1
10
 41
0.5
 11
198.8229346268233
 21
147.3741941873151
 31
0.0
100
AcDbText
 73
     1
  0
TEXT
  5
C1DE
330
C158
100
AcDbEntity
  8
2
  6
Continuous
 62
     7
370
     9
100
AcDbText
 10
198.8229346268233
 20
142.3741941873151
 30
0.0
 40
4.0
  1
15
 41
0.5
 11
198.8229346268233
 21
142.3741941873151
 31
0.0
100
AcDbText
 73
     1
  0
LINE
  5
C1DF
330
C158
100
AcDbEntity
  8
2
  6
Continuous
 62
     7
370
     9
100
AcDbLine
 10
195.5901306268233
 20
157.3741941873151
 30
0.0
 11
205.5901306268233
 21
157.3741941873151
 31
0.0
  0
LINE
  5
C1E0
330
C158
100
AcDbEntity
  8
2
  6
Continuous
 62
     7
370
     9
100
AcDbLine
 10
195.5901306268233
 20
147.3741941873151
 30
0.0
 11
205.5901306268233
 21
147.3741941873151
 31
0.0
  0
TEXT
  5
C1E1
330
C158
100
AcDbEntity
  8
2
  6
Continuous
 62
     7
370
     9
100
AcDbText
 10
209.1457476268232
 20
150.1145021873151
 30
0.0
 40
4.0
  1
10
 41
0.5
 11
209.1457476268232
 21
150.1145021873151
 31
0.0
100
AcDbText
 73
     1
  0
LINE
  5
C1E2
330
C158
100
AcDbEntity
  8
2
  6
Continuous
 62
     7
370
     9
100
AcDbLine
 10
215.5901306268233
 20
152.3741941873151
 30
0.0
 11
225.7894726268233
 21
152.3741941873151
 31
0.0
  0
TEXT
  5
C1E3
330
C158
100
AcDbEntity
  8
2
  6
Continuous
 62
     7
370
     9
100
AcDbText
 10
218.7988516268233
 20
155.1604021873151
 30
0.0
 40
4.0
  1
10
 41
0.5
 11
218.7988516268233
 21
155.1604021873151
 31
0.0
100
AcDbText
 73
     1
  0
TEXT
  5
C1E4
330
C158
100
AcDbEntity
  8
2
  6
Continuous
 62
     7
370
     9
100
AcDbText
 10
218.7711036268233
 20
145.1302911873151
 30
0.0
 40
4.0
  1
12
 41
0.5
 11
218.7711036268233
 21
145.1302911873151
 31
0.0
100
AcDbText
 73
     1
  0
TEXT
  5
C1E5
330
C158
100
AcDbEntity
  8
2
  6
Continuous
 62
     7
370
     9
100
AcDbText
 10
230.5531526268233
 20
149.7842471873151
 30
0.0
 40
4.0
  1
2
 41
0.5
 11
230.5531526268233
 21
149.7842471873151
 31
0.0
100
AcDbText
 73
     1
  0
TEXT
  5
C1E6
330
C158
100
AcDbEntity
  8
2
  6
Continuous
 62
     7
370
     9
100
AcDbText
 10
239.6319136268233
 20
149.8649501873151
 30
0.0
 40
4.0
  1
2
 41
0.5
 11
239.6319136268233
 21
149.8649501873151
 31
0.0
100
AcDbText
 73
     1
  0
TEXT
  5
C1E7
330
C158
100
AcDbEntity
  8
2
  6
Continuous
 62
     7
370
     9
100
AcDbText
 10
248.3749296268233
 20
149.6992331873151
 30
0.0
 40
4.0
  1
1.7
 41
0.5
 11
248.3749296268233
 21
149.6992331873151
 31
0.0
100
AcDbText
 73
     1
  0
TEXT
  5
C1E8
330
C158
100
AcDbEntity
  8
2
  6
Continuous
 62
     7
370
     9
100
AcDbText
 10
178.4416206268233
 20
165.4631881873151
 30
0.0
 40
4.0
  1
12
 41
0.5
 11
178.4416206268233
 21
165.4631881873151
 31
0.0
100
AcDbText
 73
     1
  0
TEXT
  5
C1E9
330
C158
100
AcDbEntity
  8
2
  6
Continuous
 62
     7
370
     9
100
AcDbText
 10
188.5410026268233
 20
165.2403941873151
 30
0.0
 40
4.0
  1
M3
 41
0.5
 11
188.5410026268233
 21
165.2403941873151
 31
0.0
100
AcDbText
 73
     1
  0
TEXT
  5
C1EA
330
C158
100
AcDbEntity
  8
2
  6
Continuous
 62
     7
370
     9
100
AcDbText
 10
198.8229346268233
 20
167.3741941873151
 30
0.0
 40
4.0
  1
8
 41
0.5
 11
198.8229346268233
 21
167.3741941873151
 31
0.0
100
AcDbText
 73
     1
  0
TEXT
  5
C1EB
330
C158
100
AcDbEntity
  8
2
  6
Continuous
 62
     7
370
     9
100
AcDbText
 10
198.8229346268233
 20
162.3741941873151
 30
0.0
 40
4.0
  1
12
 41
0.5
 11
198.8229346268233
 21
162.3741941873151
 31
0.0
100
AcDbText
 73
     1
  0
LINE
  5
C1EC
330
C158
100
AcDbEntity
  8
2
  6
Continuous
 62
     7
370
     9
100
AcDbLine
 10
195.5901306268233
 20
167.3741941873151
 30
0.0
 11
205.5901306268233
 21
167.3741941873151
 31
0.0
  0
TEXT
  5
C1ED
330
C158
100
AcDbEntity
  8
2
  6
Continuous
 62
     7
370
     9
100
AcDbText
 10
209.5492636268233
 20
165.0374021873151
 30
0.0
 40
4.0
  1
8
 41
0.5
 11
209.5492636268233
 21
165.0374021873151
 31
0.0
100
AcDbText
 73
     1
  0
TEXT
  5
C1EE
330
C158
100
AcDbEntity
  8
2
  6
Continuous
 62
     7
370
     9
100
AcDbText
 10
230.2430116268233
 20
165.3095181873151
 30
0.0
 40
4.0
  1
2
 41
0.5
 11
230.2430116268233
 21
165.3095181873151
 31
0.0
100
AcDbText
 73
     1
  0
TEXT
  5
C1EF
330
C158
100
AcDbEntity
  8
2
  6
Continuous
 62
     7
370
     9
100
AcDbText
 10
240.2347726268233
 20
165.3095181873151
 30
0.0
 40
4.0
  1
2
 41
0.5
 11
240.2347726268233
 21
165.3095181873151
 31
0.0
100
AcDbText
 73
     1
  0
TEXT
  5
C1F0
330
C158
100
AcDbEntity
  8
2
  6
Continuous
 62
     7
370
     9
100
AcDbText
 10
248.4330406268233
 20
164.9016911873151
 30
0.0
 40
4.0
  1
1.7
 41
0.5
 11
248.4330406268233
 21
164.9016911873151
 31
0.0
100
AcDbText
 73
     1
  0
LINE
  5
C1F1
330
C158
100
AcDbEntity
  8
2
  6
Continuous
 62
     7
370
     9
100
AcDbLine
 10
265.7894726268233
 20
132.3741941873151
 30
0.0
 11
265.7894726268233
 21
182.3741941873151
 31
0.0
  0
LINE
  5
C1F2
330
C158
100
AcDbEntity
  8
2
  6
Continuous
 62
     7
370
     9
100
AcDbLine
 10
145.5901306268233
 20
172.3741941873151
 30
0.0
 11
265.7894726268233
 21
172.3741941873151
 31
0.0
  0
LINE
  5
C1F3
330
C158
100
AcDbEntity
  8
2
  6
Continuous
 62
     7
370
     9
100
AcDbLine
 10
145.5901306268233
 20
162.3741941873151
 30
0.0
 11
265.7894726268233
 21
162.3741941873151
 31
0.0
  0
LINE
  5
C1F4
330
C158
100
AcDbEntity
  8
2
  6
Continuous
 62
     7
370
     9
100
AcDbLine
 10
145.5901306268233
 20
142.3741941873151
 30
0.0
 11
265.7894726268233
 21
142.3741941873151
 31
0.0
  0
LINE
  5
C1F5
330
C158
100
AcDbEntity
  8
2
  6
Continuous
 62
     7
370
     9
100
AcDbLine
 10
145.5901306268233
 20
132.3741941873151
 30
0.0
 11
265.7894726268233
 21
132.3741941873151
 31
0.0
  0
LINE
  5
C1F6
330
C158
100
AcDbEntity
  8
2
  6
Continuous
 62
     7
370
     9
100
AcDbLine
 10
195.5901306268233
 20
137.3741941873151
 30
0.0
 11
205.5901306268233
 21
137.3741941873151
 31
0.0
  0
TEXT
  5
C1F7
330
C158
100
AcDbEntity
  8
2
  6
Continuous
 62
     7
370
     9
100
AcDbText
 10
178.2336516268232
 20
135.2256991873151
 30
0.0
 40
4.0
  1
18
 41
0.5
 11
178.2336516268232
 21
135.2256991873151
 31
0.0
100
AcDbText
 73
     1
  0
TEXT
  5
C1F8
330
C158
100
AcDbEntity
  8
2
  6
Continuous
 62
     7
370
     9
100
AcDbText
 10
198.8229346268233
 20
137.3741941873151
 30
0.0
 40
4.0
  1
10
 41
0.5
 11
198.8229346268233
 21
137.3741941873151
 31
0.0
100
AcDbText
 73
     1
  0
TEXT
  5
C1F9
330
C158
100
AcDbEntity
  8
2
  6
Continuous
 62
     7
370
     9
100
AcDbText
 10
198.8229346268233
 20
132.3741941873151
 30
0.0
 40
4.0
  1
15
 41
0.5
 11
198.8229346268233
 21
132.3741941873151
 31
0.0
100
AcDbText
 73
     1
  0
TEXT
  5
C1FA
330
C158
100
AcDbEntity
  8
2
  6
Continuous
 62
     7
370
     9
100
AcDbText
 10
208.8229346268233
 20
135.3566121873151
 30
0.0
 40
4.0
  1
12
 41
0.5
 11
208.8229346268233
 21
135.3566121873151
 31
0.0
100
AcDbText
 73
     1
  0
TEXT
  5
C1FB
330
C158
100
AcDbEntity
  8
2
  6
Continuous
 62
     7
370
     9
100
AcDbText
 10
219.9330086268233
 20
135.2672031873151
 30
0.0
 40
4.0
  1
12
 41
0.5
 11
219.9330086268233
 21
135.2672031873151
 31
0.0
100
AcDbText
 73
     1
  0
TEXT
  5
C1FC
330
C158
100
AcDbEntity
  8
2
  6
Continuous
 62
     7
370
     9
100
AcDbText
 10
239.7126166268233
 20
134.0501371873151
 30
0.0
 40
4.0
  1
2
 41
0.5
 11
239.7126166268233
 21
134.0501371873151
 31
0.0
100
AcDbText
 73
     1
  0
TEXT
  5
C1FD
330
C158
100
AcDbEntity
  8
2
  6
Continuous
 62
     7
370
     9
100
AcDbText
 10
230.1496366268233
 20
134.7764661873151
 30
0.0
 40
4.0
  1
2
 41
0.5
 11
230.1496366268233
 21
134.7764661873151
 31
0.0
100
AcDbText
 73
     1
  0
TEXT
  5
C1FE
330
C158
100
AcDbEntity
  8
2
  6
Continuous
 62
     7
370
     9
100
AcDbText
 10
248.6170386268233
 20
134.1265291873151
 30
0.0
 40
4.0
  1
1.7
 41
0.5
 11
248.6170386268233
 21
134.1265291873151
 31
0.0
100
AcDbText
 73
     1
  0
TEXT
  5
C1FF
330
C158
100
AcDbEntity
  8
2
  6
Continuous
 62
     7
370
     9
100
AcDbText
 10
259.7361286268233
 20
173.8501591873151
 30
0.0
 40
5.0
  1
I
 41
0.5
 11
259.7361286268233
 21
173.8501591873151
 31
0.0
100
AcDbText
 73
     1
  0
TEXT
  5
C200
330
C158
100
AcDbEntity
  8
2
  6
Continuous
 62
     7
370
     9
100
AcDbText
 10
260.0236336268233
 20
164.6004541873151
 30
0.0
 40
4.0
  1
8
 41
0.5
 11
260.0236336268233
 21
164.6004541873151
 31
0.0
100
AcDbText
 73
     1
  0
TEXT
  5
C201
330
C158
100
AcDbEntity
  8
2
  6
Continuous
 62
     7
370
     9
100
AcDbText
 10
259.2973046268233
 20
148.9843711873151
 30
0.0
 40
4.0
  1
10
 41
0.5
 11
259.2973046268233
 21
148.9843711873151
 31
0.0
100
AcDbText
 73
     1
  0
TEXT
  5
C202
330
C158
100
AcDbEntity
  8
2
  6
Continuous
 62
     7
370
     9
100
AcDbText
 10
259.1157216268233
 20
135.0025291873151
 30
0.0
 40
4.0
  1
12
 41
0.5
 11
259.1157216268233
 21
135.0025291873151
 31
0.0
100
AcDbText
 73
     1
  0
DIMENSION
  5
C203
330
C158
100
AcDbEntity
  8
2
  6
Continuous
 62
     7
370
     9
100
AcDbDimension
  2
*D8
 10
129.3659116268232
 20
111.5207421873151
 30
0.0
 11
130.3659116268232
 21
113.5207421873151
 31
0.0
 12
-13.68421137317671
 22
-8.152121812684868
 32
0.0
  1
(H)
 71
     5
 42
0.0
  3
STANDARD
100
AcDbAlignedDimension
 13
129.3659116268232
 23
98.69542818731513
 33
0.0
 14
131.3659116268232
 24
105.1954281873151
 34
0.0
100
AcDbRotatedDimension
  0
TEXT
  5
C204
330
C158
100
AcDbEntity
  8
2
  6
Continuous
 62
     7
370
     9
100
AcDbText
 10
188.4199476268233
 20
145.2715221873151
 30
0.0
 40
4.0
  1
M5
 41
0.5
 11
188.4199476268233
 21
145.2715221873151
 31
0.0
100
AcDbText
 73
     1
  0
LINE
  5
C205
330
C158
100
AcDbEntity
  8
2
  6
Continuous
 62
     7
370
     9
100
AcDbLine
 10
185.5901306268233
 20
152.3741941873151
 30
0.0
 11
205.5901306268233
 21
152.3741941873151
 31
0.0
  0
TEXT
  5
C206
330
C158
100
AcDbEntity
  8
2
  6
Continuous
 62
     7
370
     9
100
AcDbText
 10
188.4199476268233
 20
155.0769701873151
 30
0.0
 40
4.0
  1
M4
 41
0.5
 11
188.4199476268233
 21
155.0769701873151
 31
0.0
100
AcDbText
 73
     1
  0
LINE
  5
C207
330
C158
100
AcDbEntity
  8
2
  6
Continuous
 62
     7
370
     9
100
AcDbLine
 10
136.3724866268233
 20
18.77120618731513
 30
0.0
 11
148.4862066268233
 21
18.77120618731513
 31
0.0
  0
LINE
  5
C208
330
C158
100
AcDbEntity
  8
2
  6
Continuous
 62
     7
370
     9
100
AcDbLine
 10
136.3383026268233
 20
16.99367218731513
 30
0.0
 11
148.4520236268233
 21
16.99367218731513
 31
0.0
  0
INSERT
  5
C209
330
C158
100
AcDbEntity
  8
0
  6
Continuous
 62
     7
370
     9
100
AcDbBlockReference
  2
*G1027
 10
-13.68421137317671
 20
-8.152121812684868
 30
0.0
  0
LINE
  5
C20A
330
C158
100
AcDbEntity
  8
2
  6
Continuous
 62
     7
370
     9
100
AcDbLine
 10
145.5901306268233
 20
152.3741941873151
 30
0.0
 11
175.5901306268233
 21
152.3741941873151
 31
0.0
  0
ENDBLK
  5
C20C
330
C158
100
AcDbEntity
  8
0
100
AcDbBlockEnd
  0
BLOCK
  5
C20F
330
C20E
100
AcDbEntity
  8
0
100
AcDbBlockBegin
  2
*D30
 70
     1
 10
0.0
 20
0.0
 30
0.0
  3
*D30
  1

  0
LINE
  5
C210
330
C20E
100
AcDbEntity
  8
2
  6
Continuous
 62
     3
370
    -2
100
AcDbLine
 10
446.0172902262273
 20
111.9486989128615
 30
0.0
 11
459.1445462262274
 21
111.9486989128615
 31
0.0
  0
LINE
  5
C211
330
C20E
100
AcDbEntity
  8
2
  6
Continuous
 62
     3
370
    -2
100
AcDbLine
 10
446.0172902262273
 20
96.94869891286151
 30
0.0
 11
459.1445462262274
 21
96.94869891286151
 31
0.0
  0
LINE
  5
C212
330
C20E
100
AcDbEntity
  8
2
  6
Continuous
 62
     3
370
    -2
100
AcDbLine
 10
457.1445462262273
 20
108.9486989128615
 30
0.0
 11
457.1445462262273
 21
99.9486989128615
 31
0.0
  0
INSERT
  5
C213
330
C20E
100
AcDbEntity
  8
2
  6
Continuous
 62
     3
370
    -2
100
AcDbBlockReference
  2
_OPEN30
 10
457.1445462262273
 20
111.9486989128615
 30
0.0
 41
3.0
 42
3.0
 43
3.0
 50
90.0
  0
INSERT
  5
C214
330
C20E
100
AcDbEntity
  8
2
  6
Continuous
 62
     3
370
    -2
100
AcDbBlockReference
  2
_OPEN30
 10
457.1445462262273
 20
96.94869891286151
 30
0.0
 41
3.0
 42
3.0
 43
3.0
 50
270.0
  0
MTEXT
  5
C215
330
C20E
100
AcDbEntity
  8
2
  6
Continuous
 62
     2
370
     9
100
AcDbMText
 10
455.0445462262273
 20
104.4486989128615
 30
0.0
 40
2.799999999999999
 41
0.0
 71
     5
 72
     1
  1
\A1;φA
  7
DIM
 11
0.0000000000000001
 21
1.0
 31
0.0
 73
     1
 44
1.0
1001
ACAD
1000
MTEXTBEGIN
1070
    73
1070
     1
1070
    44
1040
1.0
1070
    74
1070
     0
1000
MTEXTEND
  0
POINT
  5
C216
330
C20E
100
AcDbEntity
  8
Defpoints
  6
Continuous
 62
     0
100
AcDbPoint
 10
445.0172902262274
 20
111.9486989128615
 30
0.0
  0
POINT
  5
C217
330
C20E
100
AcDbEntity
  8
Defpoints
  6
Continuous
 62
     0
100
AcDbPoint
 10
445.0172902262274
 20
96.94869891286151
 30
0.0
  0
POINT
  5
C218
330
C20E
100
AcDbEntity
  8
Defpoints
  6
Continuous
 62
     0
100
AcDbPoint
 10
457.1445462262273
 20
96.94869891286151
 30
0.0
  0
ENDBLK
  5
C219
330
C20E
100
AcDbEntity
  8
0
100
AcDbBlockEnd
  0
BLOCK
  5
C21B
330
C21A
100
AcDbEntity
  8
0
100
AcDbBlockBegin
  2
*D31
 70
     1
 10
0.0
 20
0.0
 30
0.0
  3
*D31
  1

  0
LINE
  5
C21C
330
C21A
100
AcDbEntity
  8
2
  6
Continuous
 62
     3
370
    -2
100
AcDbLine
 10
434.5172902262273
 20
96.4486989128615
 30
0.0
 11
434.5172902262273
 21
87.3980219128615
 31
0.0
  0
LINE
  5
C21D
330
C21A
100
AcDbEntity
  8
2
  6
Continuous
 62
     3
370
    -2
100
AcDbLine
 10
436.5172902262274
 20
95.24869891286149
 30
0.0
 11
436.5172902262274
 21
87.3980219128615
 31
0.0
  0
LINE
  5
C21E
330
C21A
100
AcDbEntity
  8
2
  6
Continuous
 62
     3
370
    -2
100
AcDbLine
 10
431.5172902262274
 20
89.39802191286151
 30
0.0
 11
428.5172902262273
 21
89.39802191286151
 31
0.0
  0
LINE
  5
C21F
330
C21A
100
AcDbEntity
  8
2
  6
Continuous
 62
     3
370
    -2
100
AcDbLine
 10
439.5172902262273
 20
89.39802191286151
 30
0.0
 11
445.783956892894
 21
89.39802191286151
 31
0.0
  0
LINE
  5
C220
330
C21A
100
AcDbEntity
  8
2
  6
Continuous
 62
     3
370
    -2
100
AcDbLine
 10
434.5172902262273
 20
89.39802191286151
 30
0.0
 11
436.5172902262274
 21
89.39802191286151
 31
0.0
  0
INSERT
  5
C221
330
C21A
100
AcDbEntity
  8
2
  6
Continuous
 62
     3
370
    -2
100
AcDbBlockReference
  2
_OPEN30
 10
434.5172902262273
 20
89.39802191286151
 30
0.0
 41
3.0
 42
3.0
 43
3.0
  0
INSERT
  5
C222
330
C21A
100
AcDbEntity
  8
2
  6
Continuous
 62
     3
370
    -2
100
AcDbBlockReference
  2
_OPEN30
 10
436.5172902262274
 20
89.39802191286151
 30
0.0
 41
3.0
 42
3.0
 43
3.0
 50
180.0
  0
MTEXT
  5
C223
330
C21A
100
AcDbEntity
  8
2
  6
Continuous
 62
     2
370
     9
100
AcDbMText
 10
444.1506235595607
 20
91.4980219128615
 30
0.0
 40
2.799999999999999
 41
0.0
 71
     5
 72
     1
  1
\A1;F
  7
DIM
 73
     1
 44
1.0
1001
ACAD
1000
MTEXTBEGIN
1070
    73
1070
     1
1070
    44
1040
1.0
1070
    74
1070
     0
1000
MTEXTEND
  0
POINT
  5
C224
330
C21A
100
AcDbEntity
  8
Defpoints
  6
Continuous
 62
     0
100
AcDbPoint
 10
434.5172902262273
 20
97.4486989128615
 30
0.0
  0
POINT
  5
C225
330
C21A
100
AcDbEntity
  8
Defpoints
  6
Continuous
 62
     0
100
AcDbPoint
 10
436.5172902262274
 20
96.24869891286151
 30
0.0
  0
POINT
  5
C226
330
C21A
100
AcDbEntity
  8
Defpoints
  6
Continuous
 62
     0
100
AcDbPoint
 10
436.5172902262274
 20
89.39802191286151
 30
0.0
  0
ENDBLK
  5
C227
330
C21A
100
AcDbEntity
  8
0
100
AcDbBlockEnd
  0
BLOCK
  5
C229
330
C228
100
AcDbEntity
  8
0
100
AcDbBlockBegin
  2
*D32
 70
     1
 10
0.0
 20
0.0
 30
0.0
  3
*D32
  1

  0
LINE
  5
C22A
330
C228
100
AcDbEntity
  8
2
  6
Continuous
 62
     3
370
    -2
100
AcDbLine
 10
446.5172902262273
 20
105.3486989128615
 30
0.0
 11
452.9034932262273
 21
105.3486989128615
 31
0.0
  0
LINE
  5
C22B
330
C228
100
AcDbEntity
  8
2
  6
Continuous
 62
     3
370
    -2
100
AcDbLine
 10
446.5172902262273
 20
103.5486989128615
 30
0.0
 11
452.9034932262273
 21
103.5486989128615
 31
0.0
  0
LINE
  5
C22C
330
C228
100
AcDbEntity
  8
2
  6
Continuous
 62
     3
370
    -2
100
AcDbLine
 10
450.9034932262274
 20
108.3486989128615
 30
0.0
 11
450.9034932262274
 21
111.3486989128615
 31
0.0
  0
LINE
  5
C22D
330
C228
100
AcDbEntity
  8
2
  6
Continuous
 62
     3
370
    -2
100
AcDbLine
 10
450.9034932262274
 20
100.5486989128615
 30
0.0
 11
450.9034932262274
 21
94.28203224619485
 31
0.0
  0
LINE
  5
C22E
330
C228
100
AcDbEntity
  8
2
  6
Continuous
 62
     3
370
    -2
100
AcDbLine
 10
450.9034932262274
 20
105.3486989128615
 30
0.0
 11
450.9034932262274
 21
103.5486989128615
 31
0.0
  0
INSERT
  5
C22F
330
C228
100
AcDbEntity
  8
2
  6
Continuous
 62
     3
370
    -2
100
AcDbBlockReference
  2
_OPEN30
 10
450.9034932262274
 20
105.3486989128615
 30
0.0
 41
3.0
 42
3.0
 43
3.0
 50
270.0
  0
INSERT
  5
C230
330
C228
100
AcDbEntity
  8
2
  6
Continuous
 62
     3
370
    -2
100
AcDbBlockReference
  2
_OPEN30
 10
450.9034932262274
 20
103.5486989128615
 30
0.0
 41
3.0
 42
3.0
 43
3.0
 50
90.0
  0
MTEXT
  5
C231
330
C228
100
AcDbEntity
  8
2
  6
Continuous
 62
     2
370
     9
100
AcDbMText
 10
448.8034932262273
 20
95.91536557952824
 30
0.0
 40
2.799999999999999
 41
0.0
 71
     5
 72
     1
  1
\A1;G
  7
DIM
 11
0.0000000000000001
 21
1.0
 31
0.0
 73
     1
 44
1.0
1001
ACAD
1000
MTEXTBEGIN
1070
    73
1070
     1
1070
    44
1040
1.0
1070
    74
1070
     0
1000
MTEXTEND
  0
POINT
  5
C232
330
C228
100
AcDbEntity
  8
Defpoints
  6
Continuous
 62
     0
100
AcDbPoint
 10
445.5172902262273
 20
105.3486989128615
 30
0.0
  0
POINT
  5
C233
330
C228
100
AcDbEntity
  8
Defpoints
  6
Continuous
 62
     0
100
AcDbPoint
 10
445.5172902262273
 20
103.5486989128615
 30
0.0
  0
POINT
  5
C234
330
C228
100
AcDbEntity
  8
Defpoints
  6
Continuous
 62
     0
100
AcDbPoint
 10
450.9034932262274
 20
103.5486989128615
 30
0.0
  0
ENDBLK
  5
C235
330
C228
100
AcDbEntity
  8
0
100
AcDbBlockEnd
  0
BLOCK
  5
C237
330
C236
100
AcDbEntity
  8
0
100
AcDbBlockBegin
  2
*D33
 70
     1
 10
0.0
 20
0.0
 30
0.0
  3
*D33
  1

  0
LINE
  5
C238
330
C236
100
AcDbEntity
  8
2
  6
Continuous
 62
     3
370
    -2
100
AcDbLine
 10
424.5172902262273
 20
98.44869891286151
 30
0.0
 11
424.5172902262273
 21
89.7557279128615
 31
0.0
  0
LINE
  5
C239
330
C236
100
AcDbEntity
  8
2
  6
Continuous
 62
     3
370
    -2
100
AcDbLine
 10
425.5172902262273
 20
98.44869891286151
 30
0.0
 11
425.5172902262273
 21
89.7557279128615
 31
0.0
  0
LINE
  5
C23A
330
C236
100
AcDbEntity
  8
2
  6
Continuous
 62
     3
370
    -2
100
AcDbLine
 10
421.5172902262273
 20
91.7557279128615
 30
0.0
 11
418.5172902262273
 21
91.7557279128615
 31
0.0
  0
LINE
  5
C23B
330
C236
100
AcDbEntity
  8
2
  6
Continuous
 62
     3
370
    -2
100
AcDbLine
 10
428.5172902262273
 20
91.7557279128615
 30
0.0
 11
434.3172902262273
 21
91.7557279128615
 31
0.0
  0
LINE
  5
C23C
330
C236
100
AcDbEntity
  8
2
  6
Continuous
 62
     3
370
    -2
100
AcDbLine
 10
424.5172902262273
 20
91.7557279128615
 30
0.0
 11
425.5172902262273
 21
91.7557279128615
 31
0.0
  0
INSERT
  5
C23D
330
C236
100
AcDbEntity
  8
2
  6
Continuous
 62
     3
370
    -2
100
AcDbBlockReference
  2
_OPEN30
 10
424.5172902262273
 20
91.7557279128615
 30
0.0
 41
3.0
 42
3.0
 43
3.0
  0
INSERT
  5
C23E
330
C236
100
AcDbEntity
  8
2
  6
Continuous
 62
     3
370
    -2
100
AcDbBlockReference
  2
_OPEN30
 10
425.5172902262273
 20
91.7557279128615
 30
0.0
 41
3.0
 42
3.0
 43
3.0
 50
180.0
  0
MTEXT
  5
C23F
330
C236
100
AcDbEntity
  8
2
  6
Continuous
 62
     2
370
     9
100
AcDbMText
 10
432.9172902262273
 20
93.85572791286149
 30
0.0
 40
2.799999999999999
 41
0.0
 71
     5
 72
     1
  1
\A1;1
  7
DIM
 73
     1
 44
1.0
1001
ACAD
1000
MTEXTBEGIN
1070
    73
1070
     1
1070
    44
1040
1.0
1070
    74
1070
     0
1000
MTEXTEND
  0
POINT
  5
C240
330
C236
100
AcDbEntity
  8
Defpoints
  6
Continuous
 62
     0
100
AcDbPoint
 10
424.5172902262273
 20
99.44869891286151
 30
0.0
  0
POINT
  5
C241
330
C236
100
AcDbEntity
  8
Defpoints
  6
Continuous
 62
     0
100
AcDbPoint
 10
425.5172902262273
 20
99.44869891286151
 30
0.0
  0
POINT
  5
C242
330
C236
100
AcDbEntity
  8
Defpoints
  6
Continuous
 62
     0
100
AcDbPoint
 10
425.5172902262273
 20
91.7557279128615
 30
0.0
  0
ENDBLK
  5
C243
330
C236
100
AcDbEntity
  8
0
100
AcDbBlockEnd
  0
BLOCK
  5
C245
330
C244
100
AcDbEntity
  8
0
100
AcDbBlockBegin
  2
*D34
 70
     1
 10
0.0
 20
0.0
 30
0.0
  3
*D34
  1

  0
LINE
  5
C246
330
C244
100
AcDbEntity
  8
2
  6
Continuous
 62
     3
370
    -2
100
AcDbLine
 10
422.5172902262273
 20
108.4486989128615
 30
0.0
 11
413.0186842262274
 21
108.4486989128615
 31
0.0
  0
LINE
  5
C247
330
C244
100
AcDbEntity
  8
2
  6
Continuous
 62
     3
370
    -2
100
AcDbLine
 10
422.5172902262273
 20
100.4486989128615
 30
0.0
 11
413.0186842262274
 21
100.4486989128615
 31
0.0
  0
LINE
  5
C248
330
C244
100
AcDbEntity
  8
2
  6
Continuous
 62
     3
370
    -2
100
AcDbLine
 10
415.0186842262273
 20
105.4486989128615
 30
0.0
 11
415.0186842262273
 21
103.4486989128615
 31
0.0
  0
INSERT
  5
C249
330
C244
100
AcDbEntity
  8
2
  6
Continuous
 62
     3
370
    -2
100
AcDbBlockReference
  2
_OPEN30
 10
415.0186842262273
 20
108.4486989128615
 30
0.0
 41
3.0
 42
3.0
 43
3.0
 50
90.0
  0
INSERT
  5
C24A
330
C244
100
AcDbEntity
  8
2
  6
Continuous
 62
     3
370
    -2
100
AcDbBlockReference
  2
_OPEN30
 10
415.0186842262273
 20
100.4486989128615
 30
0.0
 41
3.0
 42
3.0
 43
3.0
 50
270.0
  0
MTEXT
  5
C24B
330
C244
100
AcDbEntity
  8
2
  6
Continuous
 62
     2
370
     9
100
AcDbMText
 10
412.9186842262273
 20
104.4486989128615
 30
0.0
 40
2.799999999999999
 41
0.0
 71
     5
 72
     1
  1
\A1;φI
  7
DIM
 11
0.0000000000000001
 21
1.0
 31
0.0
 73
     1
 44
1.0
1001
ACAD
1000
MTEXTBEGIN
1070
    73
1070
     1
1070
    44
1040
1.0
1070
    74
1070
     0
1000
MTEXTEND
  0
POINT
  5
C24C
330
C244
100
AcDbEntity
  8
Defpoints
  6
Continuous
 62
     0
100
AcDbPoint
 10
423.5172902262274
 20
108.4486989128615
 30
0.0
  0
POINT
  5
C24D
330
C244
100
AcDbEntity
  8
Defpoints
  6
Continuous
 62
     0
100
AcDbPoint
 10
423.5172902262274
 20
100.4486989128615
 30
0.0
  0
POINT
  5
C24E
330
C244
100
AcDbEntity
  8
Defpoints
  6
Continuous
 62
     0
100
AcDbPoint
 10
415.0186842262273
 20
100.4486989128615
 30
0.0
  0
ENDBLK
  5
C24F
330
C244
100
AcDbEntity
  8
0
100
AcDbBlockEnd
  0
BLOCK
  5
C299
330
C250
100
AcDbEntity
  8
0
100
AcDbBlockBegin
  2
A$C58B951FD
 70
     0
 10
0.0
 20
0.0
 30
0.0
  3
A$C58B951FD
  1

  0
LINE
  5
C251
330
C250
100
AcDbEntity
  8
1
  6
Continuous
 62
     7
370
     9
100
AcDbLine
 10
25.0
 20
0.9000000000000056
 30
0.0
 11
25.0
 21
7.0
 31
0.0
  0
LINE
  5
C252
330
C250
100
AcDbEntity
  8
1
  6
Continuous
 62
     7
370
     9
100
AcDbLine
 10
17.30000000000001
 20
1.400000000000005
 30
0.0
 11
24.5
 21
1.400000000000005
 31
0.0
  0
LINE
  5
C253
330
C250
100
AcDbEntity
  8
1
  6
Continuous
 62
     7
370
     9
100
AcDbLine
 10
17.30000000000001
 20
0.5
 30
0.0
 11
23.0
 21
0.5
 31
0.0
  0
LINE
  5
C254
330
C250
100
AcDbEntity
  8
1
  6
Continuous
 62
     7
370
     9
100
AcDbLine
 10
17.30000000000001
 20
-0.5
 30
0.0
 11
23.0
 21
-0.5
 31
0.0
  0
LINE
  5
C255
330
C250
100
AcDbEntity
  8
1
  6
Continuous
 62
     7
370
     9
100
AcDbLine
 10
17.30000000000001
 20
-1.399999999999991
 30
0.0
 11
24.5
 21
-1.399999999999991
 31
0.0
  0
LINE
  5
C256
330
C250
100
AcDbEntity
  8
1
  6
Continuous
 62
     7
370
     9
100
AcDbLine
 10
17.30000000000001
 20
-2.200000000000002
 30
0.0
 11
24.5
 21
-2.200000000000002
 31
0.0
  0
LINE
  5
C257
330
C250
100
AcDbEntity
  8
1
  6
Continuous
 62
     7
370
     9
100
AcDbLine
 10
17.30000000000001
 20
-3.0
 30
0.0
 11
24.5
 21
-3.0
 31
0.0
  0
LINE
  5
C258
330
C250
100
AcDbEntity
  8
1
  6
Continuous
 62
     7
370
     9
100
AcDbLine
 10
17.30000000000001
 20
-3.700000000000002
 30
0.0
 11
24.5
 21
-3.700000000000002
 31
0.0
  0
LINE
  5
C259
330
C250
100
AcDbEntity
  8
1
  6
Continuous
 62
     7
370
     9
100
AcDbLine
 10
17.30000000000001
 20
-4.299999999999997
 30
0.0
 11
24.5
 21
-4.299999999999997
 31
0.0
  0
LINE
  5
C25A
330
C250
100
AcDbEntity
  8
1
  6
Continuous
 62
     7
370
     9
100
AcDbLine
 10
17.30000000000001
 20
-4.899999999999991
 30
0.0
 11
24.5
 21
-4.899999999999991
 31
0.0
  0
LINE
  5
C25B
330
C250
100
AcDbEntity
  8
1
  6
Continuous
 62
     7
370
     9
100
AcDbLine
 10
17.30000000000001
 20
-5.5
 30
0.0
 11
24.5
 21
-5.5
 31
0.0
  0
LINE
  5
C25C
330
C250
100
AcDbEntity
  8
1
  6
Continuous
 62
     7
370
     9
100
AcDbLine
 10
17.30000000000001
 20
-6.0
 30
0.0
 11
24.5
 21
-6.0
 31
0.0
  0
LINE
  5
C25D
330
C250
100
AcDbEntity
  8
1
  6
Continuous
 62
     7
370
     9
100
AcDbLine
 10
17.30000000000001
 20
-6.5
 30
0.0
 11
24.5
 21
-6.5
 31
0.0
  0
LINE
  5
C25E
330
C250
100
AcDbEntity
  8
1
  6
Continuous
 62
     7
370
     9
100
AcDbLine
 10
17.30000000000001
 20
-7.0
 30
0.0
 11
24.5
 21
-7.0
 31
0.0
  0
LINE
  5
C25F
330
C250
100
AcDbEntity
  8
1
  6
Continuous
 62
     7
370
     9
100
AcDbLine
 10
17.30000000000001
 20
-7.399999999999991
 30
0.0
 11
24.5
 21
-7.399999999999991
 31
0.0
  0
LINE
  5
C260
330
C250
100
AcDbEntity
  8
1
  6
Continuous
 62
     7
370
     9
100
AcDbLine
 10
17.30000000000001
 20
2.200000000000002
 30
0.0
 11
24.5
 21
2.200000000000002
 31
0.0
  0
LINE
  5
C261
330
C250
100
AcDbEntity
  8
1
  6
Continuous
 62
     7
370
     9
100
AcDbLine
 10
17.30000000000001
 20
3.0
 30
0.0
 11
24.5
 21
3.0
 31
0.0
  0
LINE
  5
C262
330
C250
100
AcDbEntity
  8
1
  6
Continuous
 62
     7
370
     9
100
AcDbLine
 10
17.30000000000001
 20
3.700000000000002
 30
0.0
 11
24.5
 21
3.700000000000002
 31
0.0
  0
LINE
  5
C263
330
C250
100
AcDbEntity
  8
1
  6
Continuous
 62
     7
370
     9
100
AcDbLine
 10
17.30000000000001
 20
4.299999999999997
 30
0.0
 11
24.5
 21
4.299999999999997
 31
0.0
  0
LINE
  5
C264
330
C250
100
AcDbEntity
  8
1
  6
Continuous
 62
     7
370
     9
100
AcDbLine
 10
17.30000000000001
 20
7.5
 30
0.0
 11
17.30000000000001
 21
-7.5
 31
0.0
  0
LINE
  5
C265
330
C250
100
AcDbEntity
  8
1
  6
Continuous
 62
     7
370
     9
100
AcDbLine
 10
17.30000000000001
 20
-7.5
 30
0.0
 11
17.0
 21
-7.200000000000002
 31
0.0
  0
LINE
  5
C266
330
C250
100
AcDbEntity
  8
1
  6
Continuous
 62
     7
370
     9
100
AcDbLine
 10
17.0
 20
7.200000000000002
 30
0.0
 11
17.30000000000001
 21
7.5
 31
0.0
  0
LINE
  5
C267
330
C250
100
AcDbEntity
  8
1
  6
Continuous
 62
     7
370
     9
100
AcDbLine
 10
24.5
 20
-0.8999999999999914
 30
0.0
 11
24.5
 21
-7.5
 31
0.0
  0
LINE
  5
C268
330
C250
100
AcDbEntity
  8
1
  6
Continuous
 62
     7
370
     9
100
AcDbLine
 10
24.5
 20
7.5
 30
0.0
 11
24.5
 21
0.9000000000000056
 31
0.0
  0
LINE
  5
C269
330
C250
100
AcDbEntity
  8
1
  6
Continuous
 62
     7
370
     9
100
AcDbLine
 10
17.30000000000001
 20
4.900000000000005
 30
0.0
 11
24.5
 21
4.900000000000005
 31
0.0
  0
LINE
  5
C26A
330
C250
100
AcDbEntity
  8
1
  6
Continuous
 62
     7
370
     9
100
AcDbLine
 10
25.0
 20
-7.0
 30
0.0
 11
24.5
 21
-7.5
 31
0.0
  0
LINE
  5
C26B
330
C250
100
AcDbEntity
  8
1
  6
Continuous
 62
     7
370
     9
100
AcDbLine
 10
0.0
 20
0.0
 30
0.0
 11
2.5
 21
-2.5
 31
0.0
  0
LINE
  5
C26C
330
C250
100
AcDbEntity
  8
1
  6
Continuous
 62
     7
370
     9
100
AcDbLine
 10
2.5
 20
2.5
 30
0.0
 11
0.0
 21
0.0
 31
0.0
  0
LINE
  5
C26D
330
C250
100
AcDbEntity
  8
1
  6
Continuous
 62
     7
370
     9
100
AcDbLine
 10
17.30000000000001
 20
5.5
 30
0.0
 11
24.5
 21
5.5
 31
0.0
  0
LINE
  5
C26E
330
C250
100
AcDbEntity
  8
1
  6
Continuous
 62
     7
370
     9
100
AcDbLine
 10
17.30000000000001
 20
6.0
 30
0.0
 11
24.5
 21
6.0
 31
0.0
  0
LINE
  5
C26F
330
C250
100
AcDbEntity
  8
1
  6
Continuous
 62
     7
370
     9
100
AcDbLine
 10
17.30000000000001
 20
6.5
 30
0.0
 11
24.5
 21
6.5
 31
0.0
  0
LINE
  5
C270
330
C250
100
AcDbEntity
  8
1
  6
Continuous
 62
     7
370
     9
100
AcDbLine
 10
17.30000000000001
 20
7.0
 30
0.0
 11
24.5
 21
7.0
 31
0.0
  0
LINE
  5
C271
330
C250
100
AcDbEntity
  8
1
  6
Continuous
 62
     7
370
     9
100
AcDbLine
 10
17.30000000000001
 20
7.400000000000005
 30
0.0
 11
24.5
 21
7.400000000000005
 31
0.0
  0
LINE
  5
C272
330
C250
100
AcDbEntity
  8
1
  6
Continuous
 62
     7
370
     9
100
AcDbLine
 10
23.0
 20
-0.8999999999999914
 30
0.0
 11
25.0
 21
-0.8999999999999914
 31
0.0
  0
LINE
  5
C273
330
C250
100
AcDbEntity
  8
1
  6
Continuous
 62
     7
370
     9
100
AcDbLine
 10
23.0
 20
0.9000000000000056
 30
0.0
 11
23.0
 21
-0.8999999999999914
 31
0.0
  0
LINE
  5
C274
330
C250
100
AcDbEntity
  8
1
  6
Continuous
 62
     7
370
     9
100
AcDbLine
 10
25.0
 20
0.9000000000000056
 30
0.0
 11
23.0
 21
0.9000000000000056
 31
0.0
  0
LINE
  5
C275
330
C250
100
AcDbEntity
  8
1
  6
Continuous
 62
     7
370
     9
100
AcDbLine
 10
24.5
 20
7.5
 30
0.0
 11
17.30000000000001
 21
7.5
 31
0.0
  0
LINE
  5
C276
330
C250
100
AcDbEntity
  8
1
  6
Continuous
 62
     7
370
     9
100
AcDbLine
 10
25.0
 20
-7.0
 30
0.0
 11
25.0
 21
-0.8999999999999914
 31
0.0
  0
LINE
  5
C277
330
C250
100
AcDbEntity
  8
1
  6
Continuous
 62
     7
370
     9
100
AcDbLine
 10
17.30000000000001
 20
-7.5
 30
0.0
 11
24.5
 21
-7.5
 31
0.0
  0
LINE
  5
C278
330
C250
100
AcDbEntity
  8
1
  6
Continuous
 62
     7
370
     9
100
AcDbLine
 10
17.0
 20
7.200000000000002
 30
0.0
 11
17.0
 21
-7.200000000000002
 31
0.0
  0
LINE
  5
C279
330
C250
100
AcDbEntity
  8
1
  6
Continuous
 62
     7
370
     9
100
AcDbLine
 10
15.0
 20
-6.0
 30
0.0
 11
17.0
 21
-6.0
 31
0.0
  0
LINE
  5
C27A
330
C250
100
AcDbEntity
  8
1
  6
Continuous
 62
     7
370
     9
100
AcDbLine
 10
15.0
 20
6.0
 30
0.0
 11
15.0
 21
-6.0
 31
0.0
  0
LINE
  5
C27B
330
C250
100
AcDbEntity
  8
1
  6
Continuous
 62
     7
370
     9
100
AcDbLine
 10
17.0
 20
6.0
 30
0.0
 11
15.0
 21
6.0
 31
0.0
  0
LINE
  5
C27C
330
C250
100
AcDbEntity
  8
1
  6
Continuous
 62
     7
370
     9
100
AcDbLine
 10
24.5
 20
7.5
 30
0.0
 11
25.0
 21
7.0
 31
0.0
  0
LINE
  5
C27D
330
C250
100
AcDbEntity
  8
1
  6
Continuous
 62
     7
370
     9
100
AcDbLine
 10
2.5
 20
2.5
 30
0.0
 11
2.5
 21
-2.5
 31
0.0
  0
LINE
  5
C27E
330
C250
100
AcDbEntity
  8
1
  6
CENTER
 62
     7
370
     9
100
AcDbLine
 10
-1.889816999999993
 20
0.0
 30
0.0
 11
27.5
 21
0.0
 31
0.0
  0
LINE
  5
C27F
330
C250
100
AcDbEntity
  8
1
  6
Continuous
 62
     7
370
     9
100
AcDbLine
 10
13.70000000000004
 20
-2.149999999999991
 30
0.0
 11
14.05000000000001
 21
-2.5
 31
0.0
  0
LINE
  5
C280
330
C250
100
AcDbEntity
  8
1
  6
Continuous
 62
     7
370
     9
100
AcDbLine
 10
14.05000000000001
 20
2.5
 30
0.0
 11
13.70000000000004
 21
2.150000000000005
 31
0.0
  0
LINE
  5
C281
330
C250
100
AcDbEntity
  8
1
  6
Continuous
 62
     7
370
     9
100
AcDbLine
 10
13.70000000000004
 20
-2.5
 30
0.0
 11
13.70000000000004
 21
2.5
 31
0.0
  0
DIMENSION
  5
C282
330
C250
100
AcDbEntity
  8
2
  6
Continuous
 62
     7
370
     9
100
AcDbDimension
  2
*D30
 10
37.62725599999999
 20
-7.5
 30
0.0
 11
35.52725599999997
 21
0.0000000000000711
 31
0.0
 12
-419.5172902262274
 22
-104.4486989128615
 32
0.0
  1
φA
 71
     5
 42
15.0
  3
STANDARD
100
AcDbAlignedDimension
 13
25.5
 23
7.5
 33
0.0
 14
25.5
 24
-7.5
 34
0.0
 50
90.0
100
AcDbRotatedDimension
  0
DIMENSION
  5
C283
330
C250
100
AcDbEntity
  8
2
  6
Continuous
 62
     7
370
     9
100
AcDbDimension
  2
*D31
 10
17.0
 20
-15.05067699999999
 30
0.0
 11
24.63333333333333
 21
-12.950677
 31
0.0
 12
-419.5172902262274
 22
-104.4486989128615
 32
0.0
  1
F
 71
     5
 42
2.0
  3
STANDARD
100
AcDbAlignedDimension
 13
15.0
 23
-7.0
 33
0.0
 14
17.0
 24
-8.200000000000002
 34
0.0
100
AcDbRotatedDimension
  0
DIMENSION
  5
C284
330
C250
100
AcDbEntity
  8
2
  6
Continuous
 62
     7
370
     9
100
AcDbDimension
  2
*D32
 10
31.38620300000003
 20
-0.8999999999999914
 30
0.0
 11
29.286203
 21
-8.53333333333326
 31
0.0
 12
-419.5172902262274
 22
-104.4486989128615
 32
0.0
  1
G
 71
     5
 42
1.799999999999997
  3
STANDARD
100
AcDbAlignedDimension
 13
26.0
 23
0.9000000000000056
 33
0.0
 14
26.0
 24
-0.8999999999999914
 34
0.0
 50
90.0
100
AcDbRotatedDimension
  0
LINE
  5
C285
330
C250
100
AcDbEntity
  8
2
  6
Continuous
 62
     7
370
     9
100
AcDbLine
 10
5.0
 20
4.0
 30
0.0
 11
6.0
 21
4.0
 31
0.0
  0
LINE
  5
C286
330
C250
100
AcDbEntity
  8
2
  6
Continuous
 62
     7
370
     9
100
AcDbLine
 10
6.0
 20
4.0
 30
0.0
 11
6.0
 21
-4.0
 31
0.0
  0
LINE
  5
C287
330
C250
100
AcDbEntity
  8
2
  6
Continuous
 62
     7
370
     9
100
AcDbLine
 10
5.0
 20
-4.0
 30
0.0
 11
6.0
 21
-4.0
 31
0.0
  0
LINE
  5
C288
330
C250
100
AcDbEntity
  8
2
  6
Continuous
 62
     7
370
     9
100
AcDbLine
 10
5.0
 20
4.0
 30
0.0
 11
5.0
 21
-4.0
 31
0.0
  0
LINE
  5
C289
330
C250
100
AcDbEntity
  8
1
  6
Continuous
 62
     7
370
     9
100
AcDbLine
 10
2.5
 20
2.5
 30
0.0
 11
5.0
 21
2.5
 31
0.0
  0
LINE
  5
C28A
330
C250
100
AcDbEntity
  8
1
  6
Continuous
 62
     7
370
     9
100
AcDbLine
 10
6.0
 20
2.5
 30
0.0
 11
15.0
 21
2.5
 31
0.0
  0
LINE
  5
C28B
330
C250
100
AcDbEntity
  8
1
  6
Continuous
 62
     7
370
     9
100
AcDbLine
 10
2.150000000000034
 20
2.150000000000005
 30
0.0
 11
5.0
 21
2.150000000000005
 31
0.0
  0
LINE
  5
C28C
330
C250
100
AcDbEntity
  8
1
  6
Continuous
 62
     7
370
     9
100
AcDbLine
 10
6.130313999999998
 20
2.150000000000005
 30
0.0
 11
13.70000000000004
 21
2.150000000000005
 31
0.0
  0
LINE
  5
C28D
330
C250
100
AcDbEntity
  8
1
  6
Continuous
 62
     7
370
     9
100
AcDbLine
 10
2.150000000000034
 20
-2.149999999999991
 30
0.0
 11
5.0
 21
-2.149999999999991
 31
0.0
  0
LINE
  5
C28E
330
C250
100
AcDbEntity
  8
1
  6
Continuous
 62
     7
370
     9
100
AcDbLine
 10
6.0
 20
-2.149999999999991
 30
0.0
 11
13.70000000000004
 21
-2.149999999999991
 31
0.0
  0
LINE
  5
C28F
330
C250
100
AcDbEntity
  8
1
  6
Continuous
 62
     7
370
     9
100
AcDbLine
 10
2.5
 20
-2.5
 30
0.0
 11
5.0
 21
-2.5
 31
0.0
  0
LINE
  5
C290
330
C250
100
AcDbEntity
  8
1
  6
Continuous
 62
     7
370
     9
100
AcDbLine
 10
6.0
 20
-2.5
 30
0.0
 11
15.0
 21
-2.5
 31
0.0
  0
DIMENSION
  5
C291
330
C250
100
AcDbEntity
  8
2
  6
Continuous
 62
     7
370
     9
100
AcDbDimension
  2
*D33
 10
6.0
 20
-12.692971
 30
0.0
 11
13.39999999999998
 21
-10.592971
 31
0.0
 12
-419.5172902262274
 22
-104.4486989128615
 32
0.0
  1
1
 71
     5
  3
STANDARD
100
AcDbAlignedDimension
 13
5.0
 23
-5.0
 33
0.0
 14
6.0
 24
-5.0
 34
0.0
100
AcDbRotatedDimension
  0
DIMENSION
  5
C292
330
C250
100
AcDbEntity
  8
2
  6
Continuous
 62
     7
370
     9
100
AcDbDimension
  2
*D34
 10
-4.498605999999995
 20
-3.999999999999985
 30
0.0
 11
-6.598606000000017
 21
0.0000000000000711
 31
0.0
 12
-419.5172902262274
 22
-104.4486989128615
 32
0.0
  1
φI
 71
     5
 42
8.0
  3
STANDARD
100
AcDbAlignedDimension
 13
4.0
 23
4.0
 33
0.0
 14
4.0
 24
-4.0
 34
0.0
 50
90.0
100
AcDbRotatedDimension
  0
LINE
  5
C293
330
C250
100
AcDbEntity
  8
2
  6
Continuous
 62
     7
370
     9
100
AcDbLine
 10
10.502114
 20
2.5
 30
0.0
 11
9.138895000000047
 21
3.963431000000014
 31
0.0
  0
LINE
  5
C294
330
C250
100
AcDbEntity
  8
2
  6
Continuous
 62
     7
370
     9
100
AcDbLine
 10
10.502114
 20
2.5
 30
0.0
 11
10.053247
 21
4.448979000000008
 31
0.0
  0
LINE
  5
C295
330
C250
100
AcDbEntity
  8
2
  6
Continuous
 62
     7
370
     9
100
AcDbLine
 10
5.0
 20
4.0
 30
0.0
 11
3.120735000000024
 21
4.684368999999989
 31
0.0
  0
LINE
  5
C296
330
C250
100
AcDbEntity
  8
2
  6
Continuous
 62
     7
370
     9
100
AcDbLine
 10
5.0
 20
4.0
 30
0.0
 11
3.714693000000011
 21
5.532313999999985
 31
0.0
  0
ENDBLK
  5
C29A
330
C250
100
AcDbEntity
  8
0
100
AcDbBlockEnd
  0
BLOCK
  5
C504
330
C4FD
100
AcDbEntity
  8
0
100
AcDbBlockBegin
  2
*S36
 70
     1
 10
0.0
 20
0.0
 30
0.0
  3
*S36
  1

  0
LINE
  5
C4FE
330
C4FD
100
AcDbEntity
  8
AM_5
 62
     3
100
AcDbLine
 10
206.0028237620217
 20
94.50576721770152
 30
0.0
 11
182.9414904286884
 21
94.50576721770152
 31
0.0
  0
LINE
  5
C4FF
330
C4FD
100
AcDbEntity
  8
AM_5
 62
     3
100
AcDbLine
 10
182.9414904286884
 20
94.50576721770152
 30
0.0
 11
176.2014989459414
 21
87.45191461966811
 31
0.0
  0
LINE
  5
C500
330
C4FD
100
AcDbEntity
  8
AM_5
  6
Continuous
 62
     3
100
AcDbLine
 10
176.2014989459414
 20
87.45191461966811
 30
0.0
 11
174.8198216100448
 21
86.00589672922913
 31
0.0
  0
LINE
  5
C501
330
C4FD
100
AcDbEntity
  8
AM_5
  6
Continuous
 62
     3
100
AcDbLine
 10
175.8140396234728
 20
87.82213394266298
 30
0.0
 11
174.8198216100448
 21
86.00589672922913
 31
0.0
  0
LINE
  5
C502
330
C4FD
100
AcDbEntity
  8
AM_5
  6
Continuous
 62
     3
100
AcDbLine
 10
174.8198216100448
 20
86.00589672922913
 30
0.0
 11
176.5889582684101
 21
87.08169529667324
 31
0.0
  0
MTEXT
  5
C503
330
C4FD
100
AcDbEntity
  8
AM_5
 62
     2
100
AcDbMText
 10
206.0028237620217
 20
96.10576721770152
 30
0.0
 40
3.2
 41
0.0
 71
     9
 72
     5
  1
ナイロンワッシャ
 73
     1
 44
1.0
1001
ACAD
1000
MTEXTBEGIN
1070
    73
1070
     1
1070
    44
1040
1.0
1070
    74
1070
     0
1000
MTEXTEND
  0
ENDBLK
  5
C505
330
C4FD
100
AcDbEntity
  8
0
100
AcDbBlockEnd
  0
ENDSEC
  0
SECTION
  2
ENTITIES
  0
LINE
  5
B90B
330
1F
100
AcDbEntity
  8
AM_0
100
AcDbLine
 10
154.8198216100448
 20
82.90589672922914
 30
0.0
 11
154.8198216100448
 21
89.00589672922913
 31
0.0
  0
LINE
  5
B90C
330
1F
100
AcDbEntity
  8
AM_2
100
AcDbLine
 10
162.5198216100448
 20
83.40589672922915
 30
0.0
 11
155.3198216100448
 21
83.40589672922915
 31
0.0
  0
LINE
  5
B90D
330
1F
100
AcDbEntity
  8
AM_2
100
AcDbLine
 10
162.5198216100448
 20
82.50589672922913
 30
0.0
 11
156.8198216100448
 21
82.50589672922913
 31
0.0
  0
LINE
  5
B90E
330
1F
100
AcDbEntity
  8
AM_2
100
AcDbLine
 10
162.5198216100448
 20
81.50589672922913
 30
0.0
 11
156.8198216100448
 21
81.50589672922913
 31
0.0
  0
LINE
  5
B90F
330
1F
100
AcDbEntity
  8
AM_2
100
AcDbLine
 10
162.5198216100448
 20
80.60589672922914
 30
0.0
 11
155.3198216100448
 21
80.60589672922914
 31
0.0
  0
LINE
  5
B910
330
1F
100
AcDbEntity
  8
AM_2
100
AcDbLine
 10
162.5198216100448
 20
79.80589672922913
 30
0.0
 11
155.3198216100448
 21
79.80589672922913
 31
0.0
  0
LINE
  5
B911
330
1F
100
AcDbEntity
  8
AM_2
100
AcDbLine
 10
162.5198216100448
 20
79.00589672922913
 30
0.0
 11
155.3198216100448
 21
79.00589672922913
 31
0.0
  0
LINE
  5
B912
330
1F
100
AcDbEntity
  8
AM_2
100
AcDbLine
 10
162.5198216100448
 20
78.30589672922913
 30
0.0
 11
155.3198216100448
 21
78.30589672922913
 31
0.0
  0
LINE
  5
B913
330
1F
100
AcDbEntity
  8
AM_2
100
AcDbLine
 10
162.5198216100448
 20
77.70589672922914
 30
0.0
 11
155.3198216100448
 21
77.70589672922914
 31
0.0
  0
LINE
  5
B914
330
1F
100
AcDbEntity
  8
AM_2
100
AcDbLine
 10
162.5198216100448
 20
77.10589672922914
 30
0.0
 11
155.3198216100448
 21
77.10589672922914
 31
0.0
  0
LINE
  5
B915
330
1F
100
AcDbEntity
  8
AM_2
100
AcDbLine
 10
162.5198216100448
 20
76.50589672922913
 30
0.0
 11
155.3198216100448
 21
76.50589672922913
 31
0.0
  0
LINE
  5
B916
330
1F
100
AcDbEntity
  8
AM_2
100
AcDbLine
 10
162.5198216100448
 20
76.00589672922914
 30
0.0
 11
155.3198216100448
 21
76.00589672922914
 31
0.0
  0
LINE
  5
B917
330
1F
100
AcDbEntity
  8
AM_2
100
AcDbLine
 10
162.5198216100448
 20
75.50589672922914
 30
0.0
 11
155.3198216100448
 21
75.50589672922914
 31
0.0
  0
LINE
  5
B918
330
1F
100
AcDbEntity
  8
AM_2
100
AcDbLine
 10
162.5198216100448
 20
75.00589672922913
 30
0.0
 11
155.3198216100448
 21
75.00589672922913
 31
0.0
  0
LINE
  5
B919
330
1F
100
AcDbEntity
  8
AM_2
100
AcDbLine
 10
162.5198216100448
 20
74.60589672922914
 30
0.0
 11
155.3198216100448
 21
74.60589672922914
 31
0.0
  0
ARC
  5
B91A
330
1F
100
AcDbEntity
  8
AM_0
100
AcDbCircle
 10
105.4822404527175
 20
82.00589672922914
 30
0.0
 40
7.0
100
AcDbArc
 50
7.387047999999763
 51
172.6129520000002
  0
LINE
  5
B91B
330
1F
100
AcDbEntity
  8
AM_2
100
AcDbLine
 10
162.5198216100448
 20
84.20589672922913
 30
0.0
 11
155.3198216100448
 21
84.20589672922913
 31
0.0
  0
LINE
  5
B91C
330
1F
100
AcDbEntity
  8
AM_2
100
AcDbLine
 10
162.5198216100448
 20
85.00589672922913
 30
0.0
 11
155.3198216100448
 21
85.00589672922913
 31
0.0
  0
LINE
  5
B91D
330
1F
100
AcDbEntity
  8
AM_2
100
AcDbLine
 10
162.5198216100448
 20
85.70589672922913
 30
0.0
 11
155.3198216100448
 21
85.70589672922913
 31
0.0
  0
LINE
  5
B91E
330
1F
100
AcDbEntity
  8
AM_2
100
AcDbLine
 10
162.5198216100448
 20
86.30589672922914
 30
0.0
 11
155.3198216100448
 21
86.30589672922914
 31
0.0
  0
LINE
  5
B91F
330
1F
100
AcDbEntity
  8
AM_0
100
AcDbLine
 10
162.5198216100448
 20
89.50589672922914
 30
0.0
 11
162.5198216100448
 21
74.50589672922913
 31
0.0
  0
LINE
  5
B920
330
1F
100
AcDbEntity
  8
AM_0
100
AcDbLine
 10
162.5198216100448
 20
74.50589672922913
 30
0.0
 11
162.8198216100448
 21
74.80589672922913
 31
0.0
  0
LINE
  5
B921
330
1F
100
AcDbEntity
  8
AM_0
100
AcDbLine
 10
162.8198216100448
 20
89.20589672922913
 30
0.0
 11
162.5198216100448
 21
89.50589672922914
 31
0.0
  0
LINE
  5
B922
330
1F
100
AcDbEntity
  8
AM_0
100
AcDbLine
 10
155.3198216100448
 20
81.10589672922914
 30
0.0
 11
155.3198216100448
 21
74.50589672922913
 31
0.0
  0
LINE
  5
B923
330
1F
100
AcDbEntity
  8
AM_0
100
AcDbLine
 10
155.3198216100448
 20
89.50589672922914
 30
0.0
 11
155.3198216100448
 21
82.90589672922914
 31
0.0
  0
LINE
  5
B924
330
1F
100
AcDbEntity
  8
AM_2
100
AcDbLine
 10
162.5198216100448
 20
86.90589672922914
 30
0.0
 11
155.3198216100448
 21
86.90589672922914
 31
0.0
  0
LINE
  5
B925
330
1F
100
AcDbEntity
  8
AM_0
100
AcDbLine
 10
154.8198216100448
 20
75.00589672922913
 30
0.0
 11
155.3198216100448
 21
74.50589672922913
 31
0.0
  0
LINE
  5
B926
330
1F
100
AcDbEntity
  8
AM_0
100
AcDbLine
 10
179.8198216100449
 20
82.00589672922914
 30
0.0
 11
177.3198216100448
 21
79.50589672922913
 31
0.0
  0
LINE
  5
B927
330
1F
100
AcDbEntity
  8
AM_0
100
AcDbLine
 10
177.3198216100448
 20
84.50589672922914
 30
0.0
 11
179.8198216100449
 21
82.00589672922914
 31
0.0
  0
LINE
  5
B928
330
1F
100
AcDbEntity
  8
AM_2
100
AcDbLine
 10
162.5198216100448
 20
87.50589672922913
 30
0.0
 11
155.3198216100448
 21
87.50589672922913
 31
0.0
  0
LINE
  5
B929
330
1F
100
AcDbEntity
  8
AM_2
100
AcDbLine
 10
162.5198216100448
 20
88.00589672922914
 30
0.0
 11
155.3198216100448
 21
88.00589672922914
 31
0.0
  0
LINE
  5
B92A
330
1F
100
AcDbEntity
  8
AM_2
100
AcDbLine
 10
162.5198216100448
 20
88.50589672922913
 30
0.0
 11
155.3198216100448
 21
88.50589672922913
 31
0.0
  0
LINE
  5
B92B
330
1F
100
AcDbEntity
  8
AM_2
100
AcDbLine
 10
162.5198216100448
 20
89.00589672922913
 30
0.0
 11
155.3198216100448
 21
89.00589672922913
 31
0.0
  0
LINE
  5
B92C
330
1F
100
AcDbEntity
  8
AM_2
100
AcDbLine
 10
162.5198216100448
 20
89.40589672922914
 30
0.0
 11
155.3198216100448
 21
89.40589672922914
 31
0.0
  0
LINE
  5
B92D
330
1F
100
AcDbEntity
  8
AM_0
100
AcDbLine
 10
98.03643645271755
 20
81.10589672922914
 30
0.0
 11
112.9280444527175
 21
81.10589672922914
 31
0.0
  0
LINE
  5
B92E
330
1F
100
AcDbEntity
  8
AM_0
100
AcDbLine
 10
156.8198216100448
 20
81.10589672922914
 30
0.0
 11
154.8198216100448
 21
81.10589672922914
 31
0.0
  0
LINE
  5
B92F
330
1F
100
AcDbEntity
  8
AM_0
100
AcDbLine
 10
156.8198216100448
 20
82.90589672922914
 30
0.0
 11
156.8198216100448
 21
81.10589672922914
 31
0.0
  0
LINE
  5
B930
330
1F
100
AcDbEntity
  8
AM_0
100
AcDbLine
 10
154.8198216100448
 20
82.90589672922914
 30
0.0
 11
156.8198216100448
 21
82.90589672922914
 31
0.0
  0
LINE
  5
B931
330
1F
100
AcDbEntity
  8
AM_0
100
AcDbLine
 10
98.03643645271755
 20
82.90589672922914
 30
0.0
 11
112.9280444527175
 21
82.90589672922914
 31
0.0
  0
LINE
  5
B934
330
1F
100
AcDbEntity
  8
AM_0
100
AcDbLine
 10
155.3198216100448
 20
89.50589672922914
 30
0.0
 11
162.5198216100448
 21
89.50589672922914
 31
0.0
  0
LINE
  5
B935
330
1F
100
AcDbEntity
  8
AM_0
100
AcDbLine
 10
154.8198216100448
 20
75.00589672922913
 30
0.0
 11
154.8198216100448
 21
81.10589672922914
 31
0.0
  0
LINE
  5
B936
330
1F
100
AcDbEntity
  8
AM_0
100
AcDbLine
 10
162.5198216100448
 20
74.50589672922913
 30
0.0
 11
155.3198216100448
 21
74.50589672922913
 31
0.0
  0
LINE
  5
B937
330
1F
100
AcDbEntity
  8
AM_0
100
AcDbLine
 10
162.8198216100448
 20
89.20589672922913
 30
0.0
 11
162.8198216100448
 21
74.80589672922913
 31
0.0
  0
LINE
  5
B938
330
1F
100
AcDbEntity
  8
AM_0
100
AcDbLine
 10
164.8198216100448
 20
76.00589672922914
 30
0.0
 11
162.8198216100448
 21
76.00589672922914
 31
0.0
  0
LINE
  5
B939
330
1F
100
AcDbEntity
  8
AM_0
100
AcDbLine
 10
164.8198216100448
 20
88.00589672922914
 30
0.0
 11
164.8198216100448
 21
76.00589672922914
 31
0.0
  0
LINE
  5
B93A
330
1F
100
AcDbEntity
  8
AM_0
100
AcDbLine
 10
162.8198216100448
 20
88.00589672922914
 30
0.0
 11
164.8198216100448
 21
88.00589672922914
 31
0.0
  0
LINE
  5
B93B
330
1F
100
AcDbEntity
  8
AM_0
100
AcDbLine
 10
155.3198216100448
 20
89.50589672922914
 30
0.0
 11
154.8198216100448
 21
89.00589672922913
 31
0.0
  0
ARC
  5
B93C
330
1F
100
AcDbEntity
  8
AM_0
100
AcDbCircle
 10
105.4822404527175
 20
82.00589672922914
 30
0.0
 40
7.0
100
AcDbArc
 50
187.3870479999997
 51
352.6129520000002
  0
CIRCLE
  5
B93D
330
1F
100
AcDbEntity
  8
AM_0
100
AcDbCircle
 10
105.4822404527175
 20
82.00589672922914
 30
0.0
 40
7.5
  0
LINE
  5
B93E
330
1F
100
AcDbEntity
  8
AM_0
100
AcDbLine
 10
177.3198216100448
 20
84.50589672922914
 30
0.0
 11
177.3198216100448
 21
79.50589672922913
 31
0.0
  0
LINE
  5
B940
330
1F
100
AcDbEntity
  8
AM_2
100
AcDbLine
 10
166.1198216100448
 20
79.85589672922914
 30
0.0
 11
165.7698216100448
 21
79.50589672922913
 31
0.0
  0
LINE
  5
B941
330
1F
100
AcDbEntity
  8
AM_2
100
AcDbLine
 10
165.7698216100448
 20
84.50589672922914
 30
0.0
 11
166.1198216100448
 21
84.15589672922914
 31
0.0
  0
LINE
  5
B942
330
1F
100
AcDbEntity
  8
AM_0
100
AcDbLine
 10
166.1198216100448
 20
79.50589672922913
 30
0.0
 11
166.1198216100448
 21
84.50589672922914
 31
0.0
  0
LINE
  5
B945
330
1F
100
AcDbEntity
  8
AM_0
100
AcDbLine
 10
174.8198216100448
 20
86.00589672922913
 30
0.0
 11
173.8198216100448
 21
86.00589672922913
 31
0.0
  0
LINE
  5
B946
330
1F
100
AcDbEntity
  8
AM_0
100
AcDbLine
 10
173.8198216100448
 20
86.00589672922913
 30
0.0
 11
173.8198216100448
 21
78.00589672922914
 31
0.0
  0
LINE
  5
B947
330
1F
100
AcDbEntity
  8
AM_0
100
AcDbLine
 10
174.8198216100448
 20
78.00589672922914
 30
0.0
 11
173.8198216100448
 21
78.00589672922914
 31
0.0
  0
LINE
  5
B948
330
1F
100
AcDbEntity
  8
AM_0
100
AcDbLine
 10
174.8198216100448
 20
86.00589672922913
 30
0.0
 11
174.8198216100448
 21
78.00589672922914
 31
0.0
  0
LINE
  5
B949
330
1F
100
AcDbEntity
  8
AM_0
100
AcDbLine
 10
177.3198216100448
 20
84.50589672922914
 30
0.0
 11
174.8198216100448
 21
84.50589672922914
 31
0.0
  0
LINE
  5
B94A
330
1F
100
AcDbEntity
  8
AM_0
100
AcDbLine
 10
173.8198216100448
 20
84.50589672922914
 30
0.0
 11
164.8198216100448
 21
84.50589672922914
 31
0.0
  0
LINE
  5
B94B
330
1F
100
AcDbEntity
  8
AM_2
100
AcDbLine
 10
177.6698216100448
 20
84.15589672922914
 30
0.0
 11
174.8198216100448
 21
84.15589672922914
 31
0.0
  0
LINE
  5
B94C
330
1F
100
AcDbEntity
  8
AM_2
100
AcDbLine
 10
173.6895076100448
 20
84.15589672922914
 30
0.0
 11
166.1198216100448
 21
84.15589672922914
 31
0.0
  0
LINE
  5
B94D
330
1F
100
AcDbEntity
  8
AM_2
100
AcDbLine
 10
177.6698216100448
 20
79.85589672922914
 30
0.0
 11
174.8198216100448
 21
79.85589672922914
 31
0.0
  0
LINE
  5
B94E
330
1F
100
AcDbEntity
  8
AM_2
100
AcDbLine
 10
173.8198216100448
 20
79.85589672922914
 30
0.0
 11
166.1198216100448
 21
79.85589672922914
 31
0.0
  0
LINE
  5
B94F
330
1F
100
AcDbEntity
  8
AM_0
100
AcDbLine
 10
177.3198216100448
 20
79.50589672922913
 30
0.0
 11
174.8198216100448
 21
79.50589672922913
 31
0.0
  0
LINE
  5
B950
330
1F
100
AcDbEntity
  8
AM_0
100
AcDbLine
 10
173.8198216100448
 20
79.50589672922913
 30
0.0
 11
164.8198216100448
 21
79.50589672922913
 31
0.0
  0
LINE
  5
B983
330
1F
100
AcDbEntity
  8
AM_7
100
AcDbLine
 10
182.8198216100448
 20
82.00589672922914
 30
0.0
 11
151.8198216100449
 21
82.00589672922912
 31
0.0
1001
GENIUS_GENOBJ-N-CEN_13
1002
{
1000
OWNER
1000
GEN
1002
}
1001
GENIUS_GENODEF_13
1002
{
1000
HIER
1070
     0
1002
}
1002
{
1000
MANEDIT
1070
     0
1002
}
1002
{
1000
NOSEL
1070
     0
1002
}
1002
{
1000
BEHIND
1070
     0
1002
}
1002
{
1000
OTHER
1070
     0
1002
}
1002
{
1000
REACTOR
1002
}
1001
GENIUS_GENCEN_19
1002
{
1040
3.0
1002
}
  0
LINE
  5
B984
330
1F
100
AcDbEntity
  8
AM_7
100
AcDbLine
 10
94.98224045271754
 20
82.00589672922914
 30
0.0
 11
115.9822404527175
 21
82.00589672922914
 31
0.0
1001
GENIUS_GENODEF_13
1002
{
1000
HIER
1070
     0
1002
}
1002
{
1000
MANEDIT
1070
     0
1002
}
1002
{
1000
NOSEL
1070
     0
1002
}
1002
{
1000
BEHIND
1070
     0
1002
}
1002
{
1000
OTHER
1070
     0
1002
}
1002
{
1000
REACTOR
1002
}
1001
GENIUS_GENOBJ-N-CEN_13
1002
{
1000
OWNER
1000
GEN
1002
}
1001
GENIUS_GENCEN_19
1002
{
1040
3.0
1002
}
  0
LINE
  5
B985
330
1F
100
AcDbEntity
  8
AM_7
100
AcDbLine
 10
105.4822404527175
 20
92.50589672922913
 30
0.0
 11
105.4822404527175
 21
71.50589672922913
 31
0.0
1001
GENIUS_GENOBJ-N-CEN_13
1002
{
1000
OWNER
1000
GEN
1002
}
1001
GENIUS_GENODEF_13
1002
{
1000
HIER
1070
     0
1002
}
1002
{
1000
MANEDIT
1070
     0
1002
}
1002
{
1000
NOSEL
1070
     0
1002
}
1002
{
1000
BEHIND
1070
     0
1002
}
1002
{
1000
OTHER
1070
     0
1002
}
1002
{
1000
REACTOR
1002
}
1001
GENIUS_GENCEN_19
1002
{
1040
3.0
1002
}
  0
LINE
  5
B9AA
330
1F
100
AcDbEntity
  8
AM_0
100
AcDbLine
 10
11.50000000000002
 20
201.5
 30
0.0
 11
111.5
 21
201.5
 31
0.0
  0
LINE
  5
B9AB
330
1F
100
AcDbEntity
  8
AM_0
100
AcDbLine
 10
11.50000000000002
 20
161.5
 30
0.0
 11
101.5000000000001
 21
161.5
 31
0.0
  0
LINE
  5
B9AD
330
1F
100
AcDbEntity
  8
AM_2
100
AcDbLine
 10
11.50000000000002
 20
177.5
 30
0.0
 11
101.5000000000001
 21
177.5
 31
0.0
  0
LINE
  5
B9AE
330
1F
100
AcDbEntity
  8
AM_2
100
AcDbLine
 10
11.50000000000002
 20
185.5
 30
0.0
 11
101.5000000000001
 21
185.5
 31
0.0
  0
LINE
  5
B9AF
330
1F
100
AcDbEntity
  8
AM_2
100
AcDbLine
 10
11.50000000000002
 20
193.5
 30
0.0
 11
101.5000000000001
 21
193.4999999999999
 31
0.0
  0
LINE
  5
B9B0
330
1F
100
AcDbEntity
  8
AM_2
100
AcDbLine
 10
31.50000000000002
 20
201.5
 30
0.0
 11
31.50000000000002
 21
161.5
 31
0.0
  0
MTEXT
  5
B9B1
330
1F
100
AcDbEntity
  8
AM_6
100
AcDbMText
 10
21.50000000000002
 20
173.5
 30
0.0
 40
3.2
 41
20.0
 71
     5
 72
     5
  1
仕上げ
 73
     1
 44
1.0
1001
ACAD
1000
MTEXTBEGIN
1070
    73
1070
     1
1070
    44
1040
1.0
1070
    74
1070
     0
1000
MTEXTEND
  0
MTEXT
  5
B9B3
330
1F
100
AcDbEntity
  8
AM_6
100
AcDbMText
 10
21.50000000000002
 20
181.5
 30
0.0
 40
3.2
 41
20.0
 71
     5
 72
     5
  1
材　質
 73
     1
 44
1.0
1001
ACAD
1000
MTEXTBEGIN
1070
    73
1070
     1
1070
    44
1040
1.0
1070
    74
1070
     0
1000
MTEXTEND
  0
MTEXT
  5
B9B4
330
1F
100
AcDbEntity
  8
AM_6
100
AcDbMText
 10
21.50000000000002
 20
197.5
 30
0.0
 40
3.2
 41
20.0
 71
     5
 72
     5
  1
品　名
 73
     1
 44
1.0
1001
ACAD
1000
MTEXTBEGIN
1070
    73
1070
     1
1070
    44
1040
1.0
1070
    74
1070
     0
1000
MTEXTEND
  0
MTEXT
  5
B9B6
330
1F
100
AcDbEntity
  8
AM_6
100
AcDbMText
 10
31.50000000000002
 20
173.5
 30
0.0
 40
3.2
 41
69.99999999999999
 71
     4
 72
     5
  1
　ヘアーライン
 73
     1
 44
1.0
1001
ACAD
1000
MTEXTBEGIN
1070
    73
1070
     1
1070
    44
1040
1.0
1070
    74
1070
     0
1000
MTEXTEND
  0
MTEXT
  5
B9B8
330
1F
100
AcDbEntity
  8
AM_6
100
AcDbMText
 10
31.50000000000002
 20
181.5
 30
0.0
 40
3.2
 41
69.99999999999999
 71
     4
 72
     5
  1
　ステンレス
 73
     1
 44
1.0
1001
ACAD
1000
MTEXTBEGIN
1070
    73
1070
     1
1070
    44
1040
1.0
1070
    74
1070
     0
1000
MTEXTEND
  0
MTEXT
  5
B9B9
330
1F
100
AcDbEntity
  8
AM_6
100
AcDbMText
 10
31.50000000000002
 20
197.5
 30
0.0
 40
3.2
 41
70.0
 71
     4
 72
     5
  1
　足長ローレットつまみ
 73
     1
 44
1.0
1001
ACAD
1000
MTEXTBEGIN
1070
    73
1070
     1
1070
    44
1040
1.0
1070
    74
1070
     0
1000
MTEXTEND
  0
LINE
  5
B9BA
330
1F
100
AcDbEntity
  8
AM_0
100
AcDbLine
 10
101.5
 20
201.5
 30
0.0
 11
101.5
 21
161.5
 31
0.0
  0
LINE
  5
B9BC
330
1F
100
AcDbEntity
  8
AM_2
100
AcDbLine
 10
11.50000000000002
 20
169.5
 30
0.0
 11
101.5000000000001
 21
169.5
 31
0.0
  0
MTEXT
  5
B9BD
330
1F
100
AcDbEntity
  8
AM_6
100
AcDbMText
 10
21.50000000000002
 20
165.5
 30
0.0
 40
3.2
 41
20.00000000000001
 71
     5
 72
     5
  1
備　考
 73
     1
 44
1.0
1001
ACAD
1000
MTEXTBEGIN
1070
    73
1070
     1
1070
    44
1040
1.0
1070
    74
1070
     0
1000
MTEXTEND
1000
ACAD_MTEXT_DEFINED_HEIGHT_BEGIN
1070
    46
1040
8.00000000000001
1000
ACAD_MTEXT_DEFINED_HEIGHT_END
  0
MTEXT
  5
B9C4
330
1F
100
AcDbEntity
  8
AM_6
100
AcDbMText
 10
21.50000000000003
 20
189.5
 30
0.0
 40
3.2
 41
20.0
 71
     5
 72
     5
  1
品　番
 73
     1
 44
1.0
1001
ACAD
1000
MTEXTBEGIN
1070
    73
1070
     1
1070
    44
1040
1.0
1070
    74
1070
     0
1000
MTEXTEND
  0
MTEXT
  5
B9C5
330
1F
100
AcDbEntity
  8
AM_6
100
AcDbMText
 10
31.50000000000004
 20
189.5
 30
0.0
 40
3.2
 41
69.99999999999999
 71
     4
 72
     5
  1
　右表参照
 73
     1
 44
1.0
1001
ACAD
1000
MTEXTBEGIN
1070
    73
1070
     1
1070
    44
1040
1.0
1070
    74
1070
     0
1000
MTEXTEND
  0
DIMENSION
  5
B9C7
330
1F
100
AcDbEntity
  8
AM_5
100
AcDbDimension
  2
*D5
 10
133.3198216100448
 20
74.50589672922913
 30
0.0
 11
130.2198216100448
 21
82.00589672922914
 31
0.0
 70
    32
  1
%%cA
 71
     5
 42
15.0
  3
SYS$0
100
AcDbAlignedDimension
 13
155.3198216100448
 23
89.50589672922914
 33
0.0
 14
155.3198216100448
 24
74.50589672922913
 34
0.0
 50
90.0
100
AcDbRotatedDimension
  0
DIMENSION
  5
B9EF
330
1F
100
AcDbEntity
  8
AM_5
100
AcDbDimension
  2
*D6
 10
156.8198216100448
 20
101.0058967292291
 30
0.0
 11
162.5384882767115
 21
104.1058967292291
 31
0.0
 70
    32
  1
（H）
 71
     5
 42
2.0
  3
SYS$0
100
AcDbAlignedDimension
 13
154.8198216100448
 23
89.00589672922913
 33
0.0
 14
156.8198216100448
 24
82.90589672922914
 34
0.0
 50
180.0
100
AcDbRotatedDimension
  0
DIMENSION
  5
BA1F
330
1F
100
AcDbEntity
  8
AM_5
100
AcDbDimension
  2
*D7
 10
172.0435225671987
 20
84.50589672922914
 30
0.0
 11
172.0435225671986
 21
70.71058904961512
 31
0.0
 70
   160
  1
B
 71
     5
 42
5.0
  3
SYS$0
100
AcDbAlignedDimension
 13
166.1198216100448
 23
79.50589672922913
 33
0.0
 14
166.1198216100448
 24
84.50589672922914
 34
0.0
 50
90.0
100
AcDbRotatedDimension
  0
DIMENSION
  5
BA4D
330
1F
100
AcDbEntity
  8
AM_5
100
AcDbDimension
  2
*D8
 10
143.3198216100448
 20
82.90589672922914
 30
0.0
 11
143.3198216100448
 21
92.88008695121822
 31
0.0
 70
   160
  1
G
 71
     5
 42
1.799999999999997
  3
SYS$0
100
AcDbAlignedDimension
 13
154.8198216100448
 23
81.10589672922914
 33
0.0
 14
154.8198216100448
 24
82.90589672922914
 34
0.0
 50
90.0
100
AcDbRotatedDimension
  0
DIMENSION
  5
BABA
330
1F
100
AcDbEntity
  8
AM_5
100
AcDbDimension
  2
*D9
 10
164.8198216100448
 20
53.00589672922912
 30
0.0
 11
159.8198216100448
 21
56.10589672922912
 31
0.0
 70
    32
  1
D
 71
     5
 42
10.0
  3
SYS$0
100
AcDbAlignedDimension
 13
154.8198216100448
 23
75.00589672922913
 33
0.0
 14
164.8198216100448
 24
76.00589672922914
 34
0.0
 50
179.9999999999999
100
AcDbRotatedDimension
  0
DIMENSION
  5
BAD9
330
1F
100
AcDbEntity
  8
AM_5
100
AcDbDimension
  2
*D10
 10
162.8198216100448
 20
63.00589672922905
 30
0.0
 11
158.6264882767115
 21
66.10589672922905
 31
0.0
 70
    32
  1
F
 71
     5
 42
2.0
  3
SYS$0
100
AcDbAlignedDimension
 13
164.8198216100448
 23
76.00589672922914
 33
0.0
 14
162.8198216100448
 24
74.80589672922913
 34
0.0
 50
179.9999999999999
100
AcDbRotatedDimension
  0
DIMENSION
  5
BB07
330
1F
100
AcDbEntity
  8
AM_5
100
AcDbDimension
  2
*D11
 10
179.8198216100448
 20
53.00589672922903
 30
0.0
 11
172.3198216100448
 21
56.10589672922905
 31
0.0
 70
    32
  1
C
 71
     5
 42
15.00000000000003
  3
SYS$0
100
AcDbAlignedDimension
 13
164.8198216100448
 23
76.00589672922914
 33
0.0
 14
179.8198216100449
 24
82.00589672922914
 34
0.0
 50
179.9999999999999
100
AcDbRotatedDimension
  0
DIMENSION
  5
BB26
330
1F
100
AcDbEntity
  8
AM_5
100
AcDbDimension
  2
*D12
 10
191.8198226100448
 20
86.00589672922913
 30
0.0
 11
188.7198226100448
 21
82.00589672922916
 31
0.0
 70
    32
  1
%%cＩ
 71
     5
 42
8.0
  3
SYS$0
100
AcDbAlignedDimension
 13
174.8198216100448
 23
78.00589672922914
 33
0.0
 14
174.8198216100448
 24
86.00589672922913
 34
0.0
 50
90.0
100
AcDbRotatedDimension
  0
DIMENSION
  5
BB4E
330
1F
100
AcDbEntity
  8
AM_5
100
AcDbDimension
  2
*D13
 10
201.8198226100448
 20
76.00589672922914
 30
0.0
 11
198.7198226100448
 21
82.00589672922916
 31
0.0
 70
    32
  1
%%cE
 71
     5
 42
12.0
  3
SYS$0
100
AcDbAlignedDimension
 13
164.8198216100448
 23
88.00589672922914
 33
0.0
 14
164.8198216100448
 24
76.00589672922914
 34
0.0
 50
90.0
100
AcDbRotatedDimension
  0
DIMENSION
  5
BBCB
330
1F
100
AcDbEntity
  8
AM_5
100
AcDbDimension
  2
*D14
 10
174.8198216100448
 20
101.0058967292291
 30
0.0
 11
178.5864882767115
 21
104.1058967292291
 31
0.0
 70
    32
 71
     5
  3
SYS$0
100
AcDbAlignedDimension
 13
173.8198216100448
 23
86.00589672922913
 33
0.0
 14
174.8198216100448
 24
86.00589672922913
 34
0.0
 50
180.0
100
AcDbRotatedDimension
  0
LINE
  5
BC0C
330
1F
100
AcDbEntity
  8
AM_0
100
AcDbLine
 10
143.4856703277591
 20
145.4999999999999
 30
0.0
 11
263.4856703277586
 21
145.5000000000005
 31
0.0
  0
LINE
  5
BC0D
330
1F
100
AcDbEntity
  8
AM_0
100
AcDbLine
 10
143.4856703277586
 20
193.4999999999999
 30
0.0
 11
143.4856703277591
 21
145.4999999999999
 31
0.0
  0
LINE
  5
BC0F
330
1F
100
AcDbEntity
  8
AM_0
100
AcDbLine
 10
143.4856703277587
 20
185.5
 30
0.0
 11
263.4856703277586
 21
185.4999999999991
 31
0.0
  0
MTEXT
  5
BC10
330
1F
100
AcDbEntity
  8
AM_6
100
AcDbMText
 10
158.4856703277587
 20
189.4999999999998
 30
0.0
 40
3.2
 41
29.99999999999992
 71
     5
 72
     5
  1
品番
 73
     1
 44
1.0
1001
ACAD
1000
MTEXTBEGIN
1070
    73
1070
     1
1070
    44
1040
1.0
1070
    74
1070
     0
1000
MTEXTEND
1000
ACAD_MTEXT_DEFINED_HEIGHT_BEGIN
1070
    46
1040
7.999999999999841
1000
ACAD_MTEXT_DEFINED_HEIGHT_END
  0
LINE
  5
BC11
330
1F
100
AcDbEntity
  8
AM_0
100
AcDbLine
 10
143.4856703277586
 20
193.4999999999999
 30
0.0
 11
263.4856703277586
 21
193.5000000000003
 31
0.0
  0
MTEXT
  5
BC12
330
1F
100
AcDbEntity
  8
AM_6
100
AcDbMText
 10
158.5296719454374
 20
183.0
 30
0.0
 40
3.2
 41
30.08800323535749
 71
     5
 72
     5
  1
SCR-MK102S-1
 73
     1
 44
1.0
1001
ACAD
1000
MTEXTBEGIN
1070
    73
1070
     1
1070
    44
1040
1.0
1070
    74
1070
     0
1000
MTEXTEND
1000
ACAD_MTEXT_DEFINED_HEIGHT_BEGIN
1070
    46
1040
4.999999999999943
1000
ACAD_MTEXT_DEFINED_HEIGHT_END
  0
LINE
  5
BC13
330
1F
100
AcDbEntity
  8
AM_2
100
AcDbLine
 10
143.4856703277587
 20
180.5
 30
0.0
 11
173.4856703277587
 21
180.5000000000001
 31
0.0
  0
MTEXT
  5
BC14
330
1F
100
AcDbEntity
  8
AM_6
100
AcDbMText
 10
178.4856703277586
 20
189.4999999999999
 30
0.0
 40
3.2
 41
10.0
 71
     5
 72
     5
  1
%%cA
 73
     1
 44
1.0
1001
ACAD
1000
MTEXTBEGIN
1070
    73
1070
     1
1070
    44
1040
1.0
1070
    74
1070
     0
1000
MTEXTEND
1000
ACAD_MTEXT_DEFINED_HEIGHT_BEGIN
1070
    46
1040
8.000000000000524
1000
ACAD_MTEXT_DEFINED_HEIGHT_END
  0
MTEXT
  5
BC16
330
1F
100
AcDbEntity
  8
AM_6
100
AcDbMText
 10
178.4856703277586
 20
180.4999999999998
 30
0.0
 40
3.2
 41
10.0
 71
     5
 72
     5
  1
12
 73
     1
 44
1.0
1001
ACAD
1000
MTEXTBEGIN
1070
    73
1070
     1
1070
    44
1040
1.0
1070
    74
1070
     0
1000
MTEXTEND
1000
ACAD_MTEXT_DEFINED_HEIGHT_BEGIN
1070
    46
1040
9.9999999999995
1000
ACAD_MTEXT_DEFINED_HEIGHT_END
  0
LINE
  5
BC1D
330
1F
100
AcDbEntity
  8
AM_0
100
AcDbLine
 10
263.4856703277586
 20
193.5000000000003
 30
0.0
 11
263.4856703277586
 21
145.5000000000005
 31
0.0
  0
LINE
  5
BC3B
330
1F
100
AcDbEntity
  8
AM_2
100
AcDbLine
 10
143.4856703277588
 20
175.5
 30
0.0
 11
263.4856703277586
 21
175.5000000000004
 31
0.0
  0
LINE
  5
BC3C
330
1F
100
AcDbEntity
  8
AM_2
100
AcDbLine
 10
143.4856703277588
 20
170.4999999999999
 30
0.0
 11
173.4856703277587
 21
170.5
 31
0.0
  0
LINE
  5
BC3D
330
1F
100
AcDbEntity
  8
AM_2
100
AcDbLine
 10
143.4856703277589
 20
165.5
 30
0.0
 11
173.4856703277587
 21
165.5000000000001
 31
0.0
  0
LINE
  5
BC3E
330
1F
100
AcDbEntity
  8
AM_2
100
AcDbLine
 10
143.4856703277589
 20
160.4999999999999
 30
0.0
 11
173.4856703277587
 21
160.5000000000001
 31
0.0
  0
LINE
  5
BC3F
330
1F
100
AcDbEntity
  8
AM_2
100
AcDbLine
 10
143.485670327759
 20
155.5
 30
0.0
 11
263.4856703277586
 21
155.5000000000003
 31
0.0
  0
LINE
  5
BC40
330
1F
100
AcDbEntity
  8
AM_2
100
AcDbLine
 10
143.485670327759
 20
150.4999999999999
 30
0.0
 11
173.4856703277587
 21
150.5
 31
0.0
  0
LINE
  5
BC5C
330
1F
100
AcDbEntity
  8
AM_2
100
AcDbLine
 10
183.4856703277586
 20
193.5000000000002
 30
0.0
 11
183.4856703277586
 21
145.5000000000001
 31
0.0
  0
LINE
  5
BC5D
330
1F
100
AcDbEntity
  8
AM_2
100
AcDbLine
 10
193.4856703277586
 20
193.5000000000002
 30
0.0
 11
193.4856703277587
 21
145.5000000000001
 31
0.0
  0
LINE
  5
BC5E
330
1F
100
AcDbEntity
  8
AM_2
100
AcDbLine
 10
203.4856703277586
 20
193.5000000000002
 30
0.0
 11
203.4856703277586
 21
145.5000000000002
 31
0.0
  0
LINE
  5
BC5F
330
1F
100
AcDbEntity
  8
AM_2
100
AcDbLine
 10
213.4856703277586
 20
193.5000000000002
 30
0.0
 11
213.4856703277586
 21
145.5000000000002
 31
0.0
  0
LINE
  5
BC60
330
1F
100
AcDbEntity
  8
AM_2
100
AcDbLine
 10
223.4856703277587
 20
193.5000000000002
 30
0.0
 11
223.4856703277587
 21
145.5000000000003
 31
0.0
  0
LINE
  5
BC61
330
1F
100
AcDbEntity
  8
AM_2
100
AcDbLine
 10
233.4856703277587
 20
193.5000000000002
 30
0.0
 11
233.4856703277588
 21
145.5000000000003
 31
0.0
  0
LINE
  5
BC62
330
1F
100
AcDbEntity
  8
AM_2
100
AcDbLine
 10
243.4856703277586
 20
193.5000000000002
 30
0.0
 11
243.4856703277588
 21
145.5000000000004
 31
0.0
  0
LINE
  5
BC63
330
1F
100
AcDbEntity
  8
AM_2
100
AcDbLine
 10
253.4856703277586
 20
193.5000000000002
 30
0.0
 11
253.4856703277588
 21
145.5000000000004
 31
0.0
  0
MTEXT
  5
BC7A
330
1F
100
AcDbEntity
  8
AM_6
100
AcDbMText
 10
188.4856703277586
 20
189.4999999999999
 30
0.0
 40
3.2
 41
10.0
 71
     5
 72
     5
  1
B
 73
     1
 44
1.0
1001
ACAD
1000
MTEXTBEGIN
1070
    73
1070
     1
1070
    44
1040
1.0
1070
    74
1070
     0
1000
MTEXTEND
1000
ACAD_MTEXT_DEFINED_HEIGHT_BEGIN
1070
    46
1040
8.000000000000524
1000
ACAD_MTEXT_DEFINED_HEIGHT_END
  0
MTEXT
  5
BC7B
330
1F
100
AcDbEntity
  8
AM_6
100
AcDbMText
 10
198.4856703277586
 20
189.4999999999999
 30
0.0
 40
3.2
 41
10.0
 71
     5
 72
     5
  1
C
 73
     1
 44
1.0
1001
ACAD
1000
MTEXTBEGIN
1070
    73
1070
     1
1070
    44
1040
1.0
1070
    74
1070
     0
1000
MTEXTEND
1000
ACAD_MTEXT_DEFINED_HEIGHT_BEGIN
1070
    46
1040
8.000000000000524
1000
ACAD_MTEXT_DEFINED_HEIGHT_END
  0
MTEXT
  5
BC7C
330
1F
100
AcDbEntity
  8
AM_6
100
AcDbMText
 10
208.4856703277587
 20
189.4999999999999
 30
0.0
 40
3.2
 41
10.0
 71
     5
 72
     5
  1
D
 73
     1
 44
1.0
1001
ACAD
1000
MTEXTBEGIN
1070
    73
1070
     1
1070
    44
1040
1.0
1070
    74
1070
     0
1000
MTEXTEND
1000
ACAD_MTEXT_DEFINED_HEIGHT_BEGIN
1070
    46
1040
8.000000000000524
1000
ACAD_MTEXT_DEFINED_HEIGHT_END
  0
MTEXT
  5
BC7D
330
1F
100
AcDbEntity
  8
AM_6
100
AcDbMText
 10
218.4856703277586
 20
189.4999999999999
 30
0.0
 40
3.2
 41
10.0
 71
     5
 72
     5
  1
%%cE
 73
     1
 44
1.0
1001
ACAD
1000
MTEXTBEGIN
1070
    73
1070
     1
1070
    44
1040
1.0
1070
    74
1070
     0
1000
MTEXTEND
1000
ACAD_MTEXT_DEFINED_HEIGHT_BEGIN
1070
    46
1040
8.000000000000524
1000
ACAD_MTEXT_DEFINED_HEIGHT_END
  0
MTEXT
  5
BC7E
330
1F
100
AcDbEntity
  8
AM_6
100
AcDbMText
 10
228.4856703277586
 20
189.4999999999999
 30
0.0
 40
3.2
 41
10.0
 71
     5
 72
     5
  1
F
 73
     1
 44
1.0
1001
ACAD
1000
MTEXTBEGIN
1070
    73
1070
     1
1070
    44
1040
1.0
1070
    74
1070
     0
1000
MTEXTEND
1000
ACAD_MTEXT_DEFINED_HEIGHT_BEGIN
1070
    46
1040
8.000000000000524
1000
ACAD_MTEXT_DEFINED_HEIGHT_END
  0
MTEXT
  5
BC7F
330
1F
100
AcDbEntity
  8
AM_6
100
AcDbMText
 10
238.4856703277586
 20
189.4999999999999
 30
0.0
 40
3.2
 41
10.0
 71
     5
 72
     5
  1
G
 73
     1
 44
1.0
1001
ACAD
1000
MTEXTBEGIN
1070
    73
1070
     1
1070
    44
1040
1.0
1070
    74
1070
     0
1000
MTEXTEND
1000
ACAD_MTEXT_DEFINED_HEIGHT_BEGIN
1070
    46
1040
8.000000000000524
1000
ACAD_MTEXT_DEFINED_HEIGHT_END
  0
MTEXT
  5
BC80
330
1F
100
AcDbEntity
  8
AM_6
100
AcDbMText
 10
248.4856703277587
 20
189.4999999999999
 30
0.0
 40
3.2
 41
10.0
 71
     5
 72
     5
  1
H
 73
     1
 44
1.0
1001
ACAD
1000
MTEXTBEGIN
1070
    73
1070
     1
1070
    44
1040
1.0
1070
    74
1070
     0
1000
MTEXTEND
1000
ACAD_MTEXT_DEFINED_HEIGHT_BEGIN
1070
    46
1040
8.000000000000524
1000
ACAD_MTEXT_DEFINED_HEIGHT_END
  0
MTEXT
  5
BC81
330
1F
100
AcDbEntity
  8
AM_6
100
AcDbMText
 10
258.4856703277586
 20
189.4999999999999
 30
0.0
 40
3.2
 41
10.0
 71
     5
 72
     5
  1
%%cＩ
 73
     1
 44
1.0
1001
ACAD
1000
MTEXTBEGIN
1070
    73
1070
     1
1070
    44
1040
1.0
1070
    74
1070
     0
1000
MTEXTEND
1000
ACAD_MTEXT_DEFINED_HEIGHT_BEGIN
1070
    46
1040
8.000000000000524
1000
ACAD_MTEXT_DEFINED_HEIGHT_END
  0
MTEXT
  5
BC82
330
1F
100
AcDbEntity
  8
AM_6
100
AcDbMText
 10
158.5296719454374
 20
178.0
 30
0.0
 40
3.2
 41
30.08800323535749
 71
     5
 72
     5
  1
SCR-MK102S-2
 73
     1
 44
1.0
1001
ACAD
1000
MTEXTBEGIN
1070
    73
1070
     1
1070
    44
1040
1.0
1070
    74
1070
     0
1000
MTEXTEND
1000
ACAD_MTEXT_DEFINED_HEIGHT_BEGIN
1070
    46
1040
4.999999999999943
1000
ACAD_MTEXT_DEFINED_HEIGHT_END
  0
MTEXT
  5
BC83
330
1F
100
AcDbEntity
  8
AM_6
100
AcDbMText
 10
158.5296719454375
 20
173.0
 30
0.0
 40
3.2
 41
30.08800323535749
 71
     5
 72
     5
  1
SCR-MK102S-3
 73
     1
 44
1.0
1001
ACAD
1000
MTEXTBEGIN
1070
    73
1070
     1
1070
    44
1040
1.0
1070
    74
1070
     0
1000
MTEXTEND
1000
ACAD_MTEXT_DEFINED_HEIGHT_BEGIN
1070
    46
1040
4.999999999999943
1000
ACAD_MTEXT_DEFINED_HEIGHT_END
  0
MTEXT
  5
BC84
330
1F
100
AcDbEntity
  8
AM_6
100
AcDbMText
 10
158.5296719454374
 20
167.9999999999999
 30
0.0
 40
3.2
 41
30.08800323535749
 71
     5
 72
     5
  1
SCR-MK102S-4
 73
     1
 44
1.0
1001
ACAD
1000
MTEXTBEGIN
1070
    73
1070
     1
1070
    44
1040
1.0
1070
    74
1070
     0
1000
MTEXTEND
1000
ACAD_MTEXT_DEFINED_HEIGHT_BEGIN
1070
    46
1040
4.999999999999943
1000
ACAD_MTEXT_DEFINED_HEIGHT_END
  0
MTEXT
  5
BC85
330
1F
100
AcDbEntity
  8
AM_6
100
AcDbMText
 10
158.5296719454376
 20
163.0
 30
0.0
 40
3.2
 41
30.08800323535749
 71
     5
 72
     5
  1
SCR-MK102S-5
 73
     1
 44
1.0
1001
ACAD
1000
MTEXTBEGIN
1070
    73
1070
     1
1070
    44
1040
1.0
1070
    74
1070
     0
1000
MTEXTEND
1000
ACAD_MTEXT_DEFINED_HEIGHT_BEGIN
1070
    46
1040
4.999999999999943
1000
ACAD_MTEXT_DEFINED_HEIGHT_END
  0
MTEXT
  5
BC86
330
1F
100
AcDbEntity
  8
AM_6
100
AcDbMText
 10
158.5296719454377
 20
158.0
 30
0.0
 40
3.2
 41
30.08800323535749
 71
     5
 72
     5
  1
SCR-MK102S-6
 73
     1
 44
1.0
1001
ACAD
1000
MTEXTBEGIN
1070
    73
1070
     1
1070
    44
1040
1.0
1070
    74
1070
     0
1000
MTEXTEND
1000
ACAD_MTEXT_DEFINED_HEIGHT_BEGIN
1070
    46
1040
4.999999999999943
1000
ACAD_MTEXT_DEFINED_HEIGHT_END
  0
MTEXT
  5
BC87
330
1F
100
AcDbEntity
  8
AM_6
100
AcDbMText
 10
158.5296719454377
 20
153.0
 30
0.0
 40
3.2
 41
30.08800323535749
 71
     5
 72
     5
  1
SCR-MK102S-7
 73
     1
 44
1.0
1001
ACAD
1000
MTEXTBEGIN
1070
    73
1070
     1
1070
    44
1040
1.0
1070
    74
1070
     0
1000
MTEXTEND
1000
ACAD_MTEXT_DEFINED_HEIGHT_BEGIN
1070
    46
1040
4.999999999999943
1000
ACAD_MTEXT_DEFINED_HEIGHT_END
  0
MTEXT
  5
BC88
330
1F
100
AcDbEntity
  8
AM_6
100
AcDbMText
 10
158.5296719454378
 20
148.0
 30
0.0
 40
3.2
 41
30.08800323535749
 71
     5
 72
     5
  1
SCR-MK102S-8
 73
     1
 44
1.0
1001
ACAD
1000
MTEXTBEGIN
1070
    73
1070
     1
1070
    44
1040
1.0
1070
    74
1070
     0
1000
MTEXTEND
1000
ACAD_MTEXT_DEFINED_HEIGHT_BEGIN
1070
    46
1040
4.999999999999943
1000
ACAD_MTEXT_DEFINED_HEIGHT_END
  0
LINE
  5
BC8A
330
1F
100
AcDbEntity
  8
AM_2
100
AcDbLine
 10
193.4856703277586
 20
180.5000000000001
 30
0.0
 11
203.4856703277586
 21
180.5000000000002
 31
0.0
  0
LINE
  5
BC8D
330
1F
100
AcDbEntity
  8
AM_2
100
AcDbLine
 10
193.4856703277587
 20
170.5000000000001
 30
0.0
 11
203.4856703277586
 21
170.5000000000001
 31
0.0
  0
LINE
  5
BC8E
330
1F
100
AcDbEntity
  8
AM_2
100
AcDbLine
 10
193.4856703277587
 20
160.5000000000001
 30
0.0
 11
203.4856703277586
 21
160.5000000000002
 31
0.0
  0
LINE
  5
BC91
330
1F
100
AcDbEntity
  8
AM_2
100
AcDbLine
 10
193.4856703277587
 20
150.5000000000001
 30
0.0
 11
203.4856703277586
 21
150.5000000000001
 31
0.0
  0
LINE
  5
BC92
330
1F
100
AcDbEntity
  8
AM_2
100
AcDbLine
 10
173.4856703277587
 20
193.5
 30
0.0
 11
173.4856703277587
 21
145.5
 31
0.0
  0
MTEXT
  5
BC99
330
1F
100
AcDbEntity
  8
AM_6
100
AcDbMText
 10
188.4856703277586
 20
180.4999999999998
 30
0.0
 40
3.2
 41
10.0
 71
     5
 72
     5
  1
M3
 73
     1
 44
1.0
1001
ACAD
1000
MTEXTBEGIN
1070
    73
1070
     1
1070
    44
1040
1.0
1070
    74
1070
     0
1000
MTEXTEND
1000
ACAD_MTEXT_DEFINED_HEIGHT_BEGIN
1070
    46
1040
9.9999999999995
1000
ACAD_MTEXT_DEFINED_HEIGHT_END
  0
MTEXT
  5
BC9A
330
1F
100
AcDbEntity
  8
AM_6
100
AcDbMText
 10
208.4856703277587
 20
180.4999999999996
 30
0.0
 40
3.2
 41
10.0
 71
     5
 72
     5
  1
8
 73
     1
 44
1.0
1001
ACAD
1000
MTEXTBEGIN
1070
    73
1070
     1
1070
    44
1040
1.0
1070
    74
1070
     0
1000
MTEXTEND
1000
ACAD_MTEXT_DEFINED_HEIGHT_BEGIN
1070
    46
1040
9.9999999999995
1000
ACAD_MTEXT_DEFINED_HEIGHT_END
  0
MTEXT
  5
BC9B
330
1F
100
AcDbEntity
  8
AM_6
100
AcDbMText
 10
218.4856703277586
 20
180.4999999999995
 30
0.0
 40
3.2
 41
10.0
 71
     5
 72
     5
  1
8
 73
     1
 44
1.0
1001
ACAD
1000
MTEXTBEGIN
1070
    73
1070
     1
1070
    44
1040
1.0
1070
    74
1070
     0
1000
MTEXTEND
1000
ACAD_MTEXT_DEFINED_HEIGHT_BEGIN
1070
    46
1040
9.9999999999995
1000
ACAD_MTEXT_DEFINED_HEIGHT_END
  0
MTEXT
  5
BC9C
330
1F
100
AcDbEntity
  8
AM_6
100
AcDbMText
 10
228.4856703277586
 20
180.4999999999995
 30
0.0
 40
3.2
 41
10.0
 71
     5
 72
     5
  1
2
 73
     1
 44
1.0
1001
ACAD
1000
MTEXTBEGIN
1070
    73
1070
     1
1070
    44
1040
1.0
1070
    74
1070
     0
1000
MTEXTEND
1000
ACAD_MTEXT_DEFINED_HEIGHT_BEGIN
1070
    46
1040
9.9999999999995
1000
ACAD_MTEXT_DEFINED_HEIGHT_END
  0
MTEXT
  5
BC9D
330
1F
100
AcDbEntity
  8
AM_6
100
AcDbMText
 10
238.4856703277587
 20
180.4999999999996
 30
0.0
 40
3.2
 41
10.0
 71
     5
 72
     5
  1
2
 73
     1
 44
1.0
1001
ACAD
1000
MTEXTBEGIN
1070
    73
1070
     1
1070
    44
1040
1.0
1070
    74
1070
     0
1000
MTEXTEND
1000
ACAD_MTEXT_DEFINED_HEIGHT_BEGIN
1070
    46
1040
9.999999999999131
1000
ACAD_MTEXT_DEFINED_HEIGHT_END
  0
MTEXT
  5
BC9E
330
1F
100
AcDbEntity
  8
AM_6
100
AcDbMText
 10
248.4856703277587
 20
180.4999999999993
 30
0.0
 40
3.2
 41
10.0
 71
     5
 72
     5
  1
1.7
 73
     1
 44
1.0
1001
ACAD
1000
MTEXTBEGIN
1070
    73
1070
     1
1070
    44
1040
1.0
1070
    74
1070
     0
1000
MTEXTEND
1000
ACAD_MTEXT_DEFINED_HEIGHT_BEGIN
1070
    46
1040
9.9999999999995
1000
ACAD_MTEXT_DEFINED_HEIGHT_END
  0
MTEXT
  5
BC9F
330
1F
100
AcDbEntity
  8
AM_6
100
AcDbMText
 10
258.4856703277586
 20
180.4999999999992
 30
0.0
 40
3.2
 41
10.0
 71
     5
 72
     5
  1
8
 73
     1
 44
1.0
1001
ACAD
1000
MTEXTBEGIN
1070
    73
1070
     1
1070
    44
1040
1.0
1070
    74
1070
     0
1000
MTEXTEND
1000
ACAD_MTEXT_DEFINED_HEIGHT_BEGIN
1070
    46
1040
9.9999999999995
1000
ACAD_MTEXT_DEFINED_HEIGHT_END
  0
MTEXT
  5
BCA0
330
1F
100
AcDbEntity
  8
AM_6
100
AcDbMText
 10
198.4856703277586
 20
182.9999999999998
 30
0.0
 40
3.2
 41
10.0
 71
     5
 72
     5
  1
8
 73
     1
 44
1.0
1001
ACAD
1000
MTEXTBEGIN
1070
    73
1070
     1
1070
    44
1040
1.0
1070
    74
1070
     0
1000
MTEXTEND
1000
ACAD_MTEXT_DEFINED_HEIGHT_BEGIN
1070
    46
1040
4.999999999999273
1000
ACAD_MTEXT_DEFINED_HEIGHT_END
  0
MTEXT
  5
BCA1
330
1F
100
AcDbEntity
  8
AM_6
100
AcDbMText
 10
198.4856703277586
 20
178.0000000000001
 30
0.0
 40
3.2
 41
10.00000000000003
 71
     5
 72
     5
  1
12
 73
     1
 44
1.0
1001
ACAD
1000
MTEXTBEGIN
1070
    73
1070
     1
1070
    44
1040
1.0
1070
    74
1070
     0
1000
MTEXTEND
1000
ACAD_MTEXT_DEFINED_HEIGHT_BEGIN
1070
    46
1040
4.999999999999813
1000
ACAD_MTEXT_DEFINED_HEIGHT_END
  0
LINE
  5
BCF2
330
1F
100
AcDbEntity
  8
AM_2
100
AcDbLine
 10
193.4856703277587
 20
170.5000000000005
 30
0.0
 11
203.4856703277587
 21
170.5000000000005
 31
0.0
  0
MTEXT
  5
BCF3
330
1F
100
AcDbEntity
  8
AM_6
100
AcDbMText
 10
178.4856703277587
 20
165.5
 30
0.0
 40
3.2
 41
10.0
 71
     5
 72
     5
  1
15
 73
     1
 44
1.0
1001
ACAD
1000
MTEXTBEGIN
1070
    73
1070
     1
1070
    44
1040
1.0
1070
    74
1070
     0
1000
MTEXTEND
1000
ACAD_MTEXT_DEFINED_HEIGHT_BEGIN
1070
    46
1040
19.99999999999987
1000
ACAD_MTEXT_DEFINED_HEIGHT_END
  0
MTEXT
  5
BCF4
330
1F
100
AcDbEntity
  8
AM_6
100
AcDbMText
 10
188.4856703277586
 20
170.5000000000002
 30
0.0
 40
3.2
 41
10.0
 71
     5
 72
     5
  1
M4
 73
     1
 44
1.0
1001
ACAD
1000
MTEXTBEGIN
1070
    73
1070
     1
1070
    44
1040
1.0
1070
    74
1070
     0
1000
MTEXTEND
1000
ACAD_MTEXT_DEFINED_HEIGHT_BEGIN
1070
    46
1040
9.9999999999995
1000
ACAD_MTEXT_DEFINED_HEIGHT_END
  0
MTEXT
  5
BCF5
330
1F
100
AcDbEntity
  8
AM_6
100
AcDbMText
 10
208.4856703277587
 20
165.5
 30
0.0
 40
3.2
 41
9.999999999999914
 71
     5
 72
     5
  1
10
 73
     1
 44
1.0
1001
ACAD
1000
MTEXTBEGIN
1070
    73
1070
     1
1070
    44
1040
1.0
1070
    74
1070
     0
1000
MTEXTEND
1000
ACAD_MTEXT_DEFINED_HEIGHT_BEGIN
1070
    46
1040
19.99999999999956
1000
ACAD_MTEXT_DEFINED_HEIGHT_END
  0
MTEXT
  5
BCF6
330
1F
100
AcDbEntity
  8
AM_6
100
AcDbMText
 10
218.4856703277586
 20
170.4999999999999
 30
0.0
 40
3.2
 41
10.0
 71
     5
 72
     5
  1
10
 73
     1
 44
1.0
1001
ACAD
1000
MTEXTBEGIN
1070
    73
1070
     1
1070
    44
1040
1.0
1070
    74
1070
     0
1000
MTEXTEND
1000
ACAD_MTEXT_DEFINED_HEIGHT_BEGIN
1070
    46
1040
9.9999999999995
1000
ACAD_MTEXT_DEFINED_HEIGHT_END
  0
MTEXT
  5
BCF7
330
1F
100
AcDbEntity
  8
AM_6
100
AcDbMText
 10
228.4856703277587
 20
165.4999999999999
 30
0.0
 40
3.2
 41
10.00000000000011
 71
     5
 72
     5
  1
2
 73
     1
 44
1.0
1001
ACAD
1000
MTEXTBEGIN
1070
    73
1070
     1
1070
    44
1040
1.0
1070
    74
1070
     0
1000
MTEXTEND
1000
ACAD_MTEXT_DEFINED_HEIGHT_BEGIN
1070
    46
1040
19.99999999999933
1000
ACAD_MTEXT_DEFINED_HEIGHT_END
  0
MTEXT
  5
BCF8
330
1F
100
AcDbEntity
  8
AM_6
100
AcDbMText
 10
238.4856703277588
 20
165.5000000000001
 30
0.0
 40
3.2
 41
9.999999999999886
 71
     5
 72
     5
  1
2
 73
     1
 44
1.0
1001
ACAD
1000
MTEXTBEGIN
1070
    73
1070
     1
1070
    44
1040
1.0
1070
    74
1070
     0
1000
MTEXTEND
1000
ACAD_MTEXT_DEFINED_HEIGHT_BEGIN
1070
    46
1040
19.99999999999896
1000
ACAD_MTEXT_DEFINED_HEIGHT_END
  0
MTEXT
  5
BCF9
330
1F
100
AcDbEntity
  8
AM_6
100
AcDbMText
 10
248.4856703277587
 20
165.4999999999999
 30
0.0
 40
3.2
 41
10.0
 71
     5
 72
     5
  1
1.7
 73
     1
 44
1.0
1001
ACAD
1000
MTEXTBEGIN
1070
    73
1070
     1
1070
    44
1040
1.0
1070
    74
1070
     0
1000
MTEXTEND
1000
ACAD_MTEXT_DEFINED_HEIGHT_BEGIN
1070
    46
1040
19.99999999999913
1000
ACAD_MTEXT_DEFINED_HEIGHT_END
  0
MTEXT
  5
BCFA
330
1F
100
AcDbEntity
  8
AM_6
100
AcDbMText
 10
258.4856703277586
 20
165.4999999999998
 30
0.0
 40
3.2
 41
10.0
 71
     5
 72
     5
  1
10
 73
     1
 44
1.0
1001
ACAD
1000
MTEXTBEGIN
1070
    73
1070
     1
1070
    44
1040
1.0
1070
    74
1070
     0
1000
MTEXTEND
1000
ACAD_MTEXT_DEFINED_HEIGHT_BEGIN
1070
    46
1040
19.99999999999913
1000
ACAD_MTEXT_DEFINED_HEIGHT_END
  0
MTEXT
  5
BCFB
330
1F
100
AcDbEntity
  8
AM_6
100
AcDbMText
 10
198.4856703277586
 20
173.0000000000002
 30
0.0
 40
3.2
 41
10.0
 71
     5
 72
     5
  1
10
 73
     1
 44
1.0
1001
ACAD
1000
MTEXTBEGIN
1070
    73
1070
     1
1070
    44
1040
1.0
1070
    74
1070
     0
1000
MTEXTEND
1000
ACAD_MTEXT_DEFINED_HEIGHT_BEGIN
1070
    46
1040
4.999999999999273
1000
ACAD_MTEXT_DEFINED_HEIGHT_END
  0
MTEXT
  5
BCFC
330
1F
100
AcDbEntity
  8
AM_6
100
AcDbMText
 10
198.4856703277587
 20
168.0000000000005
 30
0.0
 40
3.2
 41
10.00000000000003
 71
     5
 72
     5
  1
15
 73
     1
 44
1.0
1001
ACAD
1000
MTEXTBEGIN
1070
    73
1070
     1
1070
    44
1040
1.0
1070
    74
1070
     0
1000
MTEXTEND
1000
ACAD_MTEXT_DEFINED_HEIGHT_BEGIN
1070
    46
1040
4.999999999999813
1000
ACAD_MTEXT_DEFINED_HEIGHT_END
  0
LINE
  5
BCFD
330
1F
100
AcDbEntity
  8
AM_2
100
AcDbLine
 10
193.4856703277587
 20
160.5000000000005
 30
0.0
 11
203.4856703277587
 21
160.5000000000005
 31
0.0
  0
MTEXT
  5
BCFF
330
1F
100
AcDbEntity
  8
AM_6
100
AcDbMText
 10
188.4856703277586
 20
160.5000000000001
 30
0.0
 40
3.2
 41
10.0
 71
     5
 72
     5
  1
M5
 73
     1
 44
1.0
1001
ACAD
1000
MTEXTBEGIN
1070
    73
1070
     1
1070
    44
1040
1.0
1070
    74
1070
     0
1000
MTEXTEND
1000
ACAD_MTEXT_DEFINED_HEIGHT_BEGIN
1070
    46
1040
9.9999999999995
1000
ACAD_MTEXT_DEFINED_HEIGHT_END
  0
MTEXT
  5
BD01
330
1F
100
AcDbEntity
  8
AM_6
100
AcDbMText
 10
218.4856703277586
 20
160.4999999999999
 30
0.0
 40
3.2
 41
10.0
 71
     5
 72
     5
  1
12
 73
     1
 44
1.0
1001
ACAD
1000
MTEXTBEGIN
1070
    73
1070
     1
1070
    44
1040
1.0
1070
    74
1070
     0
1000
MTEXTEND
1000
ACAD_MTEXT_DEFINED_HEIGHT_BEGIN
1070
    46
1040
9.9999999999995
1000
ACAD_MTEXT_DEFINED_HEIGHT_END
  0
LINE
  5
BD08
330
1F
100
AcDbEntity
  8
AM_2
100
AcDbLine
 10
193.4856703277587
 20
150.5000000000005
 30
0.0
 11
203.4856703277587
 21
150.5000000000005
 31
0.0
  0
MTEXT
  5
BD09
330
1F
100
AcDbEntity
  8
AM_6
100
AcDbMText
 10
178.4856703277587
 20
150.5000000000002
 30
0.0
 40
3.2
 41
10.0
 71
     5
 72
     5
  1
18
 73
     1
 44
1.0
1001
ACAD
1000
MTEXTBEGIN
1070
    73
1070
     1
1070
    44
1040
1.0
1070
    74
1070
     0
1000
MTEXTEND
1000
ACAD_MTEXT_DEFINED_HEIGHT_BEGIN
1070
    46
1040
9.9999999999995
1000
ACAD_MTEXT_DEFINED_HEIGHT_END
  0
MTEXT
  5
BD0A
330
1F
100
AcDbEntity
  8
AM_6
100
AcDbMText
 10
188.4856703277586
 20
150.5000000000001
 30
0.0
 40
3.2
 41
10.0
 71
     5
 72
     5
  1
M6
 73
     1
 44
1.0
1001
ACAD
1000
MTEXTBEGIN
1070
    73
1070
     1
1070
    44
1040
1.0
1070
    74
1070
     0
1000
MTEXTEND
1000
ACAD_MTEXT_DEFINED_HEIGHT_BEGIN
1070
    46
1040
9.9999999999995
1000
ACAD_MTEXT_DEFINED_HEIGHT_END
  0
MTEXT
  5
BD0B
330
1F
100
AcDbEntity
  8
AM_6
100
AcDbMText
 10
208.4856703277587
 20
150.5
 30
0.0
 40
3.2
 41
10.0
 71
     5
 72
     5
  1
12
 73
     1
 44
1.0
1001
ACAD
1000
MTEXTBEGIN
1070
    73
1070
     1
1070
    44
1040
1.0
1070
    74
1070
     0
1000
MTEXTEND
1000
ACAD_MTEXT_DEFINED_HEIGHT_BEGIN
1070
    46
1040
9.9999999999995
1000
ACAD_MTEXT_DEFINED_HEIGHT_END
  0
MTEXT
  5
BD0C
330
1F
100
AcDbEntity
  8
AM_6
100
AcDbMText
 10
218.4856703277587
 20
150.4999999999999
 30
0.0
 40
3.2
 41
10.0
 71
     5
 72
     5
  1
12
 73
     1
 44
1.0
1001
ACAD
1000
MTEXTBEGIN
1070
    73
1070
     1
1070
    44
1040
1.0
1070
    74
1070
     0
1000
MTEXTEND
1000
ACAD_MTEXT_DEFINED_HEIGHT_BEGIN
1070
    46
1040
9.9999999999995
1000
ACAD_MTEXT_DEFINED_HEIGHT_END
  0
MTEXT
  5
BD0D
330
1F
100
AcDbEntity
  8
AM_6
100
AcDbMText
 10
228.4856703277587
 20
150.4999999999998
 30
0.0
 40
3.2
 41
10.0
 71
     5
 72
     5
  1
2
 73
     1
 44
1.0
1001
ACAD
1000
MTEXTBEGIN
1070
    73
1070
     1
1070
    44
1040
1.0
1070
    74
1070
     0
1000
MTEXTEND
1000
ACAD_MTEXT_DEFINED_HEIGHT_BEGIN
1070
    46
1040
9.9999999999995
1000
ACAD_MTEXT_DEFINED_HEIGHT_END
  0
MTEXT
  5
BD0E
330
1F
100
AcDbEntity
  8
AM_6
100
AcDbMText
 10
238.4856703277587
 20
150.5
 30
0.0
 40
3.2
 41
10.0
 71
     5
 72
     5
  1
2
 73
     1
 44
1.0
1001
ACAD
1000
MTEXTBEGIN
1070
    73
1070
     1
1070
    44
1040
1.0
1070
    74
1070
     0
1000
MTEXTEND
1000
ACAD_MTEXT_DEFINED_HEIGHT_BEGIN
1070
    46
1040
9.999999999999131
1000
ACAD_MTEXT_DEFINED_HEIGHT_END
  0
MTEXT
  5
BD0F
330
1F
100
AcDbEntity
  8
AM_6
100
AcDbMText
 10
248.4856703277587
 20
150.4999999999997
 30
0.0
 40
3.2
 41
10.0
 71
     5
 72
     5
  1
1.7
 73
     1
 44
1.0
1001
ACAD
1000
MTEXTBEGIN
1070
    73
1070
     1
1070
    44
1040
1.0
1070
    74
1070
     0
1000
MTEXTEND
1000
ACAD_MTEXT_DEFINED_HEIGHT_BEGIN
1070
    46
1040
9.9999999999995
1000
ACAD_MTEXT_DEFINED_HEIGHT_END
  0
MTEXT
  5
BD10
330
1F
100
AcDbEntity
  8
AM_6
100
AcDbMText
 10
258.4856703277587
 20
150.4999999999996
 30
0.0
 40
3.2
 41
10.0
 71
     5
 72
     5
  1
12
 73
     1
 44
1.0
1001
ACAD
1000
MTEXTBEGIN
1070
    73
1070
     1
1070
    44
1040
1.0
1070
    74
1070
     0
1000
MTEXTEND
1000
ACAD_MTEXT_DEFINED_HEIGHT_BEGIN
1070
    46
1040
9.9999999999995
1000
ACAD_MTEXT_DEFINED_HEIGHT_END
  0
LINE
  5
BD13
330
1F
100
AcDbEntity
  8
AM_2
100
AcDbLine
 10
183.4856703277585
 20
165.5000000000001
 30
0.0
 11
203.4856703277586
 21
165.5000000000002
 31
0.0
  0
MTEXT
  5
BD14
330
1F
100
AcDbEntity
  8
AM_6
100
AcDbMText
 10
198.4856703277586
 20
163.0000000000002
 30
0.0
 40
3.2
 41
10.0
 71
     5
 72
     5
  1
10
 73
     1
 44
1.0
1001
ACAD
1000
MTEXTBEGIN
1070
    73
1070
     1
1070
    44
1040
1.0
1070
    74
1070
     0
1000
MTEXTEND
1000
ACAD_MTEXT_DEFINED_HEIGHT_BEGIN
1070
    46
1040
4.999999999999273
1000
ACAD_MTEXT_DEFINED_HEIGHT_END
  0
MTEXT
  5
BD15
330
1F
100
AcDbEntity
  8
AM_6
100
AcDbMText
 10
198.4856703277587
 20
158.0000000000005
 30
0.0
 40
3.2
 41
10.00000000000003
 71
     5
 72
     5
  1
15
 73
     1
 44
1.0
1001
ACAD
1000
MTEXTBEGIN
1070
    73
1070
     1
1070
    44
1040
1.0
1070
    74
1070
     0
1000
MTEXTEND
1000
ACAD_MTEXT_DEFINED_HEIGHT_BEGIN
1070
    46
1040
4.999999999999813
1000
ACAD_MTEXT_DEFINED_HEIGHT_END
  0
MTEXT
  5
BD16
330
1F
100
AcDbEntity
  8
AM_6
100
AcDbMText
 10
198.4856703277587
 20
153.0000000000002
 30
0.0
 40
3.2
 41
10.0
 71
     5
 72
     5
  1
10
 73
     1
 44
1.0
1001
ACAD
1000
MTEXTBEGIN
1070
    73
1070
     1
1070
    44
1040
1.0
1070
    74
1070
     0
1000
MTEXTEND
1000
ACAD_MTEXT_DEFINED_HEIGHT_BEGIN
1070
    46
1040
4.999999999999273
1000
ACAD_MTEXT_DEFINED_HEIGHT_END
  0
MTEXT
  5
BD17
330
1F
100
AcDbEntity
  8
AM_6
100
AcDbMText
 10
198.4856703277587
 20
148.0000000000004
 30
0.0
 40
3.2
 41
10.00000000000003
 71
     5
 72
     5
  1
15
 73
     1
 44
1.0
1001
ACAD
1000
MTEXTBEGIN
1070
    73
1070
     1
1070
    44
1040
1.0
1070
    74
1070
     0
1000
MTEXTEND
1000
ACAD_MTEXT_DEFINED_HEIGHT_BEGIN
1070
    46
1040
4.999999999999813
1000
ACAD_MTEXT_DEFINED_HEIGHT_END
  0
LINE
  5
BD18
330
1F
100
AcDbEntity
  8
AM_2
100
AcDbLine
 10
213.4856703277586
 20
165.5000000000002
 30
0.0
 11
223.4856703277587
 21
165.5000000000003
 31
0.0
  0
INSERT
  5
BD1A
330
1F
100
AcDbEntity
  8
AM_5
100
AcDbBlockReference
  2
*S36
 10
0.0
 20
0.0
 30
0.0
  0
TEXT
  5
BDB8
330
1F
100
AcDbEntity
  8
AM_6
 60
     1
100
AcDbText
 10
285.5
 20
8.5
 30
0.0
 40
2.5
  1
!GENTITLE-INSERT
100
AcDbText
  0
TEXT
  5
BDB9
330
1F
100
AcDbEntity
  8
AM_6
 60
     1
100
AcDbText
 10
297.0
 20
210.0
 30
0.0
 40
2.5
  1
!GENTITLE-MAX
100
AcDbText
  0
TEXT
  5
BDBA
330
1F
100
AcDbEntity
  8
AM_6
 60
     1
100
AcDbText
 10
297.0
 20
210.0
 30
0.0
 40
2.5
  1
!GENTITLE-RU
100
AcDbText
  0
LINE
  5
BDBB
330
1F
100
AcDbEntity
  8
size
100
AcDbLine
 10
0.0
 20
210.0
 30
0.0
 11
297.0
 21
210.0
 31
0.0
1001
GENIUS_GENREC_14
1002
{
1000
PYDIR
1011
0.0000000000000142
1021
297.0
1031
0.0
1002
}
1002
{
1000
PXDIR
1011
420.0
1021
0.0
1031
0.0
1002
}
1002
{
1000
PORI
1011
0.0
1021
0.0
1031
0.0
1002
}
1002
{
1000
PINS
1011
210.0
1021
148.4999999999999
1031
0.0
1002
}
1002
{
1000
HVAL
1000
297
1002
}
1002
{
1000
H
1070
     2
1002
}
1002
{
1000
WVAL
1000
420
1002
}
1002
{
1000
W
1070
     2
1002
}
1002
{
1000
C
1070
     4
1002
}
1001
GENIUS_GENOBJ-N-REC_13
1002
{
1000
OWNER
1000
GEN
1002
}
1001
GENIUS_GENODEF_13
1002
{
1000
HIER
1070
     0
1002
}
1002
{
1000
MANEDIT
1070
     0
1002
}
1002
{
1000
NOSEL
1070
     0
1002
}
1002
{
1000
BEHIND
1070
     0
1002
}
1002
{
1000
OTHER
1070
     0
1002
}
1002
{
1000
REACTOR
1002
}
  0
TEXT
  5
BDBC
330
1F
100
AcDbEntity
  8
AM_6
 60
     1
100
AcDbText
 10
0.0
 20
0.0
 30
0.0
 40
2.5
  1
!GENTITLE-LL
100
AcDbText
  0
LINE
  5
BDBD
330
1F
100
AcDbEntity
  8
size
100
AcDbLine
 10
297.0
 20
210.0
 30
0.0
 11
297.0
 21
-0.0000000000000284
 31
0.0
1001
GENIUS_GENREC_14
1002
{
1000
PYDIR
1011
0.0000000000000142
1021
297.0
1031
0.0
1002
}
1002
{
1000
PXDIR
1011
420.0
1021
0.0
1031
0.0
1002
}
1002
{
1000
PORI
1011
0.0
1021
0.0
1031
0.0
1002
}
1002
{
1000
PINS
1011
210.0
1021
148.4999999999999
1031
0.0
1002
}
1002
{
1000
HVAL
1000
297
1002
}
1002
{
1000
H
1070
     2
1002
}
1002
{
1000
WVAL
1000
420
1002
}
1002
{
1000
W
1070
     2
1002
}
1002
{
1000
C
1070
     4
1002
}
1001
GENIUS_GENOBJ-N-REC_13
1002
{
1000
OWNER
1000
GEN
1002
}
1001
GENIUS_GENODEF_13
1002
{
1000
HIER
1070
     0
1002
}
1002
{
1000
MANEDIT
1070
     0
1002
}
1002
{
1000
NOSEL
1070
     0
1002
}
1002
{
1000
BEHIND
1070
     0
1002
}
1002
{
1000
OTHER
1070
     0
1002
}
1002
{
1000
REACTOR
1002
}
  0
LINE
  5
BDBE
330
1F
100
AcDbEntity
  8
waku
100
AcDbLine
 10
11.5
 20
8.5
 30
0.0
 11
285.5
 21
8.5
 31
0.0
1001
GENIUS_GENREC_14
1002
{
1000
PYDIR
1011
0.0000000000000142
1021
297.0
1031
0.0
1002
}
1002
{
1000
PXDIR
1011
420.0
1021
0.0
1031
0.0
1002
}
1002
{
1000
PORI
1011
0.0
1021
0.0
1031
0.0
1002
}
1002
{
1000
PINS
1011
210.0
1021
148.4999999999999
1031
0.0
1002
}
1002
{
1000
HVAL
1000
297
1002
}
1002
{
1000
H
1070
     2
1002
}
1002
{
1000
WVAL
1000
420
1002
}
1002
{
1000
W
1070
     2
1002
}
1002
{
1000
C
1070
     4
1002
}
  0
LINE
  5
BDBF
330
1F
100
AcDbEntity
  8
waku
100
AcDbLine
 10
285.5
 20
201.5
 30
0.0
 11
11.5
 21
201.5
 31
0.0
1001
GENIUS_GENREC_14
1002
{
1000
PYDIR
1011
-123.0
1021
210.0
1031
0.0
1002
}
1002
{
1000
PXDIR
1011
297.0
1021
-87.0
1031
0.0
1002
}
1002
{
1000
PORI
1011
-123.0
1021
-87.0
1031
0.0
1002
}
1002
{
1000
PINS
1011
87.00000000000002
1021
61.49999999999997
1031
0.0
1002
}
1002
{
1000
HVAL
1000
297
1002
}
1002
{
1000
H
1070
     2
1002
}
1002
{
1000
WVAL
1000
420
1002
}
1002
{
1000
W
1070
     2
1002
}
1002
{
1000
C
1070
     4
1002
}
1001
GENIUS_GENOBJ-N-REC_13
1002
{
1000
OWNER
1000
GEN
1002
}
1001
GENIUS_GENODEF_13
1002
{
1000
HIER
1070
     0
1002
}
1002
{
1000
MANEDIT
1070
     0
1002
}
1002
{
1000
NOSEL
1070
     0
1002
}
1002
{
1000
BEHIND
1070
     0
1002
}
1002
{
1000
OTHER
1070
     0
1002
}
1002
{
1000
REACTOR
1002
}
  0
LINE
  5
BDC0
330
1F
100
AcDbEntity
  8
waku
100
AcDbLine
 10
11.50000000000002
 20
201.5
 30
0.0
 11
11.5
 21
8.5
 31
0.0
1001
GENIUS_GENREC_14
1002
{
1000
PYDIR
1011
0.0000000000000142
1021
297.0
1031
0.0
1002
}
1002
{
1000
PXDIR
1011
420.0
1021
0.0
1031
0.0
1002
}
1002
{
1000
PORI
1011
0.0
1021
0.0
1031
0.0
1002
}
1002
{
1000
PINS
1011
210.0
1021
148.4999999999999
1031
0.0
1002
}
1002
{
1000
HVAL
1000
297
1002
}
1002
{
1000
H
1070
     2
1002
}
1002
{
1000
WVAL
1000
420
1002
}
1002
{
1000
W
1070
     2
1002
}
1002
{
1000
C
1070
     4
1002
}
1001
GENIUS_GENOBJ-N-REC_13
1002
{
1000
OWNER
1000
GEN
1002
}
1001
GENIUS_GENODEF_13
1002
{
1000
HIER
1070
     0
1002
}
1002
{
1000
MANEDIT
1070
     0
1002
}
1002
{
1000
NOSEL
1070
     0
1002
}
1002
{
1000
BEHIND
1070
     0
1002
}
1002
{
1000
OTHER
1070
     0
1002
}
1002
{
1000
REACTOR
1002
}
  0
LINE
  5
BDC1
330
1F
100
AcDbEntity
  8
waku
100
AcDbLine
 10
285.5
 20
8.5
 30
0.0
 11
285.5
 21
201.5
 31
0.0
1001
GENIUS_GENREC_14
1002
{
1000
PYDIR
1011
-123.0
1021
216.0
1031
0.0
1002
}
1002
{
1000
PXDIR
1011
297.0
1021
-81.0
1031
0.0
1002
}
1002
{
1000
PORI
1011
-123.0
1021
-81.0
1031
0.0
1002
}
1002
{
1000
PINS
1011
87.00000000000002
1021
67.49999999999997
1031
0.0
1002
}
1002
{
1000
HVAL
1000
297
1002
}
1002
{
1000
H
1070
     2
1002
}
1002
{
1000
WVAL
1000
420
1002
}
1002
{
1000
W
1070
     2
1002
}
1002
{
1000
C
1070
     4
1002
}
1001
GENIUS_GENOBJ-N-REC_13
1002
{
1000
OWNER
1000
GEN
1002
}
1001
GENIUS_GENODEF_13
1002
{
1000
HIER
1070
     0
1002
}
1002
{
1000
MANEDIT
1070
     0
1002
}
1002
{
1000
NOSEL
1070
     0
1002
}
1002
{
1000
BEHIND
1070
     0
1002
}
1002
{
1000
OTHER
1070
     0
1002
}
1002
{
1000
REACTOR
1002
}
  0
LINE
  5
BDC2
330
1F
100
AcDbEntity
  8
size
100
AcDbLine
 10
0.0000000000000213
 20
210.0
 30
0.0
 11
0.0
 21
0.0
 31
0.0
1001
GENIUS_GENREC_14
1002
{
1000
PYDIR
1011
0.0000000000000142
1021
297.0
1031
0.0
1002
}
1002
{
1000
PXDIR
1011
420.0
1021
0.0
1031
0.0
1002
}
1002
{
1000
PORI
1011
0.0
1021
0.0
1031
0.0
1002
}
1002
{
1000
PINS
1011
210.0
1021
148.4999999999999
1031
0.0
1002
}
1002
{
1000
HVAL
1000
297
1002
}
1002
{
1000
H
1070
     2
1002
}
1002
{
1000
WVAL
1000
420
1002
}
1002
{
1000
W
1070
     2
1002
}
1002
{
1000
C
1070
     4
1002
}
1001
GENIUS_GENOBJ-N-REC_13
1002
{
1000
OWNER
1000
GEN
1002
}
1001
GENIUS_GENODEF_13
1002
{
1000
HIER
1070
     0
1002
}
1002
{
1000
MANEDIT
1070
     0
1002
}
1002
{
1000
NOSEL
1070
     0
1002
}
1002
{
1000
BEHIND
1070
     0
1002
}
1002
{
1000
OTHER
1070
     0
1002
}
1002
{
1000
REACTOR
1002
}
  0
LINE
  5
BDC3
330
1F
100
AcDbEntity
  8
size
100
AcDbLine
 10
0.0
 20
0.0
 30
0.0
 11
297.0
 21
0.0
 31
0.0
1001
GENIUS_GENREC_14
1002
{
1000
PYDIR
1011
0.0000000000000142
1021
297.0
1031
0.0
1002
}
1002
{
1000
PXDIR
1011
420.0
1021
0.0
1031
0.0
1002
}
1002
{
1000
PORI
1011
0.0
1021
0.0
1031
0.0
1002
}
1002
{
1000
PINS
1011
210.0
1021
148.4999999999999
1031
0.0
1002
}
1002
{
1000
HVAL
1000
297
1002
}
1002
{
1000
H
1070
     2
1002
}
1002
{
1000
WVAL
1000
420
1002
}
1002
{
1000
W
1070
     2
1002
}
1002
{
1000
C
1070
     4
1002
}
1001
GENIUS_GENOBJ-N-REC_13
1002
{
1000
OWNER
1000
GEN
1002
}
1001
GENIUS_GENODEF_13
1002
{
1000
HIER
1070
     0
1002
}
1002
{
1000
MANEDIT
1070
     0
1002
}
1002
{
1000
NOSEL
1070
     0
1002
}
1002
{
1000
BEHIND
1070
     0
1002
}
1002
{
1000
OTHER
1070
     0
1002
}
1002
{
1000
REACTOR
1002
}
  0
ENDSEC
  0
SECTION
  2
OBJECTS
  0
DICTIONARY
  5
C
330
0
100
AcDbDictionary
281
     1
  3
ACAD_2007HEADERVARS_RT
350
C508
  3
ACAD_BGPLOT_KEY
350
AB06
  3
ACAD_COLOR
350
A91D
  3
ACAD_GROUP
350
D
  3
ACAD_LAYOUT
350
1A
  3
ACAD_MATERIAL
350
A91C
  3
ACAD_MLEADERSTYLE
350
BE6A
  3
ACAD_MLINESTYLE
350
17
  3
ACAD_PLOTSETTINGS
350
19
  3
ACAD_PLOTSTYLENAME
350
E
  3
ACAD_SCALELIST
350
BE48
  3
ACAD_TABLESTYLE
350
AAB9
  3
ACAD_VISUALSTYLE
350
B0F1
  3
AcAsAppObject
350
3DA1
  3
ACASGREF_MASTER
350
3DE9
  3
ACDB_RECOMPOSE_DATA
350
C39A
  3
AcDbVariableDictionary
350
34
  3
AcmDictionary
350
47
  3
AD_GREF_MODULE
350
3DEA
  3
AD_MAPI_MODULE
350
3E06
  3
AMG
350
2B
  3
AMGSNAPSETTINGS
350
7D
  3
ASE_INDEX_DICTIONARY
350
B331
  3
DWGPROPS
350
C507
  3
MAPISURF_MODULE
350
3DEB
  0
DICTIONARY
  5
3F95
330
2
100
AcDbDictionary
280
     1
281
     1
  3
ACAD_LAYERFILTERS
360
B466
  3
ACAD_LAYERSTATES
360
3F96
  3
ACLYDICTIONARY
360
B465
  3
AMLAYER_GROUPCOLORS
360
AAB4
  0
DICTIONARY
  5
C363
330
10
100
AcDbDictionary
280
     1
281
     1
  3
ADSK_XREC_LAYER_RECONCILED
360
C364
  0
DICTIONARY
  5
C365
330
5F85
100
AcDbDictionary
280
     1
281
     1
  3
ADSK_XREC_LAYER_RECONCILED
360
C366
  0
DICTIONARY
  5
C367
330
AC9F
100
AcDbDictionary
280
     1
281
     1
  3
ADSK_XREC_LAYER_RECONCILED
360
C368
  0
DICTIONARY
  5
C369
330
ACA0
100
AcDbDictionary
280
     1
281
     1
  3
ADSK_XREC_LAYER_RECONCILED
360
C36A
  0
DICTIONARY
  5
C36B
330
ACA1
100
AcDbDictionary
280
     1
281
     1
  3
ADSK_XREC_LAYER_RECONCILED
360
C36C
  0
DICTIONARY
  5
C36D
330
ACC8
100
AcDbDictionary
280
     1
281
     1
  3
ADSK_XREC_LAYER_RECONCILED
360
C36E
  0
DICTIONARY
  5
C36F
330
ACC9
100
AcDbDictionary
280
     1
281
     1
  3
ADSK_XREC_LAYER_RECONCILED
360
C370
  0
DICTIONARY
  5
C371
330
ACCA
100
AcDbDictionary
280
     1
281
     1
  3
ADSK_XREC_LAYER_RECONCILED
360
C372
  0
DICTIONARY
  5
C373
330
AD60
100
AcDbDictionary
280
     1
281
     1
  3
ADSK_XREC_LAYER_RECONCILED
360
C374
  0
DICTIONARY
  5
C375
330
AD64
100
AcDbDictionary
280
     1
281
     1
  3
ADSK_XREC_LAYER_RECONCILED
360
C376
  0
DICTIONARY
  5
C377
330
AD67
100
AcDbDictionary
280
     1
281
     1
  3
ADSK_XREC_LAYER_RECONCILED
360
C378
  0
DICTIONARY
  5
C379
330
AD68
100
AcDbDictionary
280
     1
281
     1
  3
ADSK_XREC_LAYER_RECONCILED
360
C37A
  0
DICTIONARY
  5
C37B
330
AD69
100
AcDbDictionary
280
     1
281
     1
  3
ADSK_XREC_LAYER_RECONCILED
360
C37C
  0
DICTIONARY
  5
C37D
330
AD6A
100
AcDbDictionary
280
     1
281
     1
  3
ADSK_XREC_LAYER_RECONCILED
360
C37E
  0
DICTIONARY
  5
C37F
330
AD6E
100
AcDbDictionary
280
     1
281
     1
  3
ADSK_XREC_LAYER_RECONCILED
360
C380
  0
DICTIONARY
  5
C381
330
AD6F
100
AcDbDictionary
280
     1
281
     1
  3
ADSK_XREC_LAYER_RECONCILED
360
C382
  0
DICTIONARY
  5
C383
330
B1B6
100
AcDbDictionary
280
     1
281
     1
  3
ADSK_XREC_LAYER_RECONCILED
360
C384
  0
DICTIONARY
  5
C385
330
B2EB
100
AcDbDictionary
280
     1
281
     1
  3
ADSK_XREC_LAYER_RECONCILED
360
C386
  0
DICTIONARY
  5
C387
330
B2EC
100
AcDbDictionary
280
     1
281
     1
  3
ADSK_XREC_LAYER_RECONCILED
360
C388
  0
DICTIONARY
  5
C389
330
B65B
100
AcDbDictionary
280
     1
281
     1
  3
ADSK_XREC_LAYER_RECONCILED
360
C38A
  0
DICTIONARY
  5
C38B
330
B65C
100
AcDbDictionary
280
     1
281
     1
  3
ADSK_XREC_LAYER_RECONCILED
360
C38C
  0
DICTIONARY
  5
C38D
330
B65D
100
AcDbDictionary
280
     1
281
     1
  3
ADSK_XREC_LAYER_RECONCILED
360
C38E
  0
DICTIONARY
  5
8A
330
1F
100
AcDbDictionary
280
     1
281
     1
  3
ACAD_SORTENTS
360
B1BA
  0
DICTIONARY
  5
C297
330
C250
100
AcDbDictionary
280
     1
281
     1
  3
ACAD_SORTENTS
360
C298
  0
DICTIONARY
  5
C508
102
{ACAD_REACTORS
330
C
102
}
330
C
100
AcDbDictionary
281
     1
  3
DIMARCSYM
350
C509
  0
DICTIONARY
  5
AB06
102
{ACAD_REACTORS
330
C
102
}
330
C
100
AcDbDictionary
280
     1
281
     1
  0
DICTIONARY
  5
A91D
102
{ACAD_REACTORS
330
C
102
}
330
C
100
AcDbDictionary
281
     1
  0
DICTIONARY
  5
D
102
{ACAD_REACTORS
330
C
102
}
330
C
100
AcDbDictionary
281
     1
  0
DICTIONARY
  5
1A
102
{ACAD_REACTORS
330
C
102
}
330
C
100
AcDbDictionary
281
     1
  3
Model
350
22
  3
ﾚｲｱｳﾄ1
350
1E
  3
ﾚｲｱｳﾄ2
350
26
  0
DICTIONARY
  5
A91C
102
{ACAD_REACTORS
330
C
102
}
330
C
100
AcDbDictionary
281
     1
  3
ByBlock
350
B0EF
  3
ByLayer
350
B0EE
  3
Global
350
B0F0
  0
DICTIONARY
  5
BE6A
102
{ACAD_REACTORS
330
C
102
}
330
C
100
AcDbDictionary
281
     1
  3
Standard
350
BE6B
  0
DICTIONARY
  5
17
102
{ACAD_REACTORS
330
C
102
}
330
C
100
AcDbDictionary
281
     1
  3
Standard
350
18
  0
DICTIONARY
  5
19
102
{ACAD_REACTORS
330
C
102
}
330
C
100
AcDbDictionary
281
     1
  0
ACDBDICTIONARYWDFLT
  5
E
102
{ACAD_REACTORS
330
C
102
}
330
C
100
AcDbDictionary
281
     1
  3
Normal
350
F
100
AcDbDictionaryWithDefault
340
F
  0
DICTIONARY
  5
BE48
102
{ACAD_REACTORS
330
C
102
}
330
C
100
AcDbDictionary
281
     1
  3
A0
350
BE49
  3
A1
350
BE4A
  3
A2
350
BE4B
  3
A3
350
BE4C
  3
A4
350
BE4D
  3
A5
350
BE4E
  3
A6
350
BE4F
  3
A7
350
BE50
  3
A8
350
BE51
  3
A9
350
BE52
  3
B0
350
BE53
  3
B1
350
BE54
  3
B2
350
BE55
  3
B3
350
BE56
  3
B4
350
BE57
  3
B5
350
BE58
  3
B6
350
BE59
  3
B7
350
BE5A
  3
B8
350
BE5B
  3
B9
350
BE5C
  3
C0
350
BE5D
  3
C1
350
BE5E
  3
C2
350
BE5F
  3
C3
350
BE60
  3
C4
350
BE61
  3
C5
350
BE62
  3
C6
350
BE63
  3
C7
350
BE64
  3
C8
350
BE65
  3
C9
350
BE66
  3
D0
350
BE67
  3
D1
350
BE68
  3
D2
350
BE69
  0
DICTIONARY
  5
AAB9
102
{ACAD_REACTORS
330
C
102
}
330
C
100
AcDbDictionary
281
     1
  3
Standard
350
AABA
  0
DICTIONARY
  5
B0F1
102
{ACAD_REACTORS
330
C
102
}
330
C
100
AcDbDictionary
281
     1
  3
2dWireframe
350
B0F7
  3
3D Hidden
350
B0F9
  3
3dWireframe
350
B0F8
  3
Basic
350
B0F6
  3
Brighten
350
B0FD
  3
ColorChange
350
B101
  3
Conceptual
350
B0FA
  3
Dim
350
B0FC
  3
Facepattern
350
B100
  3
Flat
350
B0F2
  3
FlatWithEdges
350
B0F3
  3
Gouraud
350
B0F4
  3
GouraudWithEdges
350
B0F5
  3
Linepattern
350
B0FF
  3
Realistic
350
B0FB
  3
Thicken
350
B0FE
  0
ACAD_PROXY_OBJECT
  5
3DA1
102
{ACAD_REACTORS
330
C
102
}
330
C
100
AcDbProxyObject
 90
      499
 91
      576
 95
   917527
 70
     0
 93
       10
310
407F
 94
        0
1001
ACAD
1000
AcRTDxfName
1000
ASAPP
  0
ACAD_PROXY_OBJECT
  5
3DE9
102
{ACAD_REACTORS
330
C
102
}
330
C
100
AcDbProxyObject
 90
      499
 91
      581
 95
   917527
 70
     0
 93
       34
310
010000407F
 94
        0
1001
ACAD
1000
AcRTDxfName
1000
ACASGREFMASTER
  0
XRECORD
  5
C39A
102
{ACAD_REACTORS
330
C
102
}
330
C
100
AcDbXrecord
280
     1
 90
        1
330
AABA
  0
DICTIONARY
  5
34
102
{ACAD_REACTORS
330
C
102
}
330
C
100
AcDbDictionary
281
     1
  3
CANNOSCALE
350
C39D
  3
CMLEADERSTYLE
350
C39B
  3
CTABLESTYLE
350
AAF3
  3
DIMASSOC
350
A10C
  3
FIELDEVAL
350
AB07
  3
INDEXCTL
350
35
  3
LIGHTINGUNITS
350
C39E
  3
MSLTSCALE
350
C39C
  3
SORTENTS
350
194C
  0
DICTIONARY
  5
47
102
{ACAD_REACTORS
330
C
102
}
330
C
100
AcDbDictionary
281
     1
  3
AcmBOM
350
7E8
  3
AcmStdDictionary
350
4C
  3
AMDTSECTSYM_ARROWCOLOR
350
A929
  0
ACAD_PROXY_OBJECT
  5
3DEA
102
{ACAD_REACTORS
330
C
102
}
330
C
100
AcDbProxyObject
 90
      499
 91
      582
 95
   917527
 70
     0
 93
      114
310
00000043800000000000000000003F
 94
        0
1001
ACAD
1000
AcRTDxfName
1000
ACADGREFMODULE
  0
ACAD_PROXY_OBJECT
  5
3E06
102
{ACAD_REACTORS
330
C
102
}
330
C
100
AcDbProxyObject
 90
      499
 91
      594
 95
   917527
 70
     0
 93
       34
310
05000044FF
 94
        0
1001
ACAD
1000
AcRTDxfName
1000
MAPIADMODULE
  0
DICTIONARY
  5
2B
102
{ACAD_REACTORS
330
C
102
}
330
C
100
AcDbDictionary
281
     1
  0
DICTIONARY
  5
7D
102
{ACAD_REACTORS
330
C
102
}
330
C
100
AcDbDictionary
281
     1
  0
DICTIONARY
  5
B331
102
{ACAD_REACTORS
330
C
102
}
330
C
100
AcDbDictionary
281
     1
  3
ASEBlockHierarchyIndexRecord
350
B332
1001
DCO15
1040
1594111214.218
  0
XRECORD
  5
C507
102
{ACAD_REACTORS
330
C
102
}
330
C
100
AcDbXrecord
280
     1
  1
DWGPROPS COOKIE
  2

  3

  4

  6

  7

  8
Administrator
  9

300
AmdtFileType=84
301
=
302
=
303
=
304
=
305
=
306
=
307
=
308
=
309
=
 40
0.0892153125
 41
2456129.601273322
 42
2456267.597557327
  1

 90
        1
  0
ACAD_PROXY_OBJECT
  5
3DEB
102
{ACAD_REACTORS
330
C
102
}
330
C
100
AcDbProxyObject
 90
      499
 91
      583
 95
   917527
 70
     0
 93
        8
310
047E
 94
        0
1001
ACAD
1000
AcRTDxfName
1000
AMDTMAPISURFMOUDULE
  0
DICTIONARY
  5
B466
102
{ACAD_REACTORS
330
3F95
102
}
330
3F95
100
AcDbDictionary
281
     1
  0
DICTIONARY
  5
3F96
102
{ACAD_REACTORS
330
3F95
102
}
330
3F95
100
AcDbDictionary
281
     1
  3
20011210
350
3FB7
  0
DICTIONARY
  5
B465
102
{ACAD_REACTORS
330
3F95
102
}
330
3F95
100
AcDbDictionary
281
     1
1001
ACAD
1000
<All
  0
DICTIONARY
  5
AAB4
102
{ACAD_REACTORS
330
3F95
102
}
330
3F95
100
AcDbDictionary
280
     1
281
     1
  0
XRECORD
  5
C364
102
{ACAD_REACTORS
330
C363
102
}
330
C363
100
AcDbXrecord
280
     1
290
     1
  0
XRECORD
  5
C366
102
{ACAD_REACTORS
330
C365
102
}
330
C365
100
AcDbXrecord
280
     1
290
     1
  0
XRECORD
  5
C368
102
{ACAD_REACTORS
330
C367
102
}
330
C367
100
AcDbXrecord
280
     1
290
     1
  0
XRECORD
  5
C36A
102
{ACAD_REACTORS
330
C369
102
}
330
C369
100
AcDbXrecord
280
     1
290
     1
  0
XRECORD
  5
C36C
102
{ACAD_REACTORS
330
C36B
102
}
330
C36B
100
AcDbXrecord
280
     1
290
     1
  0
XRECORD
  5
C36E
102
{ACAD_REACTORS
330
C36D
102
}
330
C36D
100
AcDbXrecord
280
     1
290
     1
  0
XRECORD
  5
C370
102
{ACAD_REACTORS
330
C36F
102
}
330
C36F
100
AcDbXrecord
280
     1
290
     1
  0
XRECORD
  5
C372
102
{ACAD_REACTORS
330
C371
102
}
330
C371
100
AcDbXrecord
280
     1
290
     1
  0
XRECORD
  5
C374
102
{ACAD_REACTORS
330
C373
102
}
330
C373
100
AcDbXrecord
280
     1
290
     1
  0
XRECORD
  5
C376
102
{ACAD_REACTORS
330
C375
102
}
330
C375
100
AcDbXrecord
280
     1
290
     1
  0
XRECORD
  5
C378
102
{ACAD_REACTORS
330
C377
102
}
330
C377
100
AcDbXrecord
280
     1
290
     1
  0
XRECORD
  5
C37A
102
{ACAD_REACTORS
330
C379
102
}
330
C379
100
AcDbXrecord
280
     1
290
     1
  0
XRECORD
  5
C37C
102
{ACAD_REACTORS
330
C37B
102
}
330
C37B
100
AcDbXrecord
280
     1
290
     1
  0
XRECORD
  5
C37E
102
{ACAD_REACTORS
330
C37D
102
}
330
C37D
100
AcDbXrecord
280
     1
290
     1
  0
XRECORD
  5
C380
102
{ACAD_REACTORS
330
C37F
102
}
330
C37F
100
AcDbXrecord
280
     1
290
     1
  0
XRECORD
  5
C382
102
{ACAD_REACTORS
330
C381
102
}
330
C381
100
AcDbXrecord
280
     1
290
     1
  0
XRECORD
  5
C384
102
{ACAD_REACTORS
330
C383
102
}
330
C383
100
AcDbXrecord
280
     1
290
     1
  0
XRECORD
  5
C386
102
{ACAD_REACTORS
330
C385
102
}
330
C385
100
AcDbXrecord
280
     1
290
     1
  0
XRECORD
  5
C388
102
{ACAD_REACTORS
330
C387
102
}
330
C387
100
AcDbXrecord
280
     1
290
     1
  0
XRECORD
  5
C38A
102
{ACAD_REACTORS
330
C389
102
}
330
C389
100
AcDbXrecord
280
     1
290
     1
  0
XRECORD
  5
C38C
102
{ACAD_REACTORS
330
C38B
102
}
330
C38B
100
AcDbXrecord
280
     1
290
     1
  0
XRECORD
  5
C38E
102
{ACAD_REACTORS
330
C38D
102
}
330
C38D
100
AcDbXrecord
280
     1
290
     1
  0
SORTENTSTABLE
  5
B1BA
102
{ACAD_REACTORS
330
8A
102
}
330
8A
100
AcDbSortentsTable
330
1F
331
BCF8
  5
BD14
331
B946
  5
B9AB
331
B90F
  5
B91E
331
BC81
  5
BCA3
331
B94E
  5
B9B6
331
B917
  5
B926
331
BD08
  5
BDB9
331
BC12
  5
BC7D
331
B91F
  5
B92E
331
BD10
  5
BDC1
331
BC91
  5
BC8D
331
BD18
  5
BC88
331
B9AE
  5
B9EF
331
B927
  5
B938
331
BC99
  5
BCFB
331
BDB8
  5
B90B
331
B92F
  5
B941
331
B9B6
  5
BB26
331
BCA1
  5
BD0B
331
BDC0
  5
B913
331
B937
  5
B949
331
BC62
  5
BC9A
331
BBCB
  5
BC5C
331
BCF9
  5
BD15
331
B947
  5
B9AD
331
B910
  5
B91F
331
BC7A
  5
BC9C
331
BD01
  5
BDB8
331
BC82
  5
BCA4
331
BA4D
  5
BC1D
331
B94F
  5
B9B8
331
B918
  5
B927
331
BD09
  5
BDBA
331
BC8A
  5
BC7F
331
BC13
  5
BC7E
331
B920
  5
B92F
331
BC92
  5
BC60
331
BC3B
  5
BC83
331
B9AF
  5
BA1F
331
B928
  5
B939
331
BC9A
  5
BCFC
331
BDB9
  5
B90C
331
B930
  5
B942
331
BDC1
  5
B914
331
B938
  5
B94A
331
BCF2
  5
BD0C
331
BC63
  5
BC9B
331
B9C7
  5
BC12
331
B940
  5
B983
331
BCFA
  5
BD16
331
BC7B
  5
BC9D
331
B948
  5
B9AE
331
B911
  5
B920
331
B950
  5
B9B9
331
B919
  5
B928
331
BC0C
  5
BC5E
331
BC83
  5
BCF5
331
BD0A
  5
BDBB
331
BC14
  5
BC80
331
B9EF
  5
BC13
331
B921
  5
B930
331
BD1A
  5
BDC6
331
BC3C
  5
BC84
331
B929
  5
B93A
331
B9B0
  5
BA4D
331
BC9B
  5
BCFD
331
BDBA
  5
B90D
331
B931
  5
B945
331
B9B8
  5
BB4E
331
BDC2
  5
B915
331
BC5C
  5
BC8E
331
BA1F
  5
BC14
331
B939
  5
B94B
331
BCF3
  5
BD0D
331
B941
  5
B984
331
BCFB
  5
BD17
331
B949
  5
B9AF
331
B912
  5
B921
331
BC7C
  5
BC9E
331
BC0D
  5
BC5F
331
B91A
  5
B929
331
BC84
  5
BCF6
331
BD0B
  5
BDBC
331
BB26
  5
BC3F
331
BD13
  5
BC87
331
BC1D
  5
BC82
331
B922
  5
B931
331
BC3D
  5
BC86
331
B92A
  5
B93B
331
B9B1
  5
BABA
331
BC9C
  5
BCFE
331
BDBB
  5
B90E
331
BB4E
  5
BC40
331
B9B9
  5
BBCB
331
BDC3
  5
B916
331
BC5D
  5
BC8F
331
B93A
  5
B94C
331
BCF4
  5
BD0E
331
BB07
  5
BC3E
331
B942
  5
B985
331
B90B
  5
B91A
331
BCFC
  5
BD18
331
BC7D
  5
BC9F
331
B94A
  5
B9B0
331
B913
  5
B922
331
BC85
  5
BCF7
331
B91B
  5
B92A
331
BD0C
  5
BDBD
331
BC8D
  5
BC85
331
BC16
  5
BC81
331
BD14
  5
BDC2
331
B9AA
  5
B9C4
331
B923
  5
B934
331
B92B
  5
B93C
331
BC3E
  5
BC89
331
BDBC
  5
B90F
331
B9BA
  5
BC0C
331
BC9D
  5
BD00
331
BC5E
  5
BC90
331
B93B
  5
B94D
331
BCF5
  5
BD0F
331
B90C
  5
B91B
331
BC7E
  5
BCA0
331
B94B
  5
B9B1
331
B914
  5
B923
331
BCFD
  5
BD19
331
BC0F
  5
BC63
331
B91C
  5
B92B
331
BC86
  5
BCF8
331
BC8E
  5
BC8A
331
B983
  5
B9BA
331
BD0D
  5
BDBE
331
BD15
  5
BDC3
331
B9AB
  5
B9C5
331
B924
  5
B935
331
BC3F
  5
BC8B
331
B92C
  5
B93D
331
B9B3
  5
BAD9
331
BAD9
  5
BC3D
331
BDBD
  5
B910
331
B934
  5
B946
331
BC9E
  5
BD01
331
BC5F
  5
BC91
331
B93C
  5
B94E
331
BCF6
  5
BD10
331
B90D
  5
B91C
331
BC7F
  5
BCA1
331
B94C
  5
B9B3
331
B915
  5
B924
331
B91D
  5
B92C
331
BC10
  5
BC7A
331
BC87
  5
BCF9
331
BABA
  5
BC3C
331
B984
  5
B9BC
331
BD0E
  5
BDBF
331
BD16
  5
BDC4
331
B925
  5
B936
331
BC40
  5
BC8C
331
B9B4
  5
BB07
331
B92D
  5
B93E
331
BC9F
  5
BD02
331
BDBE
  5
B911
331
B9BC
  5
BC0D
331
B935
  5
B947
331
BC60
  5
BC92
331
B9C4
  5
BC10
331
B93D
  5
B94F
331
BCF7
  5
BD11
331
B945
  5
B9AA
331
B90E
  5
B91D
331
BCFF
  5
BD1A
331
BC80
  5
BCA2
331
B94D
  5
B9B4
331
B916
  5
B925
331
BC11
  5
BC7C
331
B91E
  5
B92D
331
BC88
  5
BCFA
331
BD0F
  5
BDC0
331
B985
  5
B9BD
331
BD17
  5
BDC5
331
B9AD
  5
B9C7
331
B926
  5
B937
331
B92E
  5
B940
331
BCA0
  5
BD04
331
BDBF
  5
B912
331
B9BD
  5
BC0F
331
B936
  5
B948
331
BC61
  5
BC99
331
B9C5
  5
BC11
331
B93E
  5
B950
  0
SORTENTSTABLE
  5
C298
102
{ACAD_REACTORS
330
C297
102
}
330
C297
100
AcDbSortentsTable
330
C250
  0
XRECORD
  5
C509
102
{ACAD_REACTORS
330
C508
102
}
330
C508
100
AcDbXrecord
280
     1
 70
     1
  0
LAYOUT
  5
22
102
{ACAD_XDICTIONARY
360
C50C
102
}
102
{ACAD_REACTORS
330
1A
102
}
330
1A
100
AcDbPlotSettings
  1

  2
Adobe PDF
  4
A4
  6
AM_VIEW1
 40
3.174999952316284
 41
3.174999952316284
 42
3.175003051757812
 43
3.17498779296875
 44
209.9733276367187
 45
297.0318298339844
 46
-3.188337683677687
 47
-3.159078955650329
 48
0.0
 49
-0.0000000000000284
140
297.0
141
210.0
142
1.0
143
1.0
 70
  3748
 72
     1
 73
     1
 74
     4
  7
monochrome.ctb
 75
     0
147
0.9532055446079798
148
0.0
149
0.0000000000000284
100
AcDbLayout
  1
Model
 70
     1
 71
     0
 10
0.0
 20
0.0
 11
12.0
 21
9.0
 12
0.0
 22
0.0
 32
0.0
 14
0.0
 24
0.0
 34
0.0
 15
0.0
 25
0.0
 35
0.0
146
0.0
 13
0.0
 23
0.0
 33
0.0
 16
1.0
 26
0.0
 36
0.0
 17
0.0
 27
1.0
 37
0.0
 76
     0
330
1F
331
B0EC
1001
ACAD_PSEXT
1000
Adobe PDF
1000
Adobe PDF Converter
1000
My Documents\*.pdf
1000

1070
     0
  0
LAYOUT
  5
1E
102
{ACAD_XDICTIONARY
360
C50A
102
}
102
{ACAD_REACTORS
330
1A
102
}
330
1A
100
AcDbPlotSettings
  1

  2
\\ML370\XEROX
  4
A4
  6

 40
3.174999952316284
 41
3.174999952316284
 42
3.175003051757812
 43
3.17498779296875
 44
209.8674926757813
 45
296.6719970703125
 46
0.0
 47
0.0
 48
0.0
 49
0.0
140
0.0
141
0.0
142
1.0
143
1.0
 70
   688
 72
     1
 73
     1
 74
     5
  7
monochrome.ctb
 75
    16
147
1.0
148
0.0
149
0.0
100
AcDbLayout
  1
ﾚｲｱｳﾄ1
 70
     1
 71
     1
 10
-3.17498779296875
 20
-3.174999952316284
 11
293.4970092773438
 21
206.692492723465
 12
0.0
 22
0.0
 32
0.0
 14
1.000000000000000E+20
 24
1.000000000000000E+20
 34
1.000000000000000E+20
 15
-1.000000000000000E+20
 25
-1.000000000000000E+20
 35
-1.000000000000000E+20
146
0.0
 13
0.0
 23
0.0
 33
0.0
 16
1.0
 26
0.0
 36
0.0
 17
0.0
 27
1.0
 37
0.0
 76
     0
330
1B
  0
LAYOUT
  5
26
102
{ACAD_XDICTIONARY
360
C50E
102
}
102
{ACAD_REACTORS
330
1A
102
}
330
1A
100
AcDbPlotSettings
  1

  2
\\ML370\XEROX
  4

  6

 40
0.0
 41
0.0
 42
0.0
 43
0.0
 44
0.0
 45
0.0
 46
0.0
 47
0.0
 48
0.0
 49
0.0
140
0.0
141
0.0
142
1.0
143
1.0
 70
   688
 72
     0
 73
     0
 74
     5
  7
monochrome.ctb
 75
    16
147
1.0
148
0.0
149
0.0
100
AcDbLayout
  1
ﾚｲｱｳﾄ2
 70
     1
 71
     2
 10
0.0
 20
0.0
 11
12.0
 21
9.0
 12
0.0
 22
0.0
 32
0.0
 14
0.0
 24
0.0
 34
0.0
 15
0.0
 25
0.0
 35
0.0
146
0.0
 13
0.0
 23
0.0
 33
0.0
 16
1.0
 26
0.0
 36
0.0
 17
0.0
 27
1.0
 37
0.0
 76
     0
330
23
  0
MATERIAL
  5
B0EF
102
{ACAD_XDICTIONARY
360
C513
102
}
102
{ACAD_REACTORS
330
A91C
102
}
330
A91C
100
AcDbMaterial
  1
ByBlock
  0
MATERIAL
  5
B0EE
102
{ACAD_XDICTIONARY
360
C511
102
}
102
{ACAD_REACTORS
330
A91C
102
}
330
A91C
100
AcDbMaterial
  1
ByLayer
  0
MATERIAL
  5
B0F0
102
{ACAD_XDICTIONARY
360
C515
102
}
102
{ACAD_REACTORS
330
A91C
102
}
330
A91C
100
AcDbMaterial
  1
Global
  0
ACAD_PROXY_OBJECT
  5
BE6B
102
{ACAD_REACTORS
330
BE6A
102
}
330
BE6A
100
AcDbProxyObject
 90
      499
 91
      629
 95
  1703963
 70
     0
 93
      817
310
40901902A40600000030400FEFFFFFF8000000000000008102B5E8DC0F42B5CFC0000000000001040405064068000000C1000000000000000410000000000000004102000000304015D94000000000000C03F4214C01D0018401B80190018401C80190028C00CC
340
14
340
0
340
11
340
0
 94
        0
1001
ACAD_MLEADERVER
1070
     2
1001
ACAD
1000
AcRTDxfName
1000
MLEADERSTYLE
  0
MLINESTYLE
  5
18
102
{ACAD_REACTORS
330
17
102
}
330
17
100
AcDbMlineStyle
  2
STANDARD
 70
     0
  3

 62
   256
 51
90.0
 52
90.0
 71
     2
 49
0.5
 62
   256
  6
BYLAYER
 49
-0.5
 62
   256
  6
BYLAYER
  0
ACDBPLACEHOLDER
  5
F
102
{ACAD_REACTORS
330
E
102
}
330
E
  0
ACAD_PROXY_OBJECT
  5
BE49
102
{ACAD_REACTORS
330
BE48
102
}
330
BE48
100
AcDbProxyObject
 90
      499
 91
      628
 95
  1703963
 70
     0
 93
       82
310
968198801D0018801D004C
 94
        0
1001
ACAD
1000
AcRTDxfName
1000
SCALE
  0
ACAD_PROXY_OBJECT
  5
BE4A
102
{ACAD_REACTORS
330
BE48
102
}
330
BE48
100
AcDbProxyObject
 90
      499
 91
      628
 95
  1703963
 70
     0
 93
      146
310
9000000000000001008198801D0019001D004C
 94
        0
1001
ACAD
1000
AcRTDxfName
1000
SCALE
  0
ACAD_PROXY_OBJECT
  5
BE4B
102
{ACAD_REACTORS
330
BE48
102
}
330
BE48
100
AcDbProxyObject
 90
      499
 91
      628
 95
  1703963
 70
     0
 93
      146
310
9000000000000041008198801D001A001D004C
 94
        0
1001
ACAD
1000
AcRTDxfName
1000
SCALE
  0
ACAD_PROXY_OBJECT
  5
BE4C
102
{ACAD_REACTORS
330
BE48
102
}
330
BE48
100
AcDbProxyObject
 90
      499
 91
      628
 95
  1703963
 70
     0
 93
      146
310
9000000000000051008198801D001A801D004C
 94
        0
1001
ACAD
1000
AcRTDxfName
1000
SCALE
  0
ACAD_PROXY_OBJECT
  5
BE4D
102
{ACAD_REACTORS
330
BE48
102
}
330
BE48
100
AcDbProxyObject
 90
      499
 91
      628
 95
  1703963
 70
     0
 93
      146
310
9000000000000081008198801D001C001D004C
 94
        0
1001
ACAD
1000
AcRTDxfName
1000
SCALE
  0
ACAD_PROXY_OBJECT
  5
BE4E
102
{ACAD_REACTORS
330
BE48
102
}
330
BE48
100
AcDbProxyObject
 90
      499
 91
      628
 95
  1703963
 70
     0
 93
      162
310
9000000000000091008218801D001880180025004C
 94
        0
1001
ACAD
1000
AcRTDxfName
1000
SCALE
  0
ACAD_PROXY_OBJECT
  5
BE4F
102
{ACAD_REACTORS
330
BE48
102
}
330
BE48
100
AcDbProxyObject
 90
      499
 91
      628
 95
  1703963
 70
     0
 93
      162
310
90000000000000C1008218801D0018801B0025004C
 94
        0
1001
ACAD
1000
AcRTDxfName
1000
SCALE
  0
ACAD_PROXY_OBJECT
  5
BE50
102
{ACAD_REACTORS
330
BE48
102
}
330
BE48
100
AcDbProxyObject
 90
      499
 91
      628
 95
  1703963
 70
     0
 93
      162
310
90000000000000D1008218801D001900180025004C
 94
        0
1001
ACAD
1000
AcRTDxfName
1000
SCALE
  0
ACAD_PROXY_OBJECT
  5
BE51
102
{ACAD_REACTORS
330
BE48
102
}
330
BE48
100
AcDbProxyObject
 90
      499
 91
      628
 95
  1703963
 70
     0
 93
      162
310
90000000000000F9008218801D001980180025004C
 94
        0
1001
ACAD
1000
AcRTDxfName
1000
SCALE
  0
ACAD_PROXY_OBJECT
  5
BE52
102
{ACAD_REACTORS
330
BE48
102
}
330
BE48
100
AcDbProxyObject
 90
      499
 91
      628
 95
  1703963
 70
     0
 93
      162
310
9000000000000111008218801D001A00180025004C
 94
        0
1001
ACAD
1000
AcRTDxfName
1000
SCALE
  0
ACAD_PROXY_OBJECT
  5
BE53
102
{ACAD_REACTORS
330
BE48
102
}
330
BE48
100
AcDbProxyObject
 90
      499
 91
      628
 95
  1703963
 70
     0
 93
      162
310
9000000000000125008218801D001A80180025004C
 94
        0
1001
ACAD
1000
AcRTDxfName
1000
SCALE
  0
ACAD_PROXY_OBJECT
  5
BE54
102
{ACAD_REACTORS
330
BE48
102
}
330
BE48
100
AcDbProxyObject
 90
      499
 91
      628
 95
  1703963
 70
     0
 93
      178
310
9000000000000165008298801D001880180018002D004C
 94
        0
1001
ACAD
1000
AcRTDxfName
1000
SCALE
  0
ACAD_PROXY_OBJECT
  5
BE55
102
{ACAD_REACTORS
330
BE48
102
}
330
BE48
100
AcDbProxyObject
 90
      499
 91
      628
 95
  1703963
 70
     0
 93
      146
310
8000000000000004048199001D0018801D004C
 94
        0
1001
ACAD
1000
AcRTDxfName
1000
SCALE
  0
ACAD_PROXY_OBJECT
  5
BE56
102
{ACAD_REACTORS
330
BE48
102
}
330
BE48
100
AcDbProxyObject
 90
      499
 91
      628
 95
  1703963
 70
     0
 93
      146
310
800000000000010404819A001D0018801D004C
 94
        0
1001
ACAD
1000
AcRTDxfName
1000
SCALE
  0
ACAD_PROXY_OBJECT
  5
BE57
102
{ACAD_REACTORS
330
BE48
102
}
330
BE48
100
AcDbProxyObject
 90
      499
 91
      628
 95
  1703963
 70
     0
 93
      146
310
800000000000020404819C001D0018801D004C
 94
        0
1001
ACAD
1000
AcRTDxfName
1000
SCALE
  0
ACAD_PROXY_OBJECT
  5
BE58
102
{ACAD_REACTORS
330
BE48
102
}
330
BE48
100
AcDbProxyObject
 90
      499
 91
      628
 95
  1703963
 70
     0
 93
      162
310
80000000000002440482188018001D00188025004C
 94
        0
1001
ACAD
1000
AcRTDxfName
1000
SCALE
  0
ACAD_PROXY_OBJECT
  5
BE59
102
{ACAD_REACTORS
330
BE48
102
}
330
BE48
100
AcDbProxyObject
 90
      499
 91
      628
 95
  1703963
 70
     0
 93
      178
310
800000000000059404829880180018001D0018802D004C
 94
        0
1001
ACAD
1000
AcRTDxfName
1000
SCALE
  0
ACAD_PROXY_OBJECT
  5
BE5A
102
{ACAD_REACTORS
330
BE48
102
}
330
BE48
100
AcDbProxyObject
 90
      499
 91
      628
 95
  1703963
 70
     0
 93
      386
310
8000000000000803F0000000000000A1008718801780188019001C00110010001E8010001880138016801800110075004C
 94
        0
1001
ACAD
1000
AcRTDxfName
1000
SCALE
  0
ACAD_PROXY_OBJECT
  5
BE5B
102
{ACAD_REACTORS
330
BE48
102
}
330
BE48
100
AcDbProxyObject
 90
      499
 91
      628
 95
  1703963
 70
     0
 93
      370
310
8000000000000903F0000000000000A10086988017801B001A00110010001E801000188013801680180011006D004C
 94
        0
1001
ACAD
1000
AcRTDxfName
1000
SCALE
  0
ACAD_PROXY_OBJECT
  5
BE5C
102
{ACAD_REACTORS
330
BE48
102
}
330
BE48
100
AcDbProxyObject
 90
      499
 91
      628
 95
  1703963
 70
     0
 93
      370
310
8000000000000A03F0000000000000A100869880178019801900110010001E801000188013801680180011006D004C
 94
        0
1001
ACAD
1000
AcRTDxfName
1000
SCALE
  0
ACAD_PROXY_OBJECT
  5
BE5D
102
{ACAD_REACTORS
330
BE48
102
}
330
BE48
100
AcDbProxyObject
 90
      499
 91
      628
 95
  1703963
 70
     0
 93
      370
310
8000000000000B03F0000000000000A100869880178018801B00110010001E801000188013801680180011006D004C
 94
        0
1001
ACAD
1000
AcRTDxfName
1000
SCALE
  0
ACAD_PROXY_OBJECT
  5
BE5E
102
{ACAD_REACTORS
330
BE48
102
}
330
BE48
100
AcDbProxyObject
 90
      499
 91
      628
 95
  1703963
 70
     0
 93
      370
310
8000000000000B83F0000000000000A100869980178019801900110010001E801000188013801680180011006D004C
 94
        0
1001
ACAD
1000
AcRTDxfName
1000
SCALE
  0
ACAD_PROXY_OBJECT
  5
BE5F
102
{ACAD_REACTORS
330
BE48
102
}
330
BE48
100
AcDbProxyObject
 90
      499
 91
      628
 95
  1703963
 70
     0
 93
      354
310
8000000000000C03F0000000000000A10086188017801C00110010001E8010001880138016801800110065004C
 94
        0
1001
ACAD
1000
AcRTDxfName
1000
SCALE
  0
ACAD_PROXY_OBJECT
  5
BE60
102
{ACAD_REACTORS
330
BE48
102
}
330
BE48
100
AcDbProxyObject
 90
      499
 91
      628
 95
  1703963
 70
     0
 93
      370
310
8000000000000C83F0000000000000A100869980178018801B00110010001E801000188013801680180011006D004C
 94
        0
1001
ACAD
1000
AcRTDxfName
1000
SCALE
  0
ACAD_PROXY_OBJECT
  5
BE61
102
{ACAD_REACTORS
330
BE48
102
}
330
BE48
100
AcDbProxyObject
 90
      499
 91
      628
 95
  1703963
 70
     0
 93
      354
310
8000000000000D03F0000000000000A10086188017801A00110010001E8010001880138016801800110065004C
 94
        0
1001
ACAD
1000
AcRTDxfName
1000
SCALE
  0
ACAD_PROXY_OBJECT
  5
BE62
102
{ACAD_REACTORS
330
BE48
102
}
330
BE48
100
AcDbProxyObject
 90
      499
 91
      628
 95
  1703963
 70
     0
 93
      354
310
8000000000000D83F0000000000000A10086198017801C00110010001E8010001880138016801800110065004C
 94
        0
1001
ACAD
1000
AcRTDxfName
1000
SCALE
  0
ACAD_PROXY_OBJECT
  5
BE63
102
{ACAD_REACTORS
330
BE48
102
}
330
BE48
100
AcDbProxyObject
 90
      499
 91
      628
 95
  1703963
 70
     0
 93
      354
310
8000000000000E03F0000000000000A10086188017801900110010001E8010001880138016801800110065004C
 94
        0
1001
ACAD
1000
AcRTDxfName
1000
SCALE
  0
ACAD_PROXY_OBJECT
  5
BE64
102
{ACAD_REACTORS
330
BE48
102
}
330
BE48
100
AcDbProxyObject
 90
      499
 91
      628
 95
  1703963
 70
     0
 93
      354
310
8000000000000E83F0000000000000A10086198017801A00110010001E8010001880138016801800110065004C
 94
        0
1001
ACAD
1000
AcRTDxfName
1000
SCALE
  0
ACAD_PROXY_OBJECT
  5
BE65
102
{ACAD_REACTORS
330
BE48
102
}
330
BE48
100
AcDbProxyObject
 90
      499
 91
      628
 95
  1703963
 70
     0
 93
      258
310
90000000000000A100851880110010001E8010001880138016801800110055004C
 94
        0
1001
ACAD
1000
AcRTDxfName
1000
SCALE
  0
ACAD_PROXY_OBJECT
  5
BE66
102
{ACAD_REACTORS
330
BE48
102
}
330
BE48
100
AcDbProxyObject
 90
      499
 91
      628
 95
  1703963
 70
     0
 93
      386
310
8000000000000F83F0000000000000A1008718801680188017801900110010001E8010001880138016801800110075004C
 94
        0
1001
ACAD
1000
AcRTDxfName
1000
SCALE
  0
ACAD_PROXY_OBJECT
  5
BE67
102
{ACAD_REACTORS
330
BE48
102
}
330
BE48
100
AcDbProxyObject
 90
      499
 91
      628
 95
  1703963
 70
     0
 93
      322
310
800000000000008400000000000000A100851980110010001E8010001880138016801800110055004C
 94
        0
1001
ACAD
1000
AcRTDxfName
1000
SCALE
  0
ACAD_PROXY_OBJECT
  5
BE68
102
{ACAD_REACTORS
330
BE48
102
}
330
BE48
100
AcDbProxyObject
 90
      499
 91
      628
 95
  1703963
 70
     0
 93
      322
310
800000000000018400000000000000A100851B00110010001E8010001880138016801800110055004C
 94
        0
1001
ACAD
1000
AcRTDxfName
1000
SCALE
  0
ACAD_PROXY_OBJECT
  5
BE69
102
{ACAD_REACTORS
330
BE48
102
}
330
BE48
100
AcDbProxyObject
 90
      499
 91
      628
 95
  1703963
 70
     0
 93
      370
310
800000000000028400000000000000A100869880138016801800110010001E801000188013801680180011006D004C
 94
        0
1001
ACAD
1000
AcRTDxfName
1000
SCALE
  0
TABLESTYLE
  5
AABA
102
{ACAD_XDICTIONARY
360
C398
102
}
102
{ACAD_REACTORS
330
AAB9
102
}
330
AAB9
100
AcDbTableStyle
  3
Standard
 70
     0
 71
     0
 40
1.5
 41
1.5
280
     0
281
     0
  7
STANDARD
140
4.5
170
     2
 62
     0
 63
     7
283
     0
274
    -2
284
     1
 64
     0
275
    -2
285
     1
 65
     0
276
    -2
286
     1
 66
     0
277
    -2
287
     1
 67
     0
278
    -2
288
     1
 68
     0
279
    -2
289
     1
 69
     0
  7
STANDARD
140
6.0
170
     5
 62
     0
 63
     7
283
     0
274
    -2
284
     1
 64
     0
275
    -2
285
     1
 65
     0
276
    -2
286
     1
 66
     0
277
    -2
287
     1
 67
     0
278
    -2
288
     1
 68
     0
279
    -2
289
     1
 69
     0
  7
STANDARD
140
4.5
170
     5
 62
     0
 63
     7
283
     0
274
    -2
284
     1
 64
     0
275
    -2
285
     1
 65
     0
276
    -2
286
     1
 66
     0
277
    -2
287
     1
 67
     0
278
    -2
288
     1
 68
     0
279
    -2
289
     1
 69
     0
  0
VISUALSTYLE
  5
B0F7
102
{ACAD_REACTORS
330
B0F1
102
}
330
B0F1
100
AcDbVisualStyle
  2
2dWireframe
 70
     4
 71
     0
 72
     2
 73
     0
 90
        0
 40
-0.6
 41
-30.0
 62
     5
 63
     7
 74
     1
 91
        4
 64
     7
 65
   257
 75
     1
175
     1
 42
1.0
 92
        0
 66
   257
 43
1.0
 76
     1
 77
     6
 78
     2
 67
     7
 79
     5
170
     0
171
     0
290
     0
174
     0
 93
        1
 44
0.0
173
     0
291
     0
 45
0.0
1001
ACAD
1000
AcDbSavedByObjectVersion
1070
     0
  0
VISUALSTYLE
  5
B0F9
102
{ACAD_REACTORS
330
B0F1
102
}
330
B0F1
100
AcDbVisualStyle
  2
3D Hidden
 70
     6
 71
     1
 72
     2
 73
     2
 90
        0
 40
-0.6
 41
-30.0
 62
     5
 63
     7
 74
     2
 91
        2
 64
     7
 65
   257
 75
     2
175
     1
 42
40.0
 92
        0
 66
   257
 43
1.0
 76
     1
 77
     6
 78
     2
 67
     7
 79
     3
170
     0
171
     0
290
     0
174
     0
 93
        1
 44
0.0
173
     0
291
     0
 45
0.0
1001
ACAD
1000
AcDbSavedByObjectVersion
1070
     0
  0
VISUALSTYLE
  5
B0F8
102
{ACAD_REACTORS
330
B0F1
102
}
330
B0F1
100
AcDbVisualStyle
  2
3dWireframe
 70
     5
 71
     0
 72
     2
 73
     0
 90
        0
 40
-0.6
 41
-30.0
 62
     5
 63
     7
 74
     1
 91
        4
 64
     7
 65
   257
 75
     1
175
     1
 42
1.0
 92
        0
 66
   257
 43
1.0
 76
     1
 77
     6
 78
     2
 67
     7
 79
     5
170
     0
171
     0
290
     0
174
     0
 93
        1
 44
0.0
173
     0
291
     0
 45
0.0
1001
ACAD
1000
AcDbSavedByObjectVersion
1070
     0
  0
VISUALSTYLE
  5
B0F6
102
{ACAD_REACTORS
330
B0F1
102
}
330
B0F1
100
AcDbVisualStyle
  2
Basic
 70
     7
 71
     1
 72
     0
 73
     1
 90
        0
 40
-0.6
 41
-30.0
 62
     5
 63
     7
 74
     0
 91
        4
 64
     7
 65
   257
 75
     1
175
     1
 42
1.0
 92
        8
 66
     7
 43
1.0
 76
     1
 77
     6
 78
     2
 67
     7
 79
     5
170
     0
171
     0
290
     0
174
     0
 93
        1
 44
0.0
173
     0
291
     1
 45
0.0
1001
ACAD
1000
AcDbSavedByObjectVersion
1070
     0
  0
VISUALSTYLE
  5
B0FD
102
{ACAD_REACTORS
330
B0F1
102
}
330
B0F1
100
AcDbVisualStyle
  2
Brighten
 70
    12
 71
     2
 72
     2
 73
     0
 90
        0
 40
-0.6
 41
-30.0
 62
     5
 63
     7
 74
     1
 91
        4
 64
     7
 65
   257
 75
     1
175
     1
 42
1.0
 92
        8
 66
     7
 43
1.0
 76
     1
 77
     6
 78
     2
 67
     7
 79
     5
170
     0
171
     0
290
     0
174
     0
 93
        1
 44
50.0
173
     0
291
     1
 45
0.0
1001
ACAD
1000
AcDbSavedByObjectVersion
1070
     0
  0
VISUALSTYLE
  5
B101
102
{ACAD_REACTORS
330
B0F1
102
}
330
B0F1
100
AcDbVisualStyle
  2
ColorChange
 70
    16
 71
     2
 72
     2
 73
     3
 90
        0
 40
-0.6
 41
-30.0
 62
     5
 63
     8
 74
     1
 91
        4
 64
     7
 65
   257
 75
     1
175
     1
 42
1.0
 92
        8
 66
     8
 43
1.0
 76
     1
 77
     6
 78
     2
 67
     7
 79
     5
170
     0
171
     0
290
     0
174
     0
 93
        1
 44
0.0
173
     0
291
     1
 45
0.0
1001
ACAD
1000
AcDbSavedByObjectVersion
1070
     0
  0
VISUALSTYLE
  5
B0FA
102
{ACAD_REACTORS
330
B0F1
102
}
330
B0F1
100
AcDbVisualStyle
  2
Conceptual
 70
     9
 71
     3
 72
     2
 73
     0
 90
        0
 40
-0.6
 41
-30.0
 62
     5
 63
     7
 74
     2
 91
        2
 64
     7
 65
   257
 75
     1
175
     1
 42
40.0
 92
        8
 66
     7
 43
1.0
 76
     1
 77
     6
 78
     2
 67
     7
 79
     3
170
     0
171
     0
290
     0
174
     0
 93
        1
 44
0.0
173
     0
291
     0
 45
0.0
1001
ACAD
1000
AcDbSavedByObjectVersion
1070
     0
  0
VISUALSTYLE
  5
B0FC
102
{ACAD_REACTORS
330
B0F1
102
}
330
B0F1
100
AcDbVisualStyle
  2
Dim
 70
    11
 71
     2
 72
     2
 73
     0
 90
        0
 40
-0.6
 41
-30.0
 62
     5
 63
     7
 74
     1
 91
        4
 64
     7
 65
   257
 75
     1
175
     1
 42
1.0
 92
        8
 66
     7
 43
1.0
 76
     1
 77
     6
 78
     2
 67
     7
 79
     5
170
     0
171
     0
290
     0
174
     0
 93
        1
 44
-50.0
173
     0
291
     1
 45
0.0
1001
ACAD
1000
AcDbSavedByObjectVersion
1070
     0
  0
VISUALSTYLE
  5
B100
102
{ACAD_REACTORS
330
B0F1
102
}
330
B0F1
100
AcDbVisualStyle
  2
Facepattern
 70
    15
 71
     2
 72
     2
 73
     0
 90
        0
 40
-0.6
 41
-30.0
 62
     5
 63
     7
 74
     1
 91
        4
 64
     7
 65
   257
 75
     1
175
     1
 42
1.0
 92
        8
 66
     7
 43
1.0
 76
     1
 77
     6
 78
     2
 67
     7
 79
     5
170
     0
171
     0
290
     0
174
     0
 93
        1
 44
0.0
173
     0
291
     1
 45
0.0
1001
ACAD
1000
AcDbSavedByObjectVersion
1070
     0
  0
VISUALSTYLE
  5
B0F2
102
{ACAD_REACTORS
330
B0F1
102
}
330
B0F1
100
AcDbVisualStyle
  2
Flat
 70
     0
 71
     2
 72
     1
 73
     1
 90
        2
 40
-0.6
 41
30.0
 62
     5
 63
     7
 74
     0
 91
        4
 64
     7
 65
   257
 75
     1
175
     1
 42
1.0
 92
        8
 66
     7
 43
1.0
 76
     1
 77
     6
 78
     2
 67
     7
 79
     5
170
     0
171
     0
290
     0
174
     0
 93
       13
 44
0.0
173
     0
291
     1
 45
0.0
1001
ACAD
1000
AcDbSavedByObjectVersion
1070
     0
  0
VISUALSTYLE
  5
B0F3
102
{ACAD_REACTORS
330
B0F1
102
}
330
B0F1
100
AcDbVisualStyle
  2
FlatWithEdges
 70
     1
 71
     2
 72
     1
 73
     1
 90
        2
 40
-0.6
 41
30.0
 62
     5
 63
     7
 74
     1
 91
        4
 64
     7
 65
   257
 75
     1
175
     1
 42
1.0
 92
        0
 66
   257
 43
1.0
 76
     1
 77
     6
 78
     2
 67
     7
 79
     5
170
     0
171
     0
290
     0
174
     0
 93
       13
 44
0.0
173
     0
291
     1
 45
0.0
1001
ACAD
1000
AcDbSavedByObjectVersion
1070
     0
  0
VISUALSTYLE
  5
B0F4
102
{ACAD_REACTORS
330
B0F1
102
}
330
B0F1
100
AcDbVisualStyle
  2
Gouraud
 70
     2
 71
     2
 72
     2
 73
     1
 90
        2
 40
-0.6
 41
30.0
 62
     5
 63
     7
 74
     0
 91
        4
 64
     7
 65
   257
 75
     1
175
     1
 42
1.0
 92
        0
 66
     7
 43
1.0
 76
     1
 77
     6
 78
     2
 67
     7
 79
     5
170
     0
171
     0
290
     0
174
     0
 93
       13
 44
0.0
173
     0
291
     1
 45
0.0
1001
ACAD
1000
AcDbSavedByObjectVersion
1070
     0
  0
VISUALSTYLE
  5
B0F5
102
{ACAD_REACTORS
330
B0F1
102
}
330
B0F1
100
AcDbVisualStyle
  2
GouraudWithEdges
 70
     3
 71
     2
 72
     2
 73
     1
 90
        2
 40
-0.6
 41
30.0
 62
     5
 63
     7
 74
     1
 91
        4
 64
     7
 65
   257
 75
     1
175
     1
 42
1.0
 92
        0
 66
   257
 43
1.0
 76
     1
 77
     6
 78
     2
 67
     7
 79
     5
170
     0
171
     0
290
     0
174
     0
 93
       13
 44
0.0
173
     0
291
     1
 45
0.0
1001
ACAD
1000
AcDbSavedByObjectVersion
1070
     0
  0
VISUALSTYLE
  5
B0FF
102
{ACAD_REACTORS
330
B0F1
102
}
330
B0F1
100
AcDbVisualStyle
  2
Linepattern
 70
    14
 71
     2
 72
     2
 73
     0
 90
        0
 40
-0.6
 41
-30.0
 62
     5
 63
     7
 74
     1
 91
        4
 64
     7
 65
   257
 75
     7
175
     7
 42
1.0
 92
        8
 66
     7
 43
1.0
 76
     1
 77
     6
 78
     2
 67
     7
 79
     5
170
     0
171
     0
290
     0
174
     0
 93
        1
 44
0.0
173
     0
291
     1
 45
0.0
1001
ACAD
1000
AcDbSavedByObjectVersion
1070
     0
  0
VISUALSTYLE
  5
B0FB
102
{ACAD_REACTORS
330
B0F1
102
}
330
B0F1
100
AcDbVisualStyle
  2
Realistic
 70
     8
 71
     2
 72
     2
 73
     0
 90
        0
 40
-0.6
 41
-30.0
 62
     5
 63
     7
 74
     1
 91
        0
 64
     7
 65
   257
 75
     1
175
     1
 42
1.0
 92
        8
 66
     8
 43
1.0
 76
     1
 77
     6
 78
     2
 67
     7
 79
     5
170
     0
171
     0
290
     0
174
     0
 93
       13
 44
0.0
173
     0
291
     0
 45
0.0
1001
ACAD
1000
AcDbSavedByObjectVersion
1070
     0
  0
VISUALSTYLE
  5
B0FE
102
{ACAD_REACTORS
330
B0F1
102
}
330
B0F1
100
AcDbVisualStyle
  2
Thicken
 70
    13
 71
     2
 72
     2
 73
     0
 90
        0
 40
-0.6
 41
-30.0
 62
     5
 63
     7
 74
     1
 91
        4
 64
     7
 65
   257
 75
     1
175
     1
 42
1.0
 92
       12
 66
     7
 43
1.0
 76
     1
 77
     6
 78
     2
 67
     7
 79
     5
170
     0
171
     0
290
     0
174
     0
 93
        1
 44
0.0
173
     0
291
     1
 45
0.0
1001
ACAD
1000
AcDbSavedByObjectVersion
1070
     0
  0
DICTIONARYVAR
  5
C39D
102
{ACAD_REACTORS
330
34
102
}
330
34
100
DictionaryVariables
280
     0
  1
1:1
  0
DICTIONARYVAR
  5
C39B
102
{ACAD_REACTORS
330
34
102
}
330
34
100
DictionaryVariables
280
     0
  1
STANDARD
  0
DICTIONARYVAR
  5
AAF3
102
{ACAD_REACTORS
330
34
102
}
330
34
100
DictionaryVariables
280
     0
  1
STANDARD
  0
DICTIONARYVAR
  5
A10C
102
{ACAD_REACTORS
330
34
102
}
330
34
100
DictionaryVariables
280
     0
  1
1
  0
DICTIONARYVAR
  5
AB07
102
{ACAD_REACTORS
330
34
102
}
330
34
100
DictionaryVariables
280
     0
  1
4
  0
DICTIONARYVAR
  5
35
102
{ACAD_REACTORS
330
34
102
}
330
34
100
DictionaryVariables
280
     0
  1
0
  0
DICTIONARYVAR
  5
C39E
102
{ACAD_REACTORS
330
34
102
}
330
34
100
DictionaryVariables
280
     0
  1
0
  0
DICTIONARYVAR
  5
C39C
102
{ACAD_REACTORS
330
34
102
}
330
34
100
DictionaryVariables
280
     0
  1
0
  0
DICTIONARYVAR
  5
194C
102
{ACAD_REACTORS
330
34
102
}
330
34
100
DictionaryVariables
280
     0
  1
96
  0
DICTIONARY
  5
7E8
102
{ACAD_REACTORS
330
47
102
}
330
47
100
AcDbDictionary
281
     1
  0
DICTIONARY
  5
4C
102
{ACAD_REACTORS
330
47
102
}
330
47
100
AcDbDictionary
281
     1
  0
XRECORD
  5
A929
102
{ACAD_REACTORS
330
47
102
}
330
47
100
AcDbXrecord
280
     1
 90
-1023410169
  0
XRECORD
  5
B332
102
{ACAD_REACTORS
330
B331
102
}
330
B331
100
AcDbXrecord
280
     1
  0
XRECORD
  5
3FB7
102
{ACAD_REACTORS
330
3F96
102
}
330
3F96
100
AcDbXrecord
280
     1
 91
        3
330
0
 90
        8
 62
     7
370
    40
331
16
  1
Color_7
330
0
 90
        0
 62
    14
370
    -3
331
16
  1
Color_14
330
0
 90
        8
 62
     7
370
    20
331
16
  1
Color_7
330
6D1
 90
        0
 62
     7
370
    -3
331
16
  1
Color_7
330
0
 90
        8
 62
     7
370
    50
331
16
  1
Color_7
330
0
 90
        8
 62
     2
370
    35
331
16
  1
Color_2
330
0
 90
        8
 62
     7
370
    -3
331
16
  1
Color_7
330
10
 90
        8
 62
     7
370
    -3
331
16
  1
Color_7
  0
DICTIONARY
  5
C50C
330
22
100
AcDbDictionary
280
     1
281
     1
  3
ACAD_XREC_ROUNDTRIP
360
C50D
  0
DICTIONARY
  5
C50A
330
1E
100
AcDbDictionary
280
     1
281
     1
  3
ACAD_XREC_ROUNDTRIP
360
C50B
  0
DICTIONARY
  5
C50E
330
26
100
AcDbDictionary
280
     1
281
     1
  3
ACAD_XREC_ROUNDTRIP
360
C50F
  0
DICTIONARY
  5
C513
330
B0EF
100
AcDbDictionary
280
     1
281
     1
  3
ACAD_XREC_ROUNDTRIP
360
C514
  0
DICTIONARY
  5
C511
330
B0EE
100
AcDbDictionary
280
     1
281
     1
  3
ACAD_XREC_ROUNDTRIP
360
C512
  0
DICTIONARY
  5
C515
330
B0F0
100
AcDbDictionary
280
     1
281
     1
  3
ACAD_XREC_ROUNDTRIP
360
C516
  0
DICTIONARY
  5
C398
330
AABA
100
AcDbDictionary
280
     1
281
     1
  3
ACAD_ROUNDTRIP_2008_TABLESTYLE_CELLSTYLEMAP
360
C4BB
  3
ACAD_XREC_ROUNDTRIP
360
C510
  0
XRECORD
  5
C50D
102
{ACAD_REACTORS
330
C50C
102
}
330
C50C
100
AcDbXrecord
280
     1
102
SHADEPLOT
 70
     0
102
SHADEPLOTRESLEVEL
 70
     2
102
SHADEPLOTCUSTOMDPI
 70
   200
  0
XRECORD
  5
C50B
102
{ACAD_REACTORS
330
C50A
102
}
330
C50A
100
AcDbXrecord
280
     1
102
SHADEPLOT
 70
     0
102
SHADEPLOTRESLEVEL
 70
     2
102
SHADEPLOTCUSTOMDPI
 70
   300
  0
XRECORD
  5
C50F
102
{ACAD_REACTORS
330
C50E
102
}
330
C50E
100
AcDbXrecord
280
     1
102
SHADEPLOT
 70
     0
102
SHADEPLOTRESLEVEL
 70
     2
102
SHADEPLOTCUSTOMDPI
 70
   300
  0
XRECORD
  5
C514
102
{ACAD_REACTORS
330
C513
102
}
330
C513
100
AcDbXrecord
280
     1
102
MATERIAL
148
0.0
149
0.0
149
0.0
 93
        0
 94
       63
282
     0
 72
     1
 77
     1
171
     1
175
     1
179
     1
273
     0
  0
XRECORD
  5
C512
102
{ACAD_REACTORS
330
C511
102
}
330
C511
100
AcDbXrecord
280
     1
102
MATERIAL
148
0.0
149
0.0
149
0.0
 93
        0
 94
       63
282
     0
 72
     1
 77
     1
171
     1
175
     1
179
     1
273
     0
  0
XRECORD
  5
C516
102
{ACAD_REACTORS
330
C515
102
}
330
C515
100
AcDbXrecord
280
     1
102
MATERIAL
148
0.0
149
0.0
149
0.0
 93
        0
 94
       63
282
     0
 72
     1
 77
     1
171
     1
175
     1
179
     1
273
     0
  0
ACAD_PROXY_OBJECT
  5
C4BB
102
{ACAD_REACTORS
330
C398
102
}
330
C398
100
AcDbProxyObject
 90
      499
 91
      632
 95
  1703963
 70
     0
 93
     5369
310
40D054060020000020000003200101A4129416000000304000000000000001840404000000000000F83F0000000000003E0FC000000000000F83F0000000000003E0FC0AD7A3703D0AC73F02B5E8DC0F42B1CFD0640640600000030400FEFFFFFF80AD7A3703D0AA73F40A40600000030400FEFFFFFF80AD7A3703D0AA73F4
310
1240600000030400FEFFFFFF80AD7A3703D0AA73F42240600000030400FEFFFFFF80AD7A3703D0AA73F44240600000030400FEFFFFFF80AD7A3703D0AA73F48240600000030400FEFFFFFF80AD7A3703D0AA73F4050141501A8000000C800406904A5058000000C10000000000000004901010000000000003E0FC00000000
310
0000F83F0000000000003E0FC000000000000F83F02B5E8DC0F42B1CFC0AD7A3703D0AC73F419019018000000C1003FBFFFFFE02B5E8DC0F42A9CFD029018000000C1003FBFFFFFE02B5E8DC0F42A9CFD049018000000C1003FBFFFFFE02B5E8DC0F42A9CFD089018000000C1003FBFFFFFE02B5E8DC0F42A9CFD109018000
310
000C1003FBFFFFFE02B5E8DC0F42A9CFD209018000000C1003FBFFFFFE02B5E8DC0F42A9CFD0240505406A0000003200101A412940A000000304000000000000001240404000000000000F83F0000000000003E0FC000000000000F83F0000000000003E0FC0AD7A3703D0AC73F02B5E8DC0F42B1CFD064064060000003040
310
0FEFFFFFF80AD7A3703D0AA73F40A40600000030400FEFFFFFF80AD7A3703D0AA73F41240600000030400FEFFFFFF80AD7A3703D0AA73F42240600000030400FEFFFFFF80AD7A3703D0AA73F44240600000030400FEFFFFFF80AD7A3703D0AA73F48240600000030400FEFFFFFF80AD7A3703D0AA73F40D029065F00540049
310
0054004C0045009075F004800450041004400450052009055F0044004100540041004401CC
340
11
340
0
340
0
340
0
340
0
340
0
340
0
340
11
340
0
340
0
340
0
340
0
340
0
340
0
340
11
340
0
340
0
340
0
340
0
340
0
340
0
 94
        0
1001
ACAD
1000
AcRTDxfName
1000
CELLSTYLEMAP
  0
XRECORD
  5
C510
102
{ACAD_REACTORS
330
C398
102
}
330
C398
100
AcDbXrecord
280
     1
102
ACAD_ROUNDTRIP_PRE2007_TABLESTYLE
 90
        4
 91
        0
  1

 92
        4
 93
        0
  2

 94
        4
 95
        0
  3

  0
ENDSEC
  0
EOF
