  0
SECTION
  2
HEADER
  9
$ACADVER
  1
AC1015
  9
$ACADMAINTVER
 70
    20
  9
$DWGCODEPAGE
  3
ANSI_932
  9
$INSBASE
 10
0.0
 20
0.0
 30
0.0
  9
$EXTMIN
 10
-0.0190035940805729
 20
-0.0046049622869191
 30
-0.0000000000000053
  9
$EXTMAX
 10
297.0212588733115
 20
210.0090683516719
 30
0.0000000000000099
  9
$LIMMIN
 10
0.0
 20
-0.0000000000000284
  9
$LIMMAX
 10
297.0
 20
210.0
  9
$ORTHOMODE
 70
     0
  9
$REGENMODE
 70
     1
  9
$FILLMODE
 70
     1
  9
$QTEXTMODE
 70
     0
  9
$MIRRTEXT
 70
     0
  9
$LTSCALE
 40
1.0
  9
$ATTMODE
 70
     1
  9
$TEXTSIZE
 40
3.2
  9
$TRACEWID
 40
1.0
  9
$TEXTSTYLE
  7
STANDARD
  9
$CLAYER
  8
AM_0
  9
$CELTYPE
  6
ByLayer
  9
$CECOLOR
 62
   256
  9
$CELTSCALE
 40
1.0
  9
$DISPSILH
 70
     0
  9
$DIMSCALE
 40
1.0
  9
$DIMASZ
 40
1.0
  9
$DIMEXO
 40
1.0
  9
$DIMDLI
 40
10.0
  9
$DIMRND
 40
0.0
  9
$DIMDLE
 40
0.0
  9
$DIMEXE
 40
1.0
  9
$DIMTP
 40
0.1
  9
$DIMTM
 40
0.1
  9
$DIMTXT
 40
3.5
  9
$DIMCEN
 40
0.0
  9
$DIMTSZ
 40
0.0
  9
$DIMTOL
 70
     0
  9
$DIMLIM
 70
     0
  9
$DIMTIH
 70
     0
  9
$DIMTOH
 70
     0
  9
$DIMSE1
 70
     0
  9
$DIMSE2
 70
     0
  9
$DIMTAD
 70
     1
  9
$DIMZIN
 70
     8
  9
$DIMBLK
  1

  9
$DIMASO
 70
     1
  9
$DIMSHO
 70
     1
  9
$DIMPOST
  1

  9
$DIMAPOST
  1
"
  9
$DIMALT
 70
     0
  9
$DIMALTD
 70
     2
  9
$DIMALTF
 40
0.0393701
  9
$DIMLFAC
 40
1.0
  9
$DIMTOFL
 70
     1
  9
$DIMTVP
 40
0.0
  9
$DIMTIX
 70
     0
  9
$DIMSOXD
 70
     0
  9
$DIMSAH
 70
     0
  9
$DIMBLK1
  1

  9
$DIMBLK2
  1

  9
$DIMSTYLE
  2
SYS
  9
$DIMCLRD
 70
   256
  9
$DIMCLRE
 70
   256
  9
$DIMCLRT
 70
     7
  9
$DIMTFAC
 40
0.71
  9
$DIMGAP
 40
1.5
  9
$DIMJUST
 70
     0
  9
$DIMSD1
 70
     0
  9
$DIMSD2
 70
     0
  9
$DIMTOLJ
 70
     0
  9
$DIMTZIN
 70
     8
  9
$DIMALTZ
 70
     0
  9
$DIMALTTZ
 70
     0
  9
$DIMUPT
 70
     0
  9
$DIMDEC
 70
     2
  9
$DIMTDEC
 70
     2
  9
$DIMALTU
 70
     2
  9
$DIMALTTD
 70
     2
  9
$DIMTXSTY
  7
STANDARD
  9
$DIMAUNIT
 70
     0
  9
$DIMADEC
 70
     0
  9
$DIMALTRND
 40
0.0
  9
$DIMAZIN
 70
     2
  9
$DIMDSEP
 70
    46
  9
$DIMATFIT
 70
     3
  9
$DIMFRAC
 70
     0
  9
$DIMLDRBLK
  1

  9
$DIMLUNIT
 70
     2
  9
$DIMLWD
 70
    -1
  9
$DIMLWE
 70
    -1
  9
$DIMTMOVE
 70
     0
  9
$LUNITS
 70
     2
  9
$LUPREC
 70
     2
  9
$SKETCHINC
 40
1.0
  9
$FILLETRAD
 40
0.0
  9
$AUNITS
 70
     0
  9
$AUPREC
 70
     0
  9
$MENU
  1
.
  9
$ELEVATION
 40
0.0
  9
$PELEVATION
 40
0.0
  9
$THICKNESS
 40
0.0
  9
$LIMCHECK
 70
     0
  9
$CHAMFERA
 40
0.0
  9
$CHAMFERB
 40
0.0
  9
$CHAMFERC
 40
20.0
  9
$CHAMFERD
 40
0.0
  9
$SKPOLY
 70
     0
  9
$TDCREATE
 40
2456129.601273322
  9
$TDUCREATE
 40
2456129.226273322
  9
$TDUPDATE
 40
2456267.598221562
  9
$TDUUPDATE
 40
2456267.223221562
  9
$TDINDWG
 40
0.1071672454
  9
$TDUSRTIMER
 40
0.1071670718
  9
$USRTIMER
 70
     1
  9
$ANGBASE
 50
0.0
  9
$ANGDIR
 70
     0
  9
$PDMODE
 70
     0
  9
$PDSIZE
 40
-3.0
  9
$PLINEWID
 40
0.0
  9
$SPLFRAME
 70
     0
  9
$SPLINETYPE
 70
     6
  9
$SPLINESEGS
 70
     8
  9
$HANDSEED
  5
D2E0
  9
$SURFTAB1
 70
     6
  9
$SURFTAB2
 70
     6
  9
$SURFTYPE
 70
     6
  9
$SURFU
 70
     6
  9
$SURFV
 70
     6
  9
$UCSBASE
  2

  9
$UCSNAME
  2

  9
$UCSORG
 10
0.0
 20
0.0
 30
0.0
  9
$UCSXDIR
 10
1.0
 20
0.0
 30
0.0
  9
$UCSYDIR
 10
0.0
 20
1.0
 30
0.0
  9
$UCSORTHOREF
  2

  9
$UCSORTHOVIEW
 70
     0
  9
$UCSORGTOP
 10
0.0
 20
0.0
 30
0.0
  9
$UCSORGBOTTOM
 10
0.0
 20
0.0
 30
0.0
  9
$UCSORGLEFT
 10
0.0
 20
0.0
 30
0.0
  9
$UCSORGRIGHT
 10
0.0
 20
0.0
 30
0.0
  9
$UCSORGFRONT
 10
0.0
 20
0.0
 30
0.0
  9
$UCSORGBACK
 10
0.0
 20
0.0
 30
0.0
  9
$PUCSBASE
  2

  9
$PUCSNAME
  2

  9
$PUCSORG
 10
0.0
 20
0.0
 30
0.0
  9
$PUCSXDIR
 10
1.0
 20
0.0
 30
0.0
  9
$PUCSYDIR
 10
0.0
 20
1.0
 30
0.0
  9
$PUCSORTHOREF
  2

  9
$PUCSORTHOVIEW
 70
     0
  9
$PUCSORGTOP
 10
0.0
 20
0.0
 30
0.0
  9
$PUCSORGBOTTOM
 10
0.0
 20
0.0
 30
0.0
  9
$PUCSORGLEFT
 10
0.0
 20
0.0
 30
0.0
  9
$PUCSORGRIGHT
 10
0.0
 20
0.0
 30
0.0
  9
$PUCSORGFRONT
 10
0.0
 20
0.0
 30
0.0
  9
$PUCSORGBACK
 10
0.0
 20
0.0
 30
0.0
  9
$USERI1
 70
     0
  9
$USERI2
 70
     0
  9
$USERI3
 70
     0
  9
$USERI4
 70
     0
  9
$USERI5
 70
     0
  9
$USERR1
 40
0.0
  9
$USERR2
 40
0.0
  9
$USERR3
 40
0.0
  9
$USERR4
 40
0.0
  9
$USERR5
 40
0.0
  9
$WORLDVIEW
 70
     1
  9
$SHADEDGE
 70
     3
  9
$SHADEDIF
 70
    70
  9
$TILEMODE
 70
     1
  9
$MAXACTVP
 70
    64
  9
$PINSBASE
 10
0.0
 20
0.0
 30
0.0
  9
$PLIMCHECK
 70
     0
  9
$PEXTMIN
 10
1.000000000000000E+20
 20
1.000000000000000E+20
 30
1.000000000000000E+20
  9
$PEXTMAX
 10
-1.000000000000000E+20
 20
-1.000000000000000E+20
 30
-1.000000000000000E+20
  9
$PLIMMIN
 10
-3.17498779296875
 20
-3.174999952316284
  9
$PLIMMAX
 10
293.4970092773438
 20
206.692492723465
  9
$UNITMODE
 70
     0
  9
$VISRETAIN
 70
     1
  9
$PLINEGEN
 70
     0
  9
$PSLTSCALE
 70
     1
  9
$TREEDEPTH
 70
  3020
  9
$CMLSTYLE
  2
Standard
  9
$CMLJUST
 70
     0
  9
$CMLSCALE
 40
20.0
  9
$PROXYGRAPHICS
 70
     1
  9
$MEASUREMENT
 70
     1
  9
$CELWEIGHT
370
    -1
  9
$ENDCAPS
280
     0
  9
$JOINSTYLE
280
     0
  9
$LWDISPLAY
290
     1
  9
$INSUNITS
 70
     4
  9
$HYPERLINKBASE
  1

  9
$STYLESHEET
  1
monochrome.ctb
  9
$XEDIT
290
     1
  9
$CEPSNTYPE
380
     0
  9
$PSTYLEMODE
290
     1
  9
$FINGERPRINTGUID
  2
{F2AABAAB-A2A7-4552-A172-6D87E628289B}
  9
$VERSIONGUID
  2
{BE8491A6-F7E4-41A9-8DF5-DC6EE87EE4B6}
  9
$EXTNAMES
290
     1
  9
$PSVPSCALE
 40
0.0
  9
$OLESTARTUP
290
     0
  0
ENDSEC
  0
SECTION
  2
CLASSES
  0
CLASS
  1
ACDBDICTIONARYWDFLT
  2
AcDbDictionaryWithDefault
  3
ObjectDBX Classes
 90
        0
280
     0
281
     0
  0
CLASS
  1
ACDBPLACEHOLDER
  2
AcDbPlaceHolder
  3
ObjectDBX Classes
 90
        0
280
     0
281
     0
  0
CLASS
  1
LAYOUT
  2
AcDbLayout
  3
ObjectDBX Classes
 90
        0
280
     0
281
     0
  0
CLASS
  1
AMGSETTINGSOBJ
  2
AmgSettingsObj
  3
"AcadM|Product Description: AutoCAD Mechanical|Company: Autodesk"
 90
        0
280
     0
281
     0
  0
CLASS
  1
ACME_DOCUMENT
  2
AcMeDbDoc
  3
AcMeServices
 90
        0
280
     0
281
     0
  0
CLASS
  1
ACMESCOPE
  2
AcMeScope
  3
AcMeServices
 90
        0
280
     0
281
     0
  0
CLASS
  1
ACMECOMMANDHISTORY
  2
AcMeCommandHistory
  3
AcMeServices
 90
        0
280
     0
281
     0
  0
CLASS
  1
DICTIONARYVAR
  2
AcDbDictionaryVar
  3
ObjectDBX Classes
 90
        0
280
     0
281
     0
  0
CLASS
  1
ACIMSYSVARMAN
  2
AcImSysVarManager
  3
AcMeServices
 90
        0
280
     0
281
     0
  0
CLASS
  1
ACIMREALSYSVAR
  2
AcImRealSysVar
  3
AcMeServices
 90
        0
280
     0
281
     0
  0
CLASS
  1
ACIMINTSYSVAR
  2
AcImIntSysVar
  3
AcMeServices
 90
        0
280
     0
281
     0
  0
CLASS
  1
ACMEDRAWINGMAN
  2
AcMeDrawingMan
  3
AcMeServices
 90
        0
280
     0
281
     0
  0
CLASS
  1
ACMEVIEW
  2
AcMeView
  3
AcMeServices
 90
        0
280
     0
281
     0
  0
CLASS
  1
ACDBENTITYCACHE
  2
AcMeEntityCache
  3
AcMeServices
 90
        0
280
     0
281
     0
  0
CLASS
  1
GSMANAGER
  2
AcMeGSManager
  3
AcMeServices
 90
        0
280
     0
281
     0
  0
CLASS
  1
AMDTINTERNALREACTOR
  2
AmdtInternalReactor
  3
AcMeServices
 90
        0
280
     0
281
     0
  0
CLASS
  1
ACMESTATEMGR
  2
AcMeStateMgr
  3
AcMeServices
 90
        0
280
     0
281
     0
  0
CLASS
  1
ACGREFMASTER
  2
AcGrefMaster
  3
AcAttribServices
 90
        0
280
     0
281
     0
  0
CLASS
  1
ACME_DATABASE
  2
AcMeDbDatabase
  3
AcMeServices
 90
        0
280
     0
281
     0
  0
CLASS
  1
ACRFINSADJUSTERMGR
  2
AcRfInsAdjusterMgr
  3
AcMeServices
 90
        0
280
     0
281
     0
  0
CLASS
  1
ACGREFACADMASTER
  2
AcGrefacadMaster
  3
AcGrefServices
 90
        0
280
     0
281
     0
  0
CLASS
  1
AMIMASTER
  2
AmiMaster
  3
AmiServices
 90
        0
280
     0
281
     0
  0
CLASS
  1
ACMDATADICTIONARY
  2
AcmDataDictionary
  3
"AcmSymBB|Product Description: AutoCAD Mechanical|Company: Autodesk"
 90
        0
280
     0
281
     0
  0
CLASS
  1
ACMDATAENTRYBLOCK
  2
AcmDataEntryBlock
  3
"AcmSymBB|Product Description: AutoCAD Mechanical|Company: Autodesk"
 90
        0
280
     0
281
     0
  0
CLASS
  1
ACIMSTRSYSVAR
  2
AcImStrSysVar
  3
AcMeServices
 90
        0
280
     0
281
     0
  0
CLASS
  1
ACMSTANDARDISO
  2
AcmStandardISO
  3
"Amdt_StdImp|Product Description: AutoCAD Mechanical|Company: Autodesk"
 90
        0
280
     0
281
     0
  0
CLASS
  1
AMGOBJPROPCFG
  2
AmgObjPropCfg
  3
"AmgLay|Product Description: AutoCAD Mechanical|Company: Autodesk"
 90
        1
280
     0
281
     0
  0
CLASS
  1
AMDTEDGESTANDARDISO
  2
AmdtEdgeStdISO
  3
"Amdt_StdImp|Product Description: AutoCAD Mechanical|Company: Autodesk"
 90
        0
280
     0
281
     0
  0
CLASS
  1
ACMSURFSTANDARDISO
  2
AcmSurfTextStdISO
  3
"Amdt_StdImp|Product Description: AutoCAD Mechanical|Company: Autodesk"
 90
        0
280
     0
281
     0
  0
CLASS
  1
ACMFCFSTANDARDISO
  2
AcmFCFStdISO
  3
"Amdt_StdImp|Product Description: AutoCAD Mechanical|Company: Autodesk"
 90
        0
280
     0
281
     0
  0
CLASS
  1
ACMWELDSTANDARDISO
  2
AcmWeldingStdISO
  3
"Amdt_StdImp|Product Description: AutoCAD Mechanical|Company: Autodesk"
 90
        0
280
     0
281
     0
  0
CLASS
  1
ACMIDSTANDARDISO
  2
AcmIdStdISO
  3
"Amdt_StdImp|Product Description: AutoCAD Mechanical|Company: Autodesk"
 90
        0
280
     0
281
     0
  0
CLASS
  1
ACMDATUMSTANDARDISO
  2
AcmDatumStdISO
  3
"Amdt_StdImp|Product Description: AutoCAD Mechanical|Company: Autodesk"
 90
        0
280
     0
281
     0
  0
CLASS
  1
ACMBOMSTANDARDISO
  2
AcmBOMStdISO
  3
"Amdt_StdImp|Product Description: AutoCAD Mechanical|Company: Autodesk"
 90
        0
280
     0
281
     0
  0
CLASS
  1
ACMDETAILSTANDARDISO
  2
AmdtDetailSymStdISO
  3
"Amdt_StdImp|Product Description: AutoCAD Mechanical|Company: Autodesk"
 90
        0
280
     0
281
     0
  0
CLASS
  1
ACMSECTIONSTANDARDISO
  2
AmdtSectionSymStdISO
  3
"Amdt_StdImp|Product Description: AutoCAD Mechanical|Company: Autodesk"
 90
        0
280
     0
281
     0
  0
CLASS
  1
ACMCENTERLINESTANDARDISO
  2
AmdtCenterLineStdISO
  3
"Amdt_StdImp|Product Description: AutoCAD Mechanical|Company: Autodesk"
 90
        0
280
     0
281
     0
  0
CLASS
  1
ACAMGLAYSTD
  2
AcAmgLayStd
  3
"AmgLay|Product Description: AutoCAD Mechanical|Company: Autodesk"
 90
        0
280
     0
281
     0
  0
CLASS
  1
ACAMGDIMSTD
  2
AcAmgDimStd
  3
"AmgDim|Product Description: AutoCAD Mechanical|Company: Autodesk"
 90
        0
280
     0
281
     0
  0
CLASS
  1
ACAMGTITLESTD
  2
AcAmgTitleStd
  3
"AmgTitle|Product Description: AutoCAD Mechanical|Company: Autodesk"
 90
        0
280
     0
281
     0
  0
CLASS
  1
ACAMGFILTERDAT
  2
AcAmgFilterDat
  3
"AcadM|Product Description: AutoCAD Mechanical|Company: Autodesk"
 90
        0
280
     0
281
     0
  0
CLASS
  1
LAYER_INDEX
  2
AcDbLayerIndex
  3
ObjectDBX Classes
 90
    32768
280
     0
281
     0
  0
CLASS
  1
IDBUFFER
  2
AcDbIdBuffer
  3
ObjectDBX Classes
 90
    32768
280
     0
281
     0
  0
CLASS
  1
PLOTSETTINGS
  2
AcDbPlotSettings
  3
ObjectDBX Classes
 90
    32768
280
     0
281
     0
  0
CLASS
  1
AMDTFORMULAUPDATEDISPATCHER
  2
AmdtFormulaUpdateDispatcher
  3
AcMeServices
 90
        0
280
     0
281
     0
  0
CLASS
  1
ACMSTANDARDANSI
  2
AcmStandardANSI
  3
"Amdt_StdImp|Product Description: AutoCAD Mechanical|Company: Autodesk"
 90
        0
280
     0
281
     0
  0
CLASS
  1
ACMSURFSTANDARDANSI
  2
AcmSurfTextStdANSI
  3
"Amdt_StdImp|Product Description: AutoCAD Mechanical|Company: Autodesk"
 90
        0
280
     0
281
     0
  0
CLASS
  1
ACMFCFSTANDARDANSI
  2
AcmFCFStdANSI
  3
"Amdt_StdImp|Product Description: AutoCAD Mechanical|Company: Autodesk"
 90
        0
280
     0
281
     0
  0
CLASS
  1
ACMWELDSTANDARDANSI
  2
AcmWeldingStdANSI
  3
"Amdt_StdImp|Product Description: AutoCAD Mechanical|Company: Autodesk"
 90
        0
280
     0
281
     0
  0
CLASS
  1
ACMIDSTANDARDANSI
  2
AcmIdStdANSI
  3
"Amdt_StdImp|Product Description: AutoCAD Mechanical|Company: Autodesk"
 90
        0
280
     0
281
     0
  0
CLASS
  1
ACMDATUMSTANDARDANSI
  2
AcmDatumStdANSI
  3
"Amdt_StdImp|Product Description: AutoCAD Mechanical|Company: Autodesk"
 90
        0
280
     0
281
     0
  0
CLASS
  1
ACMBOMSTANDARDANSI
  2
AcmBOMStdANSI
  3
"Amdt_StdImp|Product Description: AutoCAD Mechanical|Company: Autodesk"
 90
        0
280
     0
281
     0
  0
CLASS
  1
ACMDETAILSTANDARDANSI
  2
AmdtDetailSymStdANSI
  3
"Amdt_StdImp|Product Description: AutoCAD Mechanical|Company: Autodesk"
 90
        0
280
     0
281
     0
  0
CLASS
  1
ACMSECTIONSTANDARDANSI
  2
AmdtSectionSymStdANSI
  3
"Amdt_StdImp|Product Description: AutoCAD Mechanical|Company: Autodesk"
 90
        0
280
     0
281
     0
  0
CLASS
  1
ACMCENTERLINESTANDARDANSI
  2
AmdtCenterLineStdANSI
  3
"Amdt_StdImp|Product Description: AutoCAD Mechanical|Company: Autodesk"
 90
        0
280
     0
281
     0
  0
CLASS
  1
ACMBOM
  2
AcmBom
  3
"AcmSymBB|Product Description: AutoCAD Mechanical|Company: Autodesk"
 90
        0
280
     0
281
     0
  0
CLASS
  1
ACMDATAENTRYPART
  2
AcmDataEntryPart
  3
"AcmSymBB|Product Description: AutoCAD Mechanical|Company: Autodesk"
 90
    32768
280
     0
281
     0
  0
CLASS
  1
ACMPARTREF
  2
AcmPartRef
  3
"AcmSymBB|Product Description: AutoCAD Mechanical|Company: Autodesk"
 90
    35839
280
     0
281
     1
  0
CLASS
  1
ACDBCIRCARCRES
  2
AcDbCircArcRes
  3
AcGrefServices
 90
    32768
280
     0
281
     0
  0
CLASS
  1
ACMBOMROW
  2
AcmBomRow
  3
"AcmSymBB|Product Description: AutoCAD Mechanical|Company: Autodesk"
 90
    32768
280
     0
281
     0
  0
CLASS
  1
ACMBALLOON
  2
AcmBalloon
  3
"AcmSymBB|Product Description: AutoCAD Mechanical|Company: Autodesk"
 90
    35839
280
     0
281
     1
  0
CLASS
  1
AMDTNOTE
  2
AmdtNote
  3
"AcmSymBB|Product Description: AutoCAD Mechanical|Company: Autodesk"
 90
     3071
280
     0
281
     1
  0
CLASS
  1
STDPART2D
  2
AmgStdPart
  3
"g3vace|Class: AmgStdPart|Product Description: AutoCAD Mechanical|Company: Autodesk"
 90
    35839
280
     0
281
     1
  0
CLASS
  1
ACDBSTDPARTRES_LINE
  2
AcDbStdPartRes_Line
  3
"g3vace|Class: AcDbStdPartRes_Line|Product Description: AutoCAD Mechanical|Company: Autodesk"
 90
    32768
280
     0
281
     0
  0
CLASS
  1
ACMDATAENTRY
  2
AcmDataEntry
  3
"AcmSymBB|Product Description: AutoCAD Mechanical|Company: Autodesk"
 90
        0
280
     0
281
     0
  0
CLASS
  1
ACDBOPPOLYLINERES
  2
AcDbOpPolylineRes
  3
AcGrefServices
 90
    32768
280
     0
281
     0
  0
CLASS
  1
ACMPARTLIST
  2
AcmPartList
  3
"AcmSymBB|Product Description: AutoCAD Mechanical|Company: Autodesk"
 90
    35839
280
     0
281
     1
  0
CLASS
  1
ACDBLINERES
  2
AcDbLineRes
  3
AcGrefServices
 90
    32768
280
     0
281
     0
  0
CLASS
  1
ACRFINSADJ
  2
AcRfInsAdjuster
  3
AcMeServices
 90
    32768
280
     0
281
     0
  0
CLASS
  1
AM_DRAWING_MGR
  2
AcDmDwgMgr
  3
AcMechDwgViewMgmt
 90
        0
280
     0
281
     0
  0
CLASS
  1
AM_DWG_DOCUMENT
  2
AcDmDwgDocument
  3
AcMechDwgViewMgmt
 90
        0
280
     0
281
     0
  0
CLASS
  1
AM_DWG_SHEET
  2
AcDmSheet
  3
AcMechDwgViewMgmt
 90
        0
280
     0
281
     0
  0
CLASS
  1
AM_VIEWDIMPARMAP
  2
AcDmViewDimParMap
  3
AcMechDwgViewMgmt
 90
        0
280
     0
281
     0
  0
CLASS
  1
AM_DWGMGR_NAME
  2
AcDmDwgMgrName
  3
AcMechDwgViewMgmt
 90
        0
280
     0
281
     0
  0
CLASS
  1
AMDTMENUSTATEMGR
  2
AmdtMenuStateMgr
  3
McadcomServices
 90
        0
280
     0
281
     0
  0
CLASS
  1
AMDTMCOMMENUSTATE
  2
AmdtMcomMenuState
  3
McadcomServices
 90
        0
280
     0
281
     0
  0
CLASS
  1
ASAPP
  2
AcAsAppObject
  3
AutoSurfServices
 90
        0
280
     0
281
     0
  0
CLASS
  1
IM_STATIC_MAN
  2
AcImStaticVarManager
  3
AcMeServices
 90
        0
280
     0
281
     0
  0
CLASS
  1
ACIMDBLSTATICVAR
  2
AcImDblStaticVar
  3
AcMeServices
 90
        0
280
     0
281
     0
  0
CLASS
  1
ACIMSTRSTATICVAR
  2
AcImStrStaticVar
  3
AcMeServices
 90
        0
280
     0
281
     0
  0
CLASS
  1
ACIMINTSTATICVAR
  2
AcImIntStaticVar
  3
AcMeServices
 90
        0
280
     0
281
     0
  0
CLASS
  1
ACASGREFMASTER
  2
AcAsGrefMaster
  3
AutoSurfResolverServices
 90
        0
280
     0
281
     0
  0
CLASS
  1
ACADGREFMODULE
  2
AcAdGrefModule
  3
AdGrefServices
 90
        0
280
     0
281
     0
  0
CLASS
  1
AMDTMAPISURFMOUDULE
  2
AmdtMApiSurfModule
  3
MApiSurfServices
 90
        0
280
     0
281
     0
  0
CLASS
  1
MAPIAMMOUDLE
  2
MApiAmModule
  3
MApiAmServices
 90
        0
280
     0
281
     0
  0
CLASS
  1
AMDTADMENUSTATE
  2
AmdtAdMenuState
  3
DesignerServices
 90
        0
280
     0
281
     0
  0
CLASS
  1
ADAPPL
  2
AcAdAppl
  3
DesignerServices
 90
        0
280
     0
281
     0
  0
CLASS
  1
DEPMGR
  2
AcAdDepMgr
  3
DesignerServices
 90
        0
280
     0
281
     0
  0
CLASS
  1
PARAMMGR
  2
AcAdParamMgr
  3
DesignerServices
 90
        0
280
     0
281
     0
  0
CLASS
  1
PARAMSCOPE
  2
AcAdParamScope
  3
DesignerServices
 90
        0
280
     0
281
     0
  0
CLASS
  1
NAMEDAPPL
  2
AcAdNamedAppl
  3
DesignerServices
 90
        0
280
     0
281
     0
  0
CLASS
  1
ADHNTMPLT
  2
AdHoleNoteTemplateMgr
  3
DesignerServices
 90
    32768
280
     0
281
     0
  0
CLASS
  1
AM_HNTEMPLATE_MGR_NAME
  2
AdHoleNoteTemplateMgrName
  3
DesignerServices
 90
    32768
280
     0
281
     0
  0
CLASS
  1
AMDTDMMENUSTATE
  2
AmdtDmMenuState
  3
AcMechDwgViewMgmt
 90
        0
280
     0
281
     0
  0
CLASS
  1
MAPIADMODULE
  2
MApiAdModule
  3
MApiAdServices
 90
        0
280
     0
281
     0
  0
CLASS
  1
AMDTAMMENUSTATE
  2
AmdtAmMenuState
  3
DesignerAssemblies
 90
        0
280
     0
281
     0
  0
CLASS
  1
ACAMPROJECT
  2
AcAmProject
  3
DesignerAssemblies
 90
        0
280
     0
281
     0
  0
CLASS
  1
ACAMGRCOMPDEF
  2
AcAmGrCompDef
  3
DesignerAssemblies
 90
        0
280
     0
281
     0
  0
CLASS
  1
ACCMCONTEXT
  2
AcCmContext
  3
DesignerAssemblies
 90
        0
280
     0
281
     0
  0
CLASS
  1
ACAMCOMPDEF
  2
AcAmCompDef
  3
DesignerAssemblies
 90
        0
280
     0
281
     0
  0
CLASS
  1
ACAMCOMPDEFMGR
  2
AcAmCompDefMgr
  3
DesignerAssemblies
 90
        0
280
     0
281
     0
  0
CLASS
  1
AMCONTEXTMGR
  2
AcAmContextMgr
  3
DesignerAssemblies
 90
        0
280
     0
281
     0
  0
CLASS
  1
ACAMCONTEXTMODELER
  2
AcAmContextModeler
  3
DesignerAssemblies
 90
        0
280
     0
281
     0
  0
CLASS
  1
CATALOGSTATE
  2
AcAmCatalogState
  3
DesignerAssemblies
 90
        0
280
     0
281
     0
  0
CLASS
  1
ACAMGRCOMPDEFSET
  2
AcAmGrCompDefSet
  3
DesignerAssemblies
 90
        0
280
     0
281
     0
  0
CLASS
  1
AMDTBROWSERDBTAB
  2
AmdtBrowserDbTab
  3
McadcomServices
 90
        0
280
     0
281
     0
  0
CLASS
  1
CBROWSERAPPOBJECT
  2
CBrowserAppObject
  3
McadcomServices
 90
        0
280
     0
281
     0
  0
CLASS
  1
DM_PLACEHOLDER
  2
AcDmSelsetPlaceholder
  3
AcMechDwgViewMgmt
 90
        0
280
     0
281
     0
  0
CLASS
  1
ACMPICKOBJ
  2
AcmPickEnt
  3
"AcmSymBB|Product Description: AutoCAD Mechanical|Company: Autodesk"
 90
    32768
280
     0
281
     1
  0
CLASS
  1
ACMNOTESTANDARDISO
  2
AmdtNoteStdISO
  3
"Amdt_StdImp|Product Description: AutoCAD Mechanical|Company: Autodesk"
 90
        0
280
     0
281
     0
  0
CLASS
  1
ACMNOTESTANDARDANSI
  2
AmdtNoteStdANSI
  3
"Amdt_StdImp|Product Description: AutoCAD Mechanical|Company: Autodesk"
 90
        0
280
     0
281
     0
  0
CLASS
  1
ACMTHREADLINESTANDARDISO
  2
AmdtThreadLineStdISO
  3
"Amdt_StdImp|Product Description: AutoCAD Mechanical|Company: Autodesk"
 90
        0
280
     0
281
     0
  0
CLASS
  1
ACMTHREADLINESTANDARDANSI
  2
AmdtThreadLineStdANSI
  3
"Amdt_StdImp|Product Description: AutoCAD Mechanical|Company: Autodesk"
 90
        0
280
     0
281
     0
  0
CLASS
  1
TABLESTYLE
  2
AcDbTableStyle
  3
ObjectDBX Classes
 90
     4095
280
     0
281
     0
  0
CLASS
  1
SORTENTSTABLE
  2
AcDbSortentsTable
  3
ObjectDBX Classes
 90
        0
280
     0
281
     0
  0
CLASS
  1
MATERIAL
  2
AcDbMaterial
  3
ObjectDBX Classes
 90
     1024
280
     0
281
     0
  0
CLASS
  1
VISUALSTYLE
  2
AcDbVisualStyle
  3
ObjectDBX Classes
 90
     4095
280
     0
281
     0
  0
CLASS
  1
ACRFATTGENMGR
  2
AcRfAttGeneralMgr
  3
AcAttribServices
 90
        0
280
     0
281
     0
  0
CLASS
  1
ACRFOBJATTMGR
  2
AcRfObjAttGroupMgr
  3
AcAttribServices
 90
        0
280
     0
281
     0
  0
CLASS
  1
ACRFMCADAPIATTHOLDER
  2
AcRfMCADAPIAttHolder
  3
AcAttribServices
 90
        0
280
     0
281
     0
  0
CLASS
  1
AMDTSYSATTR
  2
AmdtSystemAttribute
  3
AcAttribServices
 90
        0
280
     0
281
     0
  0
CLASS
  1
ACMTAPERSTANDARDISO
  2
AcmTaperStdISO
  3
"Amdt_StdImp|Product Description: AutoCAD Mechanical|Company: Autodesk"
 90
        0
280
     0
281
     0
  0
CLASS
  1
CAMSSTRUCTBTNSTATE
  2
StructBtnState
  3
L"DesignerAssemblies"
 90
        0
280
     0
281
     0
  0
CLASS
  1
DIMASSOC
  2
AcDbDimAssoc
  3
"AcDbDimAssoc|Product Desc:     AcDim ARX App For Dimension|Company:          Autodesk, Inc.|WEB Address:      www.autodesk.com"
 90
    32768
280
     0
281
     0
  0
CLASS
  1
AMDTACMWBLOCKBOMENTITY
  2
AmdtAcmWblockBomEntity
  3
"AcmSymBB|Product Description: AutoCAD Mechanical|Company: Autodesk"
 90
    35839
280
     0
281
     1
  0
CLASS
  1
AMDTNOTETEMPLATEDB
  2
AmdtNoteTemplateDB
  3
AMDT_STDIMP_MODULE_NAME
 90
        0
280
     0
281
     0
  0
CLASS
  1
ACMTAPERSTANDARDANSI
  2
AcmTaperStdANSI
  3
"Amdt_StdImp|Product Description: AutoCAD Mechanical|Company: Autodesk"
 90
        0
280
     0
281
     0
  0
CLASS
  1
ACAMGHOLECHARTSTDANSI
  2
AcAmgHoleChartStdANSI
  3
ACMSYMBB_MODULE_NAME
 90
        0
280
     0
281
     0
  0
CLASS
  1
SCALE
  2
AcDbScale
  3
ObjectDBX Classes
 90
     1153
280
     0
281
     0
  0
CLASS
  1
MLEADERSTYLE
  2
AcDbMLeaderStyle
  3
ACDB_MLEADERSTYLE_CLASS
 90
     4095
280
     0
281
     0
  0
CLASS
  1
ACMANOOTATIONVIEWSTANDARDISO
  2
AmdtAnViewStdISO
  3
"Amdt_StdImp|Product Description: AutoCAD Mechanical|Company: Autodesk, Inc."
 90
    33792
280
     0
281
     0
  0
CLASS
  1
ACMANOOTATIONVIEWSTANDARDANSI
  2
AmdtAnViewStdANSI
  3
"Amdt_StdImp|Product Description: AutoCAD Mechanical|Company: Autodesk, Inc."
 90
    33792
280
     0
281
     0
  0
CLASS
  1
CELLSTYLEMAP
  2
AcDbCellStyleMap
  3
ObjectDBX Classes
 90
     1152
280
     0
281
     0
  0
ENDSEC
  0
SECTION
  2
TABLES
  0
TABLE
  2
VPORT
  5
8
330
0
100
AcDbSymbolTable
 70
     1
  0
VPORT
  5
B0EC
330
8
100
AcDbSymbolTableRecord
100
AcDbViewportTableRecord
  2
*Active
 70
     0
 10
0.0
 20
0.0
 11
1.0
 21
1.0
 12
148.5011276396154
 22
105.0022316946925
 13
0.0
 23
0.0
 14
2.5
 24
2.5
 15
10.0
 25
10.0
 16
0.0
 26
0.0
 36
1.0
 17
0.0
 27
0.0
 37
0.0
 40
211.5597862463315
 41
1.648648648648648
 42
50.0
 43
-1370.695619172058
 44
-1370.695619172058
 50
0.0
 51
0.0
 71
     0
 72
   100
 73
     1
 74
     3
 75
     0
 76
     0
 77
     0
 78
     0
281
     0
 65
     0
110
0.0
120
0.0
130
0.0
111
1.0
121
0.0
131
0.0
112
0.0
122
1.0
132
0.0
 79
     0
146
0.0
  0
ENDTAB
  0
TABLE
  2
LTYPE
  5
5
330
0
100
AcDbSymbolTable
 70
    33
  0
LTYPE
  5
14
330
5
100
AcDbSymbolTableRecord
100
AcDbLinetypeTableRecord
  2
ByBlock
 70
     0
  3

 72
    65
 73
     0
 40
0.0
  0
LTYPE
  5
15
330
5
100
AcDbSymbolTableRecord
100
AcDbLinetypeTableRecord
  2
ByLayer
 70
     0
  3

 72
    65
 73
     0
 40
0.0
  0
LTYPE
  5
16
330
5
100
AcDbSymbolTableRecord
100
AcDbLinetypeTableRecord
  2
Continuous
 70
     0
  3
Solid line
 72
    65
 73
     0
 40
0.0
  0
LTYPE
  5
4F
330
5
100
AcDbSymbolTableRecord
100
AcDbLinetypeTableRecord
  2
AM_ISO02W050
 70
     0
  3
__ __ __ __ __ __ __ __ __ __ __ __ __ __ __
 72
    65
 73
     2
 40
7.5
 49
6.0
 74
     0
 49
-1.5
 74
     0
  0
LTYPE
  5
52
330
5
100
AcDbSymbolTableRecord
100
AcDbLinetypeTableRecord
  2
Amconstr
 70
     0
  3
_______________________
 72
    65
 73
     2
 40
9999.0
 49
9999.0
 74
     0
 49
0.0
 74
     0
  0
LTYPE
  5
64
330
5
100
AcDbSymbolTableRecord
100
AcDbLinetypeTableRecord
  2
ACISOWELD
 70
     0
  3
_ _ _ _ _
 72
    65
 73
     2
 40
2.0
 49
2.0
 74
     0
 49
-1.0
 74
     0
  0
LTYPE
  5
65
330
5
100
AcDbSymbolTableRecord
100
AcDbLinetypeTableRecord
  2
ACISOTGB
 70
     0
  3
__ . . __ . .
 72
    65
 73
     6
 40
9.0
 49
4.0
 74
     0
 49
-1.0
 74
     0
 49
1.0
 74
     0
 49
-1.0
 74
     0
 49
1.0
 74
     0
 49
-1.0
 74
     0
  0
LTYPE
  5
66
330
5
100
AcDbSymbolTableRecord
100
AcDbLinetypeTableRecord
  2
ACISOTGL
 70
     0
  3
_ _ _ _ _
 72
    65
 73
     2
 40
3.0
 49
2.0
 74
     0
 49
-1.0
 74
     0
  0
LTYPE
  5
69
330
5
100
AcDbSymbolTableRecord
100
AcDbLinetypeTableRecord
  2
CENTER
 70
     0
  3
__ . __
 72
    65
 73
     4
 40
7.0
 49
4.0
 74
     0
 49
-1.0
 74
     0
 49
1.0
 74
     0
 49
-1.0
 74
     0
  0
LTYPE
  5
A6E
330
5
100
AcDbSymbolTableRecord
100
AcDbLinetypeTableRecord
  2
PHANTOM2
 70
     0
  3
Phantom (.5x) ___ _ _ ___ _ _ ___ _ _ ___ _ _
 72
    65
 73
     6
 40
31.75
 49
15.875
 74
     0
 49
-3.174999999999999
 74
     0
 49
3.174999999999999
 74
     0
 49
-3.174999999999999
 74
     0
 49
3.174999999999999
 74
     0
 49
-3.174999999999999
 74
     0
  0
LTYPE
  5
4DED
330
5
100
AcDbSymbolTableRecord
100
AcDbLinetypeTableRecord
  2
中線
 70
     0
  3
___________________
 72
    65
 73
     2
 40
2.0
 49
1.0
 74
     0
 49
1.0
 74
     0
  0
LTYPE
  5
4DF6
330
5
100
AcDbSymbolTableRecord
100
AcDbLinetypeTableRecord
  2
細線
 70
     0
  3
___________________
 72
    65
 73
     2
 40
2.0
 49
1.0
 74
     0
 49
1.0
 74
     0
  0
LTYPE
  5
4DF7
330
5
100
AcDbSymbolTableRecord
100
AcDbLinetypeTableRecord
  2
太線
 70
     0
  3
___________________
 72
    65
 73
     2
 40
2.0
 49
1.0
 74
     0
 49
1.0
 74
     0
  0
LTYPE
  5
4EA7
330
5
100
AcDbSymbolTableRecord
100
AcDbLinetypeTableRecord
  2
文字
 70
     0
  3
_________________
 72
    65
 73
     2
 40
2.0
 49
1.0
 74
     0
 49
1.0
 74
     0
  0
LTYPE
  5
4EA9
330
5
100
AcDbSymbolTableRecord
100
AcDbLinetypeTableRecord
  2
寸法線
 70
     0
  3
________________
 72
    65
 73
     2
 40
2.0
 49
1.0
 74
     0
 49
1.0
 74
     0
  0
LTYPE
  5
4F12
330
5
100
AcDbSymbolTableRecord
100
AcDbLinetypeTableRecord
  2
ハッチング
 70
     0
  3
_________________
 72
    65
 73
     2
 40
2.0
 49
1.0
 74
     0
 49
1.0
 74
     0
  0
LTYPE
  5
5180
330
5
100
AcDbSymbolTableRecord
100
AcDbLinetypeTableRecord
  2
陰線1
 70
     0
  3
__ __ __ __
 72
    65
 73
     2
 40
4.0
 49
2.2
 74
     0
 49
-1.8
 74
     0
  0
LTYPE
  5
5182
330
5
100
AcDbSymbolTableRecord
100
AcDbLinetypeTableRecord
  2
切断線
 70
     0
  3
/\/-/\/-/\/-/\/-/\/-/\/
 72
    65
 73
     2
 40
11.0001
 49
0.0001
 74
     4
 75
   135
340
56
 46
0.04
 50
0.0
 44
0.0
 45
0.0
 49
-11.0
 74
     0
  0
LTYPE
  5
5183
330
5
100
AcDbSymbolTableRecord
100
AcDbLinetypeTableRecord
  2
想像線1
 70
     0
  3
__ __ __ _____ __ __ ____
 72
    65
 73
     6
 40
14.5
 49
6.0
 74
     0
 49
-1.5
 74
     0
 49
2.0
 74
     0
 49
-1.5
 74
     0
 49
2.0
 74
     0
 49
-1.5
 74
     0
  0
LTYPE
  5
5185
330
5
100
AcDbSymbolTableRecord
100
AcDbLinetypeTableRecord
  2
中心線1
 70
     0
  3
___ _ ___ _ ___
 72
    65
 73
     4
 40
18.0
 49
12.0
 74
     0
 49
-2.0
 74
     0
 49
2.0
 74
     0
 49
-2.0
 74
     0
  0
LTYPE
  5
5188
330
5
100
AcDbSymbolTableRecord
100
AcDbLinetypeTableRecord
  2
補助線
 70
     0
  3
______________
 72
    65
 73
     2
 40
2.0
 49
1.0
 74
     0
 49
1.0
 74
     0
  0
LTYPE
  5
6427
330
5
100
AcDbSymbolTableRecord
100
AcDbLinetypeTableRecord
  2
HIDDEN
 70
     0
  3
Hidden __ __ __ __ __ __ __ __ __ __ __ __ __ _
 72
    65
 73
     2
 40
0.375
 49
0.25
 74
     0
 49
-0.125
 74
     0
  0
LTYPE
  5
AC81
330
5
100
AcDbSymbolTableRecord
100
AcDbLinetypeTableRecord
  2
破断線
 70
     0
  3
/\/-/\/-/\/-/\/-/\/-/\/
 72
    65
 73
     2
 40
0.4401
 49
0.0001
 74
     4
 75
   136
340
AC80
 46
0.0016
 50
0.0
 44
0.0
 45
0.0
 49
-0.4400000000000001
 74
     0
  0
LTYPE
  5
AC9E
330
5
100
AcDbSymbolTableRecord
100
AcDbLinetypeTableRecord
  2
Amzigzag
 70
     0
  3
/\/-/\/-/\/-/\/-/\/-/\/
 72
    65
 73
     2
 40
11.0001
 49
0.0001
 74
     4
 75
   135
340
56
 46
0.04
 50
0.0
 44
0.0
 45
0.0
 49
-11.0
 74
     0
  0
LTYPE
  5
AF0F
330
5
100
AcDbSymbolTableRecord
100
AcDbLinetypeTableRecord
  2
genzigzag
 70
     0
  3
/\/-/\/-/\/-/\/-/\/-/\/
 72
    65
 73
     2
 40
12.0001
 49
0.0001
 74
     4
 75
   135
340
AC80
 46
2.0
 50
0.0
 44
0.0
 45
0.0
 49
-12.0
 74
     0
  0
LTYPE
  5
AF95
330
5
100
AcDbSymbolTableRecord
100
AcDbLinetypeTableRecord
  2
AM_ISO08W050
 70
     0
  3
____ . ____ . ____ . ____ . ____ . ____ . ____
 72
    65
 73
     4
 40
18.0
 49
12.0
 74
     0
 49
-1.5
 74
     0
 49
3.0
 74
     0
 49
-1.5
 74
     0
  0
LTYPE
  5
AF96
330
5
100
AcDbSymbolTableRecord
100
AcDbLinetypeTableRecord
  2
AM_ISO09W050
 70
     0
  3
_____ . . _____ . . _____ . . ____ .. ____
 72
    65
 73
     6
 40
22.5
 49
12.0
 74
     0
 49
-1.5
 74
     0
 49
3.0
 74
     0
 49
-1.5
 74
     0
 49
3.0
 74
     0
 49
-1.5
 74
     0
  0
LTYPE
  5
AF97
330
5
100
AcDbSymbolTableRecord
100
AcDbLinetypeTableRecord
  2
AM_ISO08W050x2
 70
     0
  3
__ . __ . __ . __ . __ . __
 72
    65
 73
     4
 40
9.0
 49
6.0
 74
     0
 49
-0.75
 74
     0
 49
1.5
 74
     0
 49
-0.75
 74
     0
  0
LTYPE
  5
AF98
330
5
100
AcDbSymbolTableRecord
100
AcDbLinetypeTableRecord
  2
AM_ISO02W050x2
 70
     0
  3
 _ _ _ _ _ _ _ _ _ _ _ _
 72
    65
 73
     2
 40
3.75
 49
3.0
 74
     0
 49
-0.75
 74
     0
  0
LTYPE
  5
B655
330
5
100
AcDbSymbolTableRecord
100
AcDbLinetypeTableRecord
  2
DOT
 70
     0
  3
･ ･ ･ ･ ･ ･ ･ ･ 
 72
    65
 73
     2
 40
8.0
 49
6.0
 74
     0
 49
-2.0
 74
     0
  0
LTYPE
  5
B656
330
5
100
AcDbSymbolTableRecord
100
AcDbLinetypeTableRecord
  2
CENTER2
 70
     0
  3
Center (.5x) ___ _ ___ _ ___ _ ___ _ ___ _ ___
 72
    65
 73
     4
 40
1.125
 49
0.75
 74
     0
 49
-0.125
 74
     0
 49
0.125
 74
     0
 49
-0.125
 74
     0
  0
LTYPE
  5
B657
330
5
100
AcDbSymbolTableRecord
100
AcDbLinetypeTableRecord
  2
HIDDEN2
 70
     0
  3
Hidden (.5x) _ _ _ _ _ _ _ _ _ _ _ _ _ _ _ _ _
 72
    65
 73
     2
 40
0.1875
 49
0.125
 74
     0
 49
-0.0625
 74
     0
  0
LTYPE
  5
B658
330
5
100
AcDbSymbolTableRecord
100
AcDbLinetypeTableRecord
  2
Amzigzag2
 70
     0
  3
/\/-/\/-/\/-/\/-/\/-/\/
 72
    65
 73
     2
 40
0.4401
 49
0.0001
 74
     4
 75
   136
340
AC80
 46
0.0016
 50
0.0
 44
0.0
 45
0.0
 49
-0.4400000000000001
 74
     0
  0
LTYPE
  5
B659
330
5
100
AcDbSymbolTableRecord
100
AcDbLinetypeTableRecord
  2
ACANSTGB
 70
     0
  3
__ . . __ . .
 72
    65
 73
     6
 40
0.35433070866
 49
0.15748031496
 74
     0
 49
-0.03937007874
 74
     0
 49
0.03937007874
 74
     0
 49
-0.03937007874
 74
     0
 49
0.03937007874
 74
     0
 49
-0.03937007874
 74
     0
  0
LTYPE
  5
B65A
330
5
100
AcDbSymbolTableRecord
100
AcDbLinetypeTableRecord
  2
ACANSTGL
 70
     0
  3
_ _ _ _ _
 72
    65
 73
     2
 40
0.11811023622
 49
0.07874015748
 74
     0
 49
-0.03937007874
 74
     0
  0
ENDTAB
  0
TABLE
  2
LAYER
  5
2
102
{ACAD_XDICTIONARY
360
3F95
102
}
330
0
100
AcDbSymbolTable
 70
    23
  0
LAYER
  5
10
102
{ACAD_XDICTIONARY
360
C9CB
102
}
330
2
100
AcDbSymbolTableRecord
100
AcDbLayerTableRecord
  2
0
 70
     0
 62
     7
  6
Continuous
370
    -3
390
F
  0
LAYER
  5
6D1
330
2
100
AcDbSymbolTableRecord
100
AcDbLayerTableRecord
  2
Defpoints
 70
     0
 62
     7
  6
Continuous
290
     0
370
    -3
390
F
  0
LAYER
  5
5F85
102
{ACAD_XDICTIONARY
360
C9CD
102
}
330
2
100
AcDbSymbolTableRecord
100
AcDbLayerTableRecord
  2
AM_0
 70
     0
 62
     7
  6
中線
370
    30
390
F
1001
AcAecLayerStandard
1000

1000

  0
LAYER
  5
AC9F
102
{ACAD_XDICTIONARY
360
C9CF
102
}
330
2
100
AcDbSymbolTableRecord
100
AcDbLayerTableRecord
  2
size
 70
     0
 62
     5
  6
Continuous
290
     0
370
    25
390
F
  0
LAYER
  5
ACA0
102
{ACAD_XDICTIONARY
360
C9D1
102
}
330
2
100
AcDbSymbolTableRecord
100
AcDbLayerTableRecord
  2
waku
 70
     0
 62
     7
  6
Continuous
370
    35
390
F
  0
LAYER
  5
ACA1
102
{ACAD_XDICTIONARY
360
C9D3
102
}
330
2
100
AcDbSymbolTableRecord
100
AcDbLayerTableRecord
  2
AM_6
 70
     0
 62
     2
  6
文字
370
    13
390
F
1001
AcAecLayerStandard
1000

1000

  0
LAYER
  5
ACC8
102
{ACAD_XDICTIONARY
360
C9D5
102
}
330
2
100
AcDbSymbolTableRecord
100
AcDbLayerTableRecord
  2
hyomoji
 70
     0
 62
     2
  6
Continuous
370
    13
390
F
  0
LAYER
  5
ACC9
102
{ACAD_XDICTIONARY
360
C9D7
102
}
330
2
100
AcDbSymbolTableRecord
100
AcDbLayerTableRecord
  2
hyosen1
 70
     0
 62
     1
  6
Continuous
370
    25
390
F
  0
LAYER
  5
ACCA
102
{ACAD_XDICTIONARY
360
C9D9
102
}
330
2
100
AcDbSymbolTableRecord
100
AcDbLayerTableRecord
  2
hyosen2
 70
     0
 62
     1
  6
Continuous
370
    13
390
F
  0
LAYER
  5
AD60
102
{ACAD_XDICTIONARY
360
C9DB
102
}
330
2
100
AcDbSymbolTableRecord
100
AcDbLayerTableRecord
  2
AM_1
 70
     0
 62
    30
  6
太線
370
    40
390
F
1001
AcAecLayerStandard
1000

1000

  0
LAYER
  5
AD64
102
{ACAD_XDICTIONARY
360
C9DD
102
}
330
2
100
AcDbSymbolTableRecord
100
AcDbLayerTableRecord
  2
AM_2
 70
     0
 62
     1
  6
細線
370
    13
390
F
1001
AcAecLayerStandard
1000

1000

  0
LAYER
  5
AD67
102
{ACAD_XDICTIONARY
360
C9DF
102
}
330
2
100
AcDbSymbolTableRecord
100
AcDbLayerTableRecord
  2
AM_3
 70
     0
 62
     6
  6
陰線1
370
    13
390
F
1001
AcAecLayerStandard
1000

1000

  0
LAYER
  5
AD68
102
{ACAD_XDICTIONARY
360
C9E1
102
}
330
2
100
AcDbSymbolTableRecord
100
AcDbLayerTableRecord
  2
AM_5
 70
     0
 62
     3
  6
寸法線
370
    13
390
F
1001
AcAecLayerStandard
1000

1000

  0
LAYER
  5
AD69
102
{ACAD_XDICTIONARY
360
C9E3
102
}
330
2
100
AcDbSymbolTableRecord
100
AcDbLayerTableRecord
  2
AM_7
 70
     0
 62
     4
  6
中心線1
370
    13
390
F
1001
AcAecLayerStandard
1000

1000

  0
LAYER
  5
AD6A
102
{ACAD_XDICTIONARY
360
C9E5
102
}
330
2
100
AcDbSymbolTableRecord
100
AcDbLayerTableRecord
  2
AM_8
 70
     0
 62
     1
  6
ハッチング
370
    13
390
F
1001
AcAecLayerStandard
1000

1000

  0
LAYER
  5
AD6E
102
{ACAD_XDICTIONARY
360
C9E7
102
}
330
2
100
AcDbSymbolTableRecord
100
AcDbLayerTableRecord
  2
AM_10
 70
     0
 62
     7
  6
切断線
370
    13
390
F
1001
AcAecLayerStandard
1000

1000

  0
LAYER
  5
AD6F
102
{ACAD_XDICTIONARY
360
C9E9
102
}
330
2
100
AcDbSymbolTableRecord
100
AcDbLayerTableRecord
  2
AM_11
 70
     0
 62
     2
  6
想像線1
370
    13
390
F
1001
AcAecLayerStandard
1000

1000

  0
LAYER
  5
B1B6
102
{ACAD_XDICTIONARY
360
C9EB
102
}
330
2
100
AcDbSymbolTableRecord
100
AcDbLayerTableRecord
  2
AM_CL
 70
     0
 62
     1
  6
Amconstr
370
    15
390
F
1001
AcAecLayerStandard
1000

1000

  0
LAYER
  5
B2EB
102
{ACAD_XDICTIONARY
360
C9ED
102
}
330
2
100
AcDbSymbolTableRecord
100
AcDbLayerTableRecord
  2
AM_14
 70
     0
 62
     5
  6
細線
370
     9
390
F
1001
AcAecLayerStandard
1000

1000

  0
LAYER
  5
B2EC
102
{ACAD_XDICTIONARY
360
C9EF
102
}
330
2
100
AcDbSymbolTableRecord
100
AcDbLayerTableRecord
  2
AM_15
 70
     0
 62
     6
  6
陰線1
370
     9
390
F
1001
AcAecLayerStandard
1000

1000

  0
LAYER
  5
B65B
102
{ACAD_XDICTIONARY
360
C9F1
102
}
330
2
100
AcDbSymbolTableRecord
100
AcDbLayerTableRecord
  2
1
 70
     0
 62
     7
  6
Continuous
370
    -3
390
F
  0
LAYER
  5
B65C
102
{ACAD_XDICTIONARY
360
C9F3
102
}
330
2
100
AcDbSymbolTableRecord
100
AcDbLayerTableRecord
  2
2
 70
     0
 62
     7
  6
Continuous
370
    -3
390
F
  0
LAYER
  5
B65D
102
{ACAD_XDICTIONARY
360
C9F5
102
}
330
2
100
AcDbSymbolTableRecord
100
AcDbLayerTableRecord
  2
20
 70
     0
 62
    94
  6
Continuous
370
    -3
390
F
  0
ENDTAB
  0
TABLE
  2
STYLE
  5
3
330
0
100
AcDbSymbolTable
 70
     8
  0
STYLE
  5
11
330
3
100
AcDbSymbolTableRecord
100
AcDbTextStyleTableRecord
  2
STANDARD
 70
     0
 40
0.0
 41
0.7
 50
0.0
 71
     0
 42
3.2
  3
romans.shx
  4
extfont.shx
  0
STYLE
  5
56
330
3
100
AcDbSymbolTableRecord
100
AcDbTextStyleTableRecord
  2

 70
     1
 40
0.0
 41
1.0
 50
0.0
 71
     0
 42
2.5
  3
ltypeshp.shx
  4

  0
STYLE
  5
58
330
3
100
AcDbSymbolTableRecord
100
AcDbTextStyleTableRecord
  2
ACISOTS
 70
     0
 40
1.0
 41
1.0
 50
0.0
 71
     0
 42
2.5
  3
isocp.shx
  4
extfont.shx
  0
STYLE
  5
63
330
3
100
AcDbSymbolTableRecord
100
AcDbTextStyleTableRecord
  2
ACISOGDT
 70
     0
 40
0.0
 41
1.0
 50
0.0
 71
     0
 42
2.5
  3
amgdt.shx
  4

  0
STYLE
  5
A74
330
3
100
AcDbSymbolTableRecord
100
AcDbTextStyleTableRecord
  2
DIM
 70
     0
 40
0.0
 41
1.0
 50
0.0
 71
     0
 42
2.5
  3
monotxt.shx
  4
extfont.shx
  0
STYLE
  5
AC80
330
3
100
AcDbSymbolTableRecord
100
AcDbTextStyleTableRecord
  2

 70
     1
 40
0.0
 41
1.0
 50
0.0
 71
     0
 42
3.2
  3
genltshp.shx
  4

  0
STYLE
  5
B65E
330
3
100
AcDbSymbolTableRecord
100
AcDbTextStyleTableRecord
  2
ACANSTS
 70
     0
 40
1.0
 41
1.0
 50
0.0
 71
     0
 42
5.0
  3
romans.shx
  4
extfont.shx
  0
STYLE
  5
B65F
330
3
100
AcDbSymbolTableRecord
100
AcDbTextStyleTableRecord
  2
ACANSGDT
 70
     0
 40
0.0
 41
1.0
 50
0.0
 71
     0
 42
5.0
  3
amgdt.shx
  4

  0
ENDTAB
  0
TABLE
  2
VIEW
  5
6
330
0
100
AcDbSymbolTable
 70
     6
  0
VIEW
  5
AE1
330
6
100
AcDbSymbolTableRecord
100
AcDbViewTableRecord
  2
AM_VIEW1
 70
     0
 40
119.3150289017341
 10
74.25
 20
150.3424855491329
 41
148.5
 11
0.0
 21
0.0
 31
1.0
 12
0.0
 22
0.0
 32
0.0
 42
50.0
 43
-1370.695619172058
 44
-1370.695619172058
 50
0.0
 71
     0
281
     0
 72
     0
  0
VIEW
  5
AE2
330
6
100
AcDbSymbolTableRecord
100
AcDbViewTableRecord
  2
AM_VIEW2
 70
     0
 40
119.3150289017341
 10
222.75
 20
150.3424855491329
 41
148.5
 11
0.0
 21
0.0
 31
1.0
 12
0.0
 22
0.0
 32
0.0
 42
50.0
 43
-1370.695619172058
 44
-1370.695619172058
 50
0.0
 71
     0
281
     0
 72
     0
  0
VIEW
  5
AE3
330
6
100
AcDbSymbolTableRecord
100
AcDbViewTableRecord
  2
AM_VIEW3
 70
     0
 40
119.3150289017341
 10
74.25
 20
59.65751445086702
 41
148.5
 11
0.0
 21
0.0
 31
1.0
 12
0.0
 22
0.0
 32
0.0
 42
50.0
 43
-1370.695619172058
 44
-1370.695619172058
 50
0.0
 71
     0
281
     0
 72
     0
  0
VIEW
  5
AE4
330
6
100
AcDbSymbolTableRecord
100
AcDbViewTableRecord
  2
AM_VIEW4
 70
     0
 40
119.3150289017341
 10
222.75
 20
59.65751445086702
 41
148.5
 11
0.0
 21
0.0
 31
1.0
 12
0.0
 22
0.0
 32
0.0
 42
50.0
 43
-1370.695619172058
 44
-1370.695619172058
 50
0.0
 71
     0
281
     0
 72
     0
  0
VIEW
  5
AE5
330
6
100
AcDbSymbolTableRecord
100
AcDbViewTableRecord
  2
AM_VIEW5
 70
     0
 40
119.3150289017341
 10
148.5
 20
105.0
 41
148.5
 11
0.0
 21
0.0
 31
1.0
 12
0.0
 22
0.0
 32
0.0
 42
50.0
 43
-1370.695619172058
 44
-1370.695619172058
 50
0.0
 71
     0
281
     0
 72
     0
  0
VIEW
  5
AE6
330
6
100
AcDbSymbolTableRecord
100
AcDbViewTableRecord
  2
AM_VIEW6
 70
     0
 40
238.6276715028902
 10
148.5
 20
105.0
 41
296.99703
 11
0.0
 21
0.0
 31
1.0
 12
0.0
 22
0.0
 32
0.0
 42
50.0
 43
-1370.695619172058
 44
-1370.695619172058
 50
0.0
 71
     0
281
     0
 72
     0
  0
ENDTAB
  0
TABLE
  2
UCS
  5
7
330
0
100
AcDbSymbolTable
 70
     0
  0
ENDTAB
  0
TABLE
  2
APPID
  5
9
330
0
100
AcDbSymbolTable
 70
    61
  0
APPID
  5
12
330
9
100
AcDbSymbolTableRecord
100
AcDbRegAppTableRecord
  2
ACAD
 70
     0
  0
APPID
  5
30
330
9
100
AcDbSymbolTableRecord
100
AcDbRegAppTableRecord
  2
MCAD_NO_VIS
 70
     0
  0
APPID
  5
31
330
9
100
AcDbSymbolTableRecord
100
AcDbRegAppTableRecord
  2
ACAD_TEMP_GRAPHIC
 70
     0
  0
APPID
  5
44
330
9
100
AcDbSymbolTableRecord
100
AcDbRegAppTableRecord
  2
ACATTRIBSERVICES
 70
     0
  0
APPID
  5
7A1
330
9
100
AcDbSymbolTableRecord
100
AcDbRegAppTableRecord
  2
GENIUS_GENDIMSH_14
 70
     0
  0
APPID
  5
A49
330
9
100
AcDbSymbolTableRecord
100
AcDbRegAppTableRecord
  2
GENIUS_GENREC_14
 70
     0
  0
APPID
  5
A4A
330
9
100
AcDbSymbolTableRecord
100
AcDbRegAppTableRecord
  2
GENIUS_GENOBJ-N-REC_13
 70
     0
  0
APPID
  5
A4B
330
9
100
AcDbSymbolTableRecord
100
AcDbRegAppTableRecord
  2
GENIUS_GENODEF_13
 70
     0
  0
APPID
  5
A4C
330
9
100
AcDbSymbolTableRecord
100
AcDbRegAppTableRecord
  2
DCO15
 70
     0
  0
APPID
  5
ADC
330
9
100
AcDbSymbolTableRecord
100
AcDbRegAppTableRecord
  2
GENIUS_GENOLIS_13
 70
     0
  0
APPID
  5
ADD
330
9
100
AcDbSymbolTableRecord
100
AcDbRegAppTableRecord
  2
GENIUS_GENOENT_13
 70
     0
  0
APPID
  5
ADE
330
9
100
AcDbSymbolTableRecord
100
AcDbRegAppTableRecord
  2
GENIUS_GENOBJ-N-TIT_13
 70
     0
  0
APPID
  5
ADF
330
9
100
AcDbSymbolTableRecord
100
AcDbRegAppTableRecord
  2
GENIUS_GENTITLE_13
 70
     0
  0
APPID
  5
AE0
330
9
100
AcDbSymbolTableRecord
100
AcDbRegAppTableRecord
  2
GENIUS_GENOREF_13
 70
     0
  0
APPID
  5
AE7
330
9
100
AcDbSymbolTableRecord
100
AcDbRegAppTableRecord
  2
GENIUS_GENSCREG_15
 70
     0
  0
APPID
  5
AE8
330
9
100
AcDbSymbolTableRecord
100
AcDbRegAppTableRecord
  2
GENIUS_GENOBJ-N-SDF_13
 70
     0
  0
APPID
  5
FAF
330
9
100
AcDbSymbolTableRecord
100
AcDbRegAppTableRecord
  2
GENIUS_GENBLLY_14
 70
     0
  0
APPID
  5
FB0
330
9
100
AcDbSymbolTableRecord
100
AcDbRegAppTableRecord
  2
GENIUS_GENTRA_14
 70
     0
  0
APPID
  5
1285
330
9
100
AcDbSymbolTableRecord
100
AcDbRegAppTableRecord
  2
GENIUS_GENDTOL_13
 70
     0
  0
APPID
  5
142D
330
9
100
AcDbSymbolTableRecord
100
AcDbRegAppTableRecord
  2
GENIUS_GENOBJ-N-CEN_13
 70
     0
  0
APPID
  5
1AB5
330
9
100
AcDbSymbolTableRecord
100
AcDbRegAppTableRecord
  2
GENIUS_GENOBJ-N-CRS_13
 70
     0
  0
APPID
  5
1B36
330
9
100
AcDbSymbolTableRecord
100
AcDbRegAppTableRecord
  2
GENIUS_GENOBJ-N-HTC_13
 70
     0
  0
APPID
  5
1B37
330
9
100
AcDbSymbolTableRecord
100
AcDbRegAppTableRecord
  2
GENIUS_GENHATCH_13
 70
     0
  0
APPID
  5
216D
330
9
100
AcDbSymbolTableRecord
100
AcDbRegAppTableRecord
  2
GENIUS_GENOBJ-N-FIL_13
 70
     0
  0
APPID
  5
2356
330
9
100
AcDbSymbolTableRecord
100
AcDbRegAppTableRecord
  2
GEVID990412420
 70
     0
  0
APPID
  5
2357
330
9
100
AcDbSymbolTableRecord
100
AcDbRegAppTableRecord
  2
GEVDC
 70
     0
  0
APPID
  5
2358
330
9
100
AcDbSymbolTableRecord
100
AcDbRegAppTableRecord
  2
GEVCON
 70
     0
  0
APPID
  5
235B
330
9
100
AcDbSymbolTableRecord
100
AcDbRegAppTableRecord
  2
GEVRADREF
 70
     0
  0
APPID
  5
2360
330
9
100
AcDbSymbolTableRecord
100
AcDbRegAppTableRecord
  2
GENIUS_GENBH_13
 70
     0
  0
APPID
  5
2362
330
9
100
AcDbSymbolTableRecord
100
AcDbRegAppTableRecord
  2
GENIUS_GENOBJ-NBEHI-BHF_13
 70
     0
  0
APPID
  5
2364
330
9
100
AcDbSymbolTableRecord
100
AcDbRegAppTableRecord
  2
GENIUS_GENOBJ-NBEHI-BHB_13
 70
     0
  0
APPID
  5
2379
330
9
100
AcDbSymbolTableRecord
100
AcDbRegAppTableRecord
  2
GENIUS_GENOBJ-F-SCPASSM_13
 70
     0
  0
APPID
  5
3D74
330
9
100
AcDbSymbolTableRecord
100
AcDbRegAppTableRecord
  2
GENIUS_GENDIM_13
 70
     0
  0
APPID
  5
3D76
330
9
100
AcDbSymbolTableRecord
100
AcDbRegAppTableRecord
  2
GENIUS_GE3DTOL_13
 70
     0
  0
APPID
  5
3D9C
330
9
100
AcDbSymbolTableRecord
100
AcDbRegAppTableRecord
  2
AD_DRAW
 70
     0
  0
APPID
  5
3DE8
330
9
100
AcDbSymbolTableRecord
100
AcDbRegAppTableRecord
  2
ASURF_PCURVE_APPNAME
 70
     0
  0
APPID
  5
3DED
330
9
100
AcDbSymbolTableRecord
100
AcDbRegAppTableRecord
  2
AMG_3D2D_5.0
 70
     0
  0
APPID
  5
3E1B
330
9
100
AcDbSymbolTableRecord
100
AcDbRegAppTableRecord
  2
DESIGNERASSEMBLIES
 70
     0
  0
APPID
  5
3E20
330
9
100
AcDbSymbolTableRecord
100
AcDbRegAppTableRecord
  2
ACADM_DIM_EDIT
 70
     0
  0
APPID
  5
3E21
330
9
100
AcDbSymbolTableRecord
100
AcDbRegAppTableRecord
  2
AMDT_DM_ADJ
 70
     0
  0
APPID
  5
4143
330
9
100
AcDbSymbolTableRecord
100
AcDbRegAppTableRecord
  2
GENIUS_GENFIL_13
 70
     0
  0
APPID
  5
4144
330
9
100
AcDbSymbolTableRecord
100
AcDbRegAppTableRecord
  2
GENIUS_GENOBJ-N-CHA_13
 70
     0
  0
APPID
  5
4E17
330
9
100
AcDbSymbolTableRecord
100
AcDbRegAppTableRecord
  2
GEVID1008153417
 70
     0
  0
APPID
  5
4E58
330
9
100
AcDbSymbolTableRecord
100
AcDbRegAppTableRecord
  2
GEVID1008153418
 70
     0
  0
APPID
  5
4E5E
330
9
100
AcDbSymbolTableRecord
100
AcDbRegAppTableRecord
  2
GEVID1008153419
 70
     0
  0
APPID
  5
4E64
330
9
100
AcDbSymbolTableRecord
100
AcDbRegAppTableRecord
  2
GEVID1008153420
 70
     0
  0
APPID
  5
4E75
330
9
100
AcDbSymbolTableRecord
100
AcDbRegAppTableRecord
  2
GEVID1008153421
 70
     0
  0
APPID
  5
4EB7
330
9
100
AcDbSymbolTableRecord
100
AcDbRegAppTableRecord
  2
GENIUS_AMGTXT_16
 70
     0
  0
APPID
  5
7645
330
9
100
AcDbSymbolTableRecord
100
AcDbRegAppTableRecord
  2
GENIUS_GENOBJ-N-DIM_13
 70
     0
  0
APPID
  5
AAD0
330
9
100
AcDbSymbolTableRecord
100
AcDbRegAppTableRecord
  2
ACAD_DSTYLE_DIMARC_LENGTH_SYMBOL
 70
     0
  0
APPID
  5
AAD1
330
9
100
AcDbSymbolTableRecord
100
AcDbRegAppTableRecord
  2
ACAD_DSTYLE_DIMJOGGED_JOGANGLE_SYMBOL
 70
     0
  0
APPID
  5
AAFD
330
9
100
AcDbSymbolTableRecord
100
AcDbRegAppTableRecord
  2
ACAD_PSEXT
 70
     0
  0
APPID
  5
AD61
330
9
100
AcDbSymbolTableRecord
100
AcDbRegAppTableRecord
  2
AcAecLayerStandard
 70
     0
  0
APPID
  5
AEE3
330
9
100
AcDbSymbolTableRecord
100
AcDbRegAppTableRecord
  2
ACAD_EXEMPT_FROM_CAD_STANDARDS
 70
     0
  0
APPID
  5
B1BE
330
9
100
AcDbSymbolTableRecord
100
AcDbRegAppTableRecord
  2
GENIUS_GENCEN_19
 70
     0
  0
APPID
  5
B505
330
9
100
AcDbSymbolTableRecord
100
AcDbRegAppTableRecord
  2
ACAD_MLEADERVER
 70
     0
  0
APPID
  5
B52B
330
9
100
AcDbSymbolTableRecord
100
AcDbRegAppTableRecord
  2
ACAUTHENVIRON
 70
     0
  0
APPID
  5
B52C
330
9
100
AcDbSymbolTableRecord
100
AcDbRegAppTableRecord
  2
AcDbDynamicBlockTrueName
 70
     0
  0
APPID
  5
B52D
330
9
100
AcDbSymbolTableRecord
100
AcDbRegAppTableRecord
  2
AcDbDynamicBlockGUID
 70
     0
  0
APPID
  5
B52E
330
9
100
AcDbSymbolTableRecord
100
AcDbRegAppTableRecord
  2
ACDBBLOCKREPETAG
 70
     0
  0
APPID
  5
C5D5
330
9
100
AcDbSymbolTableRecord
100
AcDbRegAppTableRecord
  2
ACAD_DSTYLE_DIMINSPECT
 70
     0
  0
ENDTAB
  0
TABLE
  2
DIMSTYLE
  5
A
330
0
100
AcDbSymbolTable
 70
    23
100
AcDbDimStyleTable
 71
     1
340
2515
  0
DIMSTYLE
105
A76
330
A
100
AcDbSymbolTableRecord
100
AcDbDimStyleTableRecord
  2
STANDARD
 70
     0
 41
3.0
 42
1.0
 43
7.0
 44
2.0
 73
     0
 74
     0
 77
     1
140
2.799999999999999
141
0.0
143
0.0394
147
0.7
171
     4
172
     1
173
     1
176
     3
177
     3
178
     2
271
     3
272
     3
273
     8
274
     4
289
     0
340
A74
341
A66
343
A66
344
A66
  0
DIMSTYLE
105
2515
330
A
100
AcDbSymbolTableRecord
100
AcDbDimStyleTableRecord
  2
SYS
 70
     0
  4
"
 41
1.0
 42
1.0
 43
10.0
 44
1.0
 47
0.1
 48
0.1
 73
     0
 74
     0
 77
     1
 78
     8
 79
     2
140
3.5
141
0.0
143
0.0393701
146
0.71
147
1.5
172
     1
176
   256
177
   256
178
     7
271
     2
272
     2
283
     0
284
     8
340
11
371
    -1
372
    -1
1001
ACAD_DSTYLE_DIMJOGGED_JOGANGLE_SYMBOL
1070
   384
1040
0.7853981633974483
1001
ACAD_DSTYLE_DIMARC_LENGTH_SYMBOL
1070
   379
1070
     1
  0
DIMSTYLE
105
2516
330
A
100
AcDbSymbolTableRecord
100
AcDbDimStyleTableRecord
  2
SYS$3
 70
     0
  4
"
 41
2.0
 42
1.0
 43
10.0
 44
1.0
 47
0.1
 48
0.1
 73
     0
 77
     1
 78
     8
 79
     2
140
3.5
141
0.0
143
0.0393701
146
0.71
147
1.5
176
   256
177
   256
178
     2
271
     2
272
     2
283
     0
284
     8
288
     1
340
11
342
A66
371
    -1
372
    -1
1001
ACAD_DSTYLE_DIMJOGGED_JOGANGLE_SYMBOL
1070
   384
1040
0.7853981633974483
1001
ACAD_DSTYLE_DIMARC_LENGTH_SYMBOL
1070
   379
1070
     1
  0
DIMSTYLE
105
2517
330
A
100
AcDbSymbolTableRecord
100
AcDbDimStyleTableRecord
  2
SYS$4
 70
     0
  4
"
 41
2.0
 42
1.0
 43
10.0
 44
1.0
 47
0.1
 48
0.1
 73
     0
 77
     1
 78
     8
 79
     2
140
3.5
141
0.0
143
0.0393701
146
0.71
147
1.5
173
     1
176
   256
177
   256
178
     2
271
     2
272
     2
283
     0
284
     8
288
     1
340
11
344
A66
371
    -1
372
    -1
1001
ACAD_DSTYLE_DIMJOGGED_JOGANGLE_SYMBOL
1070
   384
1040
0.7853981633974483
1001
ACAD_DSTYLE_DIMARC_LENGTH_SYMBOL
1070
   379
1070
     1
  0
DIMSTYLE
105
2518
330
A
100
AcDbSymbolTableRecord
100
AcDbDimStyleTableRecord
  2
SYS$6
 70
     0
  4
"
 41
2.0
 42
1.0
 43
10.0
 44
1.0
 47
0.1
 48
0.1
 73
     0
 74
     0
 78
     8
 79
     2
140
3.5
141
0.0
143
0.0393701
146
0.71
147
1.5
172
     1
176
   256
177
   256
178
     2
271
     2
272
     2
283
     0
284
     8
340
11
341
A66
371
    -1
372
    -1
1001
ACAD_DSTYLE_DIMJOGGED_JOGANGLE_SYMBOL
1070
   384
1040
0.7853981633974483
1001
ACAD_DSTYLE_DIMARC_LENGTH_SYMBOL
1070
   379
1070
     1
  0
DIMSTYLE
105
2519
330
A
100
AcDbSymbolTableRecord
100
AcDbDimStyleTableRecord
  2
SYS$7
 70
     0
  4
"
 41
2.0
 42
1.0
 43
10.0
 44
1.0
 47
0.1
 48
0.1
 73
     0
 74
     0
 77
     1
 78
     8
 79
     2
140
5.0
141
0.0
143
0.0393701
146
0.71
147
1.5
172
     1
176
   256
177
   256
178
     2
271
     2
272
     2
283
     0
284
     8
340
11
341
A66
342
A66
371
    -1
372
    -1
1001
ACAD_DSTYLE_DIMJOGGED_JOGANGLE_SYMBOL
1070
   384
1040
0.7853981633974483
1001
ACAD_DSTYLE_DIMARC_LENGTH_SYMBOL
1070
   379
1070
     1
  0
DIMSTYLE
105
251A
330
A
100
AcDbSymbolTableRecord
100
AcDbDimStyleTableRecord
  2
SYS$SF
 70
     0
  4
"
 41
2.5
 42
1.0
 43
10.0
 44
1.0
 47
0.1
 48
0.1
 73
     0
 74
     0
 75
     1
 76
     1
 77
     1
 78
     8
 79
     2
140
3.5
141
0.0
143
0.0393701
146
0.71
147
1.5
172
     1
176
   256
177
   256
178
     2
271
     2
272
     3
283
     0
284
     8
340
11
341
6C4
342
6C4
371
    -1
372
    -1
1001
ACAD_DSTYLE_DIMJOGGED_JOGANGLE_SYMBOL
1070
   384
1040
0.7853981633974483
1001
ACAD_DSTYLE_DIMARC_LENGTH_SYMBOL
1070
   379
1070
     1
  0
DIMSTYLE
105
251B
330
A
100
AcDbSymbolTableRecord
100
AcDbDimStyleTableRecord
  2
SYS$SH
 70
     0
  4
"
 41
2.5
 42
1.0
 43
10.0
 44
1.0
 47
0.1
 48
0.1
 73
     0
 74
     0
 75
     1
 76
     1
 77
     1
 78
     8
 79
     2
140
3.5
141
0.0
143
0.0393701
144
2.0
146
0.71
147
1.5
172
     1
173
     1
176
   256
177
   256
178
     2
271
     2
272
     3
283
     0
284
     8
340
11
341
6C4
343
72
344
6C4
371
    -1
372
    -1
1001
ACAD_DSTYLE_DIMJOGGED_JOGANGLE_SYMBOL
1070
   384
1040
0.7853981633974483
1001
ACAD_DSTYLE_DIMARC_LENGTH_SYMBOL
1070
   379
1070
     1
  0
DIMSTYLE
105
2A59
330
A
100
AcDbSymbolTableRecord
100
AcDbDimStyleTableRecord
  2
SYS$2
 70
     0
  4
"
 41
1.0
 42
1.0
 43
10.0
 44
1.0
 47
0.1
 48
0.1
 73
     0
 74
     0
 77
     1
 78
     8
 79
     2
140
3.5
141
0.0
143
0.0393701
146
0.71
147
1.5
172
     1
176
   256
177
   256
178
     2
271
     2
272
     2
283
     0
284
     8
340
11
342
6C4
371
    -1
372
    -1
1001
ACAD_DSTYLE_DIMJOGGED_JOGANGLE_SYMBOL
1070
   384
1040
0.7853981633974483
1001
ACAD_DSTYLE_DIMARC_LENGTH_SYMBOL
1070
   379
1070
     1
  0
DIMSTYLE
105
2AAB
102
{ACAD_REACTORS
330
D0C9
330
D0CA
330
D0CB
330
D0CC
330
D0CD
330
D0CE
330
D0CF
330
D0D0
330
D0D1
330
D0D3
330
D0D4
102
}
330
A
100
AcDbSymbolTableRecord
100
AcDbDimStyleTableRecord
  2
SYS$0
 70
     0
  4
"
 41
1.0
 42
1.0
 43
10.0
 44
1.0
 47
0.1
 48
0.1
 73
     0
 74
     0
 77
     1
 78
     8
 79
     2
140
3.200000000000001
141
0.0
143
0.0393701
146
0.71
147
1.5
172
     1
176
   256
177
   256
178
     2
271
     2
272
     2
283
     0
284
     8
340
11
341
A66
342
6C4
371
    -1
372
    -1
1001
ACAD_DSTYLE_DIMJOGGED_JOGANGLE_SYMBOL
1070
   384
1040
0.7853981633974483
1001
ACAD_DSTYLE_DIMARC_LENGTH_SYMBOL
1070
   379
1070
     1
  0
DIMSTYLE
105
AF99
330
A
100
AcDbSymbolTableRecord
100
AcDbDimStyleTableRecord
  2
AM_ISO
 70
     0
  4
"
 41
2.5
 42
1.0
 43
10.0
 44
1.0
 47
0.1
 48
0.1
 73
     0
 74
     0
 77
     1
 78
     8
 79
     2
140
3.5
141
0.0
143
0.0393701
146
0.71
147
1.5
172
     1
176
   256
177
   256
178
     2
271
     2
272
     3
274
     4
283
     0
284
     8
340
11
371
    -1
372
    -1
  0
DIMSTYLE
105
AF9A
330
A
100
AcDbSymbolTableRecord
100
AcDbDimStyleTableRecord
  2
AM_ISO$3
 70
     0
  4
"
 41
2.5
 42
1.0
 43
10.0
 44
1.0
 47
0.1
 48
0.1
 73
     0
 77
     1
 78
     8
 79
     2
140
3.5
141
0.0
143
0.0393701
146
0.71
147
1.5
176
   256
177
   256
178
     2
271
     2
272
     3
274
     4
283
     0
284
     8
288
     1
289
     0
340
11
371
    -1
372
    -1
  0
DIMSTYLE
105
AF9B
330
A
100
AcDbSymbolTableRecord
100
AcDbDimStyleTableRecord
  2
AM_ISO$4
 70
     0
  4
"
 41
2.5
 42
1.0
 43
10.0
 44
1.0
 47
0.1
 48
0.1
 73
     0
 77
     1
 78
     8
 79
     2
140
3.5
141
0.0
143
0.0393701
146
0.71
147
1.5
176
   256
177
   256
178
     2
271
     2
272
     3
274
     4
283
     0
284
     8
288
     1
289
     0
340
11
371
    -1
372
    -1
  0
DIMSTYLE
105
AF9C
330
A
100
AcDbSymbolTableRecord
100
AcDbDimStyleTableRecord
  2
AM_ISO$6
 70
     0
  4
"
 41
2.5
 42
1.0
 43
10.0
 44
1.0
 47
0.1
 48
0.1
 73
     0
 74
     0
 78
     8
 79
     2
140
3.5
141
0.0
143
0.0393701
146
0.71
147
1.5
172
     1
176
   256
177
   256
178
     2
271
     2
272
     3
274
     4
283
     0
284
     8
340
11
371
    -1
372
    -1
  0
DIMSTYLE
105
AF9D
330
A
100
AcDbSymbolTableRecord
100
AcDbDimStyleTableRecord
  2
AM_ISO$7
 70
     0
  4
"
 41
2.5
 42
1.0
 43
10.0
 44
1.0
 47
0.1
 48
0.1
 73
     0
 74
     0
 77
     1
 78
     8
 79
     2
140
5.0
141
0.0
143
0.0393701
146
0.71
147
1.5
172
     1
176
   256
177
   256
178
     2
271
     2
272
     3
274
     4
283
     0
284
     8
340
11
371
    -1
372
    -1
  0
DIMSTYLE
105
AF9E
330
A
100
AcDbSymbolTableRecord
100
AcDbDimStyleTableRecord
  2
AM_ISO$SF
 70
     0
  4
"
 41
2.5
 42
1.0
 43
10.0
 44
1.0
 47
0.1
 48
0.1
 73
     0
 74
     0
 75
     1
 76
     1
 77
     1
 78
     8
 79
     2
140
3.5
141
0.0
143
0.0393701
146
0.71
147
1.5
172
     1
176
   256
177
   256
178
     2
271
     2
272
     3
274
     4
283
     0
284
     8
340
11
371
    -1
372
    -1
  0
DIMSTYLE
105
AF9F
330
A
100
AcDbSymbolTableRecord
100
AcDbDimStyleTableRecord
  2
AM_ISO$SH
 70
     0
  4
"
 41
2.5
 42
1.0
 43
10.0
 44
1.0
 47
0.1
 48
0.1
 73
     0
 74
     0
 75
     1
 76
     1
 77
     1
 78
     8
 79
     2
140
3.5
141
0.0
143
0.0393701
144
2.0
146
0.71
147
1.5
172
     1
173
     1
176
   256
177
   256
178
     2
271
     2
272
     3
274
     4
283
     0
284
     8
340
11
343
72
371
    -1
372
    -1
  0
DIMSTYLE
105
B660
330
A
100
AcDbSymbolTableRecord
100
AcDbDimStyleTableRecord
  2
AM_ANSI
 70
     0
  4
mm
 41
0.1
 42
0.05
 43
0.5
 44
0.1
 47
0.1
 48
0.1
 78
     7
 79
     2
140
0.12
141
0.0
146
0.71
147
0.06
176
   256
177
   256
178
     2
274
     4
284
     7
340
11
371
    -1
372
    -1
1001
ACAD_DSTYLE_DIMARC_LENGTH_SYMBOL
1070
   379
1070
     1
  0
DIMSTYLE
105
B661
330
A
100
AcDbSymbolTableRecord
100
AcDbDimStyleTableRecord
  2
AM_ANSI$3
 70
     0
  4
mm
 41
0.1
 42
0.05
 43
0.5
 44
0.1
 47
0.1
 48
0.1
 78
     7
 79
     2
140
0.12
141
0.0
146
0.71
147
0.06
176
   256
177
   256
178
     2
274
     4
284
     7
288
     1
289
     0
340
11
371
    -1
372
    -1
1001
ACAD_DSTYLE_DIMARC_LENGTH_SYMBOL
1070
   379
1070
     1
  0
DIMSTYLE
105
B662
330
A
100
AcDbSymbolTableRecord
100
AcDbDimStyleTableRecord
  2
AM_ANSI$4
 70
     0
  4
mm
 41
0.1
 42
0.05
 43
0.5
 44
0.1
 47
0.1
 48
0.1
 78
     7
 79
     2
140
0.12
141
0.0
146
0.71
147
0.06
176
   256
177
   256
178
     2
274
     4
284
     7
288
     1
289
     0
340
11
371
    -1
372
    -1
1001
ACAD_DSTYLE_DIMARC_LENGTH_SYMBOL
1070
   379
1070
     1
  0
DIMSTYLE
105
B663
330
A
100
AcDbSymbolTableRecord
100
AcDbDimStyleTableRecord
  2
AM_ANSI$7
 70
     0
  4
mm
 41
0.1
 42
0.05
 43
0.5
 44
0.1
 47
0.1
 48
0.1
 78
     7
 79
     2
140
0.24
141
0.0
146
0.71
147
0.06
176
   256
177
   256
178
     2
274
     4
284
     7
340
11
371
    -1
372
    -1
1001
ACAD_DSTYLE_DIMARC_LENGTH_SYMBOL
1070
   379
1070
     1
  0
DIMSTYLE
105
B664
330
A
100
AcDbSymbolTableRecord
100
AcDbDimStyleTableRecord
  2
AM_ANSI$SF
 70
     0
  4
mm
 41
0.1
 42
0.05
 43
0.5
 44
0.1
 47
0.1
 48
0.1
 75
     1
 76
     1
 78
     7
 79
     2
140
0.12
141
0.0
146
0.71
147
0.06
176
   256
177
   256
178
     2
274
     4
284
     7
340
11
371
    -1
372
    -1
1001
ACAD_DSTYLE_DIMARC_LENGTH_SYMBOL
1070
   379
1070
     1
  0
DIMSTYLE
105
B665
330
A
100
AcDbSymbolTableRecord
100
AcDbDimStyleTableRecord
  2
AM_ANSI$SH
 70
     0
  4
mm
 41
0.1
 42
0.05
 43
0.5
 44
0.1
 47
0.1
 48
0.1
 75
     1
 76
     1
 78
     7
 79
     2
140
0.12
141
0.0
146
0.71
147
0.06
173
     1
176
   256
177
   256
178
     2
274
     4
284
     7
340
11
343
72
371
    -1
372
    -1
1001
ACAD_DSTYLE_DIMARC_LENGTH_SYMBOL
1070
   379
1070
     1
  0
ENDTAB
  0
TABLE
  2
BLOCK_RECORD
  5
1
330
0
100
AcDbSymbolTable
 70
    39
  0
BLOCK_RECORD
  5
1F
102
{ACAD_XDICTIONARY
360
8A
102
}
330
1
100
AcDbSymbolTableRecord
100
AcDbBlockTableRecord
  2
*Model_Space
340
22
  0
BLOCK_RECORD
  5
1B
330
1
100
AcDbSymbolTableRecord
100
AcDbBlockTableRecord
  2
*Paper_Space
340
1E
  0
BLOCK_RECORD
  5
23
330
1
100
AcDbSymbolTableRecord
100
AcDbBlockTableRecord
  2
*Paper_Space0
340
26
  0
BLOCK_RECORD
  5
72
330
1
100
AcDbSymbolTableRecord
100
AcDbBlockTableRecord
  2
GENAXEH
340
0
  0
BLOCK_RECORD
  5
6C4
330
1
100
AcDbSymbolTableRecord
100
AcDbBlockTableRecord
  2
_Dot
340
0
102
{BLKREFS
331
D1B4
331
D1B5
331
D1BF
331
D1C0
331
D1C9
331
D1CA
331
D1D4
331
D1D5
331
D1DD
331
D1DE
331
D1E6
331
D1E7
331
D1EF
331
D1F0
331
D1F9
331
D1FA
331
D204
331
D205
331
D20D
331
D20E
331
D217
331
D218
102
}
  0
BLOCK_RECORD
  5
A66
330
1
100
AcDbSymbolTableRecord
100
AcDbBlockTableRecord
  2
_OPEN30
340
0
102
{BLKREFS
331
CE0F
331
CE10
331
CE1D
331
CE1E
331
CE29
331
CE2A
331
CE36
331
CE37
331
CE41
331
CE42
102
}
  0
BLOCK_RECORD
  5
BE8B
330
1
100
AcDbSymbolTableRecord
100
AcDbBlockTableRecord
  2
*D5
340
0
  0
BLOCK_RECORD
  5
BE90
330
1
100
AcDbSymbolTableRecord
100
AcDbBlockTableRecord
  2
*D6
340
0
  0
BLOCK_RECORD
  5
BE95
330
1
100
AcDbSymbolTableRecord
100
AcDbBlockTableRecord
  2
*D7
340
0
  0
BLOCK_RECORD
  5
BE9A
330
1
100
AcDbSymbolTableRecord
100
AcDbBlockTableRecord
  2
*D8
340
0
  0
BLOCK_RECORD
  5
BEAD
330
1
100
AcDbSymbolTableRecord
100
AcDbBlockTableRecord
  2
*D9
340
0
  0
BLOCK_RECORD
  5
BEB8
330
1
100
AcDbSymbolTableRecord
100
AcDbBlockTableRecord
  2
*G1510
340
0
  0
BLOCK_RECORD
  5
BEF6
330
1
100
AcDbSymbolTableRecord
100
AcDbBlockTableRecord
  2
*G1611
340
0
102
{BLKREFS
331
BEF3
102
}
  0
BLOCK_RECORD
  5
CA86
330
1
100
AcDbSymbolTableRecord
100
AcDbBlockTableRecord
  2
*D12
340
0
  0
BLOCK_RECORD
  5
CA8B
330
1
100
AcDbSymbolTableRecord
100
AcDbBlockTableRecord
  2
*D13
340
0
  0
BLOCK_RECORD
  5
CA90
330
1
100
AcDbSymbolTableRecord
100
AcDbBlockTableRecord
  2
*D14
340
0
  0
BLOCK_RECORD
  5
CA95
330
1
100
AcDbSymbolTableRecord
100
AcDbBlockTableRecord
  2
*D15
340
0
  0
BLOCK_RECORD
  5
CAA8
330
1
100
AcDbSymbolTableRecord
100
AcDbBlockTableRecord
  2
*D16
340
0
  0
BLOCK_RECORD
  5
CAB3
330
1
100
AcDbSymbolTableRecord
100
AcDbBlockTableRecord
  2
*D17
340
0
  0
BLOCK_RECORD
  5
CABC
330
1
100
AcDbSymbolTableRecord
100
AcDbBlockTableRecord
  2
*D18
340
0
  0
BLOCK_RECORD
  5
CAC7
330
1
100
AcDbSymbolTableRecord
100
AcDbBlockTableRecord
  2
*G1519
340
0
  0
BLOCK_RECORD
  5
CB05
330
1
100
AcDbSymbolTableRecord
100
AcDbBlockTableRecord
  2
*G1620
340
0
102
{BLKREFS
331
CB02
102
}
  0
BLOCK_RECORD
  5
CE0A
330
1
100
AcDbSymbolTableRecord
100
AcDbBlockTableRecord
  2
*D21
340
0
  0
BLOCK_RECORD
  5
CE16
330
1
100
AcDbSymbolTableRecord
100
AcDbBlockTableRecord
  2
*D22
340
0
  0
BLOCK_RECORD
  5
CE24
330
1
100
AcDbSymbolTableRecord
100
AcDbBlockTableRecord
  2
*D23
340
0
  0
BLOCK_RECORD
  5
CE2F
330
1
100
AcDbSymbolTableRecord
100
AcDbBlockTableRecord
  2
*D24
340
0
  0
BLOCK_RECORD
  5
CE3C
330
1
100
AcDbSymbolTableRecord
100
AcDbBlockTableRecord
  2
*D25
340
0
  0
BLOCK_RECORD
  5
CE47
102
{ACAD_XDICTIONARY
360
CE87
102
}
330
1
100
AcDbSymbolTableRecord
100
AcDbBlockTableRecord
  2
A$C08147611
340
0
1001
ACAD
1000
DesignCenter Data
1002
{
1070
     1
1070
     4
1002
}
  0
BLOCK_RECORD
  5
D124
330
1
100
AcDbSymbolTableRecord
100
AcDbBlockTableRecord
  2
*D27
340
0
  0
BLOCK_RECORD
  5
D130
330
1
100
AcDbSymbolTableRecord
100
AcDbBlockTableRecord
  2
*D28
340
0
  0
BLOCK_RECORD
  5
D13E
330
1
100
AcDbSymbolTableRecord
100
AcDbBlockTableRecord
  2
*D29
340
0
  0
BLOCK_RECORD
  5
D14B
330
1
100
AcDbSymbolTableRecord
100
AcDbBlockTableRecord
  2
*D30
340
0
  0
BLOCK_RECORD
  5
D159
330
1
100
AcDbSymbolTableRecord
100
AcDbBlockTableRecord
  2
*D31
340
0
  0
BLOCK_RECORD
  5
D165
330
1
100
AcDbSymbolTableRecord
100
AcDbBlockTableRecord
  2
*D32
340
0
  0
BLOCK_RECORD
  5
D171
330
1
100
AcDbSymbolTableRecord
100
AcDbBlockTableRecord
  2
*D33
340
0
  0
BLOCK_RECORD
  5
D17D
330
1
100
AcDbSymbolTableRecord
100
AcDbBlockTableRecord
  2
*D34
340
0
  0
BLOCK_RECORD
  5
D18A
330
1
100
AcDbSymbolTableRecord
100
AcDbBlockTableRecord
  2
*D35
340
0
  0
BLOCK_RECORD
  5
D198
330
1
100
AcDbSymbolTableRecord
100
AcDbBlockTableRecord
  2
*D36
340
0
  0
BLOCK_RECORD
  5
D1A4
330
1
100
AcDbSymbolTableRecord
100
AcDbBlockTableRecord
  2
*D37
340
0
  0
BLOCK_RECORD
  5
D2C6
330
1
100
AcDbSymbolTableRecord
100
AcDbBlockTableRecord
  2
*S38
340
0
  0
ENDTAB
  0
ENDSEC
  0
SECTION
  2
BLOCKS
  0
BLOCK
  5
20
330
1F
100
AcDbEntity
  8
0
100
AcDbBlockBegin
  2
*Model_Space
 70
     0
 10
0.0
 20
0.0
 30
0.0
  3
*Model_Space
  1

  0
ENDBLK
  5
21
330
1F
100
AcDbEntity
  8
0
100
AcDbBlockEnd
  0
BLOCK
  5
1C
330
1B
100
AcDbEntity
 67
     1
  8
0
100
AcDbBlockBegin
  2
*Paper_Space
 70
     0
 10
0.0
 20
0.0
 30
0.0
  3
*Paper_Space
  1

  0
ENDBLK
  5
1D
330
1B
100
AcDbEntity
 67
     1
  8
0
100
AcDbBlockEnd
  0
BLOCK
  5
24
330
23
100
AcDbEntity
 67
     1
  8
0
100
AcDbBlockBegin
  2
*Paper_Space0
 70
     0
 10
0.0
 20
0.0
 30
0.0
  3
*Paper_Space0
  1

  0
ENDBLK
  5
25
330
23
100
AcDbEntity
 67
     1
  8
0
100
AcDbBlockEnd
  0
BLOCK
  5
74
330
72
100
AcDbEntity
  8
0
100
AcDbBlockBegin
  2
GENAXEH
 70
     0
 10
0.0
 20
0.0
 30
0.0
  3
GENAXEH
  1

  0
LINE
  5
73
330
72
100
AcDbEntity
  8
0
100
AcDbLine
 10
-1.0
 20
0.0
 30
0.0
 11
1.0
 21
0.0
 31
0.0
  0
ENDBLK
  5
75
330
72
100
AcDbEntity
  8
0
100
AcDbBlockEnd
  0
BLOCK
  5
6C7
330
6C4
100
AcDbEntity
  8
0
100
AcDbBlockBegin
  2
_Dot
 70
     0
 10
0.0
 20
0.0
 30
0.0
  3
_Dot
  1

  0
LWPOLYLINE
  5
6C5
330
6C4
100
AcDbEntity
  8
0
  6
ByBlock
 62
     0
100
AcDbPolyline
 90
        2
 70
     1
 43
0.5
 10
-0.25
 20
0.0
 42
1.0
 10
0.25
 20
0.0
 42
1.0
  0
LINE
  5
6C6
330
6C4
100
AcDbEntity
  8
0
  6
ByBlock
 62
     0
370
    -2
100
AcDbLine
 10
-0.5
 20
0.0
 30
0.0
 11
-1.0
 21
0.0
 31
0.0
  0
ENDBLK
  5
6C8
330
6C4
100
AcDbEntity
  8
0
100
AcDbBlockEnd
  0
BLOCK
  5
A6A
330
A66
100
AcDbEntity
  8
0
100
AcDbBlockBegin
  2
_OPEN30
 70
     0
 10
0.0
 20
0.0
 30
0.0
  3
_OPEN30
  1

  0
LINE
  5
A67
330
A66
100
AcDbEntity
  8
0
  6
ByBlock
 62
     0
100
AcDbLine
 10
-1.0
 20
0.26794919
 30
0.0
 11
0.0
 21
0.0
 31
0.0
  0
LINE
  5
A68
330
A66
100
AcDbEntity
  8
0
  6
ByBlock
 62
     0
100
AcDbLine
 10
0.0
 20
0.0
 30
0.0
 11
-1.0
 21
-0.26794919
 31
0.0
  0
LINE
  5
A69
330
A66
100
AcDbEntity
  8
0
  6
ByBlock
 62
     0
100
AcDbLine
 10
0.0
 20
0.0
 30
0.0
 11
-1.0
 21
0.0
 31
0.0
  0
ENDBLK
  5
A6B
330
A66
100
AcDbEntity
  8
0
100
AcDbBlockEnd
  0
BLOCK
  5
BE8C
330
BE8B
100
AcDbEntity
  8
1
  6
Continuous
 62
     7
370
     9
100
AcDbBlockBegin
  2
*D5
 70
     0
 10
0.0
 20
0.0
 30
0.0
  3
*D5
  1

  0
LINE
  5
BE8D
330
BE8B
100
AcDbEntity
  8
1
  6
Continuous
 62
     7
370
     9
100
AcDbLine
 10
128.914308
 20
91.07853399999999
 30
0.0
 11
128.914308
 21
97.89138800000001
 31
0.0
  0
TEXT
  5
BE8E
330
BE8B
100
AcDbEntity
  8
1
  6
Continuous
 62
     7
370
     9
100
AcDbText
 10
128.914308
 20
93.30004699999999
 30
0.0
 40
3.0
  1
φＧ
 50
90.0
 41
0.666667
 11
128.914308
 21
93.30004699999999
 31
0.0
100
AcDbText
 73
     1
  0
ENDBLK
  5
BE8F
330
BE8B
100
AcDbEntity
  8
1
  6
Continuous
 62
     7
370
     9
100
AcDbBlockEnd
  0
BLOCK
  5
BE91
330
BE90
100
AcDbEntity
  8
1
  6
Continuous
 62
     7
370
     9
100
AcDbBlockBegin
  2
*D6
 70
     0
 10
0.0
 20
0.0
 30
0.0
  3
*D6
  1

  0
LINE
  5
BE92
330
BE90
100
AcDbEntity
  8
1
  6
Continuous
 62
     7
370
     9
100
AcDbLine
 10
123.700156
 20
87.97853399999999
 30
0.0
 11
123.700156
 21
97.89138800000001
 31
0.0
  0
TEXT
  5
BE93
330
BE90
100
AcDbEntity
  8
1
  6
Continuous
 62
     7
370
     9
100
AcDbText
 10
123.700156
 20
93.30004699999999
 30
0.0
 40
3.0
  1
φＦ
 50
90.0
 41
0.666667
 11
123.700156
 21
93.30004699999999
 31
0.0
100
AcDbText
 73
     1
  0
ENDBLK
  5
BE94
330
BE90
100
AcDbEntity
  8
1
  6
Continuous
 62
     7
370
     9
100
AcDbBlockEnd
  0
BLOCK
  5
BE96
330
BE95
100
AcDbEntity
  8
1
  6
Continuous
 62
     7
370
     9
100
AcDbBlockBegin
  2
*D7
 70
     0
 10
0.0
 20
0.0
 30
0.0
  3
*D7
  1

  0
LINE
  5
BE97
330
BE95
100
AcDbEntity
  8
1
  6
Continuous
 62
     7
370
     9
100
AcDbLine
 10
114.164479
 20
92.07853399999999
 30
0.0
 11
114.164479
 21
97.89138800000001
 31
0.0
  0
TEXT
  5
BE98
330
BE95
100
AcDbEntity
  8
1
  6
Continuous
 62
     7
370
     9
100
AcDbText
 10
114.164479
 20
93.30004699999999
 30
0.0
 40
3.0
  1
φＪ
 50
90.0
 41
0.666667
 11
114.164479
 21
93.30004699999999
 31
0.0
100
AcDbText
 73
     1
  0
ENDBLK
  5
BE99
330
BE95
100
AcDbEntity
  8
1
  6
Continuous
 62
     7
370
     9
100
AcDbBlockEnd
  0
BLOCK
  5
BE9B
330
BE9A
100
AcDbEntity
  8
1
  6
Continuous
 62
     7
370
     9
100
AcDbBlockBegin
  2
*D8
 70
     0
 10
0.0
 20
0.0
 30
0.0
  3
*D8
  1

  0
LINE
  5
BE9C
330
BE9A
100
AcDbEntity
  8
1
  6
Continuous
 62
     7
370
     9
100
AcDbLine
 10
112.953927
 20
74.07853399999999
 30
0.0
 11
123.953927
 21
74.07853399999999
 31
0.0
  0
LINE
  5
BE9D
330
BE9A
100
AcDbEntity
  8
1
  6
Continuous
 62
     7
370
     9
100
AcDbLine
 10
117.953927
 20
73.07853399999999
 30
0.0
 11
117.953927
 21
77.07853399999999
 31
0.0
  0
LINE
  5
BE9E
330
BE9A
100
AcDbEntity
  8
1
  6
Continuous
 62
     7
370
     9
100
AcDbLine
 10
118.953927
 20
73.07853399999999
 30
0.0
 11
118.953927
 21
77.07853399999999
 31
0.0
  0
LINE
  5
BE9F
330
BE9A
100
AcDbEntity
  8
1
  6
Continuous
 62
     7
370
     9
100
AcDbLine
 10
117.953927
 20
74.07853399999999
 30
0.0
 11
116.988001
 21
73.819715
 31
0.0
  0
LINE
  5
BEA0
330
BE9A
100
AcDbEntity
  8
1
  6
Continuous
 62
     7
370
     9
100
AcDbLine
 10
117.953927
 20
74.07853399999999
 30
0.0
 11
116.988001
 21
74.33735300000001
 31
0.0
  0
LINE
  5
BEA1
330
BE9A
100
AcDbEntity
  8
1
  6
Continuous
 62
     7
370
     9
100
AcDbLine
 10
116.988001
 20
73.819715
 30
0.0
 11
116.988001
 21
74.33735300000001
 31
0.0
  0
LINE
  5
BEA2
330
BE9A
100
AcDbEntity
  8
1
  6
Continuous
 62
     7
370
     9
100
AcDbLine
 10
117.712445
 20
74.07853399999999
 30
0.0
 11
117.229482
 21
73.94912399999999
 31
0.0
  0
LINE
  5
BEA3
330
BE9A
100
AcDbEntity
  8
1
  6
Continuous
 62
     7
370
     9
100
AcDbLine
 10
117.712445
 20
74.07853399999999
 30
0.0
 11
117.229482
 21
74.207943
 31
0.0
  0
LINE
  5
BEA4
330
BE9A
100
AcDbEntity
  8
1
  6
Continuous
 62
     7
370
     9
100
AcDbLine
 10
117.229482
 20
73.94912399999999
 30
0.0
 11
117.229482
 21
74.207943
 31
0.0
  0
LINE
  5
BEA5
330
BE9A
100
AcDbEntity
  8
1
  6
Continuous
 62
     7
370
     9
100
AcDbLine
 10
118.953927
 20
74.07853399999999
 30
0.0
 11
119.919852
 21
74.33735300000001
 31
0.0
  0
LINE
  5
BEA6
330
BE9A
100
AcDbEntity
  8
1
  6
Continuous
 62
     7
370
     9
100
AcDbLine
 10
118.953927
 20
74.07853399999999
 30
0.0
 11
119.919852
 21
73.819715
 31
0.0
  0
LINE
  5
BEA7
330
BE9A
100
AcDbEntity
  8
1
  6
Continuous
 62
     7
370
     9
100
AcDbLine
 10
119.919852
 20
74.33735300000001
 30
0.0
 11
119.919852
 21
73.819715
 31
0.0
  0
LINE
  5
BEA8
330
BE9A
100
AcDbEntity
  8
1
  6
Continuous
 62
     7
370
     9
100
AcDbLine
 10
119.195408
 20
74.07853399999999
 30
0.0
 11
119.678371
 21
74.207943
 31
0.0
  0
LINE
  5
BEA9
330
BE9A
100
AcDbEntity
  8
1
  6
Continuous
 62
     7
370
     9
100
AcDbLine
 10
119.195408
 20
74.07853399999999
 30
0.0
 11
119.678371
 21
73.94912399999999
 31
0.0
  0
LINE
  5
BEAA
330
BE9A
100
AcDbEntity
  8
1
  6
Continuous
 62
     7
370
     9
100
AcDbLine
 10
119.678371
 20
74.207943
 30
0.0
 11
119.678371
 21
73.94912399999999
 31
0.0
  0
TEXT
  5
BEAB
330
BE9A
100
AcDbEntity
  8
1
  6
Continuous
 62
     7
370
     9
100
AcDbText
 10
120.780174
 20
74.07853399999999
 30
0.0
 40
3.0
  1
Ｋ
 50
360.0
 41
0.666667
 11
120.780174
 21
74.07853399999999
 31
0.0
100
AcDbText
 73
     1
  0
ENDBLK
  5
BEAC
330
BE9A
100
AcDbEntity
  8
1
  6
Continuous
 62
     7
370
     9
100
AcDbBlockEnd
  0
BLOCK
  5
BEAE
330
BEAD
100
AcDbEntity
  8
1
  6
Continuous
 62
     7
370
     9
100
AcDbBlockBegin
  2
*D9
 70
     0
 10
0.0
 20
0.0
 30
0.0
  3
*D9
  1

  0
LINE
  5
BEAF
330
BEAD
100
AcDbEntity
  8
1
  6
Continuous
 62
     7
370
     9
100
AcDbLine
 10
155.807753
 20
91.07853399999999
 30
0.0
 11
155.807753
 21
79.07853399999999
 31
0.0
  0
LINE
  5
BEB0
330
BEAD
100
AcDbEntity
  8
1
  6
Continuous
 62
     7
370
     9
100
AcDbLine
 10
156.807753
 20
86.07853399999999
 30
0.0
 11
145.804528
 21
86.07853399999999
 31
0.0
  0
LINE
  5
BEB1
330
BEAD
100
AcDbEntity
  8
1
  6
Continuous
 62
     7
370
     9
100
AcDbLine
 10
156.807753
 20
84.07853399999998
 30
0.0
 11
145.804528
 21
84.07853399999998
 31
0.0
  0
LINE
  5
BEB2
330
BEAD
100
AcDbEntity
  8
1
  6
Continuous
 62
     7
370
     9
100
AcDbLine
 10
155.807753
 20
86.07853399999999
 30
0.0
 11
155.548934
 21
87.04446
 31
0.0
  0
LINE
  5
BEB3
330
BEAD
100
AcDbEntity
  8
1
  6
Continuous
 62
     7
370
     9
100
AcDbLine
 10
155.807753
 20
86.07853399999999
 30
0.0
 11
156.066572
 21
87.04446
 31
0.0
  0
LINE
  5
BEB4
330
BEAD
100
AcDbEntity
  8
1
  6
Continuous
 62
     7
370
     9
100
AcDbLine
 10
155.807753
 20
84.07853399999998
 30
0.0
 11
156.066572
 21
83.11260799999999
 31
0.0
  0
LINE
  5
BEB5
330
BEAD
100
AcDbEntity
  8
1
  6
Continuous
 62
     7
370
     9
100
AcDbLine
 10
155.807753
 20
84.07853399999998
 30
0.0
 11
155.548934
 21
83.11260799999999
 31
0.0
  0
TEXT
  5
BEB6
330
BEAD
100
AcDbEntity
  8
1
  6
Continuous
 62
     7
370
     9
100
AcDbText
 10
155.807753
 20
88.22348000000001
 30
0.0
 40
3.0
  1
Ｈ
 50
90.0
 41
0.666667
 11
155.807753
 21
88.22348000000001
 31
0.0
100
AcDbText
 73
     1
  0
ENDBLK
  5
BEB7
330
BEAD
100
AcDbEntity
  8
1
  6
Continuous
 62
     7
370
     9
100
AcDbBlockEnd
  0
BLOCK
  5
BEB9
330
BEB8
100
AcDbEntity
  8
0
  6
Continuous
 62
     7
370
     9
100
AcDbBlockBegin
  2
*G1510
 70
     0
 10
0.0
 20
0.0
 30
0.0
  3
*G1510
  1

  0
LINE
  5
BEBA
330
BEB8
100
AcDbEntity
  8
1
  6
Continuous
 62
     7
370
    30
100
AcDbLine
 10
13.684211
 20
8.152122
 30
0.0
 11
13.684211
 21
190.526316
 31
0.0
  0
LINE
  5
BEBB
330
BEB8
100
AcDbEntity
  8
1
  6
Continuous
 62
     7
370
    30
100
AcDbLine
 10
13.684211
 20
8.152122
 30
0.0
 11
279.473684
 21
8.152122
 31
0.0
  0
LINE
  5
BEBC
330
BEB8
100
AcDbEntity
  8
1
  6
Continuous
 62
     7
370
    30
100
AcDbLine
 10
279.473684
 20
8.152122
 30
0.0
 11
279.473684
 21
190.526316
 31
0.0
  0
LINE
  5
BEBD
330
BEB8
100
AcDbEntity
  8
1
  6
Continuous
 62
     7
370
    30
100
AcDbLine
 10
13.684211
 20
190.526316
 30
0.0
 11
279.473684
 21
190.526316
 31
0.0
  0
LINE
  5
BEBE
330
BEB8
100
AcDbEntity
  8
1
  6
Continuous
 62
     7
370
    30
100
AcDbLine
 10
239.514248
 20
12.152122
 30
0.0
 11
279.473684
 21
12.152122
 31
0.0
  0
LINE
  5
BEBF
330
BEB8
100
AcDbEntity
  8
1
  6
Continuous
 62
     7
370
    30
100
AcDbLine
 10
88.684211
 20
44.152122
 30
0.0
 11
88.684211
 21
20.152122
 31
0.0
  0
LINE
  5
BEC0
330
BEB8
100
AcDbEntity
  8
1
  6
Continuous
 62
     7
370
    30
100
AcDbLine
 10
96.68421100000001
 20
20.152122
 30
0.0
 11
96.68421100000001
 21
44.152122
 31
0.0
  0
LINE
  5
BEC1
330
BEB8
100
AcDbEntity
  8
1
  6
Continuous
 62
     7
370
    30
100
AcDbLine
 10
132.374566
 20
32.152122
 30
0.0
 11
132.374566
 21
20.152122
 31
0.0
  0
LINE
  5
BEC2
330
BEB8
100
AcDbEntity
  8
1
  6
Continuous
 62
     7
370
    30
100
AcDbLine
 10
140.374566
 20
32.152122
 30
0.0
 11
140.374566
 21
20.152122
 31
0.0
  0
LINE
  5
BEC3
330
BEB8
100
AcDbEntity
  8
1
  6
Continuous
 62
     7
370
    30
100
AcDbLine
 10
171.684211
 20
8.152122
 30
0.0
 11
171.684211
 21
44.152122
 31
0.0
  0
LINE
  5
BEC4
330
BEB8
100
AcDbEntity
  8
1
  6
Continuous
 62
     7
370
    30
100
AcDbLine
 10
171.684211
 20
12.152122
 30
0.0
 11
239.514248
 21
12.152122
 31
0.0
  0
LINE
  5
BEC5
330
BEB8
100
AcDbEntity
  8
1
  6
Continuous
 62
     7
370
    30
100
AcDbLine
 10
255.021245
 20
12.152122
 30
0.0
 11
255.021245
 21
8.152122
 31
0.0
  0
LINE
  5
BEC6
330
BEB8
100
AcDbEntity
  8
1
  6
Continuous
 62
     7
370
    30
100
AcDbLine
 10
21.684211
 20
44.152122
 30
0.0
 11
21.684211
 21
8.152122
 31
0.0
  0
LINE
  5
BEC7
330
BEB8
100
AcDbEntity
  8
1
  6
Continuous
 62
     7
370
    30
100
AcDbLine
 10
58.529862
 20
20.152122
 30
0.0
 11
58.529862
 21
8.152122
 31
0.0
  0
LINE
  5
BEC8
330
BEB8
100
AcDbEntity
  8
1
  6
Continuous
 62
     7
370
    30
100
AcDbLine
 10
265.473684
 20
32.152122
 30
0.0
 11
265.473684
 21
12.152122
 31
0.0
  0
LINE
  5
BEC9
330
BEB8
100
AcDbEntity
  8
1
  6
Continuous
 62
     7
370
    30
100
AcDbLine
 10
251.473684
 20
32.152122
 30
0.0
 11
251.473684
 21
12.152122
 31
0.0
  0
LINE
  5
BECA
330
BEB8
100
AcDbEntity
  8
1
  6
Continuous
 62
     7
370
    30
100
AcDbLine
 10
237.473684
 20
12.152122
 30
0.0
 11
237.473684
 21
32.152122
 31
0.0
  0
LINE
  5
BECB
330
BEB8
100
AcDbEntity
  8
1
  6
Continuous
 62
     7
370
    30
100
AcDbLine
 10
171.684211
 20
32.152122
 30
0.0
 11
279.473684
 21
32.152122
 31
0.0
  0
LINE
  5
BECC
330
BEB8
100
AcDbEntity
  8
1
  6
Continuous
 62
     7
370
    30
100
AcDbLine
 10
237.473684
 20
32.152122
 30
0.0
 11
237.473684
 21
44.152122
 31
0.0
  0
LINE
  5
BECD
330
BEB8
100
AcDbEntity
  8
1
  6
Continuous
 62
     7
370
    30
100
AcDbLine
 10
237.473684
 20
44.152122
 30
0.0
 11
171.684211
 21
44.152122
 31
0.0
  0
LINE
  5
BECE
330
BEB8
100
AcDbEntity
  8
1
  6
Continuous
 62
     7
370
    30
100
AcDbLine
 10
171.684211
 20
40.15212199999999
 30
0.0
 11
237.473684
 21
40.15212199999999
 31
0.0
  0
LINE
  5
BECF
330
BEB8
100
AcDbEntity
  8
1
  6
Continuous
 62
     7
370
    30
100
AcDbLine
 10
237.473684
 20
36.152122
 30
0.0
 11
171.684211
 21
36.152122
 31
0.0
  0
LINE
  5
BED0
330
BEB8
100
AcDbEntity
  8
1
  6
Continuous
 62
     7
370
    30
100
AcDbLine
 10
171.684211
 20
28.152122
 30
0.0
 11
279.473684
 21
28.152122
 31
0.0
  0
LINE
  5
BED1
330
BEB8
100
AcDbEntity
  8
1
  6
Continuous
 62
     7
370
    30
100
AcDbLine
 10
237.473684
 20
24.152122
 30
0.0
 11
171.684211
 21
24.152122
 31
0.0
  0
LINE
  5
BED2
330
BEB8
100
AcDbEntity
  8
1
  6
Continuous
 62
     7
370
    30
100
AcDbLine
 10
171.684211
 20
20.152122
 30
0.0
 11
237.473684
 21
20.152122
 31
0.0
  0
LINE
  5
BED3
330
BEB8
100
AcDbEntity
  8
1
  6
Continuous
 62
     7
370
    30
100
AcDbLine
 10
237.473684
 20
16.152122
 30
0.0
 11
171.684211
 21
16.152122
 31
0.0
  0
LINE
  5
BED4
330
BEB8
100
AcDbEntity
  8
1
  6
Continuous
 62
     7
370
    30
100
AcDbLine
 10
237.473684
 20
12.152122
 30
0.0
 11
237.473684
 21
8.152122
 31
0.0
  0
LINE
  5
BED5
330
BEB8
100
AcDbEntity
  8
1
  6
DOT
 62
     7
370
    30
100
AcDbLine
 10
223.473684
 20
44.152122
 30
0.0
 11
223.473684
 21
8.152122
 31
0.0
  0
LINE
  5
BED6
330
BEB8
100
AcDbEntity
  8
1
  6
DOT
 62
     7
370
    30
100
AcDbLine
 10
195.473684
 20
44.152122
 30
0.0
 11
195.473684
 21
8.152122
 31
0.0
  0
LINE
  5
BED7
330
BEB8
100
AcDbEntity
  8
1
  6
Continuous
 62
     7
370
    30
100
AcDbLine
 10
171.684211
 20
44.152122
 30
0.0
 11
13.684211
 21
44.152122
 31
0.0
  0
LINE
  5
BED8
330
BEB8
100
AcDbEntity
  8
1
  6
Continuous
 62
     7
370
    30
100
AcDbLine
 10
171.684211
 20
32.152122
 30
0.0
 11
96.68421100000001
 21
32.152122
 31
0.0
  0
LINE
  5
BED9
330
BEB8
100
AcDbEntity
  8
1
  6
Continuous
 62
     7
370
    30
100
AcDbLine
 10
96.68421100000001
 20
32.152122
 30
0.0
 11
13.684211
 21
32.152122
 31
0.0
  0
LINE
  5
BEDA
330
BEB8
100
AcDbEntity
  8
1
  6
Continuous
 62
     7
370
    30
100
AcDbLine
 10
13.684211
 20
20.152122
 30
0.0
 11
171.684211
 21
20.152122
 31
0.0
  0
TEXT
  5
BEDB
330
BEB8
100
AcDbEntity
  8
1
  6
Continuous
 62
     7
370
    30
100
AcDbText
 10
253.596308
 20
28.728161
 30
0.0
 40
2.799999999999999
  1
検　図
 11
253.596308
 21
28.728161
 31
0.0
100
AcDbText
 73
     1
  0
TEXT
  5
BEDC
330
BEB8
100
AcDbEntity
  8
1
  6
Continuous
 62
     7
370
    30
100
AcDbText
 10
177.685735
 20
8.736550999999998
 30
0.0
 40
2.799999999999999
  1
日　　付
 11
177.685735
 21
8.736550999999998
 31
0.0
100
AcDbText
 73
     1
  0
TEXT
  5
BEDD
330
BEB8
100
AcDbEntity
  8
1
  6
Continuous
 62
     7
370
    30
100
AcDbText
 10
200.128042
 20
8.590405999999999
 30
0.0
 40
2.799999999999999
  1
変　更　箇　所
 11
200.128042
 21
8.590405999999999
 31
0.0
100
AcDbText
 73
     1
  0
TEXT
  5
BEDE
330
BEB8
100
AcDbEntity
  8
1
  6
Continuous
 62
     7
370
    30
100
AcDbText
 10
226.202094
 20
8.736550999999998
 30
0.0
 40
2.799999999999999
  1
担　当
 11
226.202094
 21
8.736550999999998
 31
0.0
100
AcDbText
 73
     1
  0
TEXT
  5
BEDF
330
BEB8
100
AcDbEntity
  8
1
  6
Continuous
 62
     7
370
    30
100
AcDbText
 10
92.469418
 20
42.29073699999999
 30
0.0
 40
2.0
  1
品番
 50
-90.0
 41
4.0
 71
     4
 11
90.469418
 21
42.29073699999999
 31
0.0
100
AcDbText
 73
     3
  0
TEXT
  5
BEE0
330
BEB8
100
AcDbEntity
  8
1
  6
Continuous
 62
     7
370
    30
100
AcDbText
 10
92.28808800000001
 20
30.137053
 30
0.0
 40
2.0
  1
硬度
 50
-90.0
 41
4.0
 71
     4
 11
90.288088
 21
30.137053
 31
0.0
100
AcDbText
 73
     3
  0
TEXT
  5
BEE1
330
BEB8
100
AcDbEntity
  8
1
  6
Continuous
 62
     7
370
    30
100
AcDbText
 10
136.030627
 20
30.137053
 30
0.0
 40
2.0
  1
尺度
 50
-90.0
 41
4.0
 71
     4
 11
134.030627
 21
30.137053
 31
0.0
100
AcDbText
 73
     3
  0
TEXT
  5
BEE2
330
BEB8
100
AcDbEntity
  8
1
  6
Continuous
 62
     7
370
    30
100
AcDbText
 10
13.822385
 20
10.992461
 30
0.0
 40
4.0
  1
処理
 41
0.875
 11
13.822385
 21
10.992461
 31
0.0
100
AcDbText
 73
     1
  0
TEXT
  5
BEE3
330
BEB8
100
AcDbEntity
  8
1
  6
Continuous
 62
     7
370
    30
100
AcDbText
 10
13.915991
 20
14.618052
 30
0.0
 40
4.0
  1
表面
 41
0.875
 11
13.915991
 21
14.618052
 31
0.0
100
AcDbText
 73
     1
  0
TEXT
  5
BEE4
330
BEB8
100
AcDbEntity
  8
1
  6
Continuous
 62
     7
370
    30
100
AcDbText
 10
17.324431
 20
42.727902
 30
0.0
 40
2.0
  1
品名
 50
-90.0
 41
4.0
 71
     4
 11
15.324431
 21
42.727902
 31
0.0
100
AcDbText
 73
     3
  0
TEXT
  5
BEE5
330
BEB8
100
AcDbEntity
  8
1
  6
Continuous
 62
     7
370
    30
100
AcDbText
 10
17.324431
 20
30.392167
 30
0.0
 40
2.0
  1
材質
 50
-90.0
 41
4.0
 71
     4
 11
15.324431
 21
30.392167
 31
0.0
100
AcDbText
 73
     3
  0
TEXT
  5
BEE6
330
BEB8
100
AcDbEntity
  8
1
  6
DOT
 62
     7
370
    30
100
AcDbText
 10
14.746792
 20
185.970517
 30
0.0
 40
4.0
  1
指示ナキ角部ハ　　取リトスル
 11
14.746792
 21
185.970517
 31
0.0
100
AcDbText
 73
     1
  0
TEXT
  5
BEE7
330
BEB8
100
AcDbEntity
  8
1
  6
DOT
 62
     7
370
    30
100
AcDbText
 10
14.746792
 20
180.970517
 30
0.0
 40
4.0
  1
指示ナキ Ｒ ハ　　 Ｒ トスル
 41
0.875
 11
14.746792
 21
180.970517
 31
0.0
100
AcDbText
 73
     1
  0
LINE
  5
BEE8
330
BEB8
100
AcDbEntity
  8
1
  6
Continuous
 62
     7
370
    30
100
AcDbLine
 10
13.684211
 20
185.5263159999999
 30
0.0
 11
72.77616899999999
 21
185.5263159999999
 31
0.0
  0
LINE
  5
BEE9
330
BEB8
100
AcDbEntity
  8
1
  6
Continuous
 62
     7
370
    30
100
AcDbLine
 10
72.77616899999999
 20
190.526316
 30
0.0
 11
72.77616899999999
 21
180.5263159999999
 31
0.0
  0
LINE
  5
BEEA
330
BEB8
100
AcDbEntity
  8
1
  6
Continuous
 62
     7
370
    30
100
AcDbLine
 10
72.77616899999999
 20
180.5263159999999
 30
0.0
 11
13.684211
 21
180.5263159999999
 31
0.0
  0
TEXT
  5
BEEB
330
BEB8
100
AcDbEntity
  8
1
  6
Continuous
 62
     7
370
    30
100
AcDbText
 10
237.841376
 20
8.71105
 30
0.0
 40
2.799999999999999
  1
作図・年・月・日
 41
0.714286
 11
237.841376
 21
8.71105
 31
0.0
100
AcDbText
 73
     1
  0
TEXT
  5
BEEC
330
BEB8
100
AcDbEntity
  8
1
  6
Continuous
 62
     7
370
    30
100
AcDbText
 10
267.8382
 20
28.728161
 30
0.0
 40
2.799999999999999
  1
作　図
 11
267.8382
 21
28.728161
 31
0.0
100
AcDbText
 73
     1
  0
TEXT
  5
BEED
330
BEB8
100
AcDbEntity
  8
1
  6
Continuous
 62
     7
370
    30
100
AcDbText
 10
239.953009
 20
28.728161
 30
0.0
 40
2.799999999999999
  1
承　認
 11
239.953009
 21
28.728161
 31
0.0
100
AcDbText
 73
     1
  0
TEXT
  5
BEEE
330
BEB8
100
AcDbEntity
  8
2
  6
Continuous
 62
     7
370
     9
100
AcDbText
 10
40.184211
 20
35.652122
 30
0.0
 40
5.0
  1
脱落防止ビス
 11
40.184211
 21
35.652122
 31
0.0
100
AcDbText
 73
     1
  0
TEXT
  5
BEEF
330
BEB8
100
AcDbEntity
  8
2
  6
Continuous
 62
     7
370
     9
100
AcDbText
 10
130.434211
 20
35.652122
 30
0.0
 40
5.0
  1
BDB
 41
0.5
 11
130.434211
 21
35.652122
 31
0.0
100
AcDbText
 73
     1
  0
TEXT
  5
BEF0
330
BEB8
100
AcDbEntity
  8
2
  6
Continuous
 62
     7
370
     9
100
AcDbText
 10
152.279388
 20
23.652122
 30
0.0
 40
5.0
  1
1/1
 41
0.5
 11
152.279388
 21
23.652122
 31
0.0
100
AcDbText
 73
     1
  0
TEXT
  5
BEF1
330
BEB8
100
AcDbEntity
  8
2
  6
Continuous
 62
     7
370
     9
100
AcDbText
 10
268.723684
 20
17.652122
 30
0.0
 40
5.0
  1
H.M
 41
0.5
 11
268.723684
 21
17.652122
 31
0.0
100
AcDbText
 73
     1
  0
TEXT
  5
BEF2
330
BEB8
100
AcDbEntity
  8
2
  6
Continuous
 62
     7
370
     9
100
AcDbText
 10
258.247465
 20
8.152122
 30
0.0
 40
4.0
  1
2012年6月1日
 41
0.5
 11
258.247465
 21
8.152122
 31
0.0
100
AcDbText
 73
     1
  0
INSERT
  5
BEF3
330
BEB8
100
AcDbEntity
  8
0
  6
Continuous
 62
     7
370
     9
100
AcDbBlockReference
  2
*G1611
 10
0.0
 20
0.0
 30
0.0
  0
TEXT
  5
BEF4
330
BEB8
100
AcDbEntity
  8
20
  6
Continuous
 62
    94
370
    30
100
AcDbText
 10
71.599329
 20
10.254603
 30
0.0
 40
8.0
  1
株式会社　宮川公製作所
 11
71.599329
 21
10.254603
 31
0.0
100
AcDbText
 73
     1
  0
ENDBLK
  5
BEF5
330
BEB8
100
AcDbEntity
  8
0
100
AcDbBlockEnd
  0
BLOCK
  5
BEF7
330
BEF6
100
AcDbEntity
  8
0
  6
Continuous
 62
     7
370
     9
100
AcDbBlockBegin
  2
*G1611
 70
     0
 10
0.0
 20
0.0
 30
0.0
  3
*G1611
  1

  0
TEXT
  5
BEF8
330
BEF6
100
AcDbEntity
  8
2
  6
Continuous
 62
     7
370
     9
100
AcDbText
 10
74.554777
 20
184.715717
 30
0.0
 40
4.0
  1
バリ、カエリ無キ事
 11
74.554777
 21
184.715717
 31
0.0
100
AcDbText
 73
     1
  0
ENDBLK
  5
BEF9
330
BEF6
100
AcDbEntity
  8
0
100
AcDbBlockEnd
  0
BLOCK
  5
CA87
330
CA86
100
AcDbEntity
  8
1
  6
Continuous
 62
     7
370
     9
100
AcDbBlockBegin
  2
*D12
 70
     0
 10
0.0
 20
0.0
 30
0.0
  3
*D12
  1

  0
LINE
  5
CA88
330
CA86
100
AcDbEntity
  8
1
  6
Continuous
 62
     7
370
     9
100
AcDbLine
 10
128.914308
 20
91.07853399999999
 30
0.0
 11
128.914308
 21
97.89138800000001
 31
0.0
  0
TEXT
  5
CA89
330
CA86
100
AcDbEntity
  8
1
  6
Continuous
 62
     7
370
     9
100
AcDbText
 10
128.914308
 20
93.30004699999999
 30
0.0
 40
3.0
  1
φＧ
 50
90.0
 41
0.666667
 11
128.914308
 21
93.30004699999999
 31
0.0
100
AcDbText
 73
     1
  0
ENDBLK
  5
CA8A
330
CA86
100
AcDbEntity
  8
1
  6
Continuous
 62
     7
370
     9
100
AcDbBlockEnd
  0
BLOCK
  5
CA8C
330
CA8B
100
AcDbEntity
  8
1
  6
Continuous
 62
     7
370
     9
100
AcDbBlockBegin
  2
*D13
 70
     0
 10
0.0
 20
0.0
 30
0.0
  3
*D13
  1

  0
LINE
  5
CA8D
330
CA8B
100
AcDbEntity
  8
1
  6
Continuous
 62
     7
370
     9
100
AcDbLine
 10
123.700156
 20
87.97853399999999
 30
0.0
 11
123.700156
 21
97.89138800000001
 31
0.0
  0
TEXT
  5
CA8E
330
CA8B
100
AcDbEntity
  8
1
  6
Continuous
 62
     7
370
     9
100
AcDbText
 10
123.700156
 20
93.30004699999999
 30
0.0
 40
3.0
  1
φＦ
 50
90.0
 41
0.666667
 11
123.700156
 21
93.30004699999999
 31
0.0
100
AcDbText
 73
     1
  0
ENDBLK
  5
CA8F
330
CA8B
100
AcDbEntity
  8
1
  6
Continuous
 62
     7
370
     9
100
AcDbBlockEnd
  0
BLOCK
  5
CA91
330
CA90
100
AcDbEntity
  8
1
  6
Continuous
 62
     7
370
     9
100
AcDbBlockBegin
  2
*D14
 70
     0
 10
0.0
 20
0.0
 30
0.0
  3
*D14
  1

  0
LINE
  5
CA92
330
CA90
100
AcDbEntity
  8
1
  6
Continuous
 62
     7
370
     9
100
AcDbLine
 10
114.164479
 20
92.07853399999999
 30
0.0
 11
114.164479
 21
97.89138800000001
 31
0.0
  0
TEXT
  5
CA93
330
CA90
100
AcDbEntity
  8
1
  6
Continuous
 62
     7
370
     9
100
AcDbText
 10
114.164479
 20
93.30004699999999
 30
0.0
 40
3.0
  1
φＪ
 50
90.0
 41
0.666667
 11
114.164479
 21
93.30004699999999
 31
0.0
100
AcDbText
 73
     1
  0
ENDBLK
  5
CA94
330
CA90
100
AcDbEntity
  8
1
  6
Continuous
 62
     7
370
     9
100
AcDbBlockEnd
  0
BLOCK
  5
CA96
330
CA95
100
AcDbEntity
  8
1
  6
Continuous
 62
     7
370
     9
100
AcDbBlockBegin
  2
*D15
 70
     0
 10
0.0
 20
0.0
 30
0.0
  3
*D15
  1

  0
LINE
  5
CA97
330
CA95
100
AcDbEntity
  8
1
  6
Continuous
 62
     7
370
     9
100
AcDbLine
 10
112.953927
 20
74.07853399999999
 30
0.0
 11
123.953927
 21
74.07853399999999
 31
0.0
  0
LINE
  5
CA98
330
CA95
100
AcDbEntity
  8
1
  6
Continuous
 62
     7
370
     9
100
AcDbLine
 10
117.953927
 20
73.07853399999999
 30
0.0
 11
117.953927
 21
77.07853399999999
 31
0.0
  0
LINE
  5
CA99
330
CA95
100
AcDbEntity
  8
1
  6
Continuous
 62
     7
370
     9
100
AcDbLine
 10
118.953927
 20
73.07853399999999
 30
0.0
 11
118.953927
 21
77.07853399999999
 31
0.0
  0
LINE
  5
CA9A
330
CA95
100
AcDbEntity
  8
1
  6
Continuous
 62
     7
370
     9
100
AcDbLine
 10
117.953927
 20
74.07853399999999
 30
0.0
 11
116.988001
 21
73.819715
 31
0.0
  0
LINE
  5
CA9B
330
CA95
100
AcDbEntity
  8
1
  6
Continuous
 62
     7
370
     9
100
AcDbLine
 10
117.953927
 20
74.07853399999999
 30
0.0
 11
116.988001
 21
74.33735300000001
 31
0.0
  0
LINE
  5
CA9C
330
CA95
100
AcDbEntity
  8
1
  6
Continuous
 62
     7
370
     9
100
AcDbLine
 10
116.988001
 20
73.819715
 30
0.0
 11
116.988001
 21
74.33735300000001
 31
0.0
  0
LINE
  5
CA9D
330
CA95
100
AcDbEntity
  8
1
  6
Continuous
 62
     7
370
     9
100
AcDbLine
 10
117.712445
 20
74.07853399999999
 30
0.0
 11
117.229482
 21
73.94912399999999
 31
0.0
  0
LINE
  5
CA9E
330
CA95
100
AcDbEntity
  8
1
  6
Continuous
 62
     7
370
     9
100
AcDbLine
 10
117.712445
 20
74.07853399999999
 30
0.0
 11
117.229482
 21
74.207943
 31
0.0
  0
LINE
  5
CA9F
330
CA95
100
AcDbEntity
  8
1
  6
Continuous
 62
     7
370
     9
100
AcDbLine
 10
117.229482
 20
73.94912399999999
 30
0.0
 11
117.229482
 21
74.207943
 31
0.0
  0
LINE
  5
CAA0
330
CA95
100
AcDbEntity
  8
1
  6
Continuous
 62
     7
370
     9
100
AcDbLine
 10
118.953927
 20
74.07853399999999
 30
0.0
 11
119.919852
 21
74.33735300000001
 31
0.0
  0
LINE
  5
CAA1
330
CA95
100
AcDbEntity
  8
1
  6
Continuous
 62
     7
370
     9
100
AcDbLine
 10
118.953927
 20
74.07853399999999
 30
0.0
 11
119.919852
 21
73.819715
 31
0.0
  0
LINE
  5
CAA2
330
CA95
100
AcDbEntity
  8
1
  6
Continuous
 62
     7
370
     9
100
AcDbLine
 10
119.919852
 20
74.33735300000001
 30
0.0
 11
119.919852
 21
73.819715
 31
0.0
  0
LINE
  5
CAA3
330
CA95
100
AcDbEntity
  8
1
  6
Continuous
 62
     7
370
     9
100
AcDbLine
 10
119.195408
 20
74.07853399999999
 30
0.0
 11
119.678371
 21
74.207943
 31
0.0
  0
LINE
  5
CAA4
330
CA95
100
AcDbEntity
  8
1
  6
Continuous
 62
     7
370
     9
100
AcDbLine
 10
119.195408
 20
74.07853399999999
 30
0.0
 11
119.678371
 21
73.94912399999999
 31
0.0
  0
LINE
  5
CAA5
330
CA95
100
AcDbEntity
  8
1
  6
Continuous
 62
     7
370
     9
100
AcDbLine
 10
119.678371
 20
74.207943
 30
0.0
 11
119.678371
 21
73.94912399999999
 31
0.0
  0
TEXT
  5
CAA6
330
CA95
100
AcDbEntity
  8
1
  6
Continuous
 62
     7
370
     9
100
AcDbText
 10
120.780174
 20
74.07853399999999
 30
0.0
 40
3.0
  1
Ｋ
 50
360.0
 41
0.666667
 11
120.780174
 21
74.07853399999999
 31
0.0
100
AcDbText
 73
     1
  0
ENDBLK
  5
CAA7
330
CA95
100
AcDbEntity
  8
1
  6
Continuous
 62
     7
370
     9
100
AcDbBlockEnd
  0
BLOCK
  5
CAA9
330
CAA8
100
AcDbEntity
  8
1
  6
Continuous
 62
     7
370
     9
100
AcDbBlockBegin
  2
*D16
 70
     0
 10
0.0
 20
0.0
 30
0.0
  3
*D16
  1

  0
LINE
  5
CAAA
330
CAA8
100
AcDbEntity
  8
1
  6
Continuous
 62
     7
370
     9
100
AcDbLine
 10
155.807753
 20
91.07853399999999
 30
0.0
 11
155.807753
 21
79.07853399999999
 31
0.0
  0
LINE
  5
CAAB
330
CAA8
100
AcDbEntity
  8
1
  6
Continuous
 62
     7
370
     9
100
AcDbLine
 10
156.807753
 20
86.07853399999999
 30
0.0
 11
145.804528
 21
86.07853399999999
 31
0.0
  0
LINE
  5
CAAC
330
CAA8
100
AcDbEntity
  8
1
  6
Continuous
 62
     7
370
     9
100
AcDbLine
 10
156.807753
 20
84.07853399999998
 30
0.0
 11
145.804528
 21
84.07853399999998
 31
0.0
  0
LINE
  5
CAAD
330
CAA8
100
AcDbEntity
  8
1
  6
Continuous
 62
     7
370
     9
100
AcDbLine
 10
155.807753
 20
86.07853399999999
 30
0.0
 11
155.548934
 21
87.04446
 31
0.0
  0
LINE
  5
CAAE
330
CAA8
100
AcDbEntity
  8
1
  6
Continuous
 62
     7
370
     9
100
AcDbLine
 10
155.807753
 20
86.07853399999999
 30
0.0
 11
156.066572
 21
87.04446
 31
0.0
  0
LINE
  5
CAAF
330
CAA8
100
AcDbEntity
  8
1
  6
Continuous
 62
     7
370
     9
100
AcDbLine
 10
155.807753
 20
84.07853399999998
 30
0.0
 11
156.066572
 21
83.11260799999999
 31
0.0
  0
LINE
  5
CAB0
330
CAA8
100
AcDbEntity
  8
1
  6
Continuous
 62
     7
370
     9
100
AcDbLine
 10
155.807753
 20
84.07853399999998
 30
0.0
 11
155.548934
 21
83.11260799999999
 31
0.0
  0
TEXT
  5
CAB1
330
CAA8
100
AcDbEntity
  8
1
  6
Continuous
 62
     7
370
     9
100
AcDbText
 10
155.807753
 20
88.22348000000001
 30
0.0
 40
3.0
  1
Ｈ
 50
90.0
 41
0.666667
 11
155.807753
 21
88.22348000000001
 31
0.0
100
AcDbText
 73
     1
  0
ENDBLK
  5
CAB2
330
CAA8
100
AcDbEntity
  8
1
  6
Continuous
 62
     7
370
     9
100
AcDbBlockEnd
  0
BLOCK
  5
CAB4
330
CAB3
100
AcDbEntity
  8
1
  6
Continuous
 62
     7
370
     9
100
AcDbBlockBegin
  2
*D17
 70
     0
 10
0.0
 20
0.0
 30
0.0
  3
*D17
  1

  0
LINE
  5
CAB5
330
CAB3
100
AcDbEntity
  8
1
  6
Continuous
 62
     7
370
     9
100
AcDbLine
 10
123.700156
 20
87.97853399999999
 30
0.0
 11
123.700156
 21
82.178534
 31
0.0
  0
LINE
  5
CAB6
330
CAB3
100
AcDbEntity
  8
1
  6
Continuous
 62
     7
370
     9
100
AcDbLine
 10
123.700156
 20
87.97853399999999
 30
0.0
 11
123.958975
 21
87.012608
 31
0.0
  0
LINE
  5
CAB7
330
CAB3
100
AcDbEntity
  8
1
  6
Continuous
 62
     7
370
     9
100
AcDbLine
 10
123.700156
 20
87.97853399999999
 30
0.0
 11
123.441337
 21
87.012608
 31
0.0
  0
LINE
  5
CAB8
330
CAB3
100
AcDbEntity
  8
1
  6
Continuous
 62
     7
370
     9
100
AcDbLine
 10
123.700156
 20
82.178534
 30
0.0
 11
123.441337
 21
83.14446
 31
0.0
  0
LINE
  5
CAB9
330
CAB3
100
AcDbEntity
  8
1
  6
Continuous
 62
     7
370
     9
100
AcDbLine
 10
123.700156
 20
82.178534
 30
0.0
 11
123.958975
 21
83.14446
 31
0.0
  0
TEXT
  5
CABA
330
CAB3
100
AcDbEntity
  8
1
  6
Continuous
 62
     7
370
     9
100
AcDbText
 10
123.700156
 20
89.991906
 30
0.0
 40
3.0
  1
 
 50
90.0
 41
0.333333
 11
123.700156
 21
89.991906
 31
0.0
100
AcDbText
 73
     1
  0
ENDBLK
  5
CABB
330
CAB3
100
AcDbEntity
  8
1
  6
Continuous
 62
     7
370
     9
100
AcDbBlockEnd
  0
BLOCK
  5
CABD
330
CABC
100
AcDbEntity
  8
1
  6
Continuous
 62
     7
370
     9
100
AcDbBlockBegin
  2
*D18
 70
     0
 10
0.0
 20
0.0
 30
0.0
  3
*D18
  1

  0
LINE
  5
CABE
330
CABC
100
AcDbEntity
  8
1
  6
Continuous
 62
     7
370
     9
100
AcDbLine
 10
128.914308
 20
91.07853399999999
 30
0.0
 11
128.914308
 21
79.078535
 31
0.0
  0
LINE
  5
CABF
330
CABC
100
AcDbEntity
  8
1
  6
Continuous
 62
     7
370
     9
100
AcDbLine
 10
127.914308
 20
91.07853399999999
 30
0.0
 11
132.769506
 21
91.07853399999999
 31
0.0
  0
LINE
  5
CAC0
330
CABC
100
AcDbEntity
  8
1
  6
Continuous
 62
     7
370
     9
100
AcDbLine
 10
127.914308
 20
79.078535
 30
0.0
 11
132.769506
 21
79.078535
 31
0.0
  0
LINE
  5
CAC1
330
CABC
100
AcDbEntity
  8
1
  6
Continuous
 62
     7
370
     9
100
AcDbLine
 10
128.914308
 20
91.07853399999999
 30
0.0
 11
129.173128
 21
90.112608
 31
0.0
  0
LINE
  5
CAC2
330
CABC
100
AcDbEntity
  8
1
  6
Continuous
 62
     7
370
     9
100
AcDbLine
 10
128.914308
 20
91.07853399999999
 30
0.0
 11
128.655489
 21
90.112608
 31
0.0
  0
LINE
  5
CAC3
330
CABC
100
AcDbEntity
  8
1
  6
Continuous
 62
     7
370
     9
100
AcDbLine
 10
128.914308
 20
79.078535
 30
0.0
 11
128.655489
 21
80.044461
 31
0.0
  0
LINE
  5
CAC4
330
CABC
100
AcDbEntity
  8
1
  6
Continuous
 62
     7
370
     9
100
AcDbLine
 10
128.914308
 20
79.078535
 30
0.0
 11
129.173128
 21
80.044461
 31
0.0
  0
TEXT
  5
CAC5
330
CABC
100
AcDbEntity
  8
1
  6
Continuous
 62
     7
370
     9
100
AcDbText
 10
128.914308
 20
94.83410199999999
 30
0.0
 40
3.0
  1
 
 50
90.0
 41
0.333333
 11
128.914308
 21
94.83410199999999
 31
0.0
100
AcDbText
 73
     1
  0
ENDBLK
  5
CAC6
330
CABC
100
AcDbEntity
  8
1
  6
Continuous
 62
     7
370
     9
100
AcDbBlockEnd
  0
BLOCK
  5
CAC8
330
CAC7
100
AcDbEntity
  8
0
  6
Continuous
 62
     7
370
     9
100
AcDbBlockBegin
  2
*G1519
 70
     0
 10
0.0
 20
0.0
 30
0.0
  3
*G1519
  1

  0
LINE
  5
CAC9
330
CAC7
100
AcDbEntity
  8
1
  6
Continuous
 62
     7
370
    30
100
AcDbLine
 10
13.684211
 20
8.152122
 30
0.0
 11
13.684211
 21
190.526316
 31
0.0
  0
LINE
  5
CACA
330
CAC7
100
AcDbEntity
  8
1
  6
Continuous
 62
     7
370
    30
100
AcDbLine
 10
13.684211
 20
8.152122
 30
0.0
 11
279.473684
 21
8.152122
 31
0.0
  0
LINE
  5
CACB
330
CAC7
100
AcDbEntity
  8
1
  6
Continuous
 62
     7
370
    30
100
AcDbLine
 10
279.473684
 20
8.152122
 30
0.0
 11
279.473684
 21
190.526316
 31
0.0
  0
LINE
  5
CACC
330
CAC7
100
AcDbEntity
  8
1
  6
Continuous
 62
     7
370
    30
100
AcDbLine
 10
13.684211
 20
190.526316
 30
0.0
 11
279.473684
 21
190.526316
 31
0.0
  0
LINE
  5
CACD
330
CAC7
100
AcDbEntity
  8
1
  6
Continuous
 62
     7
370
    30
100
AcDbLine
 10
239.514248
 20
12.152122
 30
0.0
 11
279.473684
 21
12.152122
 31
0.0
  0
LINE
  5
CACE
330
CAC7
100
AcDbEntity
  8
1
  6
Continuous
 62
     7
370
    30
100
AcDbLine
 10
88.684211
 20
44.152122
 30
0.0
 11
88.684211
 21
20.152122
 31
0.0
  0
LINE
  5
CACF
330
CAC7
100
AcDbEntity
  8
1
  6
Continuous
 62
     7
370
    30
100
AcDbLine
 10
96.68421100000001
 20
20.152122
 30
0.0
 11
96.68421100000001
 21
44.152122
 31
0.0
  0
LINE
  5
CAD0
330
CAC7
100
AcDbEntity
  8
1
  6
Continuous
 62
     7
370
    30
100
AcDbLine
 10
132.374566
 20
32.152122
 30
0.0
 11
132.374566
 21
20.152122
 31
0.0
  0
LINE
  5
CAD1
330
CAC7
100
AcDbEntity
  8
1
  6
Continuous
 62
     7
370
    30
100
AcDbLine
 10
140.374566
 20
32.152122
 30
0.0
 11
140.374566
 21
20.152122
 31
0.0
  0
LINE
  5
CAD2
330
CAC7
100
AcDbEntity
  8
1
  6
Continuous
 62
     7
370
    30
100
AcDbLine
 10
171.684211
 20
8.152122
 30
0.0
 11
171.684211
 21
44.152122
 31
0.0
  0
LINE
  5
CAD3
330
CAC7
100
AcDbEntity
  8
1
  6
Continuous
 62
     7
370
    30
100
AcDbLine
 10
171.684211
 20
12.152122
 30
0.0
 11
239.514248
 21
12.152122
 31
0.0
  0
LINE
  5
CAD4
330
CAC7
100
AcDbEntity
  8
1
  6
Continuous
 62
     7
370
    30
100
AcDbLine
 10
255.021245
 20
12.152122
 30
0.0
 11
255.021245
 21
8.152122
 31
0.0
  0
LINE
  5
CAD5
330
CAC7
100
AcDbEntity
  8
1
  6
Continuous
 62
     7
370
    30
100
AcDbLine
 10
21.684211
 20
44.152122
 30
0.0
 11
21.684211
 21
8.152122
 31
0.0
  0
LINE
  5
CAD6
330
CAC7
100
AcDbEntity
  8
1
  6
Continuous
 62
     7
370
    30
100
AcDbLine
 10
58.529862
 20
20.152122
 30
0.0
 11
58.529862
 21
8.152122
 31
0.0
  0
LINE
  5
CAD7
330
CAC7
100
AcDbEntity
  8
1
  6
Continuous
 62
     7
370
    30
100
AcDbLine
 10
265.473684
 20
32.152122
 30
0.0
 11
265.473684
 21
12.152122
 31
0.0
  0
LINE
  5
CAD8
330
CAC7
100
AcDbEntity
  8
1
  6
Continuous
 62
     7
370
    30
100
AcDbLine
 10
251.473684
 20
32.152122
 30
0.0
 11
251.473684
 21
12.152122
 31
0.0
  0
LINE
  5
CAD9
330
CAC7
100
AcDbEntity
  8
1
  6
Continuous
 62
     7
370
    30
100
AcDbLine
 10
237.473684
 20
12.152122
 30
0.0
 11
237.473684
 21
32.152122
 31
0.0
  0
LINE
  5
CADA
330
CAC7
100
AcDbEntity
  8
1
  6
Continuous
 62
     7
370
    30
100
AcDbLine
 10
171.684211
 20
32.152122
 30
0.0
 11
279.473684
 21
32.152122
 31
0.0
  0
LINE
  5
CADB
330
CAC7
100
AcDbEntity
  8
1
  6
Continuous
 62
     7
370
    30
100
AcDbLine
 10
237.473684
 20
32.152122
 30
0.0
 11
237.473684
 21
44.152122
 31
0.0
  0
LINE
  5
CADC
330
CAC7
100
AcDbEntity
  8
1
  6
Continuous
 62
     7
370
    30
100
AcDbLine
 10
237.473684
 20
44.152122
 30
0.0
 11
171.684211
 21
44.152122
 31
0.0
  0
LINE
  5
CADD
330
CAC7
100
AcDbEntity
  8
1
  6
Continuous
 62
     7
370
    30
100
AcDbLine
 10
171.684211
 20
40.15212199999999
 30
0.0
 11
237.473684
 21
40.15212199999999
 31
0.0
  0
LINE
  5
CADE
330
CAC7
100
AcDbEntity
  8
1
  6
Continuous
 62
     7
370
    30
100
AcDbLine
 10
237.473684
 20
36.152122
 30
0.0
 11
171.684211
 21
36.152122
 31
0.0
  0
LINE
  5
CADF
330
CAC7
100
AcDbEntity
  8
1
  6
Continuous
 62
     7
370
    30
100
AcDbLine
 10
171.684211
 20
28.152122
 30
0.0
 11
279.473684
 21
28.152122
 31
0.0
  0
LINE
  5
CAE0
330
CAC7
100
AcDbEntity
  8
1
  6
Continuous
 62
     7
370
    30
100
AcDbLine
 10
237.473684
 20
24.152122
 30
0.0
 11
171.684211
 21
24.152122
 31
0.0
  0
LINE
  5
CAE1
330
CAC7
100
AcDbEntity
  8
1
  6
Continuous
 62
     7
370
    30
100
AcDbLine
 10
171.684211
 20
20.152122
 30
0.0
 11
237.473684
 21
20.152122
 31
0.0
  0
LINE
  5
CAE2
330
CAC7
100
AcDbEntity
  8
1
  6
Continuous
 62
     7
370
    30
100
AcDbLine
 10
237.473684
 20
16.152122
 30
0.0
 11
171.684211
 21
16.152122
 31
0.0
  0
LINE
  5
CAE3
330
CAC7
100
AcDbEntity
  8
1
  6
Continuous
 62
     7
370
    30
100
AcDbLine
 10
237.473684
 20
12.152122
 30
0.0
 11
237.473684
 21
8.152122
 31
0.0
  0
LINE
  5
CAE4
330
CAC7
100
AcDbEntity
  8
1
  6
DOT
 62
     7
370
    30
100
AcDbLine
 10
223.473684
 20
44.152122
 30
0.0
 11
223.473684
 21
8.152122
 31
0.0
  0
LINE
  5
CAE5
330
CAC7
100
AcDbEntity
  8
1
  6
DOT
 62
     7
370
    30
100
AcDbLine
 10
195.473684
 20
44.152122
 30
0.0
 11
195.473684
 21
8.152122
 31
0.0
  0
LINE
  5
CAE6
330
CAC7
100
AcDbEntity
  8
1
  6
Continuous
 62
     7
370
    30
100
AcDbLine
 10
171.684211
 20
44.152122
 30
0.0
 11
13.684211
 21
44.152122
 31
0.0
  0
LINE
  5
CAE7
330
CAC7
100
AcDbEntity
  8
1
  6
Continuous
 62
     7
370
    30
100
AcDbLine
 10
171.684211
 20
32.152122
 30
0.0
 11
96.68421100000001
 21
32.152122
 31
0.0
  0
LINE
  5
CAE8
330
CAC7
100
AcDbEntity
  8
1
  6
Continuous
 62
     7
370
    30
100
AcDbLine
 10
96.68421100000001
 20
32.152122
 30
0.0
 11
13.684211
 21
32.152122
 31
0.0
  0
LINE
  5
CAE9
330
CAC7
100
AcDbEntity
  8
1
  6
Continuous
 62
     7
370
    30
100
AcDbLine
 10
13.684211
 20
20.152122
 30
0.0
 11
171.684211
 21
20.152122
 31
0.0
  0
TEXT
  5
CAEA
330
CAC7
100
AcDbEntity
  8
1
  6
Continuous
 62
     7
370
    30
100
AcDbText
 10
253.596308
 20
28.728161
 30
0.0
 40
2.799999999999999
  1
検　図
 11
253.596308
 21
28.728161
 31
0.0
100
AcDbText
 73
     1
  0
TEXT
  5
CAEB
330
CAC7
100
AcDbEntity
  8
1
  6
Continuous
 62
     7
370
    30
100
AcDbText
 10
177.685735
 20
8.736550999999998
 30
0.0
 40
2.799999999999999
  1
日　　付
 11
177.685735
 21
8.736550999999998
 31
0.0
100
AcDbText
 73
     1
  0
TEXT
  5
CAEC
330
CAC7
100
AcDbEntity
  8
1
  6
Continuous
 62
     7
370
    30
100
AcDbText
 10
200.128042
 20
8.590405999999999
 30
0.0
 40
2.799999999999999
  1
変　更　箇　所
 11
200.128042
 21
8.590405999999999
 31
0.0
100
AcDbText
 73
     1
  0
TEXT
  5
CAED
330
CAC7
100
AcDbEntity
  8
1
  6
Continuous
 62
     7
370
    30
100
AcDbText
 10
226.202094
 20
8.736550999999998
 30
0.0
 40
2.799999999999999
  1
担　当
 11
226.202094
 21
8.736550999999998
 31
0.0
100
AcDbText
 73
     1
  0
TEXT
  5
CAEE
330
CAC7
100
AcDbEntity
  8
1
  6
Continuous
 62
     7
370
    30
100
AcDbText
 10
92.469418
 20
42.29073699999999
 30
0.0
 40
2.0
  1
品番
 50
-90.0
 41
4.0
 71
     4
 11
90.469418
 21
42.29073699999999
 31
0.0
100
AcDbText
 73
     3
  0
TEXT
  5
CAEF
330
CAC7
100
AcDbEntity
  8
1
  6
Continuous
 62
     7
370
    30
100
AcDbText
 10
92.28808800000001
 20
30.137053
 30
0.0
 40
2.0
  1
硬度
 50
-90.0
 41
4.0
 71
     4
 11
90.288088
 21
30.137053
 31
0.0
100
AcDbText
 73
     3
  0
TEXT
  5
CAF0
330
CAC7
100
AcDbEntity
  8
1
  6
Continuous
 62
     7
370
    30
100
AcDbText
 10
136.030627
 20
30.137053
 30
0.0
 40
2.0
  1
尺度
 50
-90.0
 41
4.0
 71
     4
 11
134.030627
 21
30.137053
 31
0.0
100
AcDbText
 73
     3
  0
TEXT
  5
CAF1
330
CAC7
100
AcDbEntity
  8
1
  6
Continuous
 62
     7
370
    30
100
AcDbText
 10
13.822385
 20
10.992461
 30
0.0
 40
4.0
  1
処理
 41
0.875
 11
13.822385
 21
10.992461
 31
0.0
100
AcDbText
 73
     1
  0
TEXT
  5
CAF2
330
CAC7
100
AcDbEntity
  8
1
  6
Continuous
 62
     7
370
    30
100
AcDbText
 10
13.915991
 20
14.618052
 30
0.0
 40
4.0
  1
表面
 41
0.875
 11
13.915991
 21
14.618052
 31
0.0
100
AcDbText
 73
     1
  0
TEXT
  5
CAF3
330
CAC7
100
AcDbEntity
  8
1
  6
Continuous
 62
     7
370
    30
100
AcDbText
 10
17.324431
 20
42.727902
 30
0.0
 40
2.0
  1
品名
 50
-90.0
 41
4.0
 71
     4
 11
15.324431
 21
42.727902
 31
0.0
100
AcDbText
 73
     3
  0
TEXT
  5
CAF4
330
CAC7
100
AcDbEntity
  8
1
  6
Continuous
 62
     7
370
    30
100
AcDbText
 10
17.324431
 20
30.392167
 30
0.0
 40
2.0
  1
材質
 50
-90.0
 41
4.0
 71
     4
 11
15.324431
 21
30.392167
 31
0.0
100
AcDbText
 73
     3
  0
TEXT
  5
CAF5
330
CAC7
100
AcDbEntity
  8
1
  6
DOT
 62
     7
370
    30
100
AcDbText
 10
14.746792
 20
185.970517
 30
0.0
 40
4.0
  1
指示ナキ角部ハ　　取リトスル
 11
14.746792
 21
185.970517
 31
0.0
100
AcDbText
 73
     1
  0
TEXT
  5
CAF6
330
CAC7
100
AcDbEntity
  8
1
  6
DOT
 62
     7
370
    30
100
AcDbText
 10
14.746792
 20
180.970517
 30
0.0
 40
4.0
  1
指示ナキ Ｒ ハ　　 Ｒ トスル
 41
0.875
 11
14.746792
 21
180.970517
 31
0.0
100
AcDbText
 73
     1
  0
LINE
  5
CAF7
330
CAC7
100
AcDbEntity
  8
1
  6
Continuous
 62
     7
370
    30
100
AcDbLine
 10
13.684211
 20
185.5263159999999
 30
0.0
 11
72.77616899999999
 21
185.5263159999999
 31
0.0
  0
LINE
  5
CAF8
330
CAC7
100
AcDbEntity
  8
1
  6
Continuous
 62
     7
370
    30
100
AcDbLine
 10
72.77616899999999
 20
190.526316
 30
0.0
 11
72.77616899999999
 21
180.5263159999999
 31
0.0
  0
LINE
  5
CAF9
330
CAC7
100
AcDbEntity
  8
1
  6
Continuous
 62
     7
370
    30
100
AcDbLine
 10
72.77616899999999
 20
180.5263159999999
 30
0.0
 11
13.684211
 21
180.5263159999999
 31
0.0
  0
TEXT
  5
CAFA
330
CAC7
100
AcDbEntity
  8
1
  6
Continuous
 62
     7
370
    30
100
AcDbText
 10
237.841376
 20
8.71105
 30
0.0
 40
2.799999999999999
  1
作図・年・月・日
 41
0.714286
 11
237.841376
 21
8.71105
 31
0.0
100
AcDbText
 73
     1
  0
TEXT
  5
CAFB
330
CAC7
100
AcDbEntity
  8
1
  6
Continuous
 62
     7
370
    30
100
AcDbText
 10
267.8382
 20
28.728161
 30
0.0
 40
2.799999999999999
  1
作　図
 11
267.8382
 21
28.728161
 31
0.0
100
AcDbText
 73
     1
  0
TEXT
  5
CAFC
330
CAC7
100
AcDbEntity
  8
1
  6
Continuous
 62
     7
370
    30
100
AcDbText
 10
239.953009
 20
28.728161
 30
0.0
 40
2.799999999999999
  1
承　認
 11
239.953009
 21
28.728161
 31
0.0
100
AcDbText
 73
     1
  0
TEXT
  5
CAFD
330
CAC7
100
AcDbEntity
  8
2
  6
Continuous
 62
     7
370
     9
100
AcDbText
 10
27.684211
 20
35.652122
 30
0.0
 40
5.0
  1
ステンレス脱落防止ビス
 11
27.684211
 21
35.652122
 31
0.0
100
AcDbText
 73
     1
  0
TEXT
  5
CAFE
330
CAC7
100
AcDbEntity
  8
2
  6
Continuous
 62
     7
370
     9
100
AcDbText
 10
130.434211
 20
35.652122
 30
0.0
 40
5.0
  1
SDB
 41
0.5
 11
130.434211
 21
35.652122
 31
0.0
100
AcDbText
 73
     1
  0
TEXT
  5
CAFF
330
CAC7
100
AcDbEntity
  8
2
  6
Continuous
 62
     7
370
     9
100
AcDbText
 10
152.279388
 20
23.652122
 30
0.0
 40
5.0
  1
1/1
 41
0.5
 11
152.279388
 21
23.652122
 31
0.0
100
AcDbText
 73
     1
  0
TEXT
  5
CB00
330
CAC7
100
AcDbEntity
  8
2
  6
Continuous
 62
     7
370
     9
100
AcDbText
 10
268.723684
 20
17.652122
 30
0.0
 40
5.0
  1
H.M
 41
0.5
 11
268.723684
 21
17.652122
 31
0.0
100
AcDbText
 73
     1
  0
TEXT
  5
CB01
330
CAC7
100
AcDbEntity
  8
2
  6
Continuous
 62
     7
370
     9
100
AcDbText
 10
258.247465
 20
8.152122
 30
0.0
 40
4.0
  1
2012年6月1日
 41
0.5
 11
258.247465
 21
8.152122
 31
0.0
100
AcDbText
 73
     1
  0
INSERT
  5
CB02
330
CAC7
100
AcDbEntity
  8
0
  6
Continuous
 62
     7
370
     9
100
AcDbBlockReference
  2
*G1620
 10
0.0
 20
0.0
 30
0.0
  0
TEXT
  5
CB03
330
CAC7
100
AcDbEntity
  8
20
  6
Continuous
 62
    94
370
    30
100
AcDbText
 10
71.599329
 20
10.254603
 30
0.0
 40
8.0
  1
株式会社　宮川公製作所
 11
71.599329
 21
10.254603
 31
0.0
100
AcDbText
 73
     1
  0
ENDBLK
  5
CB04
330
CAC7
100
AcDbEntity
  8
0
100
AcDbBlockEnd
  0
BLOCK
  5
CB06
330
CB05
100
AcDbEntity
  8
0
  6
Continuous
 62
     7
370
     9
100
AcDbBlockBegin
  2
*G1620
 70
     0
 10
0.0
 20
0.0
 30
0.0
  3
*G1620
  1

  0
TEXT
  5
CB07
330
CB05
100
AcDbEntity
  8
2
  6
Continuous
 62
     7
370
     9
100
AcDbText
 10
74.554777
 20
184.715717
 30
0.0
 40
4.0
  1
バリ、カエリ無キ事
 11
74.554777
 21
184.715717
 31
0.0
100
AcDbText
 73
     1
  0
ENDBLK
  5
CB08
330
CB05
100
AcDbEntity
  8
0
100
AcDbBlockEnd
  0
BLOCK
  5
CE0B
330
CE0A
100
AcDbEntity
  8
0
100
AcDbBlockBegin
  2
*D21
 70
     1
 10
0.0
 20
0.0
 30
0.0
  3
*D21
  1

  0
LINE
  5
CE0C
330
CE0A
100
AcDbEntity
  8
1
  6
Continuous
 62
     3
370
    -2
100
AcDbLine
 10
422.2766693133519
 20
86.86917981880927
 30
0.0
 11
421.2766693133519
 21
86.86917981880927
 31
0.0
  0
LINE
  5
CE0D
330
CE0A
100
AcDbEntity
  8
1
  6
Continuous
 62
     3
370
    -2
100
AcDbLine
 10
422.2766693133519
 20
96.78203381880928
 30
0.0
 11
421.2766693133519
 21
96.78203381880928
 31
0.0
  0
LINE
  5
CE0E
330
CE0A
100
AcDbEntity
  8
1
  6
Continuous
 62
     3
370
    -2
100
AcDbLine
 10
423.2766693133519
 20
89.86917981880926
 30
0.0
 11
423.2766693133519
 21
93.78203381880927
 31
0.0
  0
INSERT
  5
CE0F
330
CE0A
100
AcDbEntity
  8
1
  6
Continuous
 62
     3
370
    -2
100
AcDbBlockReference
  2
_OPEN30
 10
423.2766693133519
 20
86.86917981880927
 30
0.0
 41
3.0
 42
3.0
 43
3.0
 50
270.0
  0
INSERT
  5
CE10
330
CE0A
100
AcDbEntity
  8
1
  6
Continuous
 62
     3
370
    -2
100
AcDbBlockReference
  2
_OPEN30
 10
423.2766693133519
 20
96.78203381880928
 30
0.0
 41
3.0
 42
3.0
 43
3.0
 50
90.0
  0
MTEXT
  5
CE11
330
CE0A
100
AcDbEntity
  8
1
  6
Continuous
 62
     2
370
     9
100
AcDbMText
 10
421.1766693133519
 20
91.82560681880934
 30
0.0
 40
2.799999999999999
 41
0.0
 71
     5
 72
     1
  1
\A1;φＦ
  7
DIM
 11
0.0000000000000001
 21
1.0
 31
0.0
 73
     1
 44
1.0
1001
ACAD
1000
MTEXTBEGIN
1070
    73
1070
     1
1070
    44
1040
1.0
1070
    74
1070
     0
1000
MTEXTEND
  0
POINT
  5
CE12
330
CE0A
100
AcDbEntity
  8
Defpoints
  6
Continuous
 62
     0
100
AcDbPoint
 10
423.2766693133519
 20
86.86917981880927
 30
0.0
  0
POINT
  5
CE13
330
CE0A
100
AcDbEntity
  8
Defpoints
  6
Continuous
 62
     0
100
AcDbPoint
 10
423.2766693133519
 20
96.78203381880928
 30
0.0
  0
POINT
  5
CE14
330
CE0A
100
AcDbEntity
  8
Defpoints
  6
Continuous
 62
     0
100
AcDbPoint
 10
423.2766693133519
 20
96.78203381880928
 30
0.0
  0
ENDBLK
  5
CE15
330
CE0A
100
AcDbEntity
  8
0
100
AcDbBlockEnd
  0
BLOCK
  5
CE17
330
CE16
100
AcDbEntity
  8
0
100
AcDbBlockBegin
  2
*D22
 70
     1
 10
0.0
 20
0.0
 30
0.0
  3
*D22
  1

  0
LINE
  5
CE18
330
CE16
100
AcDbEntity
  8
1
  6
Continuous
 62
     3
370
    -2
100
AcDbLine
 10
417.530440313352
 20
74.96917981880926
 30
0.0
 11
417.530440313352
 21
70.96917981880927
 31
0.0
  0
LINE
  5
CE19
330
CE16
100
AcDbEntity
  8
1
  6
Continuous
 62
     3
370
    -2
100
AcDbLine
 10
418.5304403133519
 20
74.96917981880926
 30
0.0
 11
418.5304403133519
 21
70.96917981880927
 31
0.0
  0
LINE
  5
CE1A
330
CE16
100
AcDbEntity
  8
1
  6
Continuous
 62
     3
370
    -2
100
AcDbLine
 10
414.5304403133519
 20
72.96917981880927
 30
0.0
 11
411.5304403133519
 21
72.96917981880927
 31
0.0
  0
LINE
  5
CE1B
330
CE16
100
AcDbEntity
  8
1
  6
Continuous
 62
     3
370
    -2
100
AcDbLine
 10
421.530440313352
 20
72.96917981880927
 30
0.0
 11
427.7971069800186
 21
72.96917981880927
 31
0.0
  0
LINE
  5
CE1C
330
CE16
100
AcDbEntity
  8
1
  6
Continuous
 62
     3
370
    -2
100
AcDbLine
 10
417.530440313352
 20
72.96917981880927
 30
0.0
 11
418.5304403133519
 21
72.96917981880927
 31
0.0
  0
INSERT
  5
CE1D
330
CE16
100
AcDbEntity
  8
1
  6
Continuous
 62
     3
370
    -2
100
AcDbBlockReference
  2
_OPEN30
 10
417.530440313352
 20
72.96917981880927
 30
0.0
 41
3.0
 42
3.0
 43
3.0
  0
INSERT
  5
CE1E
330
CE16
100
AcDbEntity
  8
1
  6
Continuous
 62
     3
370
    -2
100
AcDbBlockReference
  2
_OPEN30
 10
418.5304403133519
 20
72.96917981880927
 30
0.0
 41
3.0
 42
3.0
 43
3.0
 50
180.0
  0
MTEXT
  5
CE1F
330
CE16
100
AcDbEntity
  8
1
  6
Continuous
 62
     2
370
     9
100
AcDbMText
 10
426.1637736466853
 20
75.06917981880926
 30
0.0
 40
2.799999999999999
 41
0.0
 71
     5
 72
     1
  1
\A1;Ｋ
  7
DIM
 73
     1
 44
1.0
1001
ACAD
1000
MTEXTBEGIN
1070
    73
1070
     1
1070
    44
1040
1.0
1070
    74
1070
     0
1000
MTEXTEND
  0
POINT
  5
CE20
330
CE16
100
AcDbEntity
  8
Defpoints
  6
Continuous
 62
     0
100
AcDbPoint
 10
417.530440313352
 20
75.96917981880927
 30
0.0
  0
POINT
  5
CE21
330
CE16
100
AcDbEntity
  8
Defpoints
  6
Continuous
 62
     0
100
AcDbPoint
 10
418.5304403133519
 20
75.96917981880927
 30
0.0
  0
POINT
  5
CE22
330
CE16
100
AcDbEntity
  8
Defpoints
  6
Continuous
 62
     0
100
AcDbPoint
 10
418.5304403133519
 20
72.96917981880927
 30
0.0
  0
ENDBLK
  5
CE23
330
CE16
100
AcDbEntity
  8
0
100
AcDbBlockEnd
  0
BLOCK
  5
CE25
330
CE24
100
AcDbEntity
  8
0
100
AcDbBlockBegin
  2
*D23
 70
     1
 10
0.0
 20
0.0
 30
0.0
  3
*D23
  1

  0
LINE
  5
CE26
330
CE24
100
AcDbEntity
  8
1
  6
Continuous
 62
     3
370
    -2
100
AcDbLine
 10
415.5304403133519
 20
90.96917981880928
 30
0.0
 11
411.740992313352
 21
90.96917981880928
 31
0.0
  0
LINE
  5
CE27
330
CE24
100
AcDbEntity
  8
1
  6
Continuous
 62
     3
370
    -2
100
AcDbLine
 10
415.5304403133519
 20
76.96917981880928
 30
0.0
 11
411.740992313352
 21
76.96917981880928
 31
0.0
  0
LINE
  5
CE28
330
CE24
100
AcDbEntity
  8
1
  6
Continuous
 62
     3
370
    -2
100
AcDbLine
 10
413.7409923133519
 20
87.96917981880929
 30
0.0
 11
413.7409923133519
 21
79.96917981880928
 31
0.0
  0
INSERT
  5
CE29
330
CE24
100
AcDbEntity
  8
1
  6
Continuous
 62
     3
370
    -2
100
AcDbBlockReference
  2
_OPEN30
 10
413.7409923133519
 20
90.96917981880928
 30
0.0
 41
3.0
 42
3.0
 43
3.0
 50
90.0
  0
INSERT
  5
CE2A
330
CE24
100
AcDbEntity
  8
1
  6
Continuous
 62
     3
370
    -2
100
AcDbBlockReference
  2
_OPEN30
 10
413.7409923133519
 20
76.96917981880928
 30
0.0
 41
3.0
 42
3.0
 43
3.0
 50
270.0
  0
POINT
  5
CE2B
330
CE24
100
AcDbEntity
  8
Defpoints
  6
Continuous
 62
     0
100
AcDbPoint
 10
416.5304403133519
 20
90.96917981880926
 30
0.0
  0
POINT
  5
CE2C
330
CE24
100
AcDbEntity
  8
Defpoints
  6
Continuous
 62
     0
100
AcDbPoint
 10
416.5304403133519
 20
76.96917981880926
 30
0.0
  0
POINT
  5
CE2D
330
CE24
100
AcDbEntity
  8
Defpoints
  6
Continuous
 62
     0
100
AcDbPoint
 10
413.7409923133519
 20
76.96917981880928
 30
0.0
  0
ENDBLK
  5
CE2E
330
CE24
100
AcDbEntity
  8
0
100
AcDbBlockEnd
  0
BLOCK
  5
CE30
330
CE2F
100
AcDbEntity
  8
0
100
AcDbBlockBegin
  2
*D24
 70
     1
 10
0.0
 20
0.0
 30
0.0
  3
*D24
  1

  0
LINE
  5
CE31
330
CE2F
100
AcDbEntity
  8
1
  6
Continuous
 62
     3
370
    -2
100
AcDbLine
 10
422.2766693133519
 20
86.86917981880927
 30
0.0
 11
421.2766693133519
 21
86.86917981880927
 31
0.0
  0
LINE
  5
CE32
330
CE2F
100
AcDbEntity
  8
1
  6
Continuous
 62
     3
370
    -2
100
AcDbLine
 10
422.2766693133519
 20
81.06917981880927
 30
0.0
 11
421.2766693133519
 21
81.06917981880927
 31
0.0
  0
LINE
  5
CE33
330
CE2F
100
AcDbEntity
  8
1
  6
Continuous
 62
     3
370
    -2
100
AcDbLine
 10
423.2766693133519
 20
89.86917981880926
 30
0.0
 11
423.2766693133519
 21
92.86917981880927
 31
0.0
  0
LINE
  5
CE34
330
CE2F
100
AcDbEntity
  8
1
  6
Continuous
 62
     3
370
    -2
100
AcDbLine
 10
423.2766693133519
 20
78.06917981880928
 30
0.0
 11
423.2766693133519
 21
73.66917981880927
 31
0.0
  0
LINE
  5
CE35
330
CE2F
100
AcDbEntity
  8
1
  6
Continuous
 62
     3
370
    -2
100
AcDbLine
 10
423.2766693133519
 20
86.86917981880927
 30
0.0
 11
423.2766693133519
 21
81.06917981880927
 31
0.0
  0
INSERT
  5
CE36
330
CE2F
100
AcDbEntity
  8
1
  6
Continuous
 62
     3
370
    -2
100
AcDbBlockReference
  2
_OPEN30
 10
423.2766693133519
 20
86.86917981880927
 30
0.0
 41
3.0
 42
3.0
 43
3.0
 50
270.0
  0
INSERT
  5
CE37
330
CE2F
100
AcDbEntity
  8
1
  6
Continuous
 62
     3
370
    -2
100
AcDbBlockReference
  2
_OPEN30
 10
423.2766693133519
 20
81.06917981880927
 30
0.0
 41
3.0
 42
3.0
 43
3.0
 50
90.0
  0
POINT
  5
CE38
330
CE2F
100
AcDbEntity
  8
Defpoints
  6
Continuous
 62
     0
100
AcDbPoint
 10
423.2766693133519
 20
86.86917981880927
 30
0.0
  0
POINT
  5
CE39
330
CE2F
100
AcDbEntity
  8
Defpoints
  6
Continuous
 62
     0
100
AcDbPoint
 10
423.2766693133519
 20
81.06917981880927
 30
0.0
  0
POINT
  5
CE3A
330
CE2F
100
AcDbEntity
  8
Defpoints
  6
Continuous
 62
     0
100
AcDbPoint
 10
423.2766693133519
 20
81.06917981880927
 30
0.0
  0
ENDBLK
  5
CE3B
330
CE2F
100
AcDbEntity
  8
0
100
AcDbBlockEnd
  0
BLOCK
  5
CE3D
330
CE3C
100
AcDbEntity
  8
0
100
AcDbBlockBegin
  2
*D25
 70
     1
 10
0.0
 20
0.0
 30
0.0
  3
*D25
  1

  0
LINE
  5
CE3E
330
CE3C
100
AcDbEntity
  8
1
  6
Continuous
 62
     3
370
    -2
100
AcDbLine
 10
431.3460193133519
 20
89.96917981880926
 30
0.0
 11
426.4908213133519
 21
89.96917981880926
 31
0.0
  0
LINE
  5
CE3F
330
CE3C
100
AcDbEntity
  8
1
  6
Continuous
 62
     3
370
    -2
100
AcDbLine
 10
431.3460193133519
 20
77.96918081880928
 30
0.0
 11
426.4908213133519
 21
77.96918081880928
 31
0.0
  0
LINE
  5
CE40
330
CE3C
100
AcDbEntity
  8
1
  6
Continuous
 62
     3
370
    -2
100
AcDbLine
 10
428.4908213133519
 20
86.96917981880927
 30
0.0
 11
428.4908213133519
 21
80.96918081880927
 31
0.0
  0
INSERT
  5
CE41
330
CE3C
100
AcDbEntity
  8
1
  6
Continuous
 62
     3
370
    -2
100
AcDbBlockReference
  2
_OPEN30
 10
428.4908213133519
 20
89.96917981880926
 30
0.0
 41
3.0
 42
3.0
 43
3.0
 50
90.0
  0
INSERT
  5
CE42
330
CE3C
100
AcDbEntity
  8
1
  6
Continuous
 62
     3
370
    -2
100
AcDbBlockReference
  2
_OPEN30
 10
428.4908213133519
 20
77.96918081880928
 30
0.0
 41
3.0
 42
3.0
 43
3.0
 50
270.0
  0
POINT
  5
CE43
330
CE3C
100
AcDbEntity
  8
Defpoints
  6
Continuous
 62
     0
100
AcDbPoint
 10
432.3460193133519
 20
89.96917981880926
 30
0.0
  0
POINT
  5
CE44
330
CE3C
100
AcDbEntity
  8
Defpoints
  6
Continuous
 62
     0
100
AcDbPoint
 10
432.3460193133519
 20
77.96918081880928
 30
0.0
  0
POINT
  5
CE45
330
CE3C
100
AcDbEntity
  8
Defpoints
  6
Continuous
 62
     0
100
AcDbPoint
 10
428.4908213133519
 20
77.96918081880928
 30
0.0
  0
ENDBLK
  5
CE46
330
CE3C
100
AcDbEntity
  8
0
100
AcDbBlockEnd
  0
BLOCK
  5
CE89
330
CE47
100
AcDbEntity
  8
0
100
AcDbBlockBegin
  2
A$C08147611
 70
     0
 10
0.0
 20
0.0
 30
0.0
  3
A$C08147611
  1

  0
LINE
  5
CE48
330
CE47
100
AcDbEntity
  8
1
  6
Continuous
 62
     7
370
    30
100
AcDbLine
 10
22.30940099999998
 20
4.0
 30
0.0
 11
2.309400999999979
 21
4.0
 31
0.0
  0
LINE
  5
CE49
330
CE47
100
AcDbEntity
  8
1
  6
Continuous
 62
     7
370
    30
100
AcDbLine
 10
2.309400999999979
 20
-4.0
 30
0.0
 11
22.30940099999998
 21
-4.0
 31
0.0
  0
LINE
  5
CE4A
330
CE47
100
AcDbEntity
  8
1
  6
Continuous
 62
     7
370
    30
100
AcDbLine
 10
55.34442300000001
 20
1.0
 30
0.0
 11
57.34442300000001
 21
1.0
 31
0.0
  0
LINE
  5
CE4B
330
CE47
100
AcDbEntity
  8
1
  6
Continuous
 62
     7
370
    30
100
AcDbLine
 10
51.344423
 20
-11.0
 30
0.0
 11
51.344423
 21
11.0
 31
0.0
  0
LINE
  5
CE4C
330
CE47
100
AcDbEntity
  8
1
  6
Continuous
 62
     7
370
    30
100
AcDbLine
 10
22.30940099999998
 20
-4.0
 30
0.0
 11
22.30940099999998
 21
4.0
 31
0.0
  0
LINE
  5
CE4D
330
CE47
100
AcDbEntity
  8
1
  6
Continuous
 62
     7
370
    30
100
AcDbLine
 10
2.309400999999979
 20
4.0
 30
0.0
 11
0.0
 21
0.0
 31
0.0
  0
LINE
  5
CE4E
330
CE47
100
AcDbEntity
  8
1
  6
Continuous
 62
     7
370
    30
100
AcDbLine
 10
2.309400999999979
 20
-4.0
 30
0.0
 11
0.0
 21
0.0
 31
0.0
  0
ARC
  5
CE4F
330
CE47
100
AcDbEntity
  8
1
  6
Continuous
 62
     7
370
    30
100
AcDbCircle
 10
43.77452199999999
 20
-13.58777799999998
 30
0.0
 40
8.0
100
AcDbArc
 50
18.87304899999971
 51
71.52686999999993
  0
ARC
  5
CE50
330
CE47
100
AcDbEntity
  8
1
  6
Continuous
 62
     7
370
    30
100
AcDbCircle
 10
43.77452199999999
 20
13.58777900000001
 30
0.0
 40
8.0
100
AcDbArc
 50
288.4731300000001
 51
341.1269510000003
  0
LINE
  5
CE51
330
CE47
100
AcDbEntity
  8
1
  6
Continuous
 62
     7
370
    30
100
AcDbLine
 10
46.30940099999998
 20
-6.0
 30
0.0
 11
46.30940099999998
 21
6.0
 31
0.0
  0
LINE
  5
CE52
330
CE47
100
AcDbEntity
  8
1
  6
Continuous
 62
     7
370
    30
100
AcDbLine
 10
56.344423
 20
1.0
 30
0.0
 11
56.344423
 21
11.0
 31
0.0
  0
LINE
  5
CE53
330
CE47
100
AcDbEntity
  8
1
  6
Continuous
 62
     7
370
    30
100
AcDbLine
 10
57.34442300000001
 20
1.0
 30
0.0
 11
57.34442300000001
 21
10.0
 31
0.0
  0
LINE
  5
CE54
330
CE47
100
AcDbEntity
  8
1
  6
Continuous
 62
     7
370
    30
100
AcDbLine
 10
57.34442300000001
 20
-1.0
 30
0.0
 11
55.34442300000001
 21
-1.0
 31
0.0
  0
LINE
  5
CE55
330
CE47
100
AcDbEntity
  8
1
  6
Continuous
 62
     7
370
    30
100
AcDbLine
 10
55.34442300000001
 20
-1.0
 30
0.0
 11
55.34442300000001
 21
1.0
 31
0.0
  0
LINE
  5
CE56
330
CE47
100
AcDbEntity
  8
1
  6
Continuous
 62
     7
370
    30
100
AcDbLine
 10
56.344423
 20
-11.0
 30
0.0
 11
57.34442300000001
 21
-10.0
 31
0.0
  0
LINE
  5
CE57
330
CE47
100
AcDbEntity
  8
1
  6
Continuous
 62
     7
370
    30
100
AcDbLine
 10
57.34442300000001
 20
10.0
 30
0.0
 11
56.344423
 21
11.0
 31
0.0
  0
LINE
  5
CE58
330
CE47
100
AcDbEntity
  8
1
  6
Continuous
 62
     7
370
    30
100
AcDbLine
 10
56.344423
 20
-11.0
 30
0.0
 11
56.344423
 21
-1.0
 31
0.0
  0
LINE
  5
CE59
330
CE47
100
AcDbEntity
  8
1
  6
Continuous
 62
     7
370
    30
100
AcDbLine
 10
57.34442300000001
 20
-10.0
 30
0.0
 11
57.34442300000001
 21
-1.0
 31
0.0
  0
LINE
  5
CE5A
330
CE47
100
AcDbEntity
  8
1
  6
Continuous
 62
     7
370
    30
100
AcDbLine
 10
55.34442300000001
 20
0.0
 30
0.0
 11
51.344423
 21
0.0
 31
0.0
  0
LINE
  5
CE5B
330
CE47
100
AcDbEntity
  8
1
  6
Continuous
 62
     7
370
    30
100
AcDbLine
 10
56.344423
 20
10.90589400000002
 30
0.0
 11
51.344423
 21
10.90589400000002
 31
0.0
  0
LINE
  5
CE5C
330
CE47
100
AcDbEntity
  8
1
  6
Continuous
 62
     7
370
    30
100
AcDbLine
 10
56.344423
 20
10.625185
 30
0.0
 11
51.344423
 21
10.625185
 31
0.0
  0
LINE
  5
CE5D
330
CE47
100
AcDbEntity
  8
1
  6
Continuous
 62
     7
370
    30
100
AcDbLine
 10
56.344423
 20
10.162675
 30
0.0
 11
51.344423
 21
10.162675
 31
0.0
  0
LINE
  5
CE5E
330
CE47
100
AcDbEntity
  8
1
  6
Continuous
 62
     7
370
    30
100
AcDbLine
 10
56.344423
 20
9.526280000000014
 30
0.0
 11
51.344423
 21
9.526280000000014
 31
0.0
  0
LINE
  5
CE5F
330
CE47
100
AcDbEntity
  8
1
  6
Continuous
 62
     7
370
    30
100
AcDbLine
 10
56.344423
 20
8.726887000000004
 30
0.0
 11
51.344423
 21
8.726887000000004
 31
0.0
  0
LINE
  5
CE60
330
CE47
100
AcDbEntity
  8
1
  6
Continuous
 62
     7
370
    30
100
AcDbLine
 10
56.344423
 20
7.778175000000004
 30
0.0
 11
51.344423
 21
7.778175000000004
 31
0.0
  0
LINE
  5
CE61
330
CE47
100
AcDbEntity
  8
1
  6
Continuous
 62
     7
370
    30
100
AcDbLine
 10
56.344423
 20
6.696376
 30
0.0
 11
51.344423
 21
6.696376
 31
0.0
  0
LINE
  5
CE62
330
CE47
100
AcDbEntity
  8
1
  6
Continuous
 62
     7
370
    30
100
AcDbLine
 10
56.344423
 20
5.5
 30
0.0
 11
51.344423
 21
5.5
 31
0.0
  0
LINE
  5
CE63
330
CE47
100
AcDbEntity
  8
1
  6
Continuous
 62
     7
370
    30
100
AcDbLine
 10
56.344423
 20
4.209518000000016
 30
0.0
 11
51.344423
 21
4.209518000000016
 31
0.0
  0
LINE
  5
CE64
330
CE47
100
AcDbEntity
  8
1
  6
Continuous
 62
     7
370
    30
100
AcDbLine
 10
56.344423
 20
2.847009999999997
 30
0.0
 11
51.344423
 21
2.847009999999997
 31
0.0
  0
LINE
  5
CE65
330
CE47
100
AcDbEntity
  8
1
  6
Continuous
 62
     7
370
    30
100
AcDbLine
 10
56.344423
 20
1.435789000000013
 30
0.0
 11
51.344423
 21
1.435789000000013
 31
0.0
  0
LINE
  5
CE66
330
CE47
100
AcDbEntity
  8
1
  6
Continuous
 62
     7
370
    30
100
AcDbLine
 10
55.34442300000001
 20
0.0
 30
0.0
 11
51.344423
 21
0.0
 31
0.0
  0
LINE
  5
CE67
330
CE47
100
AcDbEntity
  8
1
  6
Continuous
 62
     7
370
    30
100
AcDbLine
 10
56.344423
 20
-1.435787999999988
 30
0.0
 11
51.344423
 21
-1.435787999999988
 31
0.0
  0
LINE
  5
CE68
330
CE47
100
AcDbEntity
  8
1
  6
Continuous
 62
     7
370
    30
100
AcDbLine
 10
56.344423
 20
-2.847008999999985
 30
0.0
 11
51.344423
 21
-2.847008999999985
 31
0.0
  0
LINE
  5
CE69
330
CE47
100
AcDbEntity
  8
1
  6
Continuous
 62
     7
370
    30
100
AcDbLine
 10
56.344423
 20
-4.209516999999991
 30
0.0
 11
51.344423
 21
-4.209516999999991
 31
0.0
  0
LINE
  5
CE6A
330
CE47
100
AcDbEntity
  8
1
  6
Continuous
 62
     7
370
    30
100
AcDbLine
 10
56.344423
 20
-5.5
 30
0.0
 11
51.344423
 21
-5.5
 31
0.0
  0
LINE
  5
CE6B
330
CE47
100
AcDbEntity
  8
1
  6
Continuous
 62
     7
370
    30
100
AcDbLine
 10
56.344423
 20
-6.696374999999989
 30
0.0
 11
51.344423
 21
-6.696374999999989
 31
0.0
  0
LINE
  5
CE6C
330
CE47
100
AcDbEntity
  8
1
  6
Continuous
 62
     7
370
    30
100
AcDbLine
 10
56.344423
 20
-7.778173999999992
 30
0.0
 11
51.344423
 21
-7.778173999999992
 31
0.0
  0
LINE
  5
CE6D
330
CE47
100
AcDbEntity
  8
1
  6
Continuous
 62
     7
370
    30
100
AcDbLine
 10
56.344423
 20
-8.726885999999993
 30
0.0
 11
51.344423
 21
-8.726885999999993
 31
0.0
  0
LINE
  5
CE6E
330
CE47
100
AcDbEntity
  8
1
  6
Continuous
 62
     7
370
    30
100
AcDbLine
 10
56.344423
 20
-9.526278999999988
 30
0.0
 11
51.344423
 21
-9.526278999999988
 31
0.0
  0
LINE
  5
CE6F
330
CE47
100
AcDbEntity
  8
1
  6
Continuous
 62
     7
370
    30
100
AcDbLine
 10
56.344423
 20
-10.16267399999999
 30
0.0
 11
51.344423
 21
-10.16267399999999
 31
0.0
  0
LINE
  5
CE70
330
CE47
100
AcDbEntity
  8
1
  6
Continuous
 62
     7
370
    30
100
AcDbLine
 10
56.344423
 20
-10.62518399999999
 30
0.0
 11
51.344423
 21
-10.62518399999999
 31
0.0
  0
LINE
  5
CE71
330
CE47
100
AcDbEntity
  8
1
  6
Continuous
 62
     7
370
    30
100
AcDbLine
 10
51.344423
 20
-11.0
 30
0.0
 11
56.344423
 21
-11.0
 31
0.0
  0
LINE
  5
CE72
330
CE47
100
AcDbEntity
  8
1
  6
Continuous
 62
     7
370
    30
100
AcDbLine
 10
51.344423
 20
11.0
 30
0.0
 11
56.344423
 21
11.0
 31
0.0
  0
LINE
  5
CE73
330
CE47
100
AcDbEntity
  8
1
  6
Continuous
 62
     7
370
    30
100
AcDbLine
 10
56.344423
 20
-10.90589299999999
 30
0.0
 11
51.344423
 21
-10.90589299999999
 31
0.0
  0
LINE
  5
CE74
330
CE47
100
AcDbEntity
  8
1
  6
Continuous
 62
     7
370
     9
100
AcDbLine
 10
22.30940099999998
 20
3.323500000000009
 30
0.0
 11
2.309400999999979
 21
3.323500000000009
 31
0.0
  0
LINE
  5
CE75
330
CE47
100
AcDbEntity
  8
1
  6
Continuous
 62
     7
370
     9
100
AcDbLine
 10
22.30940099999998
 20
-3.323499999999995
 30
0.0
 11
2.309400999999979
 21
-3.323499999999995
 31
0.0
  0
LINE
  5
CE76
330
CE47
100
AcDbEntity
  8
1
  6
CENTER
 62
     7
370
     9
100
AcDbLine
 10
61.80346599999996
 20
0.0
 30
0.0
 11
-2.567084000000022
 21
0.0
 31
0.0
  0
LINE
  5
CE77
330
CE47
100
AcDbEntity
  8
1
  6
Continuous
 62
     7
370
    30
100
AcDbLine
 10
2.309400999999979
 20
4.0
 30
0.0
 11
2.309400999999979
 21
-4.0
 31
0.0
  0
LINE
  5
CE78
330
CE47
100
AcDbEntity
  8
1
  6
Continuous
 62
     7
370
    30
100
AcDbLine
 10
31.49382200000002
 20
2.900000000000005
 30
0.0
 11
46.30940099999998
 21
2.900000000000005
 31
0.0
  0
LINE
  5
CE79
330
CE47
100
AcDbEntity
  8
1
  6
Continuous
 62
     7
370
    30
100
AcDbLine
 10
30.49382200000002
 20
-2.899999999999991
 30
0.0
 11
22.30940099999998
 21
-2.899999999999991
 31
0.0
  0
LINE
  5
CE7A
330
CE47
100
AcDbEntity
  8
1
  6
Continuous
 62
     7
370
    30
100
AcDbLine
 10
31.49382200000002
 20
7.0
 30
0.0
 11
31.49382200000002
 21
-7.0
 31
0.0
  0
LINE
  5
CE7B
330
CE47
100
AcDbEntity
  8
1
  6
Continuous
 62
     7
370
    30
100
AcDbLine
 10
30.49382200000002
 20
7.0
 30
0.0
 11
31.49382200000002
 21
7.0
 31
0.0
  0
LINE
  5
CE7C
330
CE47
100
AcDbEntity
  8
1
  6
Continuous
 62
     7
370
    30
100
AcDbLine
 10
30.49382200000002
 20
-7.0
 30
0.0
 11
30.49382200000002
 21
7.0
 31
0.0
  0
LINE
  5
CE7D
330
CE47
100
AcDbEntity
  8
1
  6
Continuous
 62
     7
370
    30
100
AcDbLine
 10
31.49382200000002
 20
-7.0
 30
0.0
 11
30.49382200000002
 21
-7.0
 31
0.0
  0
LINE
  5
CE7E
330
CE47
100
AcDbEntity
  8
1
  6
Continuous
 62
     7
370
    30
100
AcDbLine
 10
22.30940099999998
 20
2.900000000000005
 30
0.0
 11
30.49382200000002
 21
2.900000000000005
 31
0.0
  0
LINE
  5
CE7F
330
CE47
100
AcDbEntity
  8
1
  6
Continuous
 62
     7
370
    30
100
AcDbLine
 10
46.30940099999998
 20
-2.899999999999991
 30
0.0
 11
31.49382200000002
 21
-2.899999999999991
 31
0.0
  0
DIMENSION
  5
CE80
330
CE47
100
AcDbEntity
  8
1
  6
Continuous
 62
     7
370
     9
100
AcDbDimension
  2
*D21
 10
36.240051
 20
12.81285400000001
 30
0.0
 11
34.14005099999997
 21
7.856427000000081
 31
0.0
 12
-387.036618313352
 22
-83.96917981880926
 32
0.0
  1
φＦ
 71
     5
 42
9.91285400000001
  3
STANDARD
100
AcDbAlignedDimension
 13
36.240051
 23
2.900000000000005
 33
0.0
 14
36.240051
 24
12.81285400000001
 34
0.0
 50
90.0
100
AcDbRotatedDimension
  0
DIMENSION
  5
CE81
330
CE47
100
AcDbEntity
  8
1
  6
Continuous
 62
     7
370
     9
100
AcDbDimension
  2
*D22
 10
31.49382200000002
 20
-11.0
 30
0.0
 11
39.12715533333335
 21
-8.900000000000005
 31
0.0
 12
-387.036618313352
 22
-83.96917981880926
 32
0.0
  1
Ｋ
 71
     5
  3
STANDARD
100
AcDbAlignedDimension
 13
30.49382200000002
 23
-8.0
 33
0.0
 14
31.49382200000002
 24
-8.0
 34
0.0
100
AcDbRotatedDimension
  0
CIRCLE
  5
CE82
330
CE47
100
AcDbEntity
  8
1
  6
Continuous
 62
     7
370
     9
100
AcDbCircle
 10
31.02727900000002
 20
-6.30457299999999
 30
0.0
 40
0.3
  0
CIRCLE
  5
CE83
330
CE47
100
AcDbEntity
  8
1
  6
Continuous
 62
     7
370
     9
100
AcDbCircle
 10
31.02727900000002
 20
-6.30457299999999
 30
0.0
 40
0.15
  0
DIMENSION
  5
CE84
330
CE47
100
AcDbEntity
  8
1
  6
Continuous
 62
     7
370
     9
100
AcDbDimension
  2
*D23
 10
26.70437400000003
 20
-6.999999999999985
 30
0.0
 11
26.70437400000003
 21
0.0000000000000711
 31
0.0
 12
-387.036618313352
 22
-83.96917981880926
 32
0.0
  1
 
 71
     5
 42
14.0
  3
STANDARD
100
AcDbAlignedDimension
 13
29.49382200000002
 23
7.0
 33
0.0
 14
29.49382200000002
 24
-7.0
 34
0.0
 50
90.0
100
AcDbRotatedDimension
  0
DIMENSION
  5
CE85
330
CE47
100
AcDbEntity
  8
1
  6
Continuous
 62
     7
370
     9
100
AcDbDimension
  2
*D24
 10
36.240051
 20
-2.899999999999991
 30
0.0
 11
36.240051
 21
-9.599999999999923
 31
0.0
 12
-387.036618313352
 22
-83.96917981880926
 32
0.0
  1
 
 71
     5
 42
5.799999999999997
  3
STANDARD
100
AcDbAlignedDimension
 13
36.240051
 23
2.900000000000005
 33
0.0
 14
36.240051
 24
-2.899999999999991
 34
0.0
 50
90.0
100
AcDbRotatedDimension
  0
DIMENSION
  5
CE86
330
CE47
100
AcDbEntity
  8
1
  6
Continuous
 62
     7
370
     9
100
AcDbDimension
  2
*D25
 10
41.454203
 20
-5.999998999999988
 30
0.0
 11
41.454203
 21
0.000000500000084
 31
0.0
 12
-387.036618313352
 22
-83.96917981880926
 32
0.0
  1
 
 71
     5
 42
11.99999899999999
  3
STANDARD
100
AcDbAlignedDimension
 13
45.30940099999997
 23
6.0
 33
0.0
 14
45.30940099999997
 24
-5.999998999999988
 34
0.0
 50
90.0
100
AcDbRotatedDimension
  0
ENDBLK
  5
CE8A
330
CE47
100
AcDbEntity
  8
0
100
AcDbBlockEnd
  0
BLOCK
  5
D125
330
D124
100
AcDbEntity
  8
0
100
AcDbBlockBegin
  2
*D27
 70
     1
 10
0.0
 20
0.0
 30
0.0
  3
*D27
  1

  0
LINE
  5
D1B1
330
D124
100
AcDbEntity
  8
AM_5
100
AcDbLine
 10
147.3053063096108
 20
89.15462828746568
 30
0.0
 11
124.3053063096108
 21
89.15462828746568
 31
0.0
  0
LINE
  5
D1B2
330
D124
100
AcDbEntity
  8
AM_5
100
AcDbLine
 10
147.3053063096108
 20
67.15462828746566
 30
0.0
 11
124.3053063096108
 21
67.15462828746566
 31
0.0
  0
LINE
  5
D1B3
330
D124
100
AcDbEntity
  8
AM_5
100
AcDbLine
 10
125.3053063096108
 20
88.15462828746566
 30
0.0
 11
125.3053063096108
 21
68.15462828746567
 31
0.0
  0
INSERT
  5
D1B4
330
D124
100
AcDbEntity
  8
AM_5
100
AcDbBlockReference
  2
_Dot
 10
125.3053063096108
 20
89.15462828746568
 30
0.0
 50
90.0
  0
INSERT
  5
D1B5
330
D124
100
AcDbEntity
  8
AM_5
100
AcDbBlockReference
  2
_Dot
 10
125.3053063096108
 20
67.15462828746566
 30
0.0
 50
270.0
  0
MTEXT
  5
D1B6
330
D124
100
AcDbEntity
  8
AM_5
 62
     2
100
AcDbMText
 10
122.2053063096107
 20
78.15462828746568
 30
0.0
 40
3.200000000000001
 41
0.0
 71
     5
 72
     1
  1
%%cA
 11
0.0000000000000001
 21
1.0
 31
0.0
 73
     1
 44
1.0
1001
ACAD
1000
MTEXTBEGIN
1070
    73
1070
     1
1070
    44
1040
1.0
1070
    74
1070
     0
1000
MTEXTEND
  0
POINT
  5
D1B7
330
D124
100
AcDbEntity
  8
Defpoints
 62
     0
100
AcDbPoint
 10
148.3053063096108
 20
89.15462828746568
 30
0.0
  0
POINT
  5
D1B8
330
D124
100
AcDbEntity
  8
Defpoints
 62
     0
100
AcDbPoint
 10
148.3053063096108
 20
67.15462828746566
 30
0.0
  0
POINT
  5
D1B9
330
D124
100
AcDbEntity
  8
Defpoints
 62
     0
100
AcDbPoint
 10
125.3053063096108
 20
67.15462828746566
 30
0.0
  0
ENDBLK
  5
D126
330
D124
100
AcDbEntity
  8
0
100
AcDbBlockEnd
  0
BLOCK
  5
D131
330
D130
100
AcDbEntity
  8
0
100
AcDbBlockBegin
  2
*D28
 70
     1
 10
0.0
 20
0.0
 30
0.0
  3
*D28
  1

  0
LINE
  5
D1BA
330
D130
100
AcDbEntity
  8
AM_5
100
AcDbLine
 10
147.3053063096108
 20
89.15462828746568
 30
0.0
 11
147.3053063096108
 21
98.15462828746568
 31
0.0
  0
LINE
  5
D1BB
330
D130
100
AcDbEntity
  8
AM_5
100
AcDbLine
 10
149.3053063096108
 20
80.05462828746571
 30
0.0
 11
149.3053063096108
 21
98.15462828746568
 31
0.0
  0
LINE
  5
D1BC
330
D130
100
AcDbEntity
  8
AM_5
100
AcDbLine
 10
146.3053063096108
 20
97.15462828746568
 30
0.0
 11
145.3053063096108
 21
97.15462828746568
 31
0.0
  0
LINE
  5
D1BD
330
D130
100
AcDbEntity
  8
AM_5
100
AcDbLine
 10
150.3053063096108
 20
97.15462828746568
 30
0.0
 11
159.0839729762774
 21
97.15462828746568
 31
0.0
  0
LINE
  5
D1BE
330
D130
100
AcDbEntity
  8
AM_5
100
AcDbLine
 10
147.3053063096108
 20
97.15462828746568
 30
0.0
 11
149.3053063096108
 21
97.15462828746568
 31
0.0
  0
INSERT
  5
D1BF
330
D130
100
AcDbEntity
  8
AM_5
100
AcDbBlockReference
  2
_Dot
 10
147.3053063096108
 20
97.15462828746568
 30
0.0
  0
INSERT
  5
D1C0
330
D130
100
AcDbEntity
  8
AM_5
100
AcDbBlockReference
  2
_Dot
 10
149.3053063096108
 20
97.15462828746568
 30
0.0
 50
180.0
  0
MTEXT
  5
D1C1
330
D130
100
AcDbEntity
  8
AM_5
 62
     2
100
AcDbMText
 10
155.1946396429441
 20
100.2546282874656
 30
0.0
 40
3.200000000000001
 41
0.0
 71
     5
 72
     1
  1
（Ｉ）
 73
     1
 44
1.0
1001
ACAD
1000
MTEXTBEGIN
1070
    73
1070
     1
1070
    44
1040
1.0
1070
    74
1070
     0
1000
MTEXTEND
  0
POINT
  5
D1C2
330
D130
100
AcDbEntity
  8
Defpoints
 62
     0
100
AcDbPoint
 10
147.3053063096108
 20
88.15462828746566
 30
0.0
  0
POINT
  5
D1C3
330
D130
100
AcDbEntity
  8
Defpoints
 62
     0
100
AcDbPoint
 10
149.3053063096108
 20
79.0546282874657
 30
0.0
  0
POINT
  5
D1C4
330
D130
100
AcDbEntity
  8
Defpoints
 62
     0
100
AcDbPoint
 10
149.3053063096108
 20
97.15462828746568
 30
0.0
  0
ENDBLK
  5
D132
330
D130
100
AcDbEntity
  8
0
100
AcDbBlockEnd
  0
BLOCK
  5
D13F
330
D13E
100
AcDbEntity
  8
0
100
AcDbBlockBegin
  2
*D29
 70
     1
 10
0.0
 20
0.0
 30
0.0
  3
*D29
  1

  0
LINE
  5
D1C5
330
D13E
100
AcDbEntity
  8
AM_5
100
AcDbLine
 10
159.3403283096108
 20
75.25462828746569
 30
0.0
 11
171.2687240713749
 21
75.25462828746568
 31
0.0
  0
LINE
  5
D1C6
330
D13E
100
AcDbEntity
  8
AM_5
100
AcDbLine
 10
159.3403283096108
 20
81.05462828746567
 30
0.0
 11
171.2687240713749
 21
81.05462828746565
 31
0.0
  0
LINE
  5
D1C7
330
D13E
100
AcDbEntity
  8
AM_5
100
AcDbLine
 10
170.2687240713749
 20
80.05462828746566
 30
0.0
 11
170.2687240713749
 21
76.25462828746568
 31
0.0
  0
LINE
  5
D1C8
330
D13E
100
AcDbEntity
  8
AM_5
100
AcDbLine
 10
170.2687240713749
 20
75.25462828746568
 30
0.0
 11
170.2687240713749
 21
67.73462828746568
 31
0.0
  0
INSERT
  5
D1C9
330
D13E
100
AcDbEntity
  8
AM_5
100
AcDbBlockReference
  2
_Dot
 10
170.2687240713749
 20
81.05462828746565
 30
0.0
 50
90.0
  0
INSERT
  5
D1CA
330
D13E
100
AcDbEntity
  8
AM_5
100
AcDbBlockReference
  2
_Dot
 10
170.2687240713749
 20
75.25462828746568
 30
0.0
 50
270.0
  0
MTEXT
  5
D1CB
330
D13E
100
AcDbEntity
  8
AM_5
 62
     2
100
AcDbMText
 10
167.1687240713749
 20
70.9946282874657
 30
0.0
 40
3.200000000000001
 41
0.0
 71
     5
 72
     1
  1
%%cF
 11
0.0000000000000001
 21
1.0
 31
0.0
 73
     1
 44
1.0
1001
ACAD
1000
MTEXTBEGIN
1070
    73
1070
     1
1070
    44
1040
1.0
1070
    74
1070
     0
1000
MTEXTEND
  0
POINT
  5
D1CC
330
D13E
100
AcDbEntity
  8
Defpoints
 62
     0
100
AcDbPoint
 10
158.3403283096108
 20
75.25462828746569
 30
0.0
  0
POINT
  5
D1CD
330
D13E
100
AcDbEntity
  8
Defpoints
 62
     0
100
AcDbPoint
 10
158.3403283096108
 20
81.05462828746567
 30
0.0
  0
POINT
  5
D1CE
330
D13E
100
AcDbEntity
  8
Defpoints
 62
     0
100
AcDbPoint
 10
170.2687240713749
 20
81.05462828746565
 30
0.0
  0
ENDBLK
  5
D140
330
D13E
100
AcDbEntity
  8
0
100
AcDbBlockEnd
  0
BLOCK
  5
D14C
330
D14B
100
AcDbEntity
  8
0
100
AcDbBlockBegin
  2
*D30
 70
     1
 10
0.0
 20
0.0
 30
0.0
  3
*D30
  1

  0
LINE
  5
D1CF
330
D14B
100
AcDbEntity
  8
AM_5
100
AcDbLine
 10
146.3053063096108
 20
77.15462828746566
 30
0.0
 11
134.3053063096109
 21
77.15462828746566
 31
0.0
  0
LINE
  5
D1D0
330
D14B
100
AcDbEntity
  8
AM_5
100
AcDbLine
 10
146.3053063096108
 20
79.15462828746567
 30
0.0
 11
134.3053063096109
 21
79.15462828746567
 31
0.0
  0
LINE
  5
D1D1
330
D14B
100
AcDbEntity
  8
AM_5
100
AcDbLine
 10
135.3053063096108
 20
76.15462828746567
 30
0.0
 11
135.3053063096108
 21
75.15462828746567
 31
0.0
  0
LINE
  5
D1D2
330
D14B
100
AcDbEntity
  8
AM_5
100
AcDbLine
 10
135.3053063096108
 20
80.15462828746567
 30
0.0
 11
135.3053063096108
 21
85.70129495413233
 31
0.0
  0
LINE
  5
D1D3
330
D14B
100
AcDbEntity
  8
AM_5
100
AcDbLine
 10
135.3053063096108
 20
77.15462828746566
 30
0.0
 11
135.3053063096108
 21
79.15462828746567
 31
0.0
  0
INSERT
  5
D1D4
330
D14B
100
AcDbEntity
  8
AM_5
100
AcDbBlockReference
  2
_Dot
 10
135.3053063096108
 20
77.15462828746566
 30
0.0
 50
90.0
  0
INSERT
  5
D1D5
330
D14B
100
AcDbEntity
  8
AM_5
100
AcDbBlockReference
  2
_Dot
 10
135.3053063096108
 20
79.15462828746567
 30
0.0
 50
270.0
  0
MTEXT
  5
D1D6
330
D14B
100
AcDbEntity
  8
AM_5
 62
     2
100
AcDbMText
 10
132.2053063096108
 20
83.45462828746567
 30
0.0
 40
3.200000000000001
 41
0.0
 71
     5
 72
     1
  1
H
 11
0.0000000000000001
 21
1.0
 31
0.0
 73
     1
 44
1.0
1001
ACAD
1000
MTEXTBEGIN
1070
    73
1070
     1
1070
    44
1040
1.0
1070
    74
1070
     0
1000
MTEXTEND
  0
POINT
  5
D1D7
330
D14B
100
AcDbEntity
  8
Defpoints
 62
     0
100
AcDbPoint
 10
147.3053063096108
 20
77.15462828746566
 30
0.0
  0
POINT
  5
D1D8
330
D14B
100
AcDbEntity
  8
Defpoints
 62
     0
100
AcDbPoint
 10
147.3053063096108
 20
79.15462828746567
 30
0.0
  0
POINT
  5
D1D9
330
D14B
100
AcDbEntity
  8
Defpoints
 62
     0
100
AcDbPoint
 10
135.3053063096108
 20
79.15462828746567
 30
0.0
  0
ENDBLK
  5
D14D
330
D14B
100
AcDbEntity
  8
0
100
AcDbBlockEnd
  0
BLOCK
  5
D15A
330
D159
100
AcDbEntity
  8
0
100
AcDbBlockBegin
  2
*D31
 70
     1
 10
0.0
 20
0.0
 30
0.0
  3
*D31
  1

  0
LINE
  5
D1DA
330
D159
100
AcDbEntity
  8
AM_5
100
AcDbLine
 10
147.3053063096108
 20
70.15462828746567
 30
0.0
 11
147.3053063096108
 21
48.15462828746567
 31
0.0
  0
LINE
  5
D1DB
330
D159
100
AcDbEntity
  8
AM_5
100
AcDbLine
 10
158.3403282199116
 20
71.15462914564322
 30
0.0
 11
158.3403282199116
 21
48.15462828746567
 31
0.0
  0
LINE
  5
D1DC
330
D159
100
AcDbEntity
  8
AM_5
100
AcDbLine
 10
148.3053063096108
 20
49.15462828746567
 30
0.0
 11
157.3403282199116
 21
49.15462828746567
 31
0.0
  0
INSERT
  5
D1DD
330
D159
100
AcDbEntity
  8
AM_5
100
AcDbBlockReference
  2
_Dot
 10
147.3053063096108
 20
49.15462828746567
 30
0.0
 50
180.0
  0
INSERT
  5
D1DE
330
D159
100
AcDbEntity
  8
AM_5
100
AcDbBlockReference
  2
_Dot
 10
158.3403282199116
 20
49.15462828746567
 30
0.0
  0
MTEXT
  5
D1DF
330
D159
100
AcDbEntity
  8
AM_5
 62
     2
100
AcDbMText
 10
152.8228172647612
 20
52.25462828746567
 30
0.0
 40
3.200000000000001
 41
0.0
 71
     5
 72
     1
  1
E
 73
     1
 44
1.0
1001
ACAD
1000
MTEXTBEGIN
1070
    73
1070
     1
1070
    44
1040
1.0
1070
    74
1070
     0
1000
MTEXTEND
  0
POINT
  5
D1E0
330
D159
100
AcDbEntity
  8
Defpoints
 62
     0
100
AcDbPoint
 10
147.3053063096108
 20
71.15462828746567
 30
0.0
  0
POINT
  5
D1E1
330
D159
100
AcDbEntity
  8
Defpoints
 62
     0
100
AcDbPoint
 10
158.3403282199116
 20
72.15462914564321
 30
0.0
  0
POINT
  5
D1E2
330
D159
100
AcDbEntity
  8
Defpoints
 62
     0
100
AcDbPoint
 10
158.3403282199116
 20
49.15462828746567
 30
0.0
  0
ENDBLK
  5
D15B
330
D159
100
AcDbEntity
  8
0
100
AcDbBlockEnd
  0
BLOCK
  5
D166
330
D165
100
AcDbEntity
  8
0
100
AcDbBlockBegin
  2
*D32
 70
     1
 10
0.0
 20
0.0
 30
0.0
  3
*D32
  1

  0
LINE
  5
D1E3
330
D165
100
AcDbEntity
  8
AM_5
100
AcDbLine
 10
158.3403282199116
 20
71.15462914564322
 30
0.0
 11
158.3403282199116
 21
48.15462828746558
 31
0.0
  0
LINE
  5
D1E4
330
D165
100
AcDbEntity
  8
AM_5
100
AcDbLine
 10
202.3403283096109
 20
73.15462828746567
 30
0.0
 11
202.3403283096109
 21
48.15462828746558
 31
0.0
  0
LINE
  5
D1E5
330
D165
100
AcDbEntity
  8
AM_5
100
AcDbLine
 10
159.3403282199116
 20
49.15462828746559
 30
0.0
 11
201.3403283096109
 21
49.15462828746559
 31
0.0
  0
INSERT
  5
D1E6
330
D165
100
AcDbEntity
  8
AM_5
100
AcDbBlockReference
  2
_Dot
 10
158.3403282199116
 20
49.15462828746559
 30
0.0
 50
180.0
  0
INSERT
  5
D1E7
330
D165
100
AcDbEntity
  8
AM_5
100
AcDbBlockReference
  2
_Dot
 10
202.3403283096109
 20
49.15462828746559
 30
0.0
  0
MTEXT
  5
D1E8
330
D165
100
AcDbEntity
  8
AM_5
 62
     2
100
AcDbMText
 10
180.3403282647612
 20
52.25462828746558
 30
0.0
 40
3.200000000000001
 41
0.0
 71
     5
 72
     1
  1
C
 73
     1
 44
1.0
1001
ACAD
1000
MTEXTBEGIN
1070
    73
1070
     1
1070
    44
1040
1.0
1070
    74
1070
     0
1000
MTEXTEND
  0
POINT
  5
D1E9
330
D165
100
AcDbEntity
  8
Defpoints
 62
     0
100
AcDbPoint
 10
158.3403282199116
 20
72.15462914564321
 30
0.0
  0
POINT
  5
D1EA
330
D165
100
AcDbEntity
  8
Defpoints
 62
     0
100
AcDbPoint
 10
202.3403283096109
 20
74.15462828746567
 30
0.0
  0
POINT
  5
D1EB
330
D165
100
AcDbEntity
  8
Defpoints
 62
     0
100
AcDbPoint
 10
202.3403283096109
 20
49.15462828746559
 30
0.0
  0
ENDBLK
  5
D167
330
D165
100
AcDbEntity
  8
0
100
AcDbBlockEnd
  0
BLOCK
  5
D172
330
D171
100
AcDbEntity
  8
0
100
AcDbBlockBegin
  2
*D33
 70
     1
 10
0.0
 20
0.0
 30
0.0
  3
*D33
  1

  0
LINE
  5
D1EC
330
D171
100
AcDbEntity
  8
AM_5
100
AcDbLine
 10
203.3403283096109
 20
74.15462828746567
 30
0.0
 11
217.6497293096109
 21
74.15462828746567
 31
0.0
  0
LINE
  5
D1ED
330
D171
100
AcDbEntity
  8
AM_5
100
AcDbLine
 10
203.3403283096108
 20
82.15462828746568
 30
0.0
 11
217.6497293096109
 21
82.15462828746568
 31
0.0
  0
LINE
  5
D1EE
330
D171
100
AcDbEntity
  8
AM_5
100
AcDbLine
 10
216.6497293096108
 20
75.15462828746567
 30
0.0
 11
216.6497293096108
 21
81.15462828746569
 31
0.0
  0
INSERT
  5
D1EF
330
D171
100
AcDbEntity
  8
AM_5
100
AcDbBlockReference
  2
_Dot
 10
216.6497293096108
 20
74.15462828746567
 30
0.0
 50
270.0
  0
INSERT
  5
D1F0
330
D171
100
AcDbEntity
  8
AM_5
100
AcDbBlockReference
  2
_Dot
 10
216.6497293096108
 20
82.15462828746568
 30
0.0
 50
90.0
  0
MTEXT
  5
D1F1
330
D171
100
AcDbEntity
  8
AM_5
 62
     2
100
AcDbMText
 10
213.5497293096108
 20
78.15462828746571
 30
0.0
 40
3.200000000000001
 41
0.0
 71
     5
 72
     1
  1
B
 11
0.0000000000000001
 21
1.0
 31
0.0
 73
     1
 44
1.0
1001
ACAD
1000
MTEXTBEGIN
1070
    73
1070
     1
1070
    44
1040
1.0
1070
    74
1070
     0
1000
MTEXTEND
  0
POINT
  5
D1F2
330
D171
100
AcDbEntity
  8
Defpoints
 62
     0
100
AcDbPoint
 10
202.3403283096109
 20
74.15462828746567
 30
0.0
  0
POINT
  5
D1F3
330
D171
100
AcDbEntity
  8
Defpoints
 62
     0
100
AcDbPoint
 10
202.3403283096107
 20
82.15462828746568
 30
0.0
  0
POINT
  5
D1F4
330
D171
100
AcDbEntity
  8
Defpoints
 62
     0
100
AcDbPoint
 10
216.6497293096108
 20
82.15462828746568
 30
0.0
  0
ENDBLK
  5
D173
330
D171
100
AcDbEntity
  8
0
100
AcDbBlockEnd
  0
BLOCK
  5
D17E
330
D17D
100
AcDbEntity
  8
0
100
AcDbBlockBegin
  2
*D34
 70
     1
 10
0.0
 20
0.0
 30
0.0
  3
*D34
  1

  0
LINE
  5
D1F5
330
D17D
100
AcDbEntity
  8
AM_5
100
AcDbLine
 10
175.1559073096108
 20
85.15462828746567
 30
0.0
 11
189.003829430877
 21
85.15462828746567
 31
0.0
  0
LINE
  5
D1F6
330
D17D
100
AcDbEntity
  8
AM_5
100
AcDbLine
 10
175.1559073096108
 20
71.15462828746567
 30
0.0
 11
189.003829430877
 21
71.15462828746567
 31
0.0
  0
LINE
  5
D1F7
330
D17D
100
AcDbEntity
  8
AM_5
100
AcDbLine
 10
188.003829430877
 20
72.15462828746566
 30
0.0
 11
188.003829430877
 21
84.15462828746568
 31
0.0
  0
LINE
  5
D1F8
330
D17D
100
AcDbEntity
  8
AM_5
100
AcDbLine
 10
188.003829430877
 20
85.15462828746567
 30
0.0
 11
188.003829430877
 21
92.14129495413237
 31
0.0
  0
INSERT
  5
D1F9
330
D17D
100
AcDbEntity
  8
AM_5
100
AcDbBlockReference
  2
_Dot
 10
188.003829430877
 20
71.15462828746567
 30
0.0
 50
270.0
  0
INSERT
  5
D1FA
330
D17D
100
AcDbEntity
  8
AM_5
100
AcDbBlockReference
  2
_Dot
 10
188.003829430877
 20
85.15462828746567
 30
0.0
 50
90.0
  0
MTEXT
  5
D1FB
330
D17D
100
AcDbEntity
  8
AM_5
 62
     2
100
AcDbMText
 10
184.9038294308769
 20
89.14796162079907
 30
0.0
 40
3.200000000000001
 41
0.0
 71
     5
 72
     1
  1
%%cJ
 11
0.0000000000000001
 21
1.0
 31
0.0
 73
     1
 44
1.0
1001
ACAD
1000
MTEXTBEGIN
1070
    73
1070
     1
1070
    44
1040
1.0
1070
    74
1070
     0
1000
MTEXTEND
  0
POINT
  5
D1FC
330
D17D
100
AcDbEntity
  8
Defpoints
 62
     0
100
AcDbPoint
 10
174.1559073096108
 20
85.15462828746567
 30
0.0
  0
POINT
  5
D1FD
330
D17D
100
AcDbEntity
  8
Defpoints
 62
     0
100
AcDbPoint
 10
174.1559073096108
 20
71.15462828746567
 30
0.0
  0
POINT
  5
D1FE
330
D17D
100
AcDbEntity
  8
Defpoints
 62
     0
100
AcDbPoint
 10
188.003829430877
 20
71.15462828746567
 30
0.0
  0
ENDBLK
  5
D17F
330
D17D
100
AcDbEntity
  8
0
100
AcDbBlockEnd
  0
BLOCK
  5
D18B
330
D18A
100
AcDbEntity
  8
0
100
AcDbBlockBegin
  2
*D35
 70
     1
 10
0.0
 20
0.0
 30
0.0
  3
*D35
  1

  0
LINE
  5
D1FF
330
D18A
100
AcDbEntity
  8
AM_5
100
AcDbLine
 10
173.1559073096108
 20
86.15462828746567
 30
0.0
 11
173.1559073096108
 21
98.15462828746568
 31
0.0
  0
LINE
  5
D200
330
D18A
100
AcDbEntity
  8
AM_5
100
AcDbLine
 10
174.1559073096108
 20
86.15462828746567
 30
0.0
 11
174.1559073096108
 21
98.15462828746568
 31
0.0
  0
LINE
  5
D201
330
D18A
100
AcDbEntity
  8
AM_5
100
AcDbLine
 10
175.1559073096108
 20
97.15462828746566
 30
0.0
 11
176.1559073096108
 21
97.15462828746566
 31
0.0
  0
LINE
  5
D202
330
D18A
100
AcDbEntity
  8
AM_5
100
AcDbLine
 10
172.1559073096108
 20
97.15462828746566
 30
0.0
 11
166.6625739762775
 21
97.15462828746566
 31
0.0
  0
LINE
  5
D203
330
D18A
100
AcDbEntity
  8
AM_5
100
AcDbLine
 10
174.1559073096108
 20
97.15462828746566
 30
0.0
 11
173.1559073096108
 21
97.15462828746566
 31
0.0
  0
INSERT
  5
D204
330
D18A
100
AcDbEntity
  8
AM_5
100
AcDbBlockReference
  2
_Dot
 10
174.1559073096108
 20
97.15462828746566
 30
0.0
 50
180.0
  0
INSERT
  5
D205
330
D18A
100
AcDbEntity
  8
AM_5
100
AcDbBlockReference
  2
_Dot
 10
173.1559073096108
 20
97.15462828746566
 30
0.0
  0
MTEXT
  5
D206
330
D18A
100
AcDbEntity
  8
AM_5
 62
     2
100
AcDbMText
 10
168.9092406429441
 20
100.2546282874656
 30
0.0
 40
3.200000000000001
 41
0.0
 71
     5
 72
     1
  1
K
 73
     1
 44
1.0
1001
ACAD
1000
MTEXTBEGIN
1070
    73
1070
     1
1070
    44
1040
1.0
1070
    74
1070
     0
1000
MTEXTEND
  0
POINT
  5
D207
330
D18A
100
AcDbEntity
  8
Defpoints
 62
     0
100
AcDbPoint
 10
173.1559073096108
 20
85.15462828746567
 30
0.0
  0
POINT
  5
D208
330
D18A
100
AcDbEntity
  8
Defpoints
 62
     0
100
AcDbPoint
 10
174.1559073096108
 20
85.15462828746567
 30
0.0
  0
POINT
  5
D209
330
D18A
100
AcDbEntity
  8
Defpoints
 62
     0
100
AcDbPoint
 10
174.1559073096108
 20
97.15462828746566
 30
0.0
  0
ENDBLK
  5
D18C
330
D18A
100
AcDbEntity
  8
0
100
AcDbBlockEnd
  0
BLOCK
  5
D199
330
D198
100
AcDbEntity
  8
0
100
AcDbBlockBegin
  2
*D36
 70
     1
 10
0.0
 20
0.0
 30
0.0
  3
*D36
  1

  0
LINE
  5
D20A
330
D198
100
AcDbEntity
  8
AM_5
100
AcDbLine
 10
158.3403283096108
 20
71.15462828746567
 30
0.0
 11
158.3403283096108
 21
58.15462828746567
 31
0.0
  0
LINE
  5
D20B
330
D198
100
AcDbEntity
  8
AM_5
100
AcDbLine
 10
182.3403283096108
 20
73.15462828746567
 30
0.0
 11
182.3403283096108
 21
58.15462828746567
 31
0.0
  0
LINE
  5
D20C
330
D198
100
AcDbEntity
  8
AM_5
100
AcDbLine
 10
159.3403283096108
 20
59.15462828746567
 30
0.0
 11
181.3403283096108
 21
59.15462828746567
 31
0.0
  0
INSERT
  5
D20D
330
D198
100
AcDbEntity
  8
AM_5
100
AcDbBlockReference
  2
_Dot
 10
158.3403283096108
 20
59.15462828746567
 30
0.0
 50
180.0
  0
INSERT
  5
D20E
330
D198
100
AcDbEntity
  8
AM_5
100
AcDbBlockReference
  2
_Dot
 10
182.3403283096108
 20
59.15462828746567
 30
0.0
  0
MTEXT
  5
D20F
330
D198
100
AcDbEntity
  8
AM_5
 62
     2
100
AcDbMText
 10
170.3403283096108
 20
62.25462828746567
 30
0.0
 40
3.200000000000001
 41
0.0
 71
     5
 72
     1
  1
D
 73
     1
 44
1.0
1001
ACAD
1000
MTEXTBEGIN
1070
    73
1070
     1
1070
    44
1040
1.0
1070
    74
1070
     0
1000
MTEXTEND
  0
POINT
  5
D210
330
D198
100
AcDbEntity
  8
Defpoints
 62
     0
100
AcDbPoint
 10
158.3403283096108
 20
72.15462828746566
 30
0.0
  0
POINT
  5
D211
330
D198
100
AcDbEntity
  8
Defpoints
 62
     0
100
AcDbPoint
 10
182.3403283096108
 20
74.15462828746567
 30
0.0
  0
POINT
  5
D212
330
D198
100
AcDbEntity
  8
Defpoints
 62
     0
100
AcDbPoint
 10
182.3403283096108
 20
59.15462828746567
 30
0.0
  0
ENDBLK
  5
D19A
330
D198
100
AcDbEntity
  8
0
100
AcDbBlockEnd
  0
BLOCK
  5
D1A5
330
D1A4
100
AcDbEntity
  8
0
100
AcDbBlockBegin
  2
*D37
 70
     1
 10
0.0
 20
0.0
 30
0.0
  3
*D37
  1

  0
LINE
  5
D213
330
D1A4
100
AcDbEntity
  8
AM_5
100
AcDbLine
 10
159.3403282199116
 20
72.15462914564321
 30
0.0
 11
163.7619305333946
 21
72.15462914564319
 31
0.0
  0
LINE
  5
D214
330
D1A4
100
AcDbEntity
  8
AM_5
100
AcDbLine
 10
159.3403283096108
 20
84.15462828746568
 30
0.0
 11
163.7619305333946
 21
84.15462828746566
 31
0.0
  0
LINE
  5
D215
330
D1A4
100
AcDbEntity
  8
AM_5
100
AcDbLine
 10
162.7619305333946
 20
73.1546291456432
 30
0.0
 11
162.7619305333946
 21
83.15462828746566
 31
0.0
  0
LINE
  5
D216
330
D1A4
100
AcDbEntity
  8
AM_5
100
AcDbLine
 10
162.7619305333946
 20
84.15462828746566
 30
0.0
 11
162.7619305333946
 21
91.78129495413237
 31
0.0
  0
INSERT
  5
D217
330
D1A4
100
AcDbEntity
  8
AM_5
100
AcDbBlockReference
  2
_Dot
 10
162.7619305333946
 20
72.15462914564319
 30
0.0
 50
270.0
  0
INSERT
  5
D218
330
D1A4
100
AcDbEntity
  8
AM_5
100
AcDbBlockReference
  2
_Dot
 10
162.7619305333946
 20
84.15462828746566
 30
0.0
 50
90.0
  0
MTEXT
  5
D219
330
D1A4
100
AcDbEntity
  8
AM_5
 62
     2
100
AcDbMText
 10
159.6619305333945
 20
88.46796162079908
 30
0.0
 40
3.200000000000001
 41
0.0
 71
     5
 72
     1
  1
%%cG
 11
0.0000000000000001
 21
1.0
 31
0.0
 73
     1
 44
1.0
1001
ACAD
1000
MTEXTBEGIN
1070
    73
1070
     1
1070
    44
1040
1.0
1070
    74
1070
     0
1000
MTEXTEND
  0
POINT
  5
D21A
330
D1A4
100
AcDbEntity
  8
Defpoints
 62
     0
100
AcDbPoint
 10
158.3403282199116
 20
72.15462914564321
 30
0.0
  0
POINT
  5
D21B
330
D1A4
100
AcDbEntity
  8
Defpoints
 62
     0
100
AcDbPoint
 10
158.3403283096108
 20
84.15462828746568
 30
0.0
  0
POINT
  5
D21C
330
D1A4
100
AcDbEntity
  8
Defpoints
 62
     0
100
AcDbPoint
 10
162.7619305333946
 20
84.15462828746566
 30
0.0
  0
ENDBLK
  5
D1A6
330
D1A4
100
AcDbEntity
  8
0
100
AcDbBlockEnd
  0
BLOCK
  5
D2CD
330
D2C6
100
AcDbEntity
  8
0
100
AcDbBlockBegin
  2
*S38
 70
     1
 10
0.0
 20
0.0
 30
0.0
  3
*S38
  1

  0
LINE
  5
D2C7
330
D2C6
100
AcDbEntity
  8
AM_5
 62
     3
100
AcDbLine
 10
203.5966425229107
 20
97.15462828746566
 30
0.0
 11
180.5353091895773
 21
97.15462828746566
 31
0.0
  0
LINE
  5
D2C8
330
D2C6
100
AcDbEntity
  8
AM_5
 62
     3
100
AcDbLine
 10
180.5353091895773
 20
97.15462828746566
 30
0.0
 11
175.0947229352837
 21
86.9205912601784
 31
0.0
  0
LINE
  5
D2C9
330
D2C6
100
AcDbEntity
  8
AM_5
  6
Continuous
 62
     3
100
AcDbLine
 10
175.0947229352837
 20
86.9205912601784
 30
0.0
 11
174.1559073096108
 21
85.15462828746567
 31
0.0
  0
LINE
  5
D2CA
330
D2C6
100
AcDbEntity
  8
AM_5
  6
Continuous
 62
     3
100
AcDbLine
 10
174.6215345871753
 20
87.1721461466368
 30
0.0
 11
174.1559073096108
 21
85.15462828746567
 31
0.0
  0
LINE
  5
D2CB
330
D2C6
100
AcDbEntity
  8
AM_5
  6
Continuous
 62
     3
100
AcDbLine
 10
174.1559073096108
 20
85.15462828746567
 30
0.0
 11
175.5679112833921
 21
86.66903637372
 31
0.0
  0
MTEXT
  5
D2CC
330
D2C6
100
AcDbEntity
  8
AM_5
 62
     2
100
AcDbMText
 10
203.5966425229107
 20
98.75462828746567
 30
0.0
 40
3.2
 41
0.0
 71
     9
 72
     5
  1
ナイロンワッシャ
 73
     1
 44
1.0
1001
ACAD
1000
MTEXTBEGIN
1070
    73
1070
     1
1070
    44
1040
1.0
1070
    74
1070
     0
1000
MTEXTEND
  0
ENDBLK
  5
D2CE
330
D2C6
100
AcDbEntity
  8
0
100
AcDbBlockEnd
  0
ENDSEC
  0
SECTION
  2
ENTITIES
  0
LINE
  5
B9AA
330
1F
100
AcDbEntity
  8
AM_0
100
AcDbLine
 10
11.50000000000002
 20
201.5
 30
0.0
 11
111.5
 21
201.5
 31
0.0
  0
LINE
  5
B9AB
330
1F
100
AcDbEntity
  8
AM_0
100
AcDbLine
 10
11.50000000000002
 20
161.5
 30
0.0
 11
101.5000000000001
 21
161.5
 31
0.0
  0
LINE
  5
B9AD
330
1F
100
AcDbEntity
  8
AM_2
100
AcDbLine
 10
11.50000000000002
 20
177.5
 30
0.0
 11
101.5000000000001
 21
177.5
 31
0.0
  0
LINE
  5
B9AE
330
1F
100
AcDbEntity
  8
AM_2
100
AcDbLine
 10
11.50000000000002
 20
185.5
 30
0.0
 11
101.5000000000001
 21
185.5
 31
0.0
  0
LINE
  5
B9AF
330
1F
100
AcDbEntity
  8
AM_2
100
AcDbLine
 10
11.50000000000002
 20
193.5
 30
0.0
 11
101.5000000000001
 21
193.4999999999999
 31
0.0
  0
LINE
  5
B9B0
330
1F
100
AcDbEntity
  8
AM_2
100
AcDbLine
 10
31.50000000000002
 20
201.5
 30
0.0
 11
31.50000000000002
 21
161.5
 31
0.0
  0
MTEXT
  5
B9B1
330
1F
100
AcDbEntity
  8
AM_6
100
AcDbMText
 10
21.50000000000002
 20
173.5
 30
0.0
 40
3.2
 41
20.0
 71
     5
 72
     5
  1
仕上げ
 73
     1
 44
1.0
1001
ACAD
1000
MTEXTBEGIN
1070
    73
1070
     1
1070
    44
1040
1.0
1070
    74
1070
     0
1000
MTEXTEND
  0
MTEXT
  5
B9B3
330
1F
100
AcDbEntity
  8
AM_6
100
AcDbMText
 10
21.50000000000002
 20
181.5
 30
0.0
 40
3.2
 41
20.0
 71
     5
 72
     5
  1
材　質
 73
     1
 44
1.0
1001
ACAD
1000
MTEXTBEGIN
1070
    73
1070
     1
1070
    44
1040
1.0
1070
    74
1070
     0
1000
MTEXTEND
  0
MTEXT
  5
B9B4
330
1F
100
AcDbEntity
  8
AM_6
100
AcDbMText
 10
21.50000000000002
 20
197.5
 30
0.0
 40
3.2
 41
20.0
 71
     5
 72
     5
  1
品　名
 73
     1
 44
1.0
1001
ACAD
1000
MTEXTBEGIN
1070
    73
1070
     1
1070
    44
1040
1.0
1070
    74
1070
     0
1000
MTEXTEND
  0
MTEXT
  5
B9B6
330
1F
100
AcDbEntity
  8
AM_6
100
AcDbMText
 10
31.50000000000002
 20
173.5
 30
0.0
 40
3.2
 41
69.99999999999999
 71
     4
 72
     5
  1
　鏡面
 73
     1
 44
1.0
1001
ACAD
1000
MTEXTBEGIN
1070
    73
1070
     1
1070
    44
1040
1.0
1070
    74
1070
     0
1000
MTEXTEND
  0
MTEXT
  5
B9B8
330
1F
100
AcDbEntity
  8
AM_6
100
AcDbMText
 10
31.50000000000002
 20
181.5
 30
0.0
 40
3.2
 41
69.99999999999999
 71
     4
 72
     5
  1
　ステンレス
 73
     1
 44
1.0
1001
ACAD
1000
MTEXTBEGIN
1070
    73
1070
     1
1070
    44
1040
1.0
1070
    74
1070
     0
1000
MTEXTEND
  0
MTEXT
  5
B9B9
330
1F
100
AcDbEntity
  8
AM_6
100
AcDbMText
 10
31.50000000000002
 20
197.5
 30
0.0
 40
3.2
 41
70.0
 71
     4
 72
     5
  1
　足長ローレットつまみ
 73
     1
 44
1.0
1001
ACAD
1000
MTEXTBEGIN
1070
    73
1070
     1
1070
    44
1040
1.0
1070
    74
1070
     0
1000
MTEXTEND
  0
LINE
  5
B9BA
330
1F
100
AcDbEntity
  8
AM_0
100
AcDbLine
 10
101.5
 20
201.5
 30
0.0
 11
101.5
 21
161.5
 31
0.0
  0
LINE
  5
B9BC
330
1F
100
AcDbEntity
  8
AM_2
100
AcDbLine
 10
11.50000000000002
 20
169.5
 30
0.0
 11
101.5000000000001
 21
169.5
 31
0.0
  0
MTEXT
  5
B9BD
330
1F
100
AcDbEntity
  8
AM_6
100
AcDbMText
 10
21.50000000000002
 20
165.5
 30
0.0
 40
3.2
 41
20.00000000000001
 71
     5
 72
     5
  1
備　考
 73
     1
 44
1.0
1001
ACAD
1000
MTEXTBEGIN
1070
    73
1070
     1
1070
    44
1040
1.0
1070
    74
1070
     0
1000
MTEXTEND
1000
ACAD_MTEXT_DEFINED_HEIGHT_BEGIN
1070
    46
1040
8.00000000000001
1000
ACAD_MTEXT_DEFINED_HEIGHT_END
  0
MTEXT
  5
B9C4
330
1F
100
AcDbEntity
  8
AM_6
100
AcDbMText
 10
21.50000000000003
 20
189.5
 30
0.0
 40
3.2
 41
20.0
 71
     5
 72
     5
  1
品　番
 73
     1
 44
1.0
1001
ACAD
1000
MTEXTBEGIN
1070
    73
1070
     1
1070
    44
1040
1.0
1070
    74
1070
     0
1000
MTEXTEND
  0
MTEXT
  5
B9C5
330
1F
100
AcDbEntity
  8
AM_6
100
AcDbMText
 10
31.50000000000004
 20
189.5
 30
0.0
 40
3.2
 41
69.99999999999999
 71
     4
 72
     5
  1
　右表参照
 73
     1
 44
1.0
1001
ACAD
1000
MTEXTBEGIN
1070
    73
1070
     1
1070
    44
1040
1.0
1070
    74
1070
     0
1000
MTEXTEND
  0
LINE
  5
BC0C
330
1F
100
AcDbEntity
  8
AM_0
100
AcDbLine
 10
123.856688082362
 20
115.4999999999999
 30
0.0
 11
268.8566880823615
 21
115.5000000000006
 31
0.0
  0
LINE
  5
BC0D
330
1F
100
AcDbEntity
  8
AM_0
100
AcDbLine
 10
123.8566880823613
 20
193.4999999999999
 30
0.0
 11
123.856688082362
 21
115.4999999999999
 31
0.0
  0
LINE
  5
BC0F
330
1F
100
AcDbEntity
  8
AM_0
100
AcDbLine
 10
123.8566880823614
 20
185.5
 30
0.0
 11
268.8566880823613
 21
185.4999999999991
 31
0.0
  0
MTEXT
  5
BC10
330
1F
100
AcDbEntity
  8
AM_6
100
AcDbMText
 10
141.3566880823614
 20
189.4999999999998
 30
0.0
 40
3.2
 41
34.99999999999992
 71
     5
 72
     5
  1
品番
 73
     1
 44
1.0
1001
ACAD
1000
MTEXTBEGIN
1070
    73
1070
     1
1070
    44
1040
1.0
1070
    74
1070
     0
1000
MTEXTEND
1000
ACAD_MTEXT_DEFINED_HEIGHT_BEGIN
1070
    46
1040
7.999999999999841
1000
ACAD_MTEXT_DEFINED_HEIGHT_END
  0
LINE
  5
BC11
330
1F
100
AcDbEntity
  8
AM_0
100
AcDbLine
 10
123.8566880823613
 20
193.4999999999999
 30
0.0
 11
268.8566880823613
 21
193.5000000000004
 31
0.0
  0
MTEXT
  5
BC12
330
1F
100
AcDbEntity
  8
AM_6
100
AcDbMText
 10
141.4006897000401
 20
183.0
 30
0.0
 40
3.2
 41
35.08800323535749
 71
     5
 72
     5
  1
SCR-MK104S-1
 73
     1
 44
1.0
1001
ACAD
1000
MTEXTBEGIN
1070
    73
1070
     1
1070
    44
1040
1.0
1070
    74
1070
     0
1000
MTEXTEND
1000
ACAD_MTEXT_DEFINED_HEIGHT_BEGIN
1070
    46
1040
4.999999999999943
1000
ACAD_MTEXT_DEFINED_HEIGHT_END
  0
LINE
  5
BC13
330
1F
100
AcDbEntity
  8
AM_2
100
AcDbLine
 10
123.8566880823614
 20
180.5
 30
0.0
 11
158.8566880823613
 21
180.5000000000001
 31
0.0
  0
MTEXT
  5
BC14
330
1F
100
AcDbEntity
  8
AM_6
100
AcDbMText
 10
163.8566880823613
 20
189.4999999999999
 30
0.0
 40
3.2
 41
10.0
 71
     5
 72
     5
  1
%%cA
 73
     1
 44
1.0
1001
ACAD
1000
MTEXTBEGIN
1070
    73
1070
     1
1070
    44
1040
1.0
1070
    74
1070
     0
1000
MTEXTEND
1000
ACAD_MTEXT_DEFINED_HEIGHT_BEGIN
1070
    46
1040
8.000000000000524
1000
ACAD_MTEXT_DEFINED_HEIGHT_END
  0
MTEXT
  5
BC16
330
1F
100
AcDbEntity
  8
AM_6
100
AcDbMText
 10
163.8566880823613
 20
175.5
 30
0.0
 40
3.2
 41
10.00000000000005
 71
     5
 72
     5
  1
14
 73
     1
 44
1.0
1001
ACAD
1000
MTEXTBEGIN
1070
    73
1070
     1
1070
    44
1040
1.0
1070
    74
1070
     0
1000
MTEXTEND
1000
ACAD_MTEXT_DEFINED_HEIGHT_BEGIN
1070
    46
1040
19.99999999999913
1000
ACAD_MTEXT_DEFINED_HEIGHT_END
  0
LINE
  5
BC1D
330
1F
100
AcDbEntity
  8
AM_0
100
AcDbLine
 10
268.8566880823613
 20
193.5000000000003
 30
0.0
 11
268.8566880823615
 21
115.5000000000006
 31
0.0
  0
LINE
  5
BC3B
330
1F
100
AcDbEntity
  8
AM_2
100
AcDbLine
 10
123.8566880823616
 20
165.5
 30
0.0
 11
268.8566880823614
 21
165.5000000000005
 31
0.0
  0
LINE
  5
BC3C
330
1F
100
AcDbEntity
  8
AM_2
100
AcDbLine
 10
123.8566880823616
 20
160.4999999999999
 30
0.0
 11
158.8566880823615
 21
160.5
 31
0.0
  0
LINE
  5
BC3D
330
1F
100
AcDbEntity
  8
AM_2
100
AcDbLine
 10
123.8566880823617
 20
155.5
 30
0.0
 11
158.8566880823615
 21
155.5000000000001
 31
0.0
  0
LINE
  5
BC3E
330
1F
100
AcDbEntity
  8
AM_2
100
AcDbLine
 10
123.8566880823617
 20
150.5
 30
0.0
 11
158.8566880823615
 21
150.5000000000001
 31
0.0
  0
LINE
  5
BC3F
330
1F
100
AcDbEntity
  8
AM_2
100
AcDbLine
 10
123.8566880823618
 20
150.5
 30
0.0
 11
268.8566880823614
 21
150.5000000000005
 31
0.0
  0
LINE
  5
BC40
330
1F
100
AcDbEntity
  8
AM_2
100
AcDbLine
 10
123.8566880823618
 20
145.5
 30
0.0
 11
158.8566880823615
 21
145.5000000000001
 31
0.0
  0
LINE
  5
BC5C
330
1F
100
AcDbEntity
  8
AM_2
100
AcDbLine
 10
168.8566880823613
 20
193.5000000000002
 30
0.0
 11
168.8566880823615
 21
115.5000000000001
 31
0.0
  0
LINE
  5
BC5D
330
1F
100
AcDbEntity
  8
AM_2
100
AcDbLine
 10
178.8566880823613
 20
193.5000000000002
 30
0.0
 11
178.8566880823616
 21
115.5000000000001
 31
0.0
  0
LINE
  5
BC5E
330
1F
100
AcDbEntity
  8
AM_2
100
AcDbLine
 10
188.8566880823613
 20
193.5000000000002
 30
0.0
 11
188.8566880823615
 21
115.5000000000002
 31
0.0
  0
LINE
  5
BC5F
330
1F
100
AcDbEntity
  8
AM_2
100
AcDbLine
 10
198.8566880823613
 20
193.5000000000002
 30
0.0
 11
198.8566880823615
 21
115.5000000000002
 31
0.0
  0
LINE
  5
BC60
330
1F
100
AcDbEntity
  8
AM_2
100
AcDbLine
 10
208.8566880823613
 20
193.5000000000002
 30
0.0
 11
208.8566880823616
 21
115.5000000000003
 31
0.0
  0
LINE
  5
BC61
330
1F
100
AcDbEntity
  8
AM_2
100
AcDbLine
 10
218.8566880823613
 20
193.5000000000002
 30
0.0
 11
218.8566880823617
 21
115.5000000000003
 31
0.0
  0
LINE
  5
BC62
330
1F
100
AcDbEntity
  8
AM_2
100
AcDbLine
 10
228.8566880823613
 20
193.5000000000002
 30
0.0
 11
228.8566880823617
 21
115.5000000000004
 31
0.0
  0
LINE
  5
BC63
330
1F
100
AcDbEntity
  8
AM_2
100
AcDbLine
 10
238.8566880823614
 20
193.5000000000002
 30
0.0
 11
238.8566880823617
 21
115.5000000000004
 31
0.0
  0
MTEXT
  5
BC7A
330
1F
100
AcDbEntity
  8
AM_6
100
AcDbMText
 10
173.8566880823613
 20
189.4999999999999
 30
0.0
 40
3.2
 41
10.0
 71
     5
 72
     5
  1
B
 73
     1
 44
1.0
1001
ACAD
1000
MTEXTBEGIN
1070
    73
1070
     1
1070
    44
1040
1.0
1070
    74
1070
     0
1000
MTEXTEND
1000
ACAD_MTEXT_DEFINED_HEIGHT_BEGIN
1070
    46
1040
8.000000000000524
1000
ACAD_MTEXT_DEFINED_HEIGHT_END
  0
MTEXT
  5
BC7B
330
1F
100
AcDbEntity
  8
AM_6
100
AcDbMText
 10
183.8566880823613
 20
189.4999999999999
 30
0.0
 40
3.2
 41
10.0
 71
     5
 72
     5
  1
C
 73
     1
 44
1.0
1001
ACAD
1000
MTEXTBEGIN
1070
    73
1070
     1
1070
    44
1040
1.0
1070
    74
1070
     0
1000
MTEXTEND
1000
ACAD_MTEXT_DEFINED_HEIGHT_BEGIN
1070
    46
1040
8.000000000000524
1000
ACAD_MTEXT_DEFINED_HEIGHT_END
  0
MTEXT
  5
BC7C
330
1F
100
AcDbEntity
  8
AM_6
100
AcDbMText
 10
193.8566880823613
 20
189.4999999999999
 30
0.0
 40
3.2
 41
10.0
 71
     5
 72
     5
  1
D
 73
     1
 44
1.0
1001
ACAD
1000
MTEXTBEGIN
1070
    73
1070
     1
1070
    44
1040
1.0
1070
    74
1070
     0
1000
MTEXTEND
1000
ACAD_MTEXT_DEFINED_HEIGHT_BEGIN
1070
    46
1040
8.000000000000524
1000
ACAD_MTEXT_DEFINED_HEIGHT_END
  0
MTEXT
  5
BC7D
330
1F
100
AcDbEntity
  8
AM_6
100
AcDbMText
 10
203.8566880823613
 20
189.4999999999999
 30
0.0
 40
3.2
 41
10.0
 71
     5
 72
     5
  1
E
 73
     1
 44
1.0
1001
ACAD
1000
MTEXTBEGIN
1070
    73
1070
     1
1070
    44
1040
1.0
1070
    74
1070
     0
1000
MTEXTEND
1000
ACAD_MTEXT_DEFINED_HEIGHT_BEGIN
1070
    46
1040
8.000000000000524
1000
ACAD_MTEXT_DEFINED_HEIGHT_END
  0
MTEXT
  5
BC7E
330
1F
100
AcDbEntity
  8
AM_6
100
AcDbMText
 10
213.8566880823614
 20
189.4999999999999
 30
0.0
 40
3.2
 41
10.0
 71
     5
 72
     5
  1
%%cF
 73
     1
 44
1.0
1001
ACAD
1000
MTEXTBEGIN
1070
    73
1070
     1
1070
    44
1040
1.0
1070
    74
1070
     0
1000
MTEXTEND
1000
ACAD_MTEXT_DEFINED_HEIGHT_BEGIN
1070
    46
1040
8.000000000000524
1000
ACAD_MTEXT_DEFINED_HEIGHT_END
  0
MTEXT
  5
BC7F
330
1F
100
AcDbEntity
  8
AM_6
100
AcDbMText
 10
223.8566880823613
 20
189.4999999999999
 30
0.0
 40
3.2
 41
10.0
 71
     5
 72
     5
  1
%%cG
 73
     1
 44
1.0
1001
ACAD
1000
MTEXTBEGIN
1070
    73
1070
     1
1070
    44
1040
1.0
1070
    74
1070
     0
1000
MTEXTEND
1000
ACAD_MTEXT_DEFINED_HEIGHT_BEGIN
1070
    46
1040
8.000000000000524
1000
ACAD_MTEXT_DEFINED_HEIGHT_END
  0
MTEXT
  5
BC80
330
1F
100
AcDbEntity
  8
AM_6
100
AcDbMText
 10
233.8566880823613
 20
189.4999999999999
 30
0.0
 40
3.2
 41
10.0
 71
     5
 72
     5
  1
H
 73
     1
 44
1.0
1001
ACAD
1000
MTEXTBEGIN
1070
    73
1070
     1
1070
    44
1040
1.0
1070
    74
1070
     0
1000
MTEXTEND
1000
ACAD_MTEXT_DEFINED_HEIGHT_BEGIN
1070
    46
1040
8.000000000000524
1000
ACAD_MTEXT_DEFINED_HEIGHT_END
  0
MTEXT
  5
BC81
330
1F
100
AcDbEntity
  8
AM_6
100
AcDbMText
 10
243.8566880823613
 20
189.4999999999999
 30
0.0
 40
3.2
 41
10.0
 71
     5
 72
     5
  1
（Ｉ）
 73
     1
 44
1.0
1001
ACAD
1000
MTEXTBEGIN
1070
    73
1070
     1
1070
    44
1040
1.0
1070
    74
1070
     0
1000
MTEXTEND
1000
ACAD_MTEXT_DEFINED_HEIGHT_BEGIN
1070
    46
1040
8.000000000000524
1000
ACAD_MTEXT_DEFINED_HEIGHT_END
  0
MTEXT
  5
BC82
330
1F
100
AcDbEntity
  8
AM_6
100
AcDbMText
 10
141.4006897000401
 20
178.0
 30
0.0
 40
3.2
 41
35.08800323535749
 71
     5
 72
     5
  1
SCR-MK104S-2
 73
     1
 44
1.0
1001
ACAD
1000
MTEXTBEGIN
1070
    73
1070
     1
1070
    44
1040
1.0
1070
    74
1070
     0
1000
MTEXTEND
1000
ACAD_MTEXT_DEFINED_HEIGHT_BEGIN
1070
    46
1040
4.999999999999943
1000
ACAD_MTEXT_DEFINED_HEIGHT_END
  0
MTEXT
  5
BC85
330
1F
100
AcDbEntity
  8
AM_6
100
AcDbMText
 10
141.4006897000404
 20
163.0
 30
0.0
 40
3.2
 41
35.08800323535749
 71
     5
 72
     5
  1
SCR-MK104S-5
 73
     1
 44
1.0
1001
ACAD
1000
MTEXTBEGIN
1070
    73
1070
     1
1070
    44
1040
1.0
1070
    74
1070
     0
1000
MTEXTEND
1000
ACAD_MTEXT_DEFINED_HEIGHT_BEGIN
1070
    46
1040
4.999999999999943
1000
ACAD_MTEXT_DEFINED_HEIGHT_END
  0
MTEXT
  5
BC87
330
1F
100
AcDbEntity
  8
AM_6
100
AcDbMText
 10
141.4006897000405
 20
158.0
 30
0.0
 40
3.2
 41
35.08800323535749
 71
     5
 72
     5
  1
SCR-MK104S-6
 73
     1
 44
1.0
1001
ACAD
1000
MTEXTBEGIN
1070
    73
1070
     1
1070
    44
1040
1.0
1070
    74
1070
     0
1000
MTEXTEND
1000
ACAD_MTEXT_DEFINED_HEIGHT_BEGIN
1070
    46
1040
4.999999999999943
1000
ACAD_MTEXT_DEFINED_HEIGHT_END
  0
MTEXT
  5
BC88
330
1F
100
AcDbEntity
  8
AM_6
100
AcDbMText
 10
141.4006897000406
 20
153.0
 30
0.0
 40
3.2
 41
35.08800323535749
 71
     5
 72
     5
  1
SCR-MK104S-7
 73
     1
 44
1.0
1001
ACAD
1000
MTEXTBEGIN
1070
    73
1070
     1
1070
    44
1040
1.0
1070
    74
1070
     0
1000
MTEXTEND
1000
ACAD_MTEXT_DEFINED_HEIGHT_BEGIN
1070
    46
1040
4.999999999999943
1000
ACAD_MTEXT_DEFINED_HEIGHT_END
  0
LINE
  5
BC8A
330
1F
100
AcDbEntity
  8
AM_2
100
AcDbLine
 10
178.8566880823613
 20
180.5000000000001
 30
0.0
 11
198.8566880823613
 21
180.5000000000002
 31
0.0
  0
LINE
  5
BC8D
330
1F
100
AcDbEntity
  8
AM_2
100
AcDbLine
 10
178.8566880823615
 20
160.5000000000001
 30
0.0
 11
198.8566880823613
 21
160.5000000000002
 31
0.0
  0
LINE
  5
BC8E
330
1F
100
AcDbEntity
  8
AM_2
100
AcDbLine
 10
178.8566880823615
 20
155.5000000000002
 30
0.0
 11
198.8566880823614
 21
155.5000000000003
 31
0.0
  0
LINE
  5
BC91
330
1F
100
AcDbEntity
  8
AM_2
100
AcDbLine
 10
178.8566880823615
 20
145.5000000000002
 30
0.0
 11
198.8566880823614
 21
145.5000000000002
 31
0.0
  0
LINE
  5
BC92
330
1F
100
AcDbEntity
  8
AM_2
100
AcDbLine
 10
158.8566880823613
 20
193.5
 30
0.0
 11
158.8566880823616
 21
115.5
 31
0.0
  0
MTEXT
  5
BC99
330
1F
100
AcDbEntity
  8
AM_6
100
AcDbMText
 10
173.8566880823613
 20
175.5
 30
0.0
 40
3.2
 41
10.0
 71
     5
 72
     5
  1
M4
 73
     1
 44
1.0
1001
ACAD
1000
MTEXTBEGIN
1070
    73
1070
     1
1070
    44
1040
1.0
1070
    74
1070
     0
1000
MTEXTEND
1000
ACAD_MTEXT_DEFINED_HEIGHT_BEGIN
1070
    46
1040
19.99999999999913
1000
ACAD_MTEXT_DEFINED_HEIGHT_END
  0
MTEXT
  5
BC9B
330
1F
100
AcDbEntity
  8
AM_6
100
AcDbMText
 10
203.8566880823613
 20
175.4999999999997
 30
0.0
 40
3.2
 41
10.0
 71
     5
 72
     5
  1
8
 73
     1
 44
1.0
1001
ACAD
1000
MTEXTBEGIN
1070
    73
1070
     1
1070
    44
1040
1.0
1070
    74
1070
     0
1000
MTEXTEND
1000
ACAD_MTEXT_DEFINED_HEIGHT_BEGIN
1070
    46
1040
19.99999999999913
1000
ACAD_MTEXT_DEFINED_HEIGHT_END
  0
MTEXT
  5
BC9C
330
1F
100
AcDbEntity
  8
AM_6
100
AcDbMText
 10
213.8566880823613
 20
175.4999999999996
 30
0.0
 40
3.2
 41
10.0
 71
     5
 72
     5
  1
3
 73
     1
 44
1.0
1001
ACAD
1000
MTEXTBEGIN
1070
    73
1070
     1
1070
    44
1040
1.0
1070
    74
1070
     0
1000
MTEXTEND
1000
ACAD_MTEXT_DEFINED_HEIGHT_BEGIN
1070
    46
1040
19.99999999999913
1000
ACAD_MTEXT_DEFINED_HEIGHT_END
  0
MTEXT
  5
BC9D
330
1F
100
AcDbEntity
  8
AM_6
100
AcDbMText
 10
223.8566880823614
 20
175.4999999999998
 30
0.0
 40
3.2
 41
10.0
 71
     5
 72
     5
  1
8
 73
     1
 44
1.0
1001
ACAD
1000
MTEXTBEGIN
1070
    73
1070
     1
1070
    44
1040
1.0
1070
    74
1070
     0
1000
MTEXTEND
1000
ACAD_MTEXT_DEFINED_HEIGHT_BEGIN
1070
    46
1040
19.99999999999876
1000
ACAD_MTEXT_DEFINED_HEIGHT_END
  0
MTEXT
  5
BC9E
330
1F
100
AcDbEntity
  8
AM_6
100
AcDbMText
 10
233.8566880823613
 20
175.4999999999995
 30
0.0
 40
3.2
 41
10.0
 71
     5
 72
     5
  1
2
 73
     1
 44
1.0
1001
ACAD
1000
MTEXTBEGIN
1070
    73
1070
     1
1070
    44
1040
1.0
1070
    74
1070
     0
1000
MTEXTEND
1000
ACAD_MTEXT_DEFINED_HEIGHT_BEGIN
1070
    46
1040
19.99999999999913
1000
ACAD_MTEXT_DEFINED_HEIGHT_END
  0
MTEXT
  5
BC9F
330
1F
100
AcDbEntity
  8
AM_6
100
AcDbMText
 10
243.8566880823613
 20
175.4999999999995
 30
0.0
 40
3.2
 41
10.0
 71
     5
 72
     5
  1
1.7
 73
     1
 44
1.0
1001
ACAD
1000
MTEXTBEGIN
1070
    73
1070
     1
1070
    44
1040
1.0
1070
    74
1070
     0
1000
MTEXTEND
1000
ACAD_MTEXT_DEFINED_HEIGHT_BEGIN
1070
    46
1040
19.99999999999913
1000
ACAD_MTEXT_DEFINED_HEIGHT_END
  0
MTEXT
  5
BCA0
330
1F
100
AcDbEntity
  8
AM_6
100
AcDbMText
 10
183.8566880823613
 20
182.9999999999998
 30
0.0
 40
3.2
 41
10.0
 71
     5
 72
     5
  1
10
 73
     1
 44
1.0
1001
ACAD
1000
MTEXTBEGIN
1070
    73
1070
     1
1070
    44
1040
1.0
1070
    74
1070
     0
1000
MTEXTEND
1000
ACAD_MTEXT_DEFINED_HEIGHT_BEGIN
1070
    46
1040
4.999999999999273
1000
ACAD_MTEXT_DEFINED_HEIGHT_END
  0
MTEXT
  5
BCA1
330
1F
100
AcDbEntity
  8
AM_6
100
AcDbMText
 10
183.8566880823613
 20
178.0000000000001
 30
0.0
 40
3.2
 41
10.00000000000003
 71
     5
 72
     5
  1
15
 73
     1
 44
1.0
1001
ACAD
1000
MTEXTBEGIN
1070
    73
1070
     1
1070
    44
1040
1.0
1070
    74
1070
     0
1000
MTEXTEND
1000
ACAD_MTEXT_DEFINED_HEIGHT_BEGIN
1070
    46
1040
4.999999999999813
1000
ACAD_MTEXT_DEFINED_HEIGHT_END
  0
LINE
  5
BCF2
330
1F
100
AcDbEntity
  8
AM_2
100
AcDbLine
 10
178.8566880823615
 20
160.5000000000005
 30
0.0
 11
198.8566880823613
 21
160.5000000000006
 31
0.0
  0
MTEXT
  5
BCF3
330
1F
100
AcDbEntity
  8
AM_6
100
AcDbMText
 10
163.8566880823614
 20
158.0000000000001
 30
0.0
 40
3.2
 41
10.0
 71
     5
 72
     5
  1
15
 73
     1
 44
1.0
1001
ACAD
1000
MTEXTBEGIN
1070
    73
1070
     1
1070
    44
1040
1.0
1070
    74
1070
     0
1000
MTEXTEND
1000
ACAD_MTEXT_DEFINED_HEIGHT_BEGIN
1070
    46
1040
14.99999999999984
1000
ACAD_MTEXT_DEFINED_HEIGHT_END
  0
MTEXT
  5
BCF4
330
1F
100
AcDbEntity
  8
AM_6
100
AcDbMText
 10
173.8566880823614
 20
158.0
 30
0.0
 40
3.2
 41
10.00000000000003
 71
     5
 72
     5
  1
M5
 73
     1
 44
1.0
1001
ACAD
1000
MTEXTBEGIN
1070
    73
1070
     1
1070
    44
1040
1.0
1070
    74
1070
     0
1000
MTEXTEND
1000
ACAD_MTEXT_DEFINED_HEIGHT_BEGIN
1070
    46
1040
14.99999999999978
1000
ACAD_MTEXT_DEFINED_HEIGHT_END
  0
MTEXT
  5
BCF7
330
1F
100
AcDbEntity
  8
AM_6
100
AcDbMText
 10
213.8566880823615
 20
158.0
 30
0.0
 40
3.2
 41
10.00000000000011
 71
     5
 72
     5
  1
4
 73
     1
 44
1.0
1001
ACAD
1000
MTEXTBEGIN
1070
    73
1070
     1
1070
    44
1040
1.0
1070
    74
1070
     0
1000
MTEXTEND
1000
ACAD_MTEXT_DEFINED_HEIGHT_BEGIN
1070
    46
1040
14.9999999999993
1000
ACAD_MTEXT_DEFINED_HEIGHT_END
  0
MTEXT
  5
BCF8
330
1F
100
AcDbEntity
  8
AM_6
100
AcDbMText
 10
223.8566880823615
 20
158.0000000000001
 30
0.0
 40
3.2
 41
9.999999999999886
 71
     5
 72
     5
  1
8
 73
     1
 44
1.0
1001
ACAD
1000
MTEXTBEGIN
1070
    73
1070
     1
1070
    44
1040
1.0
1070
    74
1070
     0
1000
MTEXTEND
1000
ACAD_MTEXT_DEFINED_HEIGHT_BEGIN
1070
    46
1040
14.99999999999893
1000
ACAD_MTEXT_DEFINED_HEIGHT_END
  0
MTEXT
  5
BCF9
330
1F
100
AcDbEntity
  8
AM_6
100
AcDbMText
 10
233.8566880823615
 20
157.9999999999999
 30
0.0
 40
3.2
 41
10.0
 71
     5
 72
     5
  1
2
 73
     1
 44
1.0
1001
ACAD
1000
MTEXTBEGIN
1070
    73
1070
     1
1070
    44
1040
1.0
1070
    74
1070
     0
1000
MTEXTEND
1000
ACAD_MTEXT_DEFINED_HEIGHT_BEGIN
1070
    46
1040
14.9999999999991
1000
ACAD_MTEXT_DEFINED_HEIGHT_END
  0
MTEXT
  5
BCFB
330
1F
100
AcDbEntity
  8
AM_6
100
AcDbMText
 10
183.8566880823614
 20
163.0000000000002
 30
0.0
 40
3.2
 41
10.0
 71
     5
 72
     5
  1
22
 73
     1
 44
1.0
1001
ACAD
1000
MTEXTBEGIN
1070
    73
1070
     1
1070
    44
1040
1.0
1070
    74
1070
     0
1000
MTEXTEND
1000
ACAD_MTEXT_DEFINED_HEIGHT_BEGIN
1070
    46
1040
4.999999999999273
1000
ACAD_MTEXT_DEFINED_HEIGHT_END
  0
MTEXT
  5
BCFC
330
1F
100
AcDbEntity
  8
AM_6
100
AcDbMText
 10
183.8566880823615
 20
158.0000000000005
 30
0.0
 40
3.2
 41
10.00000000000003
 71
     5
 72
     5
  1
27
 73
     1
 44
1.0
1001
ACAD
1000
MTEXTBEGIN
1070
    73
1070
     1
1070
    44
1040
1.0
1070
    74
1070
     0
1000
MTEXTEND
1000
ACAD_MTEXT_DEFINED_HEIGHT_BEGIN
1070
    46
1040
4.999999999999813
1000
ACAD_MTEXT_DEFINED_HEIGHT_END
  0
LINE
  5
BCFD
330
1F
100
AcDbEntity
  8
AM_2
100
AcDbLine
 10
178.8566880823615
 20
155.5000000000005
 30
0.0
 11
198.8566880823613
 21
155.5000000000006
 31
0.0
  0
LINE
  5
BD08
330
1F
100
AcDbEntity
  8
AM_2
100
AcDbLine
 10
178.8566880823615
 20
145.5000000000005
 30
0.0
 11
198.8566880823614
 21
145.5000000000006
 31
0.0
  0
MTEXT
  5
BD09
330
1F
100
AcDbEntity
  8
AM_6
100
AcDbMText
 10
163.8566880823615
 20
145.5000000000002
 30
0.0
 40
3.2
 41
10.0
 71
     5
 72
     5
  1
16
 73
     1
 44
1.0
1001
ACAD
1000
MTEXTBEGIN
1070
    73
1070
     1
1070
    44
1040
1.0
1070
    74
1070
     0
1000
MTEXTEND
1000
ACAD_MTEXT_DEFINED_HEIGHT_BEGIN
1070
    46
1040
9.9999999999995
1000
ACAD_MTEXT_DEFINED_HEIGHT_END
  0
MTEXT
  5
BD0A
330
1F
100
AcDbEntity
  8
AM_6
100
AcDbMText
 10
173.8566880823614
 20
145.5000000000002
 30
0.0
 40
3.2
 41
10.0
 71
     5
 72
     5
  1
M6
 73
     1
 44
1.0
1001
ACAD
1000
MTEXTBEGIN
1070
    73
1070
     1
1070
    44
1040
1.0
1070
    74
1070
     0
1000
MTEXTEND
1000
ACAD_MTEXT_DEFINED_HEIGHT_BEGIN
1070
    46
1040
9.9999999999995
1000
ACAD_MTEXT_DEFINED_HEIGHT_END
  0
MTEXT
  5
BD0C
330
1F
100
AcDbEntity
  8
AM_6
100
AcDbMText
 10
203.8566880823615
 20
145.5
 30
0.0
 40
3.2
 41
10.0
 71
     5
 72
     5
  1
9
 73
     1
 44
1.0
1001
ACAD
1000
MTEXTBEGIN
1070
    73
1070
     1
1070
    44
1040
1.0
1070
    74
1070
     0
1000
MTEXTEND
1000
ACAD_MTEXT_DEFINED_HEIGHT_BEGIN
1070
    46
1040
9.9999999999995
1000
ACAD_MTEXT_DEFINED_HEIGHT_END
  0
MTEXT
  5
BD0D
330
1F
100
AcDbEntity
  8
AM_6
100
AcDbMText
 10
213.8566880823615
 20
145.4999999999999
 30
0.0
 40
3.2
 41
10.0
 71
     5
 72
     5
  1
4.8
 73
     1
 44
1.0
1001
ACAD
1000
MTEXTBEGIN
1070
    73
1070
     1
1070
    44
1040
1.0
1070
    74
1070
     0
1000
MTEXTEND
1000
ACAD_MTEXT_DEFINED_HEIGHT_BEGIN
1070
    46
1040
9.9999999999995
1000
ACAD_MTEXT_DEFINED_HEIGHT_END
  0
MTEXT
  5
BD0E
330
1F
100
AcDbEntity
  8
AM_6
100
AcDbMText
 10
223.8566880823615
 20
145.5
 30
0.0
 40
3.2
 41
10.0
 71
     5
 72
     5
  1
8
 73
     1
 44
1.0
1001
ACAD
1000
MTEXTBEGIN
1070
    73
1070
     1
1070
    44
1040
1.0
1070
    74
1070
     0
1000
MTEXTEND
1000
ACAD_MTEXT_DEFINED_HEIGHT_BEGIN
1070
    46
1040
9.999999999999131
1000
ACAD_MTEXT_DEFINED_HEIGHT_END
  0
MTEXT
  5
BD0F
330
1F
100
AcDbEntity
  8
AM_6
100
AcDbMText
 10
233.8566880823615
 20
145.4999999999997
 30
0.0
 40
3.2
 41
10.0
 71
     5
 72
     5
  1
2
 73
     1
 44
1.0
1001
ACAD
1000
MTEXTBEGIN
1070
    73
1070
     1
1070
    44
1040
1.0
1070
    74
1070
     0
1000
MTEXTEND
1000
ACAD_MTEXT_DEFINED_HEIGHT_BEGIN
1070
    46
1040
9.9999999999995
1000
ACAD_MTEXT_DEFINED_HEIGHT_END
  0
MTEXT
  5
BD14
330
1F
100
AcDbEntity
  8
AM_6
100
AcDbMText
 10
183.8566880823614
 20
153.0000000000002
 30
0.0
 40
3.2
 41
10.0
 71
     5
 72
     5
  1
37
 73
     1
 44
1.0
1001
ACAD
1000
MTEXTBEGIN
1070
    73
1070
     1
1070
    44
1040
1.0
1070
    74
1070
     0
1000
MTEXTEND
1000
ACAD_MTEXT_DEFINED_HEIGHT_BEGIN
1070
    46
1040
4.999999999999273
1000
ACAD_MTEXT_DEFINED_HEIGHT_END
  0
MTEXT
  5
BD16
330
1F
100
AcDbEntity
  8
AM_6
100
AcDbMText
 10
183.8566880823615
 20
148.0000000000002
 30
0.0
 40
3.2
 41
10.0
 71
     5
 72
     5
  1
21
 73
     1
 44
1.0
1001
ACAD
1000
MTEXTBEGIN
1070
    73
1070
     1
1070
    44
1040
1.0
1070
    74
1070
     0
1000
MTEXTEND
1000
ACAD_MTEXT_DEFINED_HEIGHT_BEGIN
1070
    46
1040
4.999999999999273
1000
ACAD_MTEXT_DEFINED_HEIGHT_END
  0
MTEXT
  5
BD17
330
1F
100
AcDbEntity
  8
AM_6
100
AcDbMText
 10
183.8566880823615
 20
143.0000000000005
 30
0.0
 40
3.2
 41
10.00000000000003
 71
     5
 72
     5
  1
26
 73
     1
 44
1.0
1001
ACAD
1000
MTEXTBEGIN
1070
    73
1070
     1
1070
    44
1040
1.0
1070
    74
1070
     0
1000
MTEXTEND
1000
ACAD_MTEXT_DEFINED_HEIGHT_BEGIN
1070
    46
1040
4.999999999999813
1000
ACAD_MTEXT_DEFINED_HEIGHT_END
  0
TEXT
  5
BDB8
330
1F
100
AcDbEntity
  8
AM_6
 60
     1
100
AcDbText
 10
285.5
 20
8.5
 30
0.0
 40
2.5
  1
!GENTITLE-INSERT
100
AcDbText
  0
TEXT
  5
BDB9
330
1F
100
AcDbEntity
  8
AM_6
 60
     1
100
AcDbText
 10
297.0
 20
210.0
 30
0.0
 40
2.5
  1
!GENTITLE-MAX
100
AcDbText
  0
TEXT
  5
BDBA
330
1F
100
AcDbEntity
  8
AM_6
 60
     1
100
AcDbText
 10
297.0
 20
210.0
 30
0.0
 40
2.5
  1
!GENTITLE-RU
100
AcDbText
  0
LINE
  5
BDBB
330
1F
100
AcDbEntity
  8
size
100
AcDbLine
 10
0.0
 20
210.0
 30
0.0
 11
297.0
 21
210.0
 31
0.0
1001
GENIUS_GENREC_14
1002
{
1000
PYDIR
1011
0.0000000000000142
1021
297.0
1031
0.0
1002
}
1002
{
1000
PXDIR
1011
420.0
1021
0.0
1031
0.0
1002
}
1002
{
1000
PORI
1011
0.0
1021
0.0
1031
0.0
1002
}
1002
{
1000
PINS
1011
210.0
1021
148.4999999999999
1031
0.0
1002
}
1002
{
1000
HVAL
1000
297
1002
}
1002
{
1000
H
1070
     2
1002
}
1002
{
1000
WVAL
1000
420
1002
}
1002
{
1000
W
1070
     2
1002
}
1002
{
1000
C
1070
     4
1002
}
1001
GENIUS_GENOBJ-N-REC_13
1002
{
1000
OWNER
1000
GEN
1002
}
1001
GENIUS_GENODEF_13
1002
{
1000
HIER
1070
     0
1002
}
1002
{
1000
MANEDIT
1070
     0
1002
}
1002
{
1000
NOSEL
1070
     0
1002
}
1002
{
1000
BEHIND
1070
     0
1002
}
1002
{
1000
OTHER
1070
     0
1002
}
1002
{
1000
REACTOR
1002
}
  0
TEXT
  5
BDBC
330
1F
100
AcDbEntity
  8
AM_6
 60
     1
100
AcDbText
 10
0.0
 20
0.0
 30
0.0
 40
2.5
  1
!GENTITLE-LL
100
AcDbText
  0
LINE
  5
BDBD
330
1F
100
AcDbEntity
  8
size
100
AcDbLine
 10
297.0
 20
210.0
 30
0.0
 11
297.0
 21
-0.0000000000000284
 31
0.0
1001
GENIUS_GENREC_14
1002
{
1000
PYDIR
1011
0.0000000000000142
1021
297.0
1031
0.0
1002
}
1002
{
1000
PXDIR
1011
420.0
1021
0.0
1031
0.0
1002
}
1002
{
1000
PORI
1011
0.0
1021
0.0
1031
0.0
1002
}
1002
{
1000
PINS
1011
210.0
1021
148.4999999999999
1031
0.0
1002
}
1002
{
1000
HVAL
1000
297
1002
}
1002
{
1000
H
1070
     2
1002
}
1002
{
1000
WVAL
1000
420
1002
}
1002
{
1000
W
1070
     2
1002
}
1002
{
1000
C
1070
     4
1002
}
1001
GENIUS_GENOBJ-N-REC_13
1002
{
1000
OWNER
1000
GEN
1002
}
1001
GENIUS_GENODEF_13
1002
{
1000
HIER
1070
     0
1002
}
1002
{
1000
MANEDIT
1070
     0
1002
}
1002
{
1000
NOSEL
1070
     0
1002
}
1002
{
1000
BEHIND
1070
     0
1002
}
1002
{
1000
OTHER
1070
     0
1002
}
1002
{
1000
REACTOR
1002
}
  0
LINE
  5
BDBE
330
1F
100
AcDbEntity
  8
waku
100
AcDbLine
 10
11.5
 20
8.5
 30
0.0
 11
285.5
 21
8.5
 31
0.0
1001
GENIUS_GENREC_14
1002
{
1000
PYDIR
1011
0.0000000000000142
1021
297.0
1031
0.0
1002
}
1002
{
1000
PXDIR
1011
420.0
1021
0.0
1031
0.0
1002
}
1002
{
1000
PORI
1011
0.0
1021
0.0
1031
0.0
1002
}
1002
{
1000
PINS
1011
210.0
1021
148.4999999999999
1031
0.0
1002
}
1002
{
1000
HVAL
1000
297
1002
}
1002
{
1000
H
1070
     2
1002
}
1002
{
1000
WVAL
1000
420
1002
}
1002
{
1000
W
1070
     2
1002
}
1002
{
1000
C
1070
     4
1002
}
  0
LINE
  5
BDBF
330
1F
100
AcDbEntity
  8
waku
100
AcDbLine
 10
285.5
 20
201.5
 30
0.0
 11
11.5
 21
201.5
 31
0.0
1001
GENIUS_GENREC_14
1002
{
1000
PYDIR
1011
-123.0
1021
210.0
1031
0.0
1002
}
1002
{
1000
PXDIR
1011
297.0
1021
-87.0
1031
0.0
1002
}
1002
{
1000
PORI
1011
-123.0
1021
-87.0
1031
0.0
1002
}
1002
{
1000
PINS
1011
87.00000000000002
1021
61.49999999999997
1031
0.0
1002
}
1002
{
1000
HVAL
1000
297
1002
}
1002
{
1000
H
1070
     2
1002
}
1002
{
1000
WVAL
1000
420
1002
}
1002
{
1000
W
1070
     2
1002
}
1002
{
1000
C
1070
     4
1002
}
1001
GENIUS_GENOBJ-N-REC_13
1002
{
1000
OWNER
1000
GEN
1002
}
1001
GENIUS_GENODEF_13
1002
{
1000
HIER
1070
     0
1002
}
1002
{
1000
MANEDIT
1070
     0
1002
}
1002
{
1000
NOSEL
1070
     0
1002
}
1002
{
1000
BEHIND
1070
     0
1002
}
1002
{
1000
OTHER
1070
     0
1002
}
1002
{
1000
REACTOR
1002
}
  0
LINE
  5
BDC0
330
1F
100
AcDbEntity
  8
waku
100
AcDbLine
 10
11.50000000000002
 20
201.5
 30
0.0
 11
11.5
 21
8.5
 31
0.0
1001
GENIUS_GENREC_14
1002
{
1000
PYDIR
1011
0.0000000000000142
1021
297.0
1031
0.0
1002
}
1002
{
1000
PXDIR
1011
420.0
1021
0.0
1031
0.0
1002
}
1002
{
1000
PORI
1011
0.0
1021
0.0
1031
0.0
1002
}
1002
{
1000
PINS
1011
210.0
1021
148.4999999999999
1031
0.0
1002
}
1002
{
1000
HVAL
1000
297
1002
}
1002
{
1000
H
1070
     2
1002
}
1002
{
1000
WVAL
1000
420
1002
}
1002
{
1000
W
1070
     2
1002
}
1002
{
1000
C
1070
     4
1002
}
1001
GENIUS_GENOBJ-N-REC_13
1002
{
1000
OWNER
1000
GEN
1002
}
1001
GENIUS_GENODEF_13
1002
{
1000
HIER
1070
     0
1002
}
1002
{
1000
MANEDIT
1070
     0
1002
}
1002
{
1000
NOSEL
1070
     0
1002
}
1002
{
1000
BEHIND
1070
     0
1002
}
1002
{
1000
OTHER
1070
     0
1002
}
1002
{
1000
REACTOR
1002
}
  0
LINE
  5
BDC1
330
1F
100
AcDbEntity
  8
waku
100
AcDbLine
 10
285.5
 20
8.5
 30
0.0
 11
285.5
 21
201.5
 31
0.0
1001
GENIUS_GENREC_14
1002
{
1000
PYDIR
1011
-123.0
1021
216.0
1031
0.0
1002
}
1002
{
1000
PXDIR
1011
297.0
1021
-81.0
1031
0.0
1002
}
1002
{
1000
PORI
1011
-123.0
1021
-81.0
1031
0.0
1002
}
1002
{
1000
PINS
1011
87.00000000000002
1021
67.49999999999997
1031
0.0
1002
}
1002
{
1000
HVAL
1000
297
1002
}
1002
{
1000
H
1070
     2
1002
}
1002
{
1000
WVAL
1000
420
1002
}
1002
{
1000
W
1070
     2
1002
}
1002
{
1000
C
1070
     4
1002
}
1001
GENIUS_GENOBJ-N-REC_13
1002
{
1000
OWNER
1000
GEN
1002
}
1001
GENIUS_GENODEF_13
1002
{
1000
HIER
1070
     0
1002
}
1002
{
1000
MANEDIT
1070
     0
1002
}
1002
{
1000
NOSEL
1070
     0
1002
}
1002
{
1000
BEHIND
1070
     0
1002
}
1002
{
1000
OTHER
1070
     0
1002
}
1002
{
1000
REACTOR
1002
}
  0
LINE
  5
BDC2
330
1F
100
AcDbEntity
  8
size
100
AcDbLine
 10
0.0000000000000213
 20
210.0
 30
0.0
 11
0.0
 21
0.0
 31
0.0
1001
GENIUS_GENREC_14
1002
{
1000
PYDIR
1011
0.0000000000000142
1021
297.0
1031
0.0
1002
}
1002
{
1000
PXDIR
1011
420.0
1021
0.0
1031
0.0
1002
}
1002
{
1000
PORI
1011
0.0
1021
0.0
1031
0.0
1002
}
1002
{
1000
PINS
1011
210.0
1021
148.4999999999999
1031
0.0
1002
}
1002
{
1000
HVAL
1000
297
1002
}
1002
{
1000
H
1070
     2
1002
}
1002
{
1000
WVAL
1000
420
1002
}
1002
{
1000
W
1070
     2
1002
}
1002
{
1000
C
1070
     4
1002
}
1001
GENIUS_GENOBJ-N-REC_13
1002
{
1000
OWNER
1000
GEN
1002
}
1001
GENIUS_GENODEF_13
1002
{
1000
HIER
1070
     0
1002
}
1002
{
1000
MANEDIT
1070
     0
1002
}
1002
{
1000
NOSEL
1070
     0
1002
}
1002
{
1000
BEHIND
1070
     0
1002
}
1002
{
1000
OTHER
1070
     0
1002
}
1002
{
1000
REACTOR
1002
}
  0
LINE
  5
BDC3
330
1F
100
AcDbEntity
  8
size
100
AcDbLine
 10
0.0
 20
0.0
 30
0.0
 11
297.0
 21
0.0
 31
0.0
1001
GENIUS_GENREC_14
1002
{
1000
PYDIR
1011
0.0000000000000142
1021
297.0
1031
0.0
1002
}
1002
{
1000
PXDIR
1011
420.0
1021
0.0
1031
0.0
1002
}
1002
{
1000
PORI
1011
0.0
1021
0.0
1031
0.0
1002
}
1002
{
1000
PINS
1011
210.0
1021
148.4999999999999
1031
0.0
1002
}
1002
{
1000
HVAL
1000
297
1002
}
1002
{
1000
H
1070
     2
1002
}
1002
{
1000
WVAL
1000
420
1002
}
1002
{
1000
W
1070
     2
1002
}
1002
{
1000
C
1070
     4
1002
}
1001
GENIUS_GENOBJ-N-REC_13
1002
{
1000
OWNER
1000
GEN
1002
}
1001
GENIUS_GENODEF_13
1002
{
1000
HIER
1070
     0
1002
}
1002
{
1000
MANEDIT
1070
     0
1002
}
1002
{
1000
NOSEL
1070
     0
1002
}
1002
{
1000
BEHIND
1070
     0
1002
}
1002
{
1000
OTHER
1070
     0
1002
}
1002
{
1000
REACTOR
1002
}
  0
LINE
  5
C873
330
1F
100
AcDbEntity
  8
AM_2
100
AcDbLine
 10
248.8566880823613
 20
193.5000000000003
 30
0.0
 11
248.8566880823617
 21
115.5000000000005
 31
0.0
  0
LINE
  5
C874
330
1F
100
AcDbEntity
  8
AM_2
100
AcDbLine
 10
258.8566880823613
 20
193.5000000000003
 30
0.0
 11
258.8566880823616
 21
115.5000000000005
 31
0.0
  0
MTEXT
  5
C875
330
1F
100
AcDbEntity
  8
AM_6
100
AcDbMText
 10
253.8566880823613
 20
189.5
 30
0.0
 40
3.2
 41
10.0
 71
     5
 72
     5
  1
%%cJ
 73
     1
 44
1.0
1001
ACAD
1000
MTEXTBEGIN
1070
    73
1070
     1
1070
    44
1040
1.0
1070
    74
1070
     0
1000
MTEXTEND
1000
ACAD_MTEXT_DEFINED_HEIGHT_BEGIN
1070
    46
1040
8.000000000000524
1000
ACAD_MTEXT_DEFINED_HEIGHT_END
  0
MTEXT
  5
C876
330
1F
100
AcDbEntity
  8
AM_6
100
AcDbMText
 10
263.8566880823613
 20
189.5
 30
0.0
 40
3.2
 41
10.0
 71
     5
 72
     5
  1
K
 73
     1
 44
1.0
1001
ACAD
1000
MTEXTBEGIN
1070
    73
1070
     1
1070
    44
1040
1.0
1070
    74
1070
     0
1000
MTEXTEND
1000
ACAD_MTEXT_DEFINED_HEIGHT_BEGIN
1070
    46
1040
8.000000000000524
1000
ACAD_MTEXT_DEFINED_HEIGHT_END
  0
MTEXT
  5
C877
330
1F
100
AcDbEntity
  8
AM_6
100
AcDbMText
 10
253.8566880823613
 20
175.4999999999996
 30
0.0
 40
3.2
 41
10.0
 71
     5
 72
     5
  1
10
 73
     1
 44
1.0
1001
ACAD
1000
MTEXTBEGIN
1070
    73
1070
     1
1070
    44
1040
1.0
1070
    74
1070
     0
1000
MTEXTEND
1000
ACAD_MTEXT_DEFINED_HEIGHT_BEGIN
1070
    46
1040
19.99999999999913
1000
ACAD_MTEXT_DEFINED_HEIGHT_END
  0
MTEXT
  5
C878
330
1F
100
AcDbEntity
  8
AM_6
100
AcDbMText
 10
263.8566880823613
 20
175.4999999999995
 30
0.0
 40
3.2
 41
10.0
 71
     5
 72
     5
  1
1
 73
     1
 44
1.0
1001
ACAD
1000
MTEXTBEGIN
1070
    73
1070
     1
1070
    44
1040
1.0
1070
    74
1070
     0
1000
MTEXTEND
1000
ACAD_MTEXT_DEFINED_HEIGHT_BEGIN
1070
    46
1040
19.99999999999913
1000
ACAD_MTEXT_DEFINED_HEIGHT_END
  0
MTEXT
  5
C879
330
1F
100
AcDbEntity
  8
AM_6
100
AcDbMText
 10
243.8566880823614
 20
158.0
 30
0.0
 40
3.2
 41
10.0
 71
     5
 72
     5
  1
1.7
 73
     1
 44
1.0
1001
ACAD
1000
MTEXTBEGIN
1070
    73
1070
     1
1070
    44
1040
1.0
1070
    74
1070
     0
1000
MTEXTEND
1000
ACAD_MTEXT_DEFINED_HEIGHT_BEGIN
1070
    46
1040
14.9999999999991
1000
ACAD_MTEXT_DEFINED_HEIGHT_END
  0
MTEXT
  5
C87A
330
1F
100
AcDbEntity
  8
AM_6
100
AcDbMText
 10
253.8566880823614
 20
157.9999999999999
 30
0.0
 40
3.2
 41
10.0
 71
     5
 72
     5
  1
10
 73
     1
 44
1.0
1001
ACAD
1000
MTEXTBEGIN
1070
    73
1070
     1
1070
    44
1040
1.0
1070
    74
1070
     0
1000
MTEXTEND
1000
ACAD_MTEXT_DEFINED_HEIGHT_BEGIN
1070
    46
1040
14.9999999999991
1000
ACAD_MTEXT_DEFINED_HEIGHT_END
  0
MTEXT
  5
C87B
330
1F
100
AcDbEntity
  8
AM_6
100
AcDbMText
 10
243.8566880823615
 20
145.4999999999998
 30
0.0
 40
3.2
 41
10.0
 71
     5
 72
     5
  1
1.7
 73
     1
 44
1.0
1001
ACAD
1000
MTEXTBEGIN
1070
    73
1070
     1
1070
    44
1040
1.0
1070
    74
1070
     0
1000
MTEXTEND
1000
ACAD_MTEXT_DEFINED_HEIGHT_BEGIN
1070
    46
1040
9.9999999999995
1000
ACAD_MTEXT_DEFINED_HEIGHT_END
  0
MTEXT
  5
C87C
330
1F
100
AcDbEntity
  8
AM_6
100
AcDbMText
 10
253.8566880823616
 20
145.4999999999997
 30
0.0
 40
3.2
 41
10.0
 71
     5
 72
     5
  1
10
 73
     1
 44
1.0
1001
ACAD
1000
MTEXTBEGIN
1070
    73
1070
     1
1070
    44
1040
1.0
1070
    74
1070
     0
1000
MTEXTEND
1000
ACAD_MTEXT_DEFINED_HEIGHT_BEGIN
1070
    46
1040
9.9999999999995
1000
ACAD_MTEXT_DEFINED_HEIGHT_END
  0
LINE
  5
C87D
330
1F
100
AcDbEntity
  8
AM_2
100
AcDbLine
 10
178.8566880823614
 20
155.5000000000002
 30
0.0
 11
198.8566880823614
 21
155.5000000000002
 31
0.0
  0
LINE
  5
C87E
330
1F
100
AcDbEntity
  8
AM_2
100
AcDbLine
 10
123.8566880823618
 20
140.5000000000001
 30
0.0
 11
158.8566880823615
 21
140.5000000000002
 31
0.0
  0
LINE
  5
C87F
330
1F
100
AcDbEntity
  8
AM_2
100
AcDbLine
 10
123.8566880823618
 20
140.5000000000001
 30
0.0
 11
268.8566880823614
 21
140.5000000000006
 31
0.0
  0
LINE
  5
C880
330
1F
100
AcDbEntity
  8
AM_2
100
AcDbLine
 10
123.8566880823618
 20
135.5000000000001
 30
0.0
 11
158.8566880823615
 21
135.5000000000002
 31
0.0
  0
LINE
  5
C881
330
1F
100
AcDbEntity
  8
AM_2
100
AcDbLine
 10
178.8566880823615
 20
135.5000000000003
 30
0.0
 11
198.8566880823614
 21
135.5000000000003
 31
0.0
  0
MTEXT
  5
C882
330
1F
100
AcDbEntity
  8
AM_6
100
AcDbMText
 10
141.4006897000406
 20
148.0000000000001
 30
0.0
 40
3.2
 41
35.08800323535749
 71
     5
 72
     5
  1
SCR-MK104S-8
 73
     1
 44
1.0
1001
ACAD
1000
MTEXTBEGIN
1070
    73
1070
     1
1070
    44
1040
1.0
1070
    74
1070
     0
1000
MTEXTEND
1000
ACAD_MTEXT_DEFINED_HEIGHT_BEGIN
1070
    46
1040
4.999999999999943
1000
ACAD_MTEXT_DEFINED_HEIGHT_END
  0
MTEXT
  5
C883
330
1F
100
AcDbEntity
  8
AM_6
100
AcDbMText
 10
141.4006897000406
 20
143.0000000000001
 30
0.0
 40
3.2
 41
35.08800323535749
 71
     5
 72
     5
  1
SCR-MK104S-9
 73
     1
 44
1.0
1001
ACAD
1000
MTEXTBEGIN
1070
    73
1070
     1
1070
    44
1040
1.0
1070
    74
1070
     0
1000
MTEXTEND
1000
ACAD_MTEXT_DEFINED_HEIGHT_BEGIN
1070
    46
1040
4.999999999999943
1000
ACAD_MTEXT_DEFINED_HEIGHT_END
  0
LINE
  5
C884
330
1F
100
AcDbEntity
  8
AM_2
100
AcDbLine
 10
178.8566880823615
 20
135.5000000000006
 30
0.0
 11
198.8566880823614
 21
135.5000000000007
 31
0.0
  0
MTEXT
  5
C885
330
1F
100
AcDbEntity
  8
AM_6
100
AcDbMText
 10
163.8566880823615
 20
135.5000000000003
 30
0.0
 40
3.2
 41
10.0
 71
     5
 72
     5
  1
18
 73
     1
 44
1.0
1001
ACAD
1000
MTEXTBEGIN
1070
    73
1070
     1
1070
    44
1040
1.0
1070
    74
1070
     0
1000
MTEXTEND
1000
ACAD_MTEXT_DEFINED_HEIGHT_BEGIN
1070
    46
1040
9.9999999999995
1000
ACAD_MTEXT_DEFINED_HEIGHT_END
  0
MTEXT
  5
C886
330
1F
100
AcDbEntity
  8
AM_6
100
AcDbMText
 10
173.8566880823615
 20
135.5000000000003
 30
0.0
 40
3.2
 41
10.0
 71
     5
 72
     5
  1
M6
 73
     1
 44
1.0
1001
ACAD
1000
MTEXTBEGIN
1070
    73
1070
     1
1070
    44
1040
1.0
1070
    74
1070
     0
1000
MTEXTEND
1000
ACAD_MTEXT_DEFINED_HEIGHT_BEGIN
1070
    46
1040
9.9999999999995
1000
ACAD_MTEXT_DEFINED_HEIGHT_END
  0
MTEXT
  5
C888
330
1F
100
AcDbEntity
  8
AM_6
100
AcDbMText
 10
203.8566880823615
 20
135.5
 30
0.0
 40
3.2
 41
10.0
 71
     5
 72
     5
  1
9
 73
     1
 44
1.0
1001
ACAD
1000
MTEXTBEGIN
1070
    73
1070
     1
1070
    44
1040
1.0
1070
    74
1070
     0
1000
MTEXTEND
1000
ACAD_MTEXT_DEFINED_HEIGHT_BEGIN
1070
    46
1040
9.9999999999995
1000
ACAD_MTEXT_DEFINED_HEIGHT_END
  0
MTEXT
  5
C889
330
1F
100
AcDbEntity
  8
AM_6
100
AcDbMText
 10
213.8566880823615
 20
135.4999999999999
 30
0.0
 40
3.2
 41
10.0
 71
     5
 72
     5
  1
4.8
 73
     1
 44
1.0
1001
ACAD
1000
MTEXTBEGIN
1070
    73
1070
     1
1070
    44
1040
1.0
1070
    74
1070
     0
1000
MTEXTEND
1000
ACAD_MTEXT_DEFINED_HEIGHT_BEGIN
1070
    46
1040
9.9999999999995
1000
ACAD_MTEXT_DEFINED_HEIGHT_END
  0
MTEXT
  5
C88A
330
1F
100
AcDbEntity
  8
AM_6
100
AcDbMText
 10
223.8566880823615
 20
135.5000000000001
 30
0.0
 40
3.2
 41
10.0
 71
     5
 72
     5
  1
8
 73
     1
 44
1.0
1001
ACAD
1000
MTEXTBEGIN
1070
    73
1070
     1
1070
    44
1040
1.0
1070
    74
1070
     0
1000
MTEXTEND
1000
ACAD_MTEXT_DEFINED_HEIGHT_BEGIN
1070
    46
1040
9.999999999999131
1000
ACAD_MTEXT_DEFINED_HEIGHT_END
  0
MTEXT
  5
C88B
330
1F
100
AcDbEntity
  8
AM_6
100
AcDbMText
 10
233.8566880823615
 20
135.4999999999998
 30
0.0
 40
3.2
 41
10.0
 71
     5
 72
     5
  1
2
 73
     1
 44
1.0
1001
ACAD
1000
MTEXTBEGIN
1070
    73
1070
     1
1070
    44
1040
1.0
1070
    74
1070
     0
1000
MTEXTEND
1000
ACAD_MTEXT_DEFINED_HEIGHT_BEGIN
1070
    46
1040
9.9999999999995
1000
ACAD_MTEXT_DEFINED_HEIGHT_END
  0
MTEXT
  5
C88D
330
1F
100
AcDbEntity
  8
AM_6
100
AcDbMText
 10
183.8566880823615
 20
138.0000000000003
 30
0.0
 40
3.2
 41
10.0
 71
     5
 72
     5
  1
36
 73
     1
 44
1.0
1001
ACAD
1000
MTEXTBEGIN
1070
    73
1070
     1
1070
    44
1040
1.0
1070
    74
1070
     0
1000
MTEXTEND
1000
ACAD_MTEXT_DEFINED_HEIGHT_BEGIN
1070
    46
1040
4.999999999999273
1000
ACAD_MTEXT_DEFINED_HEIGHT_END
  0
MTEXT
  5
C88E
330
1F
100
AcDbEntity
  8
AM_6
100
AcDbMText
 10
183.8566880823615
 20
133.0000000000006
 30
0.0
 40
3.2
 41
10.00000000000003
 71
     5
 72
     5
  1
50
 73
     1
 44
1.0
1001
ACAD
1000
MTEXTBEGIN
1070
    73
1070
     1
1070
    44
1040
1.0
1070
    74
1070
     0
1000
MTEXTEND
1000
ACAD_MTEXT_DEFINED_HEIGHT_BEGIN
1070
    46
1040
4.999999999999813
1000
ACAD_MTEXT_DEFINED_HEIGHT_END
  0
MTEXT
  5
C88F
330
1F
100
AcDbEntity
  8
AM_6
100
AcDbMText
 10
243.8566880823616
 20
135.4999999999999
 30
0.0
 40
3.2
 41
10.0
 71
     5
 72
     5
  1
1.7
 73
     1
 44
1.0
1001
ACAD
1000
MTEXTBEGIN
1070
    73
1070
     1
1070
    44
1040
1.0
1070
    74
1070
     0
1000
MTEXTEND
1000
ACAD_MTEXT_DEFINED_HEIGHT_BEGIN
1070
    46
1040
9.9999999999995
1000
ACAD_MTEXT_DEFINED_HEIGHT_END
  0
MTEXT
  5
C890
330
1F
100
AcDbEntity
  8
AM_6
100
AcDbMText
 10
253.8566880823616
 20
135.4999999999998
 30
0.0
 40
3.2
 41
10.0
 71
     5
 72
     5
  1
10
 73
     1
 44
1.0
1001
ACAD
1000
MTEXTBEGIN
1070
    73
1070
     1
1070
    44
1040
1.0
1070
    74
1070
     0
1000
MTEXTEND
1000
ACAD_MTEXT_DEFINED_HEIGHT_BEGIN
1070
    46
1040
9.9999999999995
1000
ACAD_MTEXT_DEFINED_HEIGHT_END
  0
LINE
  5
C891
330
1F
100
AcDbEntity
  8
AM_2
100
AcDbLine
 10
123.8566880823619
 20
130.5000000000001
 30
0.0
 11
268.8566880823618
 21
130.5000000000006
 31
0.0
  0
LINE
  5
C892
330
1F
100
AcDbEntity
  8
AM_2
100
AcDbLine
 10
123.856688082362
 20
125.5
 30
0.0
 11
158.8566880823618
 21
125.5000000000001
 31
0.0
  0
LINE
  5
C893
330
1F
100
AcDbEntity
  8
AM_2
100
AcDbLine
 10
178.8566880823618
 20
125.5000000000002
 30
0.0
 11
198.8566880823614
 21
125.5000000000003
 31
0.0
  0
LINE
  5
C894
330
1F
100
AcDbEntity
  8
AM_2
100
AcDbLine
 10
123.856688082362
 20
120.5000000000001
 30
0.0
 11
158.8566880823618
 21
120.5000000000002
 31
0.0
  0
LINE
  5
C895
330
1F
100
AcDbEntity
  8
AM_2
100
AcDbLine
 10
178.8566880823617
 20
120.5000000000003
 30
0.0
 11
198.8566880823614
 21
120.5000000000003
 31
0.0
  0
LINE
  5
C896
330
1F
100
AcDbEntity
  8
AM_2
100
AcDbLine
 10
178.8566880823618
 20
120.5000000000003
 30
0.0
 11
198.8566880823614
 21
120.5000000000004
 31
0.0
  0
LINE
  5
C89A
330
1F
100
AcDbEntity
  8
AM_2
100
AcDbLine
 10
178.8566880823618
 20
125.5000000000006
 30
0.0
 11
198.8566880823614
 21
125.5000000000007
 31
0.0
  0
MTEXT
  5
C89B
330
1F
100
AcDbEntity
  8
AM_6
100
AcDbMText
 10
163.8566880823618
 20
123.0000000000001
 30
0.0
 40
3.2
 41
10.0
 71
     5
 72
     5
  1
22
 73
     1
 44
1.0
1001
ACAD
1000
MTEXTBEGIN
1070
    73
1070
     1
1070
    44
1040
1.0
1070
    74
1070
     0
1000
MTEXTEND
1000
ACAD_MTEXT_DEFINED_HEIGHT_BEGIN
1070
    46
1040
14.99999999999984
1000
ACAD_MTEXT_DEFINED_HEIGHT_END
  0
MTEXT
  5
C89C
330
1F
100
AcDbEntity
  8
AM_6
100
AcDbMText
 10
173.8566880823617
 20
123.0000000000001
 30
0.0
 40
3.2
 41
10.00000000000003
 71
     5
 72
     5
  1
M8
 73
     1
 44
1.0
1001
ACAD
1000
MTEXTBEGIN
1070
    73
1070
     1
1070
    44
1040
1.0
1070
    74
1070
     0
1000
MTEXTEND
1000
ACAD_MTEXT_DEFINED_HEIGHT_BEGIN
1070
    46
1040
14.99999999999978
1000
ACAD_MTEXT_DEFINED_HEIGHT_END
  0
MTEXT
  5
C89E
330
1F
100
AcDbEntity
  8
AM_6
100
AcDbMText
 10
213.8566880823618
 20
123.0
 30
0.0
 40
3.2
 41
10.00000000000011
 71
     5
 72
     5
  1
5.8
 73
     1
 44
1.0
1001
ACAD
1000
MTEXTBEGIN
1070
    73
1070
     1
1070
    44
1040
1.0
1070
    74
1070
     0
1000
MTEXTEND
1000
ACAD_MTEXT_DEFINED_HEIGHT_BEGIN
1070
    46
1040
14.9999999999993
1000
ACAD_MTEXT_DEFINED_HEIGHT_END
  0
MTEXT
  5
C89F
330
1F
100
AcDbEntity
  8
AM_6
100
AcDbMText
 10
223.8566880823618
 20
123.0000000000002
 30
0.0
 40
3.2
 41
9.999999999999886
 71
     5
 72
     5
  1
12
 73
     1
 44
1.0
1001
ACAD
1000
MTEXTBEGIN
1070
    73
1070
     1
1070
    44
1040
1.0
1070
    74
1070
     0
1000
MTEXTEND
1000
ACAD_MTEXT_DEFINED_HEIGHT_BEGIN
1070
    46
1040
14.99999999999893
1000
ACAD_MTEXT_DEFINED_HEIGHT_END
  0
MTEXT
  5
C8A0
330
1F
100
AcDbEntity
  8
AM_6
100
AcDbMText
 10
233.8566880823618
 20
123.0
 30
0.0
 40
3.2
 41
10.0
 71
     5
 72
     5
  1
2
 73
     1
 44
1.0
1001
ACAD
1000
MTEXTBEGIN
1070
    73
1070
     1
1070
    44
1040
1.0
1070
    74
1070
     0
1000
MTEXTEND
1000
ACAD_MTEXT_DEFINED_HEIGHT_BEGIN
1070
    46
1040
14.9999999999991
1000
ACAD_MTEXT_DEFINED_HEIGHT_END
  0
MTEXT
  5
C8A2
330
1F
100
AcDbEntity
  8
AM_6
100
AcDbMText
 10
183.8566880823617
 20
128.0000000000003
 30
0.0
 40
3.2
 41
10.0
 71
     5
 72
     5
  1
34
 73
     1
 44
1.0
1001
ACAD
1000
MTEXTBEGIN
1070
    73
1070
     1
1070
    44
1040
1.0
1070
    74
1070
     0
1000
MTEXTEND
1000
ACAD_MTEXT_DEFINED_HEIGHT_BEGIN
1070
    46
1040
4.999999999999273
1000
ACAD_MTEXT_DEFINED_HEIGHT_END
  0
MTEXT
  5
C8A3
330
1F
100
AcDbEntity
  8
AM_6
100
AcDbMText
 10
183.8566880823618
 20
123.0000000000006
 30
0.0
 40
3.2
 41
10.00000000000003
 71
     5
 72
     5
  1
44
 73
     1
 44
1.0
1001
ACAD
1000
MTEXTBEGIN
1070
    73
1070
     1
1070
    44
1040
1.0
1070
    74
1070
     0
1000
MTEXTEND
1000
ACAD_MTEXT_DEFINED_HEIGHT_BEGIN
1070
    46
1040
4.999999999999813
1000
ACAD_MTEXT_DEFINED_HEIGHT_END
  0
LINE
  5
C8A4
330
1F
100
AcDbEntity
  8
AM_2
100
AcDbLine
 10
178.8566880823618
 20
120.5000000000006
 30
0.0
 11
198.8566880823614
 21
120.5000000000007
 31
0.0
  0
MTEXT
  5
C8A5
330
1F
100
AcDbEntity
  8
AM_6
100
AcDbMText
 10
203.8566880823617
 20
123.0000000000003
 30
0.0
 40
3.2
 41
10.00000000000003
 71
     5
 72
     5
  1
11
 73
     1
 44
1.0
1001
ACAD
1000
MTEXTBEGIN
1070
    73
1070
     1
1070
    44
1040
1.0
1070
    74
1070
     0
1000
MTEXTEND
1000
ACAD_MTEXT_DEFINED_HEIGHT_BEGIN
1070
    46
1040
15.00000000000004
1000
ACAD_MTEXT_DEFINED_HEIGHT_END
  0
MTEXT
  5
C8A6
330
1F
100
AcDbEntity
  8
AM_6
100
AcDbMText
 10
183.8566880823617
 20
118.0000000000003
 30
0.0
 40
3.2
 41
10.0
 71
     5
 72
     5
  1
50
 73
     1
 44
1.0
1001
ACAD
1000
MTEXTBEGIN
1070
    73
1070
     1
1070
    44
1040
1.0
1070
    74
1070
     0
1000
MTEXTEND
1000
ACAD_MTEXT_DEFINED_HEIGHT_BEGIN
1070
    46
1040
4.999999999999273
1000
ACAD_MTEXT_DEFINED_HEIGHT_END
  0
MTEXT
  5
C8A7
330
1F
100
AcDbEntity
  8
AM_6
100
AcDbMText
 10
243.8566880823618
 20
123.0000000000001
 30
0.0
 40
3.2
 41
10.0
 71
     5
 72
     5
  1
1.7
 73
     1
 44
1.0
1001
ACAD
1000
MTEXTBEGIN
1070
    73
1070
     1
1070
    44
1040
1.0
1070
    74
1070
     0
1000
MTEXTEND
1000
ACAD_MTEXT_DEFINED_HEIGHT_BEGIN
1070
    46
1040
14.9999999999991
1000
ACAD_MTEXT_DEFINED_HEIGHT_END
  0
MTEXT
  5
C8A8
330
1F
100
AcDbEntity
  8
AM_6
100
AcDbMText
 10
253.8566880823618
 20
123.0
 30
0.0
 40
3.2
 41
10.0
 71
     5
 72
     5
  1
14
 73
     1
 44
1.0
1001
ACAD
1000
MTEXTBEGIN
1070
    73
1070
     1
1070
    44
1040
1.0
1070
    74
1070
     0
1000
MTEXTEND
1000
ACAD_MTEXT_DEFINED_HEIGHT_BEGIN
1070
    46
1040
14.9999999999991
1000
ACAD_MTEXT_DEFINED_HEIGHT_END
  0
LINE
  5
C8B1
330
1F
100
AcDbEntity
  8
AM_2
100
AcDbLine
 10
123.8566880823615
 20
170.4999999999999
 30
0.0
 11
158.8566880823613
 21
170.5
 31
0.0
  0
LINE
  5
C8B2
330
1F
100
AcDbEntity
  8
AM_2
100
AcDbLine
 10
178.8566880823613
 20
170.5000000000001
 30
0.0
 11
198.8566880823613
 21
170.5000000000002
 31
0.0
  0
MTEXT
  5
C8B3
330
1F
100
AcDbEntity
  8
AM_6
100
AcDbMText
 10
141.4006897000402
 20
173.0
 30
0.0
 40
3.2
 41
35.08800323535749
 71
     5
 72
     5
  1
SCR-MK104S-3
 73
     1
 44
1.0
1001
ACAD
1000
MTEXTBEGIN
1070
    73
1070
     1
1070
    44
1040
1.0
1070
    74
1070
     0
1000
MTEXTEND
1000
ACAD_MTEXT_DEFINED_HEIGHT_BEGIN
1070
    46
1040
4.999999999999943
1000
ACAD_MTEXT_DEFINED_HEIGHT_END
  0
MTEXT
  5
C8B4
330
1F
100
AcDbEntity
  8
AM_6
100
AcDbMText
 10
141.4006897000401
 20
167.9999999999999
 30
0.0
 40
3.2
 41
35.08800323535749
 71
     5
 72
     5
  1
SCR-MK104S-4
 73
     1
 44
1.0
1001
ACAD
1000
MTEXTBEGIN
1070
    73
1070
     1
1070
    44
1040
1.0
1070
    74
1070
     0
1000
MTEXTEND
1000
ACAD_MTEXT_DEFINED_HEIGHT_BEGIN
1070
    46
1040
4.999999999999943
1000
ACAD_MTEXT_DEFINED_HEIGHT_END
  0
LINE
  5
C8B5
330
1F
100
AcDbEntity
  8
AM_2
100
AcDbLine
 10
178.8566880823613
 20
170.5000000000005
 30
0.0
 11
198.8566880823613
 21
170.5000000000005
 31
0.0
  0
MTEXT
  5
C8B6
330
1F
100
AcDbEntity
  8
AM_6
100
AcDbMText
 10
183.8566880823613
 20
173.0000000000002
 30
0.0
 40
3.2
 41
10.0
 71
     5
 72
     5
  1
20
 73
     1
 44
1.0
1001
ACAD
1000
MTEXTBEGIN
1070
    73
1070
     1
1070
    44
1040
1.0
1070
    74
1070
     0
1000
MTEXTEND
1000
ACAD_MTEXT_DEFINED_HEIGHT_BEGIN
1070
    46
1040
4.999999999999273
1000
ACAD_MTEXT_DEFINED_HEIGHT_END
  0
MTEXT
  5
C8B7
330
1F
100
AcDbEntity
  8
AM_6
100
AcDbMText
 10
183.8566880823613
 20
168.0000000000005
 30
0.0
 40
3.2
 41
10.00000000000003
 71
     5
 72
     5
  1
27
 73
     1
 44
1.0
1001
ACAD
1000
MTEXTBEGIN
1070
    73
1070
     1
1070
    44
1040
1.0
1070
    74
1070
     0
1000
MTEXTEND
1000
ACAD_MTEXT_DEFINED_HEIGHT_BEGIN
1070
    46
1040
4.999999999999813
1000
ACAD_MTEXT_DEFINED_HEIGHT_END
  0
LINE
  5
C8B8
330
1F
100
AcDbEntity
  8
AM_2
100
AcDbLine
 10
123.8566880823614
 20
175.4999999999996
 30
0.0
 11
158.8566880823613
 21
175.4999999999997
 31
0.0
  0
LINE
  5
C8B9
330
1F
100
AcDbEntity
  8
AM_2
100
AcDbLine
 10
178.8566880823613
 20
175.4999999999997
 30
0.0
 11
198.8566880823613
 21
175.4999999999998
 31
0.0
  0
MTEXT
  5
C8BA
330
1F
100
AcDbEntity
  8
AM_6
100
AcDbMText
 10
141.4006897000406
 20
138.0000000000001
 30
0.0
 40
3.2
 41
35.08800323535749
 71
     5
 72
     5
  1
SCR-MK104S-10
 73
     1
 44
1.0
1001
ACAD
1000
MTEXTBEGIN
1070
    73
1070
     1
1070
    44
1040
1.0
1070
    74
1070
     0
1000
MTEXTEND
1000
ACAD_MTEXT_DEFINED_HEIGHT_BEGIN
1070
    46
1040
4.999999999999943
1000
ACAD_MTEXT_DEFINED_HEIGHT_END
  0
MTEXT
  5
C8BB
330
1F
100
AcDbEntity
  8
AM_6
100
AcDbMText
 10
141.4006897000407
 20
133.0000000000001
 30
0.0
 40
3.2
 41
35.08800323535749
 71
     5
 72
     5
  1
SCR-MK104S-11
 73
     1
 44
1.0
1001
ACAD
1000
MTEXTBEGIN
1070
    73
1070
     1
1070
    44
1040
1.0
1070
    74
1070
     0
1000
MTEXTEND
1000
ACAD_MTEXT_DEFINED_HEIGHT_BEGIN
1070
    46
1040
4.999999999999943
1000
ACAD_MTEXT_DEFINED_HEIGHT_END
  0
MTEXT
  5
C8BC
330
1F
100
AcDbEntity
  8
AM_6
100
AcDbMText
 10
141.4006897000407
 20
128.0000000000001
 30
0.0
 40
3.2
 41
35.08800323535749
 71
     5
 72
     5
  1
SCR-MK104S-12
 73
     1
 44
1.0
1001
ACAD
1000
MTEXTBEGIN
1070
    73
1070
     1
1070
    44
1040
1.0
1070
    74
1070
     0
1000
MTEXTEND
1000
ACAD_MTEXT_DEFINED_HEIGHT_BEGIN
1070
    46
1040
4.999999999999943
1000
ACAD_MTEXT_DEFINED_HEIGHT_END
  0
MTEXT
  5
C8BD
330
1F
100
AcDbEntity
  8
AM_6
100
AcDbMText
 10
141.4006897000407
 20
123.0000000000002
 30
0.0
 40
3.2
 41
35.08800323535749
 71
     5
 72
     5
  1
SCR-MK104S-13
 73
     1
 44
1.0
1001
ACAD
1000
MTEXTBEGIN
1070
    73
1070
     1
1070
    44
1040
1.0
1070
    74
1070
     0
1000
MTEXTEND
1000
ACAD_MTEXT_DEFINED_HEIGHT_BEGIN
1070
    46
1040
4.999999999999943
1000
ACAD_MTEXT_DEFINED_HEIGHT_END
  0
MTEXT
  5
C8BE
330
1F
100
AcDbEntity
  8
AM_6
100
AcDbMText
 10
141.4006897000407
 20
118.0000000000002
 30
0.0
 40
3.2
 41
35.08800323535749
 71
     5
 72
     5
  1
SCR-MK104S-14
 73
     1
 44
1.0
1001
ACAD
1000
MTEXTBEGIN
1070
    73
1070
     1
1070
    44
1040
1.0
1070
    74
1070
     0
1000
MTEXTEND
1000
ACAD_MTEXT_DEFINED_HEIGHT_BEGIN
1070
    46
1040
4.999999999999943
1000
ACAD_MTEXT_DEFINED_HEIGHT_END
  0
MTEXT
  5
C997
330
1F
100
AcDbEntity
  8
AM_6
100
AcDbMText
 10
193.8566880823612
 20
182.9999999999998
 30
0.0
 40
3.2
 41
10.0
 71
     5
 72
     5
  1
6
 73
     1
 44
1.0
1001
ACAD
1000
MTEXTBEGIN
1070
    73
1070
     1
1070
    44
1040
1.0
1070
    74
1070
     0
1000
MTEXTEND
1000
ACAD_MTEXT_DEFINED_HEIGHT_BEGIN
1070
    46
1040
4.999999999999273
1000
ACAD_MTEXT_DEFINED_HEIGHT_END
  0
MTEXT
  5
C998
330
1F
100
AcDbEntity
  8
AM_6
100
AcDbMText
 10
193.8566880823612
 20
178.0000000000001
 30
0.0
 40
3.2
 41
10.00000000000003
 71
     5
 72
     5
  1
10
 73
     1
 44
1.0
1001
ACAD
1000
MTEXTBEGIN
1070
    73
1070
     1
1070
    44
1040
1.0
1070
    74
1070
     0
1000
MTEXTEND
1000
ACAD_MTEXT_DEFINED_HEIGHT_BEGIN
1070
    46
1040
4.999999999999813
1000
ACAD_MTEXT_DEFINED_HEIGHT_END
  0
MTEXT
  5
C999
330
1F
100
AcDbEntity
  8
AM_6
100
AcDbMText
 10
193.8566880823614
 20
163.0000000000002
 30
0.0
 40
3.2
 41
10.0
 71
     5
 72
     5
  1
14
 73
     1
 44
1.0
1001
ACAD
1000
MTEXTBEGIN
1070
    73
1070
     1
1070
    44
1040
1.0
1070
    74
1070
     0
1000
MTEXTEND
1000
ACAD_MTEXT_DEFINED_HEIGHT_BEGIN
1070
    46
1040
4.999999999999273
1000
ACAD_MTEXT_DEFINED_HEIGHT_END
  0
MTEXT
  5
C99A
330
1F
100
AcDbEntity
  8
AM_6
100
AcDbMText
 10
193.8566880823614
 20
158.0000000000005
 30
0.0
 40
3.2
 41
10.00000000000003
 71
     5
 72
     5
  1
17
 73
     1
 44
1.0
1001
ACAD
1000
MTEXTBEGIN
1070
    73
1070
     1
1070
    44
1040
1.0
1070
    74
1070
     0
1000
MTEXTEND
1000
ACAD_MTEXT_DEFINED_HEIGHT_BEGIN
1070
    46
1040
4.999999999999813
1000
ACAD_MTEXT_DEFINED_HEIGHT_END
  0
MTEXT
  5
C99B
330
1F
100
AcDbEntity
  8
AM_6
100
AcDbMText
 10
193.8566880823614
 20
153.0000000000002
 30
0.0
 40
3.2
 41
10.0
 71
     5
 72
     5
  1
22
 73
     1
 44
1.0
1001
ACAD
1000
MTEXTBEGIN
1070
    73
1070
     1
1070
    44
1040
1.0
1070
    74
1070
     0
1000
MTEXTEND
1000
ACAD_MTEXT_DEFINED_HEIGHT_BEGIN
1070
    46
1040
4.999999999999273
1000
ACAD_MTEXT_DEFINED_HEIGHT_END
  0
MTEXT
  5
C99C
330
1F
100
AcDbEntity
  8
AM_6
100
AcDbMText
 10
193.8566880823614
 20
148.0000000000002
 30
0.0
 40
3.2
 41
10.0
 71
     5
 72
     5
  1
13
 73
     1
 44
1.0
1001
ACAD
1000
MTEXTBEGIN
1070
    73
1070
     1
1070
    44
1040
1.0
1070
    74
1070
     0
1000
MTEXTEND
1000
ACAD_MTEXT_DEFINED_HEIGHT_BEGIN
1070
    46
1040
4.999999999999273
1000
ACAD_MTEXT_DEFINED_HEIGHT_END
  0
MTEXT
  5
C99D
330
1F
100
AcDbEntity
  8
AM_6
100
AcDbMText
 10
193.8566880823614
 20
143.0000000000005
 30
0.0
 40
3.2
 41
10.00000000000003
 71
     5
 72
     5
  1
16
 73
     1
 44
1.0
1001
ACAD
1000
MTEXTBEGIN
1070
    73
1070
     1
1070
    44
1040
1.0
1070
    74
1070
     0
1000
MTEXTEND
1000
ACAD_MTEXT_DEFINED_HEIGHT_BEGIN
1070
    46
1040
4.999999999999813
1000
ACAD_MTEXT_DEFINED_HEIGHT_END
  0
MTEXT
  5
C99E
330
1F
100
AcDbEntity
  8
AM_6
100
AcDbMText
 10
193.8566880823614
 20
138.0000000000003
 30
0.0
 40
3.2
 41
10.0
 71
     5
 72
     5
  1
21
 73
     1
 44
1.0
1001
ACAD
1000
MTEXTBEGIN
1070
    73
1070
     1
1070
    44
1040
1.0
1070
    74
1070
     0
1000
MTEXTEND
1000
ACAD_MTEXT_DEFINED_HEIGHT_BEGIN
1070
    46
1040
4.999999999999273
1000
ACAD_MTEXT_DEFINED_HEIGHT_END
  0
MTEXT
  5
C99F
330
1F
100
AcDbEntity
  8
AM_6
100
AcDbMText
 10
193.8566880823614
 20
133.0000000000006
 30
0.0
 40
3.2
 41
10.00000000000003
 71
     5
 72
     5
  1
35
 73
     1
 44
1.0
1001
ACAD
1000
MTEXTBEGIN
1070
    73
1070
     1
1070
    44
1040
1.0
1070
    74
1070
     0
1000
MTEXTEND
1000
ACAD_MTEXT_DEFINED_HEIGHT_BEGIN
1070
    46
1040
4.999999999999813
1000
ACAD_MTEXT_DEFINED_HEIGHT_END
  0
MTEXT
  5
C9A0
330
1F
100
AcDbEntity
  8
AM_6
100
AcDbMText
 10
193.8566880823617
 20
128.0000000000003
 30
0.0
 40
3.2
 41
10.0
 71
     5
 72
     5
  1
19
 73
     1
 44
1.0
1001
ACAD
1000
MTEXTBEGIN
1070
    73
1070
     1
1070
    44
1040
1.0
1070
    74
1070
     0
1000
MTEXTEND
1000
ACAD_MTEXT_DEFINED_HEIGHT_BEGIN
1070
    46
1040
4.999999999999273
1000
ACAD_MTEXT_DEFINED_HEIGHT_END
  0
MTEXT
  5
C9A1
330
1F
100
AcDbEntity
  8
AM_6
100
AcDbMText
 10
193.8566880823617
 20
123.0000000000006
 30
0.0
 40
3.2
 41
10.00000000000003
 71
     5
 72
     5
  1
24
 73
     1
 44
1.0
1001
ACAD
1000
MTEXTBEGIN
1070
    73
1070
     1
1070
    44
1040
1.0
1070
    74
1070
     0
1000
MTEXTEND
1000
ACAD_MTEXT_DEFINED_HEIGHT_BEGIN
1070
    46
1040
4.999999999999813
1000
ACAD_MTEXT_DEFINED_HEIGHT_END
  0
MTEXT
  5
C9A2
330
1F
100
AcDbEntity
  8
AM_6
100
AcDbMText
 10
193.8566880823617
 20
118.0000000000003
 30
0.0
 40
3.2
 41
10.0
 71
     5
 72
     5
  1
35
 73
     1
 44
1.0
1001
ACAD
1000
MTEXTBEGIN
1070
    73
1070
     1
1070
    44
1040
1.0
1070
    74
1070
     0
1000
MTEXTEND
1000
ACAD_MTEXT_DEFINED_HEIGHT_BEGIN
1070
    46
1040
4.999999999999273
1000
ACAD_MTEXT_DEFINED_HEIGHT_END
  0
MTEXT
  5
C9A3
330
1F
100
AcDbEntity
  8
AM_6
100
AcDbMText
 10
193.8566880823612
 20
173.0000000000002
 30
0.0
 40
3.2
 41
10.0
 71
     5
 72
     5
  1
12
 73
     1
 44
1.0
1001
ACAD
1000
MTEXTBEGIN
1070
    73
1070
     1
1070
    44
1040
1.0
1070
    74
1070
     0
1000
MTEXTEND
1000
ACAD_MTEXT_DEFINED_HEIGHT_BEGIN
1070
    46
1040
4.999999999999273
1000
ACAD_MTEXT_DEFINED_HEIGHT_END
  0
MTEXT
  5
C9A4
330
1F
100
AcDbEntity
  8
AM_6
100
AcDbMText
 10
193.8566880823612
 20
168.0000000000005
 30
0.0
 40
3.2
 41
10.00000000000003
 71
     5
 72
     5
  1
17
 73
     1
 44
1.0
1001
ACAD
1000
MTEXTBEGIN
1070
    73
1070
     1
1070
    44
1040
1.0
1070
    74
1070
     0
1000
MTEXTEND
1000
ACAD_MTEXT_DEFINED_HEIGHT_BEGIN
1070
    46
1040
4.999999999999813
1000
ACAD_MTEXT_DEFINED_HEIGHT_END
  0
MTEXT
  5
C9A5
330
1F
100
AcDbEntity
  8
AM_6
100
AcDbMText
 10
203.8566880823614
 20
158.0000000000002
 30
0.0
 40
3.2
 41
10.00000000000011
 71
     5
 72
     5
  1
8
 73
     1
 44
1.0
1001
ACAD
1000
MTEXTBEGIN
1070
    73
1070
     1
1070
    44
1040
1.0
1070
    74
1070
     0
1000
MTEXTEND
1000
ACAD_MTEXT_DEFINED_HEIGHT_BEGIN
1070
    46
1040
14.99999999999987
1000
ACAD_MTEXT_DEFINED_HEIGHT_END
  0
MTEXT
  5
C9C7
330
1F
100
AcDbEntity
  8
AM_6
100
AcDbMText
 10
263.8566880823614
 20
158.0
 30
0.0
 40
3.2
 41
10.0
 71
     5
 72
     5
  1
1
 73
     1
 44
1.0
1001
ACAD
1000
MTEXTBEGIN
1070
    73
1070
     1
1070
    44
1040
1.0
1070
    74
1070
     0
1000
MTEXTEND
1000
ACAD_MTEXT_DEFINED_HEIGHT_BEGIN
1070
    46
1040
14.9999999999991
1000
ACAD_MTEXT_DEFINED_HEIGHT_END
  0
MTEXT
  5
C9C8
330
1F
100
AcDbEntity
  8
AM_6
100
AcDbMText
 10
263.8566880823615
 20
145.4999999999998
 30
0.0
 40
3.2
 41
10.0
 71
     5
 72
     5
  1
1
 73
     1
 44
1.0
1001
ACAD
1000
MTEXTBEGIN
1070
    73
1070
     1
1070
    44
1040
1.0
1070
    74
1070
     0
1000
MTEXTEND
1000
ACAD_MTEXT_DEFINED_HEIGHT_BEGIN
1070
    46
1040
9.9999999999995
1000
ACAD_MTEXT_DEFINED_HEIGHT_END
  0
MTEXT
  5
C9C9
330
1F
100
AcDbEntity
  8
AM_6
100
AcDbMText
 10
263.8566880823615
 20
135.4999999999998
 30
0.0
 40
3.2
 41
10.0
 71
     5
 72
     5
  1
1
 73
     1
 44
1.0
1001
ACAD
1000
MTEXTBEGIN
1070
    73
1070
     1
1070
    44
1040
1.0
1070
    74
1070
     0
1000
MTEXTEND
1000
ACAD_MTEXT_DEFINED_HEIGHT_BEGIN
1070
    46
1040
9.9999999999995
1000
ACAD_MTEXT_DEFINED_HEIGHT_END
  0
MTEXT
  5
C9CA
330
1F
100
AcDbEntity
  8
AM_6
100
AcDbMText
 10
263.8566880823618
 20
123.0
 30
0.0
 40
3.2
 41
10.0
 71
     5
 72
     5
  1
1
 73
     1
 44
1.0
1001
ACAD
1000
MTEXTBEGIN
1070
    73
1070
     1
1070
    44
1040
1.0
1070
    74
1070
     0
1000
MTEXTEND
1000
ACAD_MTEXT_DEFINED_HEIGHT_BEGIN
1070
    46
1040
14.9999999999991
1000
ACAD_MTEXT_DEFINED_HEIGHT_END
  0
LINE
  5
D08A
330
1F
100
AcDbEntity
  8
AM_0
100
AcDbLine
 10
182.3403283096108
 20
82.15462828746566
 30
0.0
 11
202.3403283096109
 21
82.15462828746566
 31
0.0
  0
LINE
  5
D08B
330
1F
100
AcDbEntity
  8
AM_0
100
AcDbLine
 10
202.3403283096109
 20
74.15462828746567
 30
0.0
 11
182.3403283096108
 21
74.15462828746567
 31
0.0
  0
LINE
  5
D08C
330
1F
100
AcDbEntity
  8
AM_0
100
AcDbLine
 10
149.3053063096108
 20
79.15462828746567
 30
0.0
 11
147.3053063096108
 21
79.15462828746567
 31
0.0
  0
LINE
  5
D08D
330
1F
100
AcDbEntity
  8
AM_0
100
AcDbLine
 10
153.3053063096108
 20
67.15462828746566
 30
0.0
 11
153.3053063096108
 21
89.15462828746568
 31
0.0
  0
LINE
  5
D08E
330
1F
100
AcDbEntity
  8
AM_0
100
AcDbLine
 10
182.3403283096108
 20
74.15462828746567
 30
0.0
 11
182.3403283096108
 21
82.15462828746566
 31
0.0
  0
LINE
  5
D08F
330
1F
100
AcDbEntity
  8
AM_0
100
AcDbLine
 10
202.3403283096109
 20
82.15462828746566
 30
0.0
 11
204.6497293096109
 21
78.15462828746567
 31
0.0
  0
LINE
  5
D090
330
1F
100
AcDbEntity
  8
AM_0
100
AcDbLine
 10
202.3403283096109
 20
74.15462828746567
 30
0.0
 11
204.6497293096109
 21
78.15462828746567
 31
0.0
  0
ARC
  5
D091
330
1F
100
AcDbEntity
  8
AM_0
100
AcDbCircle
 10
160.8752073096108
 20
64.56685028746568
 30
0.0
 40
8.0
100
AcDbArc
 50
108.4731300000001
 51
161.1269510000004
  0
ARC
  5
D092
330
1F
100
AcDbEntity
  8
AM_0
100
AcDbCircle
 10
160.8752073096108
 20
91.74240728746568
 30
0.0
 40
8.0
100
AcDbArc
 50
198.8730489999995
 51
251.5268699999999
  0
LINE
  5
D093
330
1F
100
AcDbEntity
  8
AM_0
100
AcDbLine
 10
158.3403283096108
 20
72.15462828746566
 30
0.0
 11
158.3403283096108
 21
84.15462828746568
 31
0.0
  0
LINE
  5
D094
330
1F
100
AcDbEntity
  8
AM_0
100
AcDbLine
 10
148.3053063096108
 20
79.15462828746567
 30
0.0
 11
148.3053063096108
 21
89.15462828746568
 31
0.0
  0
LINE
  5
D095
330
1F
100
AcDbEntity
  8
AM_0
100
AcDbLine
 10
147.3053063096108
 20
79.15462828746567
 30
0.0
 11
147.3053063096108
 21
88.15462828746566
 31
0.0
  0
LINE
  5
D096
330
1F
100
AcDbEntity
  8
AM_0
100
AcDbLine
 10
147.3053063096108
 20
77.15462828746566
 30
0.0
 11
149.3053063096108
 21
77.15462828746566
 31
0.0
  0
LINE
  5
D097
330
1F
100
AcDbEntity
  8
AM_0
100
AcDbLine
 10
149.3053063096108
 20
77.15462828746566
 30
0.0
 11
149.3053063096108
 21
79.15462828746567
 31
0.0
  0
LINE
  5
D098
330
1F
100
AcDbEntity
  8
AM_0
100
AcDbLine
 10
148.3053063096108
 20
67.15462828746566
 30
0.0
 11
147.3053063096108
 21
68.15462828746567
 31
0.0
  0
LINE
  5
D099
330
1F
100
AcDbEntity
  8
AM_0
100
AcDbLine
 10
147.3053063096108
 20
88.15462828746566
 30
0.0
 11
148.3053063096108
 21
89.15462828746568
 31
0.0
  0
LINE
  5
D09A
330
1F
100
AcDbEntity
  8
AM_0
100
AcDbLine
 10
148.3053063096108
 20
67.15462828746566
 30
0.0
 11
148.3053063096108
 21
77.15462828746566
 31
0.0
  0
LINE
  5
D09B
330
1F
100
AcDbEntity
  8
AM_0
100
AcDbLine
 10
147.3053063096108
 20
68.15462828746567
 30
0.0
 11
147.3053063096108
 21
77.15462828746566
 31
0.0
  0
LINE
  5
D09C
330
1F
100
AcDbEntity
  8
AM_2
100
AcDbLine
 10
149.3053063096108
 20
78.15462828746567
 30
0.0
 11
153.3053063096108
 21
78.15462828746567
 31
0.0
  0
LINE
  5
D09D
330
1F
100
AcDbEntity
  8
AM_2
100
AcDbLine
 10
148.3053063096108
 20
89.06052228746569
 30
0.0
 11
153.3053063096108
 21
89.06052228746569
 31
0.0
  0
LINE
  5
D09E
330
1F
100
AcDbEntity
  8
AM_2
100
AcDbLine
 10
148.3053063096108
 20
88.77981328746567
 30
0.0
 11
153.3053063096108
 21
88.77981328746567
 31
0.0
  0
LINE
  5
D09F
330
1F
100
AcDbEntity
  8
AM_2
100
AcDbLine
 10
148.3053063096108
 20
88.31730328746568
 30
0.0
 11
153.3053063096108
 21
88.31730328746568
 31
0.0
  0
LINE
  5
D0A0
330
1F
100
AcDbEntity
  8
AM_2
100
AcDbLine
 10
148.3053063096108
 20
87.68090828746569
 30
0.0
 11
153.3053063096108
 21
87.68090828746569
 31
0.0
  0
LINE
  5
D0A1
330
1F
100
AcDbEntity
  8
AM_2
100
AcDbLine
 10
148.3053063096108
 20
86.88151528746567
 30
0.0
 11
153.3053063096108
 21
86.88151528746567
 31
0.0
  0
LINE
  5
D0A2
330
1F
100
AcDbEntity
  8
AM_2
100
AcDbLine
 10
148.3053063096108
 20
85.93280328746567
 30
0.0
 11
153.3053063096108
 21
85.93280328746567
 31
0.0
  0
LINE
  5
D0A3
330
1F
100
AcDbEntity
  8
AM_2
100
AcDbLine
 10
148.3053063096108
 20
84.85100428746568
 30
0.0
 11
153.3053063096108
 21
84.85100428746568
 31
0.0
  0
LINE
  5
D0A4
330
1F
100
AcDbEntity
  8
AM_2
100
AcDbLine
 10
148.3053063096108
 20
83.65462828746567
 30
0.0
 11
153.3053063096108
 21
83.65462828746567
 31
0.0
  0
LINE
  5
D0A5
330
1F
100
AcDbEntity
  8
AM_2
100
AcDbLine
 10
148.3053063096108
 20
82.36414628746569
 30
0.0
 11
153.3053063096108
 21
82.36414628746569
 31
0.0
  0
LINE
  5
D0A6
330
1F
100
AcDbEntity
  8
AM_2
100
AcDbLine
 10
148.3053063096108
 20
81.00163828746568
 30
0.0
 11
153.3053063096108
 21
81.00163828746568
 31
0.0
  0
LINE
  5
D0A7
330
1F
100
AcDbEntity
  8
AM_2
100
AcDbLine
 10
148.3053063096108
 20
79.59041728746567
 30
0.0
 11
153.3053063096108
 21
79.59041728746567
 31
0.0
  0
LINE
  5
D0A8
330
1F
100
AcDbEntity
  8
AM_2
100
AcDbLine
 10
149.3053063096108
 20
78.15462828746567
 30
0.0
 11
153.3053063096108
 21
78.15462828746567
 31
0.0
  0
LINE
  5
D0A9
330
1F
100
AcDbEntity
  8
AM_2
100
AcDbLine
 10
148.3053063096108
 20
76.71884028746567
 30
0.0
 11
153.3053063096108
 21
76.71884028746567
 31
0.0
  0
LINE
  5
D0AA
330
1F
100
AcDbEntity
  8
AM_2
100
AcDbLine
 10
148.3053063096108
 20
75.30761928746568
 30
0.0
 11
153.3053063096108
 21
75.30761928746568
 31
0.0
  0
LINE
  5
D0AB
330
1F
100
AcDbEntity
  8
AM_2
100
AcDbLine
 10
148.3053063096108
 20
73.94511128746566
 30
0.0
 11
153.3053063096108
 21
73.94511128746566
 31
0.0
  0
LINE
  5
D0AC
330
1F
100
AcDbEntity
  8
AM_2
100
AcDbLine
 10
148.3053063096108
 20
72.65462828746567
 30
0.0
 11
153.3053063096108
 21
72.65462828746567
 31
0.0
  0
LINE
  5
D0AD
330
1F
100
AcDbEntity
  8
AM_2
100
AcDbLine
 10
148.3053063096108
 20
71.45825328746568
 30
0.0
 11
153.3053063096108
 21
71.45825328746568
 31
0.0
  0
LINE
  5
D0AE
330
1F
100
AcDbEntity
  8
AM_2
100
AcDbLine
 10
148.3053063096108
 20
70.37645428746569
 30
0.0
 11
153.3053063096108
 21
70.37645428746569
 31
0.0
  0
LINE
  5
D0AF
330
1F
100
AcDbEntity
  8
AM_2
100
AcDbLine
 10
148.3053063096108
 20
69.42774228746569
 30
0.0
 11
153.3053063096108
 21
69.42774228746569
 31
0.0
  0
LINE
  5
D0B0
330
1F
100
AcDbEntity
  8
AM_2
100
AcDbLine
 10
148.3053063096108
 20
68.62834928746568
 30
0.0
 11
153.3053063096108
 21
68.62834928746568
 31
0.0
  0
LINE
  5
D0B1
330
1F
100
AcDbEntity
  8
AM_2
100
AcDbLine
 10
148.3053063096108
 20
67.99195428746569
 30
0.0
 11
153.3053063096108
 21
67.99195428746569
 31
0.0
  0
LINE
  5
D0B2
330
1F
100
AcDbEntity
  8
AM_2
100
AcDbLine
 10
148.3053063096108
 20
67.52944428746568
 30
0.0
 11
153.3053063096108
 21
67.52944428746568
 31
0.0
  0
LINE
  5
D0B3
330
1F
100
AcDbEntity
  8
AM_0
100
AcDbLine
 10
153.3053063096108
 20
67.15462828746566
 30
0.0
 11
148.3053063096108
 21
67.15462828746566
 31
0.0
  0
LINE
  5
D0B4
330
1F
100
AcDbEntity
  8
AM_0
100
AcDbLine
 10
153.3053063096108
 20
89.15462828746568
 30
0.0
 11
148.3053063096108
 21
89.15462828746568
 31
0.0
  0
LINE
  5
D0B5
330
1F
100
AcDbEntity
  8
AM_2
100
AcDbLine
 10
148.3053063096108
 20
67.24873528746567
 30
0.0
 11
153.3053063096108
 21
67.24873528746567
 31
0.0
  0
ARC
  5
D0B6
330
1F
100
AcDbEntity
  8
AM_2
100
AcDbCircle
 10
99.15590730961078
 20
78.15462828746567
 30
0.0
 40
10.0
100
AcDbArc
 50
5.739170000000573
 51
174.2608299999994
  0
LINE
  5
D0B7
330
1F
100
AcDbEntity
  8
AM_0
100
AcDbLine
 10
88.2014563096107
 20
77.15462828746566
 30
0.0
 11
110.1103593096107
 21
77.15462828746566
 31
0.0
  0
ARC
  5
D0B8
330
1F
100
AcDbEntity
  8
AM_2
100
AcDbCircle
 10
99.15590730961078
 20
78.15462828746567
 30
0.0
 40
10.0
100
AcDbArc
 50
185.7391700000006
 51
354.2608299999994
  0
LINE
  5
D0B9
330
1F
100
AcDbEntity
  8
AM_0
100
AcDbLine
 10
110.1103593096107
 20
79.15462828746567
 30
0.0
 11
88.2014563096107
 21
79.15462828746567
 31
0.0
  0
CIRCLE
  5
D0BA
330
1F
100
AcDbEntity
  8
AM_0
100
AcDbCircle
 10
99.15590730961078
 20
78.15462828746567
 30
0.0
 40
11.0
  0
LINE
  5
D0BB
330
1F
100
AcDbEntity
  8
AM_7
100
AcDbLine
 10
85.15590730961077
 20
78.15462828746567
 30
0.0
 11
113.1559073096108
 21
78.15462828746567
 31
0.0
  0
LINE
  5
D0BC
330
1F
100
AcDbEntity
  8
AM_7
100
AcDbLine
 10
99.15590730961078
 20
92.15462828746566
 30
0.0
 11
99.15590730961078
 21
64.15462828746567
 31
0.0
  0
LINE
  5
D0BD
330
1F
100
AcDbEntity
  8
AM_2
100
AcDbLine
 10
182.3403283096108
 20
81.4781282874657
 30
0.0
 11
202.3403283096109
 21
81.4781282874657
 31
0.0
  0
LINE
  5
D0BE
330
1F
100
AcDbEntity
  8
AM_2
100
AcDbLine
 10
182.3403283096108
 20
74.83112828746567
 30
0.0
 11
202.3403283096109
 21
74.83112828746567
 31
0.0
  0
LINE
  5
D0BF
330
1F
100
AcDbEntity
  8
AM_7
100
AcDbLine
 10
144.3053063096108
 20
78.15462828746567
 30
0.0
 11
207.6497293096108
 21
78.15462828746567
 31
0.0
  0
LINE
  5
D0C0
330
1F
100
AcDbEntity
  8
AM_0
100
AcDbLine
 10
202.3403283096109
 20
82.15462828746566
 30
0.0
 11
202.3403283096109
 21
74.15462828746567
 31
0.0
  0
LINE
  5
D0C1
330
1F
100
AcDbEntity
  8
AM_0
100
AcDbLine
 10
173.1559073096108
 20
81.05462828746567
 30
0.0
 11
158.3403283096108
 21
81.05462828746567
 31
0.0
  0
LINE
  5
D0C2
330
1F
100
AcDbEntity
  8
AM_0
100
AcDbLine
 10
174.1559073096108
 20
75.25462828746569
 30
0.0
 11
182.3403283096108
 21
75.25462828746569
 31
0.0
  0
LINE
  5
D0C3
330
1F
100
AcDbEntity
  8
AM_0
100
AcDbLine
 10
173.1559073096108
 20
85.15462828746567
 30
0.0
 11
173.1559073096108
 21
71.15462828746567
 31
0.0
  0
LINE
  5
D0C4
330
1F
100
AcDbEntity
  8
AM_0
100
AcDbLine
 10
174.1559073096108
 20
85.15462828746567
 30
0.0
 11
173.1559073096108
 21
85.15462828746567
 31
0.0
  0
LINE
  5
D0C5
330
1F
100
AcDbEntity
  8
AM_0
100
AcDbLine
 10
174.1559073096108
 20
71.15462828746567
 30
0.0
 11
174.1559073096108
 21
85.15462828746567
 31
0.0
  0
LINE
  5
D0C6
330
1F
100
AcDbEntity
  8
AM_0
100
AcDbLine
 10
173.1559073096108
 20
71.15462828746567
 30
0.0
 11
174.1559073096108
 21
71.15462828746567
 31
0.0
  0
LINE
  5
D0C7
330
1F
100
AcDbEntity
  8
AM_0
100
AcDbLine
 10
182.3403283096108
 20
81.05462828746567
 30
0.0
 11
174.1559073096108
 21
81.05462828746567
 31
0.0
  0
LINE
  5
D0C8
330
1F
100
AcDbEntity
  8
AM_0
100
AcDbLine
 10
158.3403283096108
 20
75.25462828746569
 30
0.0
 11
173.1559073096108
 21
75.25462828746569
 31
0.0
  0
DIMENSION
  5
D0C9
330
1F
100
AcDbEntity
  8
AM_5
100
AcDbDimension
  2
*D27
 10
125.3053063096108
 20
67.15462828746566
 30
0.0
 11
122.2053063096107
 21
78.15462828746568
 31
0.0
 70
    32
  1
%%cA
 71
     5
 42
22.0
  3
SYS$0
100
AcDbAlignedDimension
 13
148.3053063096108
 23
89.15462828746568
 33
0.0
 14
148.3053063096108
 24
67.15462828746566
 34
0.0
 50
90.0
100
AcDbRotatedDimension
  0
DIMENSION
  5
D0CA
330
1F
100
AcDbEntity
  8
AM_5
100
AcDbDimension
  2
*D28
 10
149.3053063096108
 20
97.15462828746568
 30
0.0
 11
155.1946396429441
 21
100.2546282874656
 31
0.0
 70
    32
  1
（Ｉ）
 71
     5
 42
2.0
  3
SYS$0
100
AcDbAlignedDimension
 13
147.3053063096108
 23
88.15462828746566
 33
0.0
 14
149.3053063096108
 24
79.0546282874657
 34
0.0
 50
180.0
100
AcDbRotatedDimension
1001
ACAD_DSTYLE_DIMINSPECT
1070
   396
1000
100%
1070
   395
1000

1070
   394
1070
    33
1070
   393
1070
     0
  0
DIMENSION
  5
D0CB
330
1F
100
AcDbEntity
  8
AM_5
100
AcDbDimension
  2
*D29
 10
170.2687240713749
 20
81.05462828746565
 30
0.0
 11
170.2687240713749
 21
70.9946282874657
 31
0.0
 70
   160
  1
%%cF
 71
     5
 42
5.799999999999982
  3
SYS$0
100
AcDbAlignedDimension
 13
158.3403283096108
 23
75.25462828746569
 33
0.0
 14
158.3403283096108
 24
81.05462828746567
 34
0.0
 50
90.0
100
AcDbRotatedDimension
1001
ACAD_DSTYLE_DIMINSPECT
1070
   396
1000
100%
1070
   395
1000

1070
   394
1070
    33
1070
   393
1070
     0
  0
DIMENSION
  5
D0CC
330
1F
100
AcDbEntity
  8
AM_5
100
AcDbDimension
  2
*D30
 10
135.3053063096108
 20
79.15462828746567
 30
0.0
 11
135.3053063096108
 21
83.45462828746567
 31
0.0
 70
   160
  1
H
 71
     5
 42
2.0
  3
SYS$0
100
AcDbAlignedDimension
 13
147.3053063096108
 23
77.15462828746566
 33
0.0
 14
147.3053063096108
 24
79.15462828746567
 34
0.0
 50
90.0
100
AcDbRotatedDimension
1001
ACAD_DSTYLE_DIMINSPECT
1070
   396
1000
100%
1070
   395
1000

1070
   394
1070
    33
1070
   393
1070
     0
  0
DIMENSION
  5
D0CD
330
1F
100
AcDbEntity
  8
AM_5
100
AcDbDimension
  2
*D31
 10
158.3403282199116
 20
49.15462828746567
 30
0.0
 11
152.8228172647612
 21
52.25462828746567
 31
0.0
 70
    32
  1
E
 71
     5
 42
11.03502191030083
  3
SYS$0
100
AcDbAlignedDimension
 13
147.3053063096108
 23
71.15462828746567
 33
0.0
 14
158.3403282199116
 24
72.15462914564321
 34
0.0
 50
180.0
100
AcDbRotatedDimension
1001
ACAD_DSTYLE_DIMINSPECT
1070
   396
1000
100%
1070
   395
1000

1070
   394
1070
    33
1070
   393
1070
     0
  0
DIMENSION
  5
D0CE
330
1F
100
AcDbEntity
  8
AM_5
100
AcDbDimension
  2
*D32
 10
202.3403283096109
 20
49.15462828746559
 30
0.0
 11
180.3403282647612
 21
52.25462828746558
 31
0.0
 70
    32
  1
C
 71
     5
 42
44.00000008969925
  3
SYS$0
100
AcDbAlignedDimension
 13
158.3403282199116
 23
72.15462914564321
 33
0.0
 14
202.3403283096109
 24
74.15462828746567
 34
0.0
 50
180.0
100
AcDbRotatedDimension
  0
DIMENSION
  5
D0CF
330
1F
100
AcDbEntity
  8
AM_5
100
AcDbDimension
  2
*D33
 10
216.6497293096108
 20
82.15462828746568
 30
0.0
 11
213.5497293096108
 21
78.15462828746571
 31
0.0
 70
    32
  1
B
 71
     5
 42
8.000000000000014
  3
SYS$0
100
AcDbAlignedDimension
 13
202.3403283096109
 23
74.15462828746567
 33
0.0
 14
202.3403283096107
 24
82.15462828746568
 34
0.0
 50
90.0
100
AcDbRotatedDimension
1001
ACAD_DSTYLE_DIMINSPECT
1070
   396
1000
100%
1070
   395
1000

1070
   394
1070
    33
1070
   393
1070
     0
  0
DIMENSION
  5
D0D0
330
1F
100
AcDbEntity
  8
AM_5
100
AcDbDimension
  2
*D34
 10
188.003829430877
 20
71.15462828746567
 30
0.0
 11
188.003829430877
 21
89.14796162079907
 31
0.0
 70
   160
  1
%%cJ
 71
     5
 42
14.0
  3
SYS$0
100
AcDbAlignedDimension
 13
174.1559073096108
 23
85.15462828746567
 33
0.0
 14
174.1559073096108
 24
71.15462828746567
 34
0.0
 50
90.0
100
AcDbRotatedDimension
1001
ACAD_DSTYLE_DIMINSPECT
1070
   396
1000
100%
1070
   395
1000

1070
   394
1070
    33
1070
   393
1070
     0
  0
DIMENSION
  5
D0D1
330
1F
100
AcDbEntity
  8
AM_5
100
AcDbDimension
  2
*D35
 10
174.1559073096108
 20
97.15462828746566
 30
0.0
 11
168.9092406429441
 21
97.15462828746566
 31
0.0
 70
   160
  1
K
 71
     5
  3
SYS$0
100
AcDbAlignedDimension
 13
173.1559073096108
 23
85.15462828746567
 33
0.0
 14
174.1559073096108
 24
85.15462828746567
 34
0.0
 50
180.0
100
AcDbRotatedDimension
1001
ACAD_DSTYLE_DIMINSPECT
1070
   396
1000
100%
1070
   395
1000

1070
   394
1070
    33
1070
   393
1070
     0
  0
INSERT
  5
D0D2
330
1F
100
AcDbEntity
  8
AM_5
100
AcDbBlockReference
  2
*S38
 10
0.0
 20
0.0
 30
0.0
  0
DIMENSION
  5
D0D3
330
1F
100
AcDbEntity
  8
AM_5
100
AcDbDimension
  2
*D36
 10
182.3403283096108
 20
59.15462828746567
 30
0.0
 11
170.3403283096108
 21
62.25462828746567
 31
0.0
 70
    32
  1
D
 71
     5
 42
24.0
  3
SYS$0
100
AcDbAlignedDimension
 13
158.3403283096108
 23
72.15462828746566
 33
0.0
 14
182.3403283096108
 24
74.15462828746567
 34
0.0
 50
180.0
100
AcDbRotatedDimension
1001
ACAD_DSTYLE_DIMINSPECT
1070
   396
1000
100%
1070
   395
1000

1070
   394
1070
    33
1070
   393
1070
     0
  0
DIMENSION
  5
D0D4
330
1F
100
AcDbEntity
  8
AM_5
100
AcDbDimension
  2
*D37
 10
162.7619305333946
 20
84.15462828746566
 30
0.0
 11
162.7619305333945
 21
88.46796162079908
 31
0.0
 70
   160
  1
%%cG
 71
     5
 42
11.99999914182245
  3
SYS$0
100
AcDbAlignedDimension
 13
158.3403282199116
 23
72.15462914564321
 33
0.0
 14
158.3403283096108
 24
84.15462828746568
 34
0.0
 50
90.0
100
AcDbRotatedDimension
1001
ACAD_DSTYLE_DIMINSPECT
1070
   396
1000
100%
1070
   395
1000

1070
   394
1070
    33
1070
   393
1070
     0
  0
ENDSEC
  0
SECTION
  2
OBJECTS
  0
DICTIONARY
  5
C
330
0
100
AcDbDictionary
281
     1
  3
ACAD_2007HEADERVARS_RT
350
D2D1
  3
ACAD_BGPLOT_KEY
350
AB06
  3
ACAD_COLOR
350
A91D
  3
ACAD_GROUP
350
D
  3
ACAD_LAYOUT
350
1A
  3
ACAD_MATERIAL
350
A91C
  3
ACAD_MLEADERSTYLE
350
BE6A
  3
ACAD_MLINESTYLE
350
17
  3
ACAD_PLOTSETTINGS
350
19
  3
ACAD_PLOTSTYLENAME
350
E
  3
ACAD_SCALELIST
350
BE48
  3
ACAD_TABLESTYLE
350
AAB9
  3
ACAD_VISUALSTYLE
350
B0F1
  3
AcAsAppObject
350
3DA1
  3
ACASGREF_MASTER
350
3DE9
  3
ACDB_RECOMPOSE_DATA
350
C9F9
  3
AcDbVariableDictionary
350
34
  3
AcmDictionary
350
47
  3
AD_GREF_MODULE
350
3DEA
  3
AD_MAPI_MODULE
350
3E06
  3
AMG
350
2B
  3
AMGSNAPSETTINGS
350
7D
  3
ASE_INDEX_DICTIONARY
350
B331
  3
DWGPROPS
350
D2D0
  3
MAPISURF_MODULE
350
3DEB
  0
DICTIONARY
  5
3F95
330
2
100
AcDbDictionary
280
     1
281
     1
  3
ACAD_LAYERFILTERS
360
B466
  3
ACAD_LAYERSTATES
360
3F96
  3
ACLYDICTIONARY
360
B465
  3
AMLAYER_GROUPCOLORS
360
AAB4
  0
DICTIONARY
  5
C9CB
330
10
100
AcDbDictionary
280
     1
281
     1
  3
ADSK_XREC_LAYER_RECONCILED
360
C9CC
  0
DICTIONARY
  5
C9CD
330
5F85
100
AcDbDictionary
280
     1
281
     1
  3
ADSK_XREC_LAYER_RECONCILED
360
C9CE
  0
DICTIONARY
  5
C9CF
330
AC9F
100
AcDbDictionary
280
     1
281
     1
  3
ADSK_XREC_LAYER_RECONCILED
360
C9D0
  0
DICTIONARY
  5
C9D1
330
ACA0
100
AcDbDictionary
280
     1
281
     1
  3
ADSK_XREC_LAYER_RECONCILED
360
C9D2
  0
DICTIONARY
  5
C9D3
330
ACA1
100
AcDbDictionary
280
     1
281
     1
  3
ADSK_XREC_LAYER_RECONCILED
360
C9D4
  0
DICTIONARY
  5
C9D5
330
ACC8
100
AcDbDictionary
280
     1
281
     1
  3
ADSK_XREC_LAYER_RECONCILED
360
C9D6
  0
DICTIONARY
  5
C9D7
330
ACC9
100
AcDbDictionary
280
     1
281
     1
  3
ADSK_XREC_LAYER_RECONCILED
360
C9D8
  0
DICTIONARY
  5
C9D9
330
ACCA
100
AcDbDictionary
280
     1
281
     1
  3
ADSK_XREC_LAYER_RECONCILED
360
C9DA
  0
DICTIONARY
  5
C9DB
330
AD60
100
AcDbDictionary
280
     1
281
     1
  3
ADSK_XREC_LAYER_RECONCILED
360
C9DC
  0
DICTIONARY
  5
C9DD
330
AD64
100
AcDbDictionary
280
     1
281
     1
  3
ADSK_XREC_LAYER_RECONCILED
360
C9DE
  0
DICTIONARY
  5
C9DF
330
AD67
100
AcDbDictionary
280
     1
281
     1
  3
ADSK_XREC_LAYER_RECONCILED
360
C9E0
  0
DICTIONARY
  5
C9E1
330
AD68
100
AcDbDictionary
280
     1
281
     1
  3
ADSK_XREC_LAYER_RECONCILED
360
C9E2
  0
DICTIONARY
  5
C9E3
330
AD69
100
AcDbDictionary
280
     1
281
     1
  3
ADSK_XREC_LAYER_RECONCILED
360
C9E4
  0
DICTIONARY
  5
C9E5
330
AD6A
100
AcDbDictionary
280
     1
281
     1
  3
ADSK_XREC_LAYER_RECONCILED
360
C9E6
  0
DICTIONARY
  5
C9E7
330
AD6E
100
AcDbDictionary
280
     1
281
     1
  3
ADSK_XREC_LAYER_RECONCILED
360
C9E8
  0
DICTIONARY
  5
C9E9
330
AD6F
100
AcDbDictionary
280
     1
281
     1
  3
ADSK_XREC_LAYER_RECONCILED
360
C9EA
  0
DICTIONARY
  5
C9EB
330
B1B6
100
AcDbDictionary
280
     1
281
     1
  3
ADSK_XREC_LAYER_RECONCILED
360
C9EC
  0
DICTIONARY
  5
C9ED
330
B2EB
100
AcDbDictionary
280
     1
281
     1
  3
ADSK_XREC_LAYER_RECONCILED
360
C9EE
  0
DICTIONARY
  5
C9EF
330
B2EC
100
AcDbDictionary
280
     1
281
     1
  3
ADSK_XREC_LAYER_RECONCILED
360
C9F0
  0
DICTIONARY
  5
C9F1
330
B65B
100
AcDbDictionary
280
     1
281
     1
  3
ADSK_XREC_LAYER_RECONCILED
360
C9F2
  0
DICTIONARY
  5
C9F3
330
B65C
100
AcDbDictionary
280
     1
281
     1
  3
ADSK_XREC_LAYER_RECONCILED
360
C9F4
  0
DICTIONARY
  5
C9F5
330
B65D
100
AcDbDictionary
280
     1
281
     1
  3
ADSK_XREC_LAYER_RECONCILED
360
C9F6
  0
DICTIONARY
  5
8A
330
1F
100
AcDbDictionary
280
     1
281
     1
  3
ACAD_SORTENTS
360
B1BA
  0
DICTIONARY
  5
CE87
330
CE47
100
AcDbDictionary
280
     1
281
     1
  3
ACAD_SORTENTS
360
CE88
  0
DICTIONARY
  5
D2D1
102
{ACAD_REACTORS
330
C
102
}
330
C
100
AcDbDictionary
281
     1
  3
DIMARCSYM
350
D2D2
  0
DICTIONARY
  5
AB06
102
{ACAD_REACTORS
330
C
102
}
330
C
100
AcDbDictionary
280
     1
281
     1
  0
DICTIONARY
  5
A91D
102
{ACAD_REACTORS
330
C
102
}
330
C
100
AcDbDictionary
281
     1
  0
DICTIONARY
  5
D
102
{ACAD_REACTORS
330
C
102
}
330
C
100
AcDbDictionary
281
     1
  0
DICTIONARY
  5
1A
102
{ACAD_REACTORS
330
C
102
}
330
C
100
AcDbDictionary
281
     1
  3
Model
350
22
  3
ﾚｲｱｳﾄ1
350
1E
  3
ﾚｲｱｳﾄ2
350
26
  0
DICTIONARY
  5
A91C
102
{ACAD_REACTORS
330
C
102
}
330
C
100
AcDbDictionary
281
     1
  3
ByBlock
350
B0EF
  3
ByLayer
350
B0EE
  3
Global
350
B0F0
  0
DICTIONARY
  5
BE6A
102
{ACAD_REACTORS
330
C
102
}
330
C
100
AcDbDictionary
281
     1
  3
Standard
350
BE6B
  0
DICTIONARY
  5
17
102
{ACAD_REACTORS
330
C
102
}
330
C
100
AcDbDictionary
281
     1
  3
Standard
350
18
  0
DICTIONARY
  5
19
102
{ACAD_REACTORS
330
C
102
}
330
C
100
AcDbDictionary
281
     1
  0
ACDBDICTIONARYWDFLT
  5
E
102
{ACAD_REACTORS
330
C
102
}
330
C
100
AcDbDictionary
281
     1
  3
Normal
350
F
100
AcDbDictionaryWithDefault
340
F
  0
DICTIONARY
  5
BE48
102
{ACAD_REACTORS
330
C
102
}
330
C
100
AcDbDictionary
281
     1
  3
A0
350
BE49
  3
A1
350
BE4A
  3
A2
350
BE4B
  3
A3
350
BE4C
  3
A4
350
BE4D
  3
A5
350
BE4E
  3
A6
350
BE4F
  3
A7
350
BE50
  3
A8
350
BE51
  3
A9
350
BE52
  3
B0
350
BE53
  3
B1
350
BE54
  3
B2
350
BE55
  3
B3
350
BE56
  3
B4
350
BE57
  3
B5
350
BE58
  3
B6
350
BE59
  3
B7
350
BE5A
  3
B8
350
BE5B
  3
B9
350
BE5C
  3
C0
350
BE5D
  3
C1
350
BE5E
  3
C2
350
BE5F
  3
C3
350
BE60
  3
C4
350
BE61
  3
C5
350
BE62
  3
C6
350
BE63
  3
C7
350
BE64
  3
C8
350
BE65
  3
C9
350
BE66
  3
D0
350
BE67
  3
D1
350
BE68
  3
D2
350
BE69
  0
DICTIONARY
  5
AAB9
102
{ACAD_REACTORS
330
C
102
}
330
C
100
AcDbDictionary
281
     1
  3
Standard
350
AABA
  0
DICTIONARY
  5
B0F1
102
{ACAD_REACTORS
330
C
102
}
330
C
100
AcDbDictionary
281
     1
  3
2dWireframe
350
B0F7
  3
3D Hidden
350
B0F9
  3
3dWireframe
350
B0F8
  3
Basic
350
B0F6
  3
Brighten
350
B0FD
  3
ColorChange
350
B101
  3
Conceptual
350
B0FA
  3
Dim
350
B0FC
  3
Facepattern
350
B100
  3
Flat
350
B0F2
  3
FlatWithEdges
350
B0F3
  3
Gouraud
350
B0F4
  3
GouraudWithEdges
350
B0F5
  3
Linepattern
350
B0FF
  3
Realistic
350
B0FB
  3
Thicken
350
B0FE
  0
ACAD_PROXY_OBJECT
  5
3DA1
102
{ACAD_REACTORS
330
C
102
}
330
C
100
AcDbProxyObject
 90
      499
 91
      576
 95
   917527
 70
     0
 93
       10
310
407F
 94
        0
1001
ACAD
1000
AcRTDxfName
1000
ASAPP
  0
ACAD_PROXY_OBJECT
  5
3DE9
102
{ACAD_REACTORS
330
C
102
}
330
C
100
AcDbProxyObject
 90
      499
 91
      581
 95
   917527
 70
     0
 93
       34
310
010000407F
 94
        0
1001
ACAD
1000
AcRTDxfName
1000
ACASGREFMASTER
  0
XRECORD
  5
C9F9
102
{ACAD_REACTORS
330
C
102
}
330
C
100
AcDbXrecord
280
     1
 90
        1
330
AABA
  0
DICTIONARY
  5
34
102
{ACAD_REACTORS
330
C
102
}
330
C
100
AcDbDictionary
281
     1
  3
CANNOSCALE
350
C9FC
  3
CMLEADERSTYLE
350
C9FA
  3
CTABLESTYLE
350
AAF3
  3
DIMASSOC
350
A10C
  3
FIELDEVAL
350
AB07
  3
INDEXCTL
350
35
  3
LIGHTINGUNITS
350
C9FD
  3
MSLTSCALE
350
C9FB
  3
SORTENTS
350
194C
  0
DICTIONARY
  5
47
102
{ACAD_REACTORS
330
C
102
}
330
C
100
AcDbDictionary
281
     1
  3
AcmBOM
350
7E8
  3
AcmStdDictionary
350
4C
  3
AMDTSECTSYM_ARROWCOLOR
350
A929
  0
ACAD_PROXY_OBJECT
  5
3DEA
102
{ACAD_REACTORS
330
C
102
}
330
C
100
AcDbProxyObject
 90
      499
 91
      582
 95
   917527
 70
     0
 93
      114
310
00000043800000000000000000003F
 94
        0
1001
ACAD
1000
AcRTDxfName
1000
ACADGREFMODULE
  0
ACAD_PROXY_OBJECT
  5
3E06
102
{ACAD_REACTORS
330
C
102
}
330
C
100
AcDbProxyObject
 90
      499
 91
      594
 95
   917527
 70
     0
 93
       34
310
05000044FF
 94
        0
1001
ACAD
1000
AcRTDxfName
1000
MAPIADMODULE
  0
DICTIONARY
  5
2B
102
{ACAD_REACTORS
330
C
102
}
330
C
100
AcDbDictionary
281
     1
  0
DICTIONARY
  5
7D
102
{ACAD_REACTORS
330
C
102
}
330
C
100
AcDbDictionary
281
     1
  0
DICTIONARY
  5
B331
102
{ACAD_REACTORS
330
C
102
}
330
C
100
AcDbDictionary
281
     1
  3
ASEBlockHierarchyIndexRecord
350
B332
1001
DCO15
1040
1594111214.218
  0
XRECORD
  5
D2D0
102
{ACAD_REACTORS
330
C
102
}
330
C
100
AcDbXrecord
280
     1
  1
DWGPROPS COOKIE
  2

  3

  4

  6

  7

  8
Administrator
  9

300
AmdtFileType=84
301
=
302
=
303
=
304
=
305
=
306
=
307
=
308
=
309
=
 40
0.1071670601851852
 41
2456129.601273322
 42
2456267.598221562
  1

 90
        1
  0
ACAD_PROXY_OBJECT
  5
3DEB
102
{ACAD_REACTORS
330
C
102
}
330
C
100
AcDbProxyObject
 90
      499
 91
      583
 95
   917527
 70
     0
 93
        8
310
047E
 94
        0
1001
ACAD
1000
AcRTDxfName
1000
AMDTMAPISURFMOUDULE
  0
DICTIONARY
  5
B466
102
{ACAD_REACTORS
330
3F95
102
}
330
3F95
100
AcDbDictionary
281
     1
  0
DICTIONARY
  5
3F96
102
{ACAD_REACTORS
330
3F95
102
}
330
3F95
100
AcDbDictionary
281
     1
  3
20011210
350
3FB7
  0
DICTIONARY
  5
B465
102
{ACAD_REACTORS
330
3F95
102
}
330
3F95
100
AcDbDictionary
281
     1
1001
ACAD
1000
<All
  0
DICTIONARY
  5
AAB4
102
{ACAD_REACTORS
330
3F95
102
}
330
3F95
100
AcDbDictionary
280
     1
281
     1
  0
XRECORD
  5
C9CC
102
{ACAD_REACTORS
330
C9CB
102
}
330
C9CB
100
AcDbXrecord
280
     1
290
     1
  0
XRECORD
  5
C9CE
102
{ACAD_REACTORS
330
C9CD
102
}
330
C9CD
100
AcDbXrecord
280
     1
290
     1
  0
XRECORD
  5
C9D0
102
{ACAD_REACTORS
330
C9CF
102
}
330
C9CF
100
AcDbXrecord
280
     1
290
     1
  0
XRECORD
  5
C9D2
102
{ACAD_REACTORS
330
C9D1
102
}
330
C9D1
100
AcDbXrecord
280
     1
290
     1
  0
XRECORD
  5
C9D4
102
{ACAD_REACTORS
330
C9D3
102
}
330
C9D3
100
AcDbXrecord
280
     1
290
     1
  0
XRECORD
  5
C9D6
102
{ACAD_REACTORS
330
C9D5
102
}
330
C9D5
100
AcDbXrecord
280
     1
290
     1
  0
XRECORD
  5
C9D8
102
{ACAD_REACTORS
330
C9D7
102
}
330
C9D7
100
AcDbXrecord
280
     1
290
     1
  0
XRECORD
  5
C9DA
102
{ACAD_REACTORS
330
C9D9
102
}
330
C9D9
100
AcDbXrecord
280
     1
290
     1
  0
XRECORD
  5
C9DC
102
{ACAD_REACTORS
330
C9DB
102
}
330
C9DB
100
AcDbXrecord
280
     1
290
     1
  0
XRECORD
  5
C9DE
102
{ACAD_REACTORS
330
C9DD
102
}
330
C9DD
100
AcDbXrecord
280
     1
290
     1
  0
XRECORD
  5
C9E0
102
{ACAD_REACTORS
330
C9DF
102
}
330
C9DF
100
AcDbXrecord
280
     1
290
     1
  0
XRECORD
  5
C9E2
102
{ACAD_REACTORS
330
C9E1
102
}
330
C9E1
100
AcDbXrecord
280
     1
290
     1
  0
XRECORD
  5
C9E4
102
{ACAD_REACTORS
330
C9E3
102
}
330
C9E3
100
AcDbXrecord
280
     1
290
     1
  0
XRECORD
  5
C9E6
102
{ACAD_REACTORS
330
C9E5
102
}
330
C9E5
100
AcDbXrecord
280
     1
290
     1
  0
XRECORD
  5
C9E8
102
{ACAD_REACTORS
330
C9E7
102
}
330
C9E7
100
AcDbXrecord
280
     1
290
     1
  0
XRECORD
  5
C9EA
102
{ACAD_REACTORS
330
C9E9
102
}
330
C9E9
100
AcDbXrecord
280
     1
290
     1
  0
XRECORD
  5
C9EC
102
{ACAD_REACTORS
330
C9EB
102
}
330
C9EB
100
AcDbXrecord
280
     1
290
     1
  0
XRECORD
  5
C9EE
102
{ACAD_REACTORS
330
C9ED
102
}
330
C9ED
100
AcDbXrecord
280
     1
290
     1
  0
XRECORD
  5
C9F0
102
{ACAD_REACTORS
330
C9EF
102
}
330
C9EF
100
AcDbXrecord
280
     1
290
     1
  0
XRECORD
  5
C9F2
102
{ACAD_REACTORS
330
C9F1
102
}
330
C9F1
100
AcDbXrecord
280
     1
290
     1
  0
XRECORD
  5
C9F4
102
{ACAD_REACTORS
330
C9F3
102
}
330
C9F3
100
AcDbXrecord
280
     1
290
     1
  0
XRECORD
  5
C9F6
102
{ACAD_REACTORS
330
C9F5
102
}
330
C9F5
100
AcDbXrecord
280
     1
290
     1
  0
SORTENTSTABLE
  5
B1BA
102
{ACAD_REACTORS
330
8A
102
}
330
8A
100
AcDbSortentsTable
330
1F
331
B9AB
  5
B9C5
331
BC9C
  5
BD00
331
C876
  5
C877
331
BCFB
  5
BD18
331
BC88
  5
BCFB
331
BCF7
  5
BD14
331
BC1D
  5
BC82
331
BDC2
  5
B915
331
B9BA
  5
BC0C
331
BDBE
  5
B911
331
BC3D
  5
BC86
331
BCF3
  5
BD0E
331
BC80
  5
BCA3
331
BD16
  5
BDC5
331
B9B6
  5
BB26
331
BDBA
  5
B90D
331
C87D
  5
BC89
331
BC11
  5
BC7C
331
BC60
  5
BC99
331
BC7C
  5
BC9F
331
BC9F
  5
BD04
331
C879
  5
C87A
331
B9AE
  5
B9EF
331
BD0E
  5
BDC0
331
BC0D
  5
BC5F
331
BC5C
  5
BC8F
331
B9AA
  5
B9C4
331
BD0A
  5
BDBC
331
C875
  5
C876
331
BC9B
  5
BCFE
331
B9C5
  5
BC11
331
BDC1
  5
B914
331
BC40
  5
BC8D
331
BC87
  5
BCFA
331
B9BD
  5
BC0F
331
BCF2
  5
BD0D
331
B9B9
  5
BBCB
331
BDBD
  5
B910
331
BC3C
  5
BC84
331
BDB9
  5
B90C
331
BC14
  5
BC80
331
BC63
  5
BC9C
331
BC7F
  5
BCA2
331
BC7B
  5
BC9E
331
C87C
  5
C87D
331
B9B1
  5
BABA
331
BC10
  5
BC7A
331
BC5F
  5
BC92
331
BC9E
  5
BD02
331
BC0C
  5
BC5E
331
BC92
  5
BC60
331
BD0D
  5
BDBF
331
C878
  5
C879
331
B9AD
  5
B9C7
331
BD09
  5
BDBB
331
C874
  5
C875
331
BC8E
  5
BC8B
331
B9C4
  5
BC10
331
BC8A
  5
BC7F
331
BCFD
  5
BDB8
331
BCF9
  5
BD16
331
B9BC
  5
BC0D
331
BDC0
  5
B913
331
BC3F
  5
BC8C
331
BC3B
  5
BC83
331
BC82
  5
BCF5
331
B9B8
  5
BB4E
331
BDBC
  5
B90F
331
BDB8
  5
B90B
331
B9B4
  5
BB07
331
BC13
  5
BC7E
331
BC7E
  5
BCA1
331
BC62
  5
BC9B
331
BD14
  5
BDC3
331
BC7A
  5
BC9D
331
BCA1
  5
BD0C
331
C87B
  5
C87C
331
B9B0
  5
BA4D
331
BC0F
  5
BC63
331
BC5E
  5
BC91
331
BC9D
  5
BD01
331
BC91
  5
BC8E
331
BD0C
  5
BDBE
331
C877
  5
C878
331
BC99
  5
BCFC
331
BD08
  5
BDBA
331
C873
  5
C874
331
BC8D
  5
BC85
331
BCFC
  5
BD19
331
BDC3
  5
B916
331
BCF8
  5
BD15
331
BDBF
  5
B912
331
BC3E
  5
BC8A
331
BC85
  5
BCF8
331
BCF4
  5
BD0F
331
BC81
  5
BCA4
331
BD17
  5
BDC6
331
BC16
  5
BC81
331
BDBB
  5
B90E
331
B9B3
  5
BAD9
331
BC12
  5
BC7D
331
BC61
  5
BC9A
331
BC7D
  5
BCA0
331
BCA0
  5
BD0B
331
BD0F
  5
BDC1
331
C87A
  5
C87B
331
B9AF
  5
BA1F
331
BC5D
  5
BC90
  0
SORTENTSTABLE
  5
CE88
102
{ACAD_REACTORS
330
CE87
102
}
330
CE87
100
AcDbSortentsTable
330
CE47
  0
XRECORD
  5
D2D2
102
{ACAD_REACTORS
330
D2D1
102
}
330
D2D1
100
AcDbXrecord
280
     1
 70
     1
  0
LAYOUT
  5
22
102
{ACAD_XDICTIONARY
360
D2D5
102
}
102
{ACAD_REACTORS
330
1A
102
}
330
1A
100
AcDbPlotSettings
  1

  2
Adobe PDF
  4
A4
  6
AM_VIEW1
 40
3.174999952316284
 41
3.174999952316284
 42
3.175003051757812
 43
3.17498779296875
 44
209.9733276367187
 45
297.0318298339844
 46
-3.188337683677687
 47
-3.159078955650329
 48
0.0
 49
-0.0000000000000284
140
297.0
141
210.0
142
1.0
143
1.0
 70
  3748
 72
     1
 73
     1
 74
     4
  7
monochrome.ctb
 75
     0
147
0.9532055446079798
148
0.0
149
0.0000000000000284
100
AcDbLayout
  1
Model
 70
     1
 71
     0
 10
0.0
 20
0.0
 11
12.0
 21
9.0
 12
0.0
 22
0.0
 32
0.0
 14
0.0
 24
0.0
 34
0.0
 15
0.0
 25
0.0
 35
0.0
146
0.0
 13
0.0
 23
0.0
 33
0.0
 16
1.0
 26
0.0
 36
0.0
 17
0.0
 27
1.0
 37
0.0
 76
     0
330
1F
331
B0EC
1001
ACAD_PSEXT
1000
Adobe PDF
1000
Adobe PDF Converter
1000
My Documents\*.pdf
1000

1070
     0
  0
LAYOUT
  5
1E
102
{ACAD_XDICTIONARY
360
D2D3
102
}
102
{ACAD_REACTORS
330
1A
102
}
330
1A
100
AcDbPlotSettings
  1

  2
\\ML370\XEROX
  4
A4
  6

 40
3.174999952316284
 41
3.174999952316284
 42
3.175003051757812
 43
3.17498779296875
 44
209.8674926757813
 45
296.6719970703125
 46
0.0
 47
0.0
 48
0.0
 49
0.0
140
0.0
141
0.0
142
1.0
143
1.0
 70
   688
 72
     1
 73
     1
 74
     5
  7
monochrome.ctb
 75
    16
147
1.0
148
0.0
149
0.0
100
AcDbLayout
  1
ﾚｲｱｳﾄ1
 70
     1
 71
     1
 10
-3.17498779296875
 20
-3.174999952316284
 11
293.4970092773438
 21
206.692492723465
 12
0.0
 22
0.0
 32
0.0
 14
1.000000000000000E+20
 24
1.000000000000000E+20
 34
1.000000000000000E+20
 15
-1.000000000000000E+20
 25
-1.000000000000000E+20
 35
-1.000000000000000E+20
146
0.0
 13
0.0
 23
0.0
 33
0.0
 16
1.0
 26
0.0
 36
0.0
 17
0.0
 27
1.0
 37
0.0
 76
     0
330
1B
  0
LAYOUT
  5
26
102
{ACAD_XDICTIONARY
360
D2D7
102
}
102
{ACAD_REACTORS
330
1A
102
}
330
1A
100
AcDbPlotSettings
  1

  2
\\ML370\XEROX
  4

  6

 40
0.0
 41
0.0
 42
0.0
 43
0.0
 44
0.0
 45
0.0
 46
0.0
 47
0.0
 48
0.0
 49
0.0
140
0.0
141
0.0
142
1.0
143
1.0
 70
   688
 72
     0
 73
     0
 74
     5
  7
monochrome.ctb
 75
    16
147
1.0
148
0.0
149
0.0
100
AcDbLayout
  1
ﾚｲｱｳﾄ2
 70
     1
 71
     2
 10
0.0
 20
0.0
 11
12.0
 21
9.0
 12
0.0
 22
0.0
 32
0.0
 14
0.0
 24
0.0
 34
0.0
 15
0.0
 25
0.0
 35
0.0
146
0.0
 13
0.0
 23
0.0
 33
0.0
 16
1.0
 26
0.0
 36
0.0
 17
0.0
 27
1.0
 37
0.0
 76
     0
330
23
  0
MATERIAL
  5
B0EF
102
{ACAD_XDICTIONARY
360
D2DC
102
}
102
{ACAD_REACTORS
330
A91C
102
}
330
A91C
100
AcDbMaterial
  1
ByBlock
  0
MATERIAL
  5
B0EE
102
{ACAD_XDICTIONARY
360
D2DA
102
}
102
{ACAD_REACTORS
330
A91C
102
}
330
A91C
100
AcDbMaterial
  1
ByLayer
  0
MATERIAL
  5
B0F0
102
{ACAD_XDICTIONARY
360
D2DE
102
}
102
{ACAD_REACTORS
330
A91C
102
}
330
A91C
100
AcDbMaterial
  1
Global
  0
ACAD_PROXY_OBJECT
  5
BE6B
102
{ACAD_REACTORS
330
BE6A
102
}
330
BE6A
100
AcDbProxyObject
 90
      499
 91
      629
 95
  1703963
 70
     0
 93
      817
310
40901902A40600000030400FEFFFFFF8000000000000008102B5E8DC0F42B5CFC0000000000001040405064068000000C1000000000000000410000000000000004102000000304015D94000000000000C03F4214C01D0018401B80190018401C80190028C00CC
340
14
340
0
340
11
340
0
 94
        0
1001
ACAD_MLEADERVER
1070
     2
1001
ACAD
1000
AcRTDxfName
1000
MLEADERSTYLE
  0
MLINESTYLE
  5
18
102
{ACAD_REACTORS
330
17
102
}
330
17
100
AcDbMlineStyle
  2
STANDARD
 70
     0
  3

 62
   256
 51
90.0
 52
90.0
 71
     2
 49
0.5
 62
   256
  6
BYLAYER
 49
-0.5
 62
   256
  6
BYLAYER
  0
ACDBPLACEHOLDER
  5
F
102
{ACAD_REACTORS
330
E
102
}
330
E
  0
ACAD_PROXY_OBJECT
  5
BE49
102
{ACAD_REACTORS
330
BE48
102
}
330
BE48
100
AcDbProxyObject
 90
      499
 91
      628
 95
  1703963
 70
     0
 93
       82
310
968198801D0018801D004C
 94
        0
1001
ACAD
1000
AcRTDxfName
1000
SCALE
  0
ACAD_PROXY_OBJECT
  5
BE4A
102
{ACAD_REACTORS
330
BE48
102
}
330
BE48
100
AcDbProxyObject
 90
      499
 91
      628
 95
  1703963
 70
     0
 93
      146
310
9000000000000001008198801D0019001D004C
 94
        0
1001
ACAD
1000
AcRTDxfName
1000
SCALE
  0
ACAD_PROXY_OBJECT
  5
BE4B
102
{ACAD_REACTORS
330
BE48
102
}
330
BE48
100
AcDbProxyObject
 90
      499
 91
      628
 95
  1703963
 70
     0
 93
      146
310
9000000000000041008198801D001A001D004C
 94
        0
1001
ACAD
1000
AcRTDxfName
1000
SCALE
  0
ACAD_PROXY_OBJECT
  5
BE4C
102
{ACAD_REACTORS
330
BE48
102
}
330
BE48
100
AcDbProxyObject
 90
      499
 91
      628
 95
  1703963
 70
     0
 93
      146
310
9000000000000051008198801D001A801D004C
 94
        0
1001
ACAD
1000
AcRTDxfName
1000
SCALE
  0
ACAD_PROXY_OBJECT
  5
BE4D
102
{ACAD_REACTORS
330
BE48
102
}
330
BE48
100
AcDbProxyObject
 90
      499
 91
      628
 95
  1703963
 70
     0
 93
      146
310
9000000000000081008198801D001C001D004C
 94
        0
1001
ACAD
1000
AcRTDxfName
1000
SCALE
  0
ACAD_PROXY_OBJECT
  5
BE4E
102
{ACAD_REACTORS
330
BE48
102
}
330
BE48
100
AcDbProxyObject
 90
      499
 91
      628
 95
  1703963
 70
     0
 93
      162
310
9000000000000091008218801D001880180025004C
 94
        0
1001
ACAD
1000
AcRTDxfName
1000
SCALE
  0
ACAD_PROXY_OBJECT
  5
BE4F
102
{ACAD_REACTORS
330
BE48
102
}
330
BE48
100
AcDbProxyObject
 90
      499
 91
      628
 95
  1703963
 70
     0
 93
      162
310
90000000000000C1008218801D0018801B0025004C
 94
        0
1001
ACAD
1000
AcRTDxfName
1000
SCALE
  0
ACAD_PROXY_OBJECT
  5
BE50
102
{ACAD_REACTORS
330
BE48
102
}
330
BE48
100
AcDbProxyObject
 90
      499
 91
      628
 95
  1703963
 70
     0
 93
      162
310
90000000000000D1008218801D001900180025004C
 94
        0
1001
ACAD
1000
AcRTDxfName
1000
SCALE
  0
ACAD_PROXY_OBJECT
  5
BE51
102
{ACAD_REACTORS
330
BE48
102
}
330
BE48
100
AcDbProxyObject
 90
      499
 91
      628
 95
  1703963
 70
     0
 93
      162
310
90000000000000F9008218801D001980180025004C
 94
        0
1001
ACAD
1000
AcRTDxfName
1000
SCALE
  0
ACAD_PROXY_OBJECT
  5
BE52
102
{ACAD_REACTORS
330
BE48
102
}
330
BE48
100
AcDbProxyObject
 90
      499
 91
      628
 95
  1703963
 70
     0
 93
      162
310
9000000000000111008218801D001A00180025004C
 94
        0
1001
ACAD
1000
AcRTDxfName
1000
SCALE
  0
ACAD_PROXY_OBJECT
  5
BE53
102
{ACAD_REACTORS
330
BE48
102
}
330
BE48
100
AcDbProxyObject
 90
      499
 91
      628
 95
  1703963
 70
     0
 93
      162
310
9000000000000125008218801D001A80180025004C
 94
        0
1001
ACAD
1000
AcRTDxfName
1000
SCALE
  0
ACAD_PROXY_OBJECT
  5
BE54
102
{ACAD_REACTORS
330
BE48
102
}
330
BE48
100
AcDbProxyObject
 90
      499
 91
      628
 95
  1703963
 70
     0
 93
      178
310
9000000000000165008298801D001880180018002D004C
 94
        0
1001
ACAD
1000
AcRTDxfName
1000
SCALE
  0
ACAD_PROXY_OBJECT
  5
BE55
102
{ACAD_REACTORS
330
BE48
102
}
330
BE48
100
AcDbProxyObject
 90
      499
 91
      628
 95
  1703963
 70
     0
 93
      146
310
8000000000000004048199001D0018801D004C
 94
        0
1001
ACAD
1000
AcRTDxfName
1000
SCALE
  0
ACAD_PROXY_OBJECT
  5
BE56
102
{ACAD_REACTORS
330
BE48
102
}
330
BE48
100
AcDbProxyObject
 90
      499
 91
      628
 95
  1703963
 70
     0
 93
      146
310
800000000000010404819A001D0018801D004C
 94
        0
1001
ACAD
1000
AcRTDxfName
1000
SCALE
  0
ACAD_PROXY_OBJECT
  5
BE57
102
{ACAD_REACTORS
330
BE48
102
}
330
BE48
100
AcDbProxyObject
 90
      499
 91
      628
 95
  1703963
 70
     0
 93
      146
310
800000000000020404819C001D0018801D004C
 94
        0
1001
ACAD
1000
AcRTDxfName
1000
SCALE
  0
ACAD_PROXY_OBJECT
  5
BE58
102
{ACAD_REACTORS
330
BE48
102
}
330
BE48
100
AcDbProxyObject
 90
      499
 91
      628
 95
  1703963
 70
     0
 93
      162
310
80000000000002440482188018001D00188025004C
 94
        0
1001
ACAD
1000
AcRTDxfName
1000
SCALE
  0
ACAD_PROXY_OBJECT
  5
BE59
102
{ACAD_REACTORS
330
BE48
102
}
330
BE48
100
AcDbProxyObject
 90
      499
 91
      628
 95
  1703963
 70
     0
 93
      178
310
800000000000059404829880180018001D0018802D004C
 94
        0
1001
ACAD
1000
AcRTDxfName
1000
SCALE
  0
ACAD_PROXY_OBJECT
  5
BE5A
102
{ACAD_REACTORS
330
BE48
102
}
330
BE48
100
AcDbProxyObject
 90
      499
 91
      628
 95
  1703963
 70
     0
 93
      386
310
8000000000000803F0000000000000A1008718801780188019001C00110010001E8010001880138016801800110075004C
 94
        0
1001
ACAD
1000
AcRTDxfName
1000
SCALE
  0
ACAD_PROXY_OBJECT
  5
BE5B
102
{ACAD_REACTORS
330
BE48
102
}
330
BE48
100
AcDbProxyObject
 90
      499
 91
      628
 95
  1703963
 70
     0
 93
      370
310
8000000000000903F0000000000000A10086988017801B001A00110010001E801000188013801680180011006D004C
 94
        0
1001
ACAD
1000
AcRTDxfName
1000
SCALE
  0
ACAD_PROXY_OBJECT
  5
BE5C
102
{ACAD_REACTORS
330
BE48
102
}
330
BE48
100
AcDbProxyObject
 90
      499
 91
      628
 95
  1703963
 70
     0
 93
      370
310
8000000000000A03F0000000000000A100869880178019801900110010001E801000188013801680180011006D004C
 94
        0
1001
ACAD
1000
AcRTDxfName
1000
SCALE
  0
ACAD_PROXY_OBJECT
  5
BE5D
102
{ACAD_REACTORS
330
BE48
102
}
330
BE48
100
AcDbProxyObject
 90
      499
 91
      628
 95
  1703963
 70
     0
 93
      370
310
8000000000000B03F0000000000000A100869880178018801B00110010001E801000188013801680180011006D004C
 94
        0
1001
ACAD
1000
AcRTDxfName
1000
SCALE
  0
ACAD_PROXY_OBJECT
  5
BE5E
102
{ACAD_REACTORS
330
BE48
102
}
330
BE48
100
AcDbProxyObject
 90
      499
 91
      628
 95
  1703963
 70
     0
 93
      370
310
8000000000000B83F0000000000000A100869980178019801900110010001E801000188013801680180011006D004C
 94
        0
1001
ACAD
1000
AcRTDxfName
1000
SCALE
  0
ACAD_PROXY_OBJECT
  5
BE5F
102
{ACAD_REACTORS
330
BE48
102
}
330
BE48
100
AcDbProxyObject
 90
      499
 91
      628
 95
  1703963
 70
     0
 93
      354
310
8000000000000C03F0000000000000A10086188017801C00110010001E8010001880138016801800110065004C
 94
        0
1001
ACAD
1000
AcRTDxfName
1000
SCALE
  0
ACAD_PROXY_OBJECT
  5
BE60
102
{ACAD_REACTORS
330
BE48
102
}
330
BE48
100
AcDbProxyObject
 90
      499
 91
      628
 95
  1703963
 70
     0
 93
      370
310
8000000000000C83F0000000000000A100869980178018801B00110010001E801000188013801680180011006D004C
 94
        0
1001
ACAD
1000
AcRTDxfName
1000
SCALE
  0
ACAD_PROXY_OBJECT
  5
BE61
102
{ACAD_REACTORS
330
BE48
102
}
330
BE48
100
AcDbProxyObject
 90
      499
 91
      628
 95
  1703963
 70
     0
 93
      354
310
8000000000000D03F0000000000000A10086188017801A00110010001E8010001880138016801800110065004C
 94
        0
1001
ACAD
1000
AcRTDxfName
1000
SCALE
  0
ACAD_PROXY_OBJECT
  5
BE62
102
{ACAD_REACTORS
330
BE48
102
}
330
BE48
100
AcDbProxyObject
 90
      499
 91
      628
 95
  1703963
 70
     0
 93
      354
310
8000000000000D83F0000000000000A10086198017801C00110010001E8010001880138016801800110065004C
 94
        0
1001
ACAD
1000
AcRTDxfName
1000
SCALE
  0
ACAD_PROXY_OBJECT
  5
BE63
102
{ACAD_REACTORS
330
BE48
102
}
330
BE48
100
AcDbProxyObject
 90
      499
 91
      628
 95
  1703963
 70
     0
 93
      354
310
8000000000000E03F0000000000000A10086188017801900110010001E8010001880138016801800110065004C
 94
        0
1001
ACAD
1000
AcRTDxfName
1000
SCALE
  0
ACAD_PROXY_OBJECT
  5
BE64
102
{ACAD_REACTORS
330
BE48
102
}
330
BE48
100
AcDbProxyObject
 90
      499
 91
      628
 95
  1703963
 70
     0
 93
      354
310
8000000000000E83F0000000000000A10086198017801A00110010001E8010001880138016801800110065004C
 94
        0
1001
ACAD
1000
AcRTDxfName
1000
SCALE
  0
ACAD_PROXY_OBJECT
  5
BE65
102
{ACAD_REACTORS
330
BE48
102
}
330
BE48
100
AcDbProxyObject
 90
      499
 91
      628
 95
  1703963
 70
     0
 93
      258
310
90000000000000A100851880110010001E8010001880138016801800110055004C
 94
        0
1001
ACAD
1000
AcRTDxfName
1000
SCALE
  0
ACAD_PROXY_OBJECT
  5
BE66
102
{ACAD_REACTORS
330
BE48
102
}
330
BE48
100
AcDbProxyObject
 90
      499
 91
      628
 95
  1703963
 70
     0
 93
      386
310
8000000000000F83F0000000000000A1008718801680188017801900110010001E8010001880138016801800110075004C
 94
        0
1001
ACAD
1000
AcRTDxfName
1000
SCALE
  0
ACAD_PROXY_OBJECT
  5
BE67
102
{ACAD_REACTORS
330
BE48
102
}
330
BE48
100
AcDbProxyObject
 90
      499
 91
      628
 95
  1703963
 70
     0
 93
      322
310
800000000000008400000000000000A100851980110010001E8010001880138016801800110055004C
 94
        0
1001
ACAD
1000
AcRTDxfName
1000
SCALE
  0
ACAD_PROXY_OBJECT
  5
BE68
102
{ACAD_REACTORS
330
BE48
102
}
330
BE48
100
AcDbProxyObject
 90
      499
 91
      628
 95
  1703963
 70
     0
 93
      322
310
800000000000018400000000000000A100851B00110010001E8010001880138016801800110055004C
 94
        0
1001
ACAD
1000
AcRTDxfName
1000
SCALE
  0
ACAD_PROXY_OBJECT
  5
BE69
102
{ACAD_REACTORS
330
BE48
102
}
330
BE48
100
AcDbProxyObject
 90
      499
 91
      628
 95
  1703963
 70
     0
 93
      370
310
800000000000028400000000000000A100869880138016801800110010001E801000188013801680180011006D004C
 94
        0
1001
ACAD
1000
AcRTDxfName
1000
SCALE
  0
TABLESTYLE
  5
AABA
102
{ACAD_XDICTIONARY
360
C9F7
102
}
102
{ACAD_REACTORS
330
AAB9
102
}
330
AAB9
100
AcDbTableStyle
  3
Standard
 70
     0
 71
     0
 40
1.5
 41
1.5
280
     0
281
     0
  7
STANDARD
140
4.5
170
     2
 62
     0
 63
     7
283
     0
274
    -2
284
     1
 64
     0
275
    -2
285
     1
 65
     0
276
    -2
286
     1
 66
     0
277
    -2
287
     1
 67
     0
278
    -2
288
     1
 68
     0
279
    -2
289
     1
 69
     0
  7
STANDARD
140
6.0
170
     5
 62
     0
 63
     7
283
     0
274
    -2
284
     1
 64
     0
275
    -2
285
     1
 65
     0
276
    -2
286
     1
 66
     0
277
    -2
287
     1
 67
     0
278
    -2
288
     1
 68
     0
279
    -2
289
     1
 69
     0
  7
STANDARD
140
4.5
170
     5
 62
     0
 63
     7
283
     0
274
    -2
284
     1
 64
     0
275
    -2
285
     1
 65
     0
276
    -2
286
     1
 66
     0
277
    -2
287
     1
 67
     0
278
    -2
288
     1
 68
     0
279
    -2
289
     1
 69
     0
  0
VISUALSTYLE
  5
B0F7
102
{ACAD_REACTORS
330
B0F1
102
}
330
B0F1
100
AcDbVisualStyle
  2
2dWireframe
 70
     4
 71
     0
 72
     2
 73
     0
 90
        0
 40
-0.6
 41
-30.0
 62
     5
 63
     7
 74
     1
 91
        4
 64
     7
 65
   257
 75
     1
175
     1
 42
1.0
 92
        0
 66
   257
 43
1.0
 76
     1
 77
     6
 78
     2
 67
     7
 79
     5
170
     0
171
     0
290
     0
174
     0
 93
        1
 44
0.0
173
     0
291
     0
 45
0.0
1001
ACAD
1000
AcDbSavedByObjectVersion
1070
     0
  0
VISUALSTYLE
  5
B0F9
102
{ACAD_REACTORS
330
B0F1
102
}
330
B0F1
100
AcDbVisualStyle
  2
3D Hidden
 70
     6
 71
     1
 72
     2
 73
     2
 90
        0
 40
-0.6
 41
-30.0
 62
     5
 63
     7
 74
     2
 91
        2
 64
     7
 65
   257
 75
     2
175
     1
 42
40.0
 92
        0
 66
   257
 43
1.0
 76
     1
 77
     6
 78
     2
 67
     7
 79
     3
170
     0
171
     0
290
     0
174
     0
 93
        1
 44
0.0
173
     0
291
     0
 45
0.0
1001
ACAD
1000
AcDbSavedByObjectVersion
1070
     0
  0
VISUALSTYLE
  5
B0F8
102
{ACAD_REACTORS
330
B0F1
102
}
330
B0F1
100
AcDbVisualStyle
  2
3dWireframe
 70
     5
 71
     0
 72
     2
 73
     0
 90
        0
 40
-0.6
 41
-30.0
 62
     5
 63
     7
 74
     1
 91
        4
 64
     7
 65
   257
 75
     1
175
     1
 42
1.0
 92
        0
 66
   257
 43
1.0
 76
     1
 77
     6
 78
     2
 67
     7
 79
     5
170
     0
171
     0
290
     0
174
     0
 93
        1
 44
0.0
173
     0
291
     0
 45
0.0
1001
ACAD
1000
AcDbSavedByObjectVersion
1070
     0
  0
VISUALSTYLE
  5
B0F6
102
{ACAD_REACTORS
330
B0F1
102
}
330
B0F1
100
AcDbVisualStyle
  2
Basic
 70
     7
 71
     1
 72
     0
 73
     1
 90
        0
 40
-0.6
 41
-30.0
 62
     5
 63
     7
 74
     0
 91
        4
 64
     7
 65
   257
 75
     1
175
     1
 42
1.0
 92
        8
 66
     7
 43
1.0
 76
     1
 77
     6
 78
     2
 67
     7
 79
     5
170
     0
171
     0
290
     0
174
     0
 93
        1
 44
0.0
173
     0
291
     1
 45
0.0
1001
ACAD
1000
AcDbSavedByObjectVersion
1070
     0
  0
VISUALSTYLE
  5
B0FD
102
{ACAD_REACTORS
330
B0F1
102
}
330
B0F1
100
AcDbVisualStyle
  2
Brighten
 70
    12
 71
     2
 72
     2
 73
     0
 90
        0
 40
-0.6
 41
-30.0
 62
     5
 63
     7
 74
     1
 91
        4
 64
     7
 65
   257
 75
     1
175
     1
 42
1.0
 92
        8
 66
     7
 43
1.0
 76
     1
 77
     6
 78
     2
 67
     7
 79
     5
170
     0
171
     0
290
     0
174
     0
 93
        1
 44
50.0
173
     0
291
     1
 45
0.0
1001
ACAD
1000
AcDbSavedByObjectVersion
1070
     0
  0
VISUALSTYLE
  5
B101
102
{ACAD_REACTORS
330
B0F1
102
}
330
B0F1
100
AcDbVisualStyle
  2
ColorChange
 70
    16
 71
     2
 72
     2
 73
     3
 90
        0
 40
-0.6
 41
-30.0
 62
     5
 63
     8
 74
     1
 91
        4
 64
     7
 65
   257
 75
     1
175
     1
 42
1.0
 92
        8
 66
     8
 43
1.0
 76
     1
 77
     6
 78
     2
 67
     7
 79
     5
170
     0
171
     0
290
     0
174
     0
 93
        1
 44
0.0
173
     0
291
     1
 45
0.0
1001
ACAD
1000
AcDbSavedByObjectVersion
1070
     0
  0
VISUALSTYLE
  5
B0FA
102
{ACAD_REACTORS
330
B0F1
102
}
330
B0F1
100
AcDbVisualStyle
  2
Conceptual
 70
     9
 71
     3
 72
     2
 73
     0
 90
        0
 40
-0.6
 41
-30.0
 62
     5
 63
     7
 74
     2
 91
        2
 64
     7
 65
   257
 75
     1
175
     1
 42
40.0
 92
        8
 66
     7
 43
1.0
 76
     1
 77
     6
 78
     2
 67
     7
 79
     3
170
     0
171
     0
290
     0
174
     0
 93
        1
 44
0.0
173
     0
291
     0
 45
0.0
1001
ACAD
1000
AcDbSavedByObjectVersion
1070
     0
  0
VISUALSTYLE
  5
B0FC
102
{ACAD_REACTORS
330
B0F1
102
}
330
B0F1
100
AcDbVisualStyle
  2
Dim
 70
    11
 71
     2
 72
     2
 73
     0
 90
        0
 40
-0.6
 41
-30.0
 62
     5
 63
     7
 74
     1
 91
        4
 64
     7
 65
   257
 75
     1
175
     1
 42
1.0
 92
        8
 66
     7
 43
1.0
 76
     1
 77
     6
 78
     2
 67
     7
 79
     5
170
     0
171
     0
290
     0
174
     0
 93
        1
 44
-50.0
173
     0
291
     1
 45
0.0
1001
ACAD
1000
AcDbSavedByObjectVersion
1070
     0
  0
VISUALSTYLE
  5
B100
102
{ACAD_REACTORS
330
B0F1
102
}
330
B0F1
100
AcDbVisualStyle
  2
Facepattern
 70
    15
 71
     2
 72
     2
 73
     0
 90
        0
 40
-0.6
 41
-30.0
 62
     5
 63
     7
 74
     1
 91
        4
 64
     7
 65
   257
 75
     1
175
     1
 42
1.0
 92
        8
 66
     7
 43
1.0
 76
     1
 77
     6
 78
     2
 67
     7
 79
     5
170
     0
171
     0
290
     0
174
     0
 93
        1
 44
0.0
173
     0
291
     1
 45
0.0
1001
ACAD
1000
AcDbSavedByObjectVersion
1070
     0
  0
VISUALSTYLE
  5
B0F2
102
{ACAD_REACTORS
330
B0F1
102
}
330
B0F1
100
AcDbVisualStyle
  2
Flat
 70
     0
 71
     2
 72
     1
 73
     1
 90
        2
 40
-0.6
 41
30.0
 62
     5
 63
     7
 74
     0
 91
        4
 64
     7
 65
   257
 75
     1
175
     1
 42
1.0
 92
        8
 66
     7
 43
1.0
 76
     1
 77
     6
 78
     2
 67
     7
 79
     5
170
     0
171
     0
290
     0
174
     0
 93
       13
 44
0.0
173
     0
291
     1
 45
0.0
1001
ACAD
1000
AcDbSavedByObjectVersion
1070
     0
  0
VISUALSTYLE
  5
B0F3
102
{ACAD_REACTORS
330
B0F1
102
}
330
B0F1
100
AcDbVisualStyle
  2
FlatWithEdges
 70
     1
 71
     2
 72
     1
 73
     1
 90
        2
 40
-0.6
 41
30.0
 62
     5
 63
     7
 74
     1
 91
        4
 64
     7
 65
   257
 75
     1
175
     1
 42
1.0
 92
        0
 66
   257
 43
1.0
 76
     1
 77
     6
 78
     2
 67
     7
 79
     5
170
     0
171
     0
290
     0
174
     0
 93
       13
 44
0.0
173
     0
291
     1
 45
0.0
1001
ACAD
1000
AcDbSavedByObjectVersion
1070
     0
  0
VISUALSTYLE
  5
B0F4
102
{ACAD_REACTORS
330
B0F1
102
}
330
B0F1
100
AcDbVisualStyle
  2
Gouraud
 70
     2
 71
     2
 72
     2
 73
     1
 90
        2
 40
-0.6
 41
30.0
 62
     5
 63
     7
 74
     0
 91
        4
 64
     7
 65
   257
 75
     1
175
     1
 42
1.0
 92
        0
 66
     7
 43
1.0
 76
     1
 77
     6
 78
     2
 67
     7
 79
     5
170
     0
171
     0
290
     0
174
     0
 93
       13
 44
0.0
173
     0
291
     1
 45
0.0
1001
ACAD
1000
AcDbSavedByObjectVersion
1070
     0
  0
VISUALSTYLE
  5
B0F5
102
{ACAD_REACTORS
330
B0F1
102
}
330
B0F1
100
AcDbVisualStyle
  2
GouraudWithEdges
 70
     3
 71
     2
 72
     2
 73
     1
 90
        2
 40
-0.6
 41
30.0
 62
     5
 63
     7
 74
     1
 91
        4
 64
     7
 65
   257
 75
     1
175
     1
 42
1.0
 92
        0
 66
   257
 43
1.0
 76
     1
 77
     6
 78
     2
 67
     7
 79
     5
170
     0
171
     0
290
     0
174
     0
 93
       13
 44
0.0
173
     0
291
     1
 45
0.0
1001
ACAD
1000
AcDbSavedByObjectVersion
1070
     0
  0
VISUALSTYLE
  5
B0FF
102
{ACAD_REACTORS
330
B0F1
102
}
330
B0F1
100
AcDbVisualStyle
  2
Linepattern
 70
    14
 71
     2
 72
     2
 73
     0
 90
        0
 40
-0.6
 41
-30.0
 62
     5
 63
     7
 74
     1
 91
        4
 64
     7
 65
   257
 75
     7
175
     7
 42
1.0
 92
        8
 66
     7
 43
1.0
 76
     1
 77
     6
 78
     2
 67
     7
 79
     5
170
     0
171
     0
290
     0
174
     0
 93
        1
 44
0.0
173
     0
291
     1
 45
0.0
1001
ACAD
1000
AcDbSavedByObjectVersion
1070
     0
  0
VISUALSTYLE
  5
B0FB
102
{ACAD_REACTORS
330
B0F1
102
}
330
B0F1
100
AcDbVisualStyle
  2
Realistic
 70
     8
 71
     2
 72
     2
 73
     0
 90
        0
 40
-0.6
 41
-30.0
 62
     5
 63
     7
 74
     1
 91
        0
 64
     7
 65
   257
 75
     1
175
     1
 42
1.0
 92
        8
 66
     8
 43
1.0
 76
     1
 77
     6
 78
     2
 67
     7
 79
     5
170
     0
171
     0
290
     0
174
     0
 93
       13
 44
0.0
173
     0
291
     0
 45
0.0
1001
ACAD
1000
AcDbSavedByObjectVersion
1070
     0
  0
VISUALSTYLE
  5
B0FE
102
{ACAD_REACTORS
330
B0F1
102
}
330
B0F1
100
AcDbVisualStyle
  2
Thicken
 70
    13
 71
     2
 72
     2
 73
     0
 90
        0
 40
-0.6
 41
-30.0
 62
     5
 63
     7
 74
     1
 91
        4
 64
     7
 65
   257
 75
     1
175
     1
 42
1.0
 92
       12
 66
     7
 43
1.0
 76
     1
 77
     6
 78
     2
 67
     7
 79
     5
170
     0
171
     0
290
     0
174
     0
 93
        1
 44
0.0
173
     0
291
     1
 45
0.0
1001
ACAD
1000
AcDbSavedByObjectVersion
1070
     0
  0
DICTIONARYVAR
  5
C9FC
102
{ACAD_REACTORS
330
34
102
}
330
34
100
DictionaryVariables
280
     0
  1
1:1
  0
DICTIONARYVAR
  5
C9FA
102
{ACAD_REACTORS
330
34
102
}
330
34
100
DictionaryVariables
280
     0
  1
STANDARD
  0
DICTIONARYVAR
  5
AAF3
102
{ACAD_REACTORS
330
34
102
}
330
34
100
DictionaryVariables
280
     0
  1
STANDARD
  0
DICTIONARYVAR
  5
A10C
102
{ACAD_REACTORS
330
34
102
}
330
34
100
DictionaryVariables
280
     0
  1
1
  0
DICTIONARYVAR
  5
AB07
102
{ACAD_REACTORS
330
34
102
}
330
34
100
DictionaryVariables
280
     0
  1
4
  0
DICTIONARYVAR
  5
35
102
{ACAD_REACTORS
330
34
102
}
330
34
100
DictionaryVariables
280
     0
  1
0
  0
DICTIONARYVAR
  5
C9FD
102
{ACAD_REACTORS
330
34
102
}
330
34
100
DictionaryVariables
280
     0
  1
0
  0
DICTIONARYVAR
  5
C9FB
102
{ACAD_REACTORS
330
34
102
}
330
34
100
DictionaryVariables
280
     0
  1
0
  0
DICTIONARYVAR
  5
194C
102
{ACAD_REACTORS
330
34
102
}
330
34
100
DictionaryVariables
280
     0
  1
96
  0
DICTIONARY
  5
7E8
102
{ACAD_REACTORS
330
47
102
}
330
47
100
AcDbDictionary
281
     1
  0
DICTIONARY
  5
4C
102
{ACAD_REACTORS
330
47
102
}
330
47
100
AcDbDictionary
281
     1
  0
XRECORD
  5
A929
102
{ACAD_REACTORS
330
47
102
}
330
47
100
AcDbXrecord
280
     1
 90
-1023410169
  0
XRECORD
  5
B332
102
{ACAD_REACTORS
330
B331
102
}
330
B331
100
AcDbXrecord
280
     1
  0
XRECORD
  5
3FB7
102
{ACAD_REACTORS
330
3F96
102
}
330
3F96
100
AcDbXrecord
280
     1
 91
        3
330
0
 90
        8
 62
     7
370
    40
331
16
  1
Color_7
330
0
 90
        0
 62
    14
370
    -3
331
16
  1
Color_14
330
0
 90
        8
 62
     7
370
    20
331
16
  1
Color_7
330
6D1
 90
        0
 62
     7
370
    -3
331
16
  1
Color_7
330
0
 90
        8
 62
     7
370
    50
331
16
  1
Color_7
330
0
 90
        8
 62
     2
370
    35
331
16
  1
Color_2
330
0
 90
        8
 62
     7
370
    -3
331
16
  1
Color_7
330
10
 90
        8
 62
     7
370
    -3
331
16
  1
Color_7
  0
DICTIONARY
  5
D2D5
330
22
100
AcDbDictionary
280
     1
281
     1
  3
ACAD_XREC_ROUNDTRIP
360
D2D6
  0
DICTIONARY
  5
D2D3
330
1E
100
AcDbDictionary
280
     1
281
     1
  3
ACAD_XREC_ROUNDTRIP
360
D2D4
  0
DICTIONARY
  5
D2D7
330
26
100
AcDbDictionary
280
     1
281
     1
  3
ACAD_XREC_ROUNDTRIP
360
D2D8
  0
DICTIONARY
  5
D2DC
330
B0EF
100
AcDbDictionary
280
     1
281
     1
  3
ACAD_XREC_ROUNDTRIP
360
D2DD
  0
DICTIONARY
  5
D2DA
330
B0EE
100
AcDbDictionary
280
     1
281
     1
  3
ACAD_XREC_ROUNDTRIP
360
D2DB
  0
DICTIONARY
  5
D2DE
330
B0F0
100
AcDbDictionary
280
     1
281
     1
  3
ACAD_XREC_ROUNDTRIP
360
D2DF
  0
DICTIONARY
  5
C9F7
330
AABA
100
AcDbDictionary
280
     1
281
     1
  3
ACAD_ROUNDTRIP_2008_TABLESTYLE_CELLSTYLEMAP
360
D284
  3
ACAD_XREC_ROUNDTRIP
360
D2D9
  0
XRECORD
  5
D2D6
102
{ACAD_REACTORS
330
D2D5
102
}
330
D2D5
100
AcDbXrecord
280
     1
102
SHADEPLOT
 70
     0
102
SHADEPLOTRESLEVEL
 70
     2
102
SHADEPLOTCUSTOMDPI
 70
   200
  0
XRECORD
  5
D2D4
102
{ACAD_REACTORS
330
D2D3
102
}
330
D2D3
100
AcDbXrecord
280
     1
102
SHADEPLOT
 70
     0
102
SHADEPLOTRESLEVEL
 70
     2
102
SHADEPLOTCUSTOMDPI
 70
   300
  0
XRECORD
  5
D2D8
102
{ACAD_REACTORS
330
D2D7
102
}
330
D2D7
100
AcDbXrecord
280
     1
102
SHADEPLOT
 70
     0
102
SHADEPLOTRESLEVEL
 70
     2
102
SHADEPLOTCUSTOMDPI
 70
   300
  0
XRECORD
  5
D2DD
102
{ACAD_REACTORS
330
D2DC
102
}
330
D2DC
100
AcDbXrecord
280
     1
102
MATERIAL
148
0.0
149
0.0
149
0.0
 93
        0
 94
       63
282
     0
 72
     1
 77
     1
171
     1
175
     1
179
     1
273
     0
  0
XRECORD
  5
D2DB
102
{ACAD_REACTORS
330
D2DA
102
}
330
D2DA
100
AcDbXrecord
280
     1
102
MATERIAL
148
0.0
149
0.0
149
0.0
 93
        0
 94
       63
282
     0
 72
     1
 77
     1
171
     1
175
     1
179
     1
273
     0
  0
XRECORD
  5
D2DF
102
{ACAD_REACTORS
330
D2DE
102
}
330
D2DE
100
AcDbXrecord
280
     1
102
MATERIAL
148
0.0
149
0.0
149
0.0
 93
        0
 94
       63
282
     0
 72
     1
 77
     1
171
     1
175
     1
179
     1
273
     0
  0
ACAD_PROXY_OBJECT
  5
D284
102
{ACAD_REACTORS
330
C9F7
102
}
330
C9F7
100
AcDbProxyObject
 90
      499
 91
      632
 95
  1703963
 70
     0
 93
     5369
310
40D054060020000020000003200101A4129416000000304000000000000001840404000000000000F83F0000000000003E0FC000000000000F83F0000000000003E0FC0AD7A3703D0AC73F02B5E8DC0F42B1CFD0640640600000030400FEFFFFFF80AD7A3703D0AA73F40A40600000030400FEFFFFFF80AD7A3703D0AA73F4
310
1240600000030400FEFFFFFF80AD7A3703D0AA73F42240600000030400FEFFFFFF80AD7A3703D0AA73F44240600000030400FEFFFFFF80AD7A3703D0AA73F48240600000030400FEFFFFFF80AD7A3703D0AA73F4050141501A8000000C800406904A5058000000C10000000000000004901010000000000003E0FC00000000
310
0000F83F0000000000003E0FC000000000000F83F02B5E8DC0F42B1CFC0AD7A3703D0AC73F419019018000000C1003FBFFFFFE02B5E8DC0F42A9CFD029018000000C1003FBFFFFFE02B5E8DC0F42A9CFD049018000000C1003FBFFFFFE02B5E8DC0F42A9CFD089018000000C1003FBFFFFFE02B5E8DC0F42A9CFD109018000
310
000C1003FBFFFFFE02B5E8DC0F42A9CFD209018000000C1003FBFFFFFE02B5E8DC0F42A9CFD0240505406A0000003200101A412940A000000304000000000000001240404000000000000F83F0000000000003E0FC000000000000F83F0000000000003E0FC0AD7A3703D0AC73F02B5E8DC0F42B1CFD064064060000003040
310
0FEFFFFFF80AD7A3703D0AA73F40A40600000030400FEFFFFFF80AD7A3703D0AA73F41240600000030400FEFFFFFF80AD7A3703D0AA73F42240600000030400FEFFFFFF80AD7A3703D0AA73F44240600000030400FEFFFFFF80AD7A3703D0AA73F48240600000030400FEFFFFFF80AD7A3703D0AA73F40D029065F00540049
310
0054004C0045009075F004800450041004400450052009055F0044004100540041004401CC
340
11
340
0
340
0
340
0
340
0
340
0
340
0
340
11
340
0
340
0
340
0
340
0
340
0
340
0
340
11
340
0
340
0
340
0
340
0
340
0
340
0
 94
        0
1001
ACAD
1000
AcRTDxfName
1000
CELLSTYLEMAP
  0
XRECORD
  5
D2D9
102
{ACAD_REACTORS
330
C9F7
102
}
330
C9F7
100
AcDbXrecord
280
     1
102
ACAD_ROUNDTRIP_PRE2007_TABLESTYLE
 90
        4
 91
        0
  1

 92
        4
 93
        0
  2

 94
        4
 95
        0
  3

  0
ENDSEC
  0
EOF
