  0
SECTION
  2
HEADER
  9
$ACADVER
  1
AC1015
  9
$ACADMAINTVER
 70
    20
  9
$DWGCODEPAGE
  3
ANSI_932
  9
$INSBASE
 10
0.0
 20
0.0
 30
0.0
  9
$EXTMIN
 10
0.0
 20
-0.0000000000000568
 30
0.0
  9
$EXTMAX
 10
297.0
 20
210.0
 30
0.0
  9
$LIMMIN
 10
0.0
 20
0.0
  9
$LIMMAX
 10
297.0
 20
210.0
  9
$ORTHOMODE
 70
     0
  9
$REGENMODE
 70
     1
  9
$FILLMODE
 70
     1
  9
$QTEXTMODE
 70
     0
  9
$MIRRTEXT
 70
     0
  9
$LTSCALE
 40
1.0
  9
$ATTMODE
 70
     1
  9
$TEXTSIZE
 40
3.2
  9
$TRACEWID
 40
1.0
  9
$TEXTSTYLE
  7
STANDARD
  9
$CLAYER
  8
AM_6
  9
$CELTYPE
  6
ByLayer
  9
$CECOLOR
 62
   256
  9
$CELTSCALE
 40
1.0
  9
$DISPSILH
 70
     0
  9
$DIMSCALE
 40
1.0
  9
$DIMASZ
 40
2.5
  9
$DIMEXO
 40
1.0
  9
$DIMDLI
 40
10.0
  9
$DIMRND
 40
0.0
  9
$DIMDLE
 40
0.0
  9
$DIMEXE
 40
1.0
  9
$DIMTP
 40
0.1
  9
$DIMTM
 40
0.1
  9
$DIMTXT
 40
3.5
  9
$DIMCEN
 40
0.0
  9
$DIMTSZ
 40
0.0
  9
$DIMTOL
 70
     0
  9
$DIMLIM
 70
     0
  9
$DIMTIH
 70
     0
  9
$DIMTOH
 70
     0
  9
$DIMSE1
 70
     0
  9
$DIMSE2
 70
     0
  9
$DIMTAD
 70
     1
  9
$DIMZIN
 70
     8
  9
$DIMBLK
  1

  9
$DIMASO
 70
     1
  9
$DIMSHO
 70
     1
  9
$DIMPOST
  1

  9
$DIMAPOST
  1
"
  9
$DIMALT
 70
     0
  9
$DIMALTD
 70
     2
  9
$DIMALTF
 40
0.0393701
  9
$DIMLFAC
 40
1.0
  9
$DIMTOFL
 70
     1
  9
$DIMTVP
 40
0.0
  9
$DIMTIX
 70
     0
  9
$DIMSOXD
 70
     0
  9
$DIMSAH
 70
     0
  9
$DIMBLK1
  1

  9
$DIMBLK2
  1

  9
$DIMSTYLE
  2
SYS
  9
$DIMCLRD
 70
   256
  9
$DIMCLRE
 70
   256
  9
$DIMCLRT
 70
     7
  9
$DIMTFAC
 40
0.71
  9
$DIMGAP
 40
1.5
  9
$DIMJUST
 70
     0
  9
$DIMSD1
 70
     0
  9
$DIMSD2
 70
     0
  9
$DIMTOLJ
 70
     0
  9
$DIMTZIN
 70
     8
  9
$DIMALTZ
 70
     0
  9
$DIMALTTZ
 70
     0
  9
$DIMUPT
 70
     0
  9
$DIMDEC
 70
     1
  9
$DIMTDEC
 70
     3
  9
$DIMALTU
 70
     2
  9
$DIMALTTD
 70
     4
  9
$DIMTXSTY
  7
STANDARD
  9
$DIMAUNIT
 70
     0
  9
$DIMADEC
 70
     0
  9
$DIMALTRND
 40
0.0
  9
$DIMAZIN
 70
     2
  9
$DIMDSEP
 70
    46
  9
$DIMATFIT
 70
     3
  9
$DIMFRAC
 70
     0
  9
$DIMLDRBLK
  1

  9
$DIMLUNIT
 70
     2
  9
$DIMLWD
 70
    -1
  9
$DIMLWE
 70
    -1
  9
$DIMTMOVE
 70
     0
  9
$LUNITS
 70
     2
  9
$LUPREC
 70
     2
  9
$SKETCHINC
 40
1.0
  9
$FILLETRAD
 40
5.0
  9
$AUNITS
 70
     0
  9
$AUPREC
 70
     0
  9
$MENU
  1
.
  9
$ELEVATION
 40
0.0
  9
$PELEVATION
 40
0.0
  9
$THICKNESS
 40
0.0
  9
$LIMCHECK
 70
     0
  9
$CHAMFERA
 40
0.0
  9
$CHAMFERB
 40
0.0
  9
$CHAMFERC
 40
20.0
  9
$CHAMFERD
 40
0.0
  9
$SKPOLY
 70
     0
  9
$TDCREATE
 40
2452002.615067627
  9
$TDUCREATE
 40
2452002.240067627
  9
$TDUPDATE
 40
2456260.422475035
  9
$TDUUPDATE
 40
2456260.047475035
  9
$TDINDWG
 40
3.9002067130
  9
$TDUSRTIMER
 40
3.9002067130
  9
$USRTIMER
 70
     1
  9
$ANGBASE
 50
0.0
  9
$ANGDIR
 70
     0
  9
$PDMODE
 70
     0
  9
$PDSIZE
 40
0.0
  9
$PLINEWID
 40
0.0
  9
$SPLFRAME
 70
     0
  9
$SPLINETYPE
 70
     6
  9
$SPLINESEGS
 70
     8
  9
$HANDSEED
  5
F283
  9
$SURFTAB1
 70
     6
  9
$SURFTAB2
 70
     6
  9
$SURFTYPE
 70
     6
  9
$SURFU
 70
     6
  9
$SURFV
 70
     6
  9
$UCSBASE
  2

  9
$UCSNAME
  2

  9
$UCSORG
 10
0.0
 20
0.0
 30
0.0
  9
$UCSXDIR
 10
1.0
 20
0.0
 30
0.0
  9
$UCSYDIR
 10
0.0
 20
1.0
 30
0.0
  9
$UCSORTHOREF
  2

  9
$UCSORTHOVIEW
 70
     0
  9
$UCSORGTOP
 10
0.0
 20
0.0
 30
0.0
  9
$UCSORGBOTTOM
 10
0.0
 20
0.0
 30
0.0
  9
$UCSORGLEFT
 10
0.0
 20
0.0
 30
0.0
  9
$UCSORGRIGHT
 10
0.0
 20
0.0
 30
0.0
  9
$UCSORGFRONT
 10
0.0
 20
0.0
 30
0.0
  9
$UCSORGBACK
 10
0.0
 20
0.0
 30
0.0
  9
$PUCSBASE
  2

  9
$PUCSNAME
  2

  9
$PUCSORG
 10
0.0
 20
0.0
 30
0.0
  9
$PUCSXDIR
 10
1.0
 20
0.0
 30
0.0
  9
$PUCSYDIR
 10
0.0
 20
1.0
 30
0.0
  9
$PUCSORTHOREF
  2

  9
$PUCSORTHOVIEW
 70
     0
  9
$PUCSORGTOP
 10
0.0
 20
0.0
 30
0.0
  9
$PUCSORGBOTTOM
 10
0.0
 20
0.0
 30
0.0
  9
$PUCSORGLEFT
 10
0.0
 20
0.0
 30
0.0
  9
$PUCSORGRIGHT
 10
0.0
 20
0.0
 30
0.0
  9
$PUCSORGFRONT
 10
0.0
 20
0.0
 30
0.0
  9
$PUCSORGBACK
 10
0.0
 20
0.0
 30
0.0
  9
$USERI1
 70
     0
  9
$USERI2
 70
     0
  9
$USERI3
 70
     0
  9
$USERI4
 70
     0
  9
$USERI5
 70
     0
  9
$USERR1
 40
0.0
  9
$USERR2
 40
0.0
  9
$USERR3
 40
0.0
  9
$USERR4
 40
0.0
  9
$USERR5
 40
0.0
  9
$WORLDVIEW
 70
     1
  9
$SHADEDGE
 70
     3
  9
$SHADEDIF
 70
    70
  9
$TILEMODE
 70
     1
  9
$MAXACTVP
 70
    64
  9
$PINSBASE
 10
0.0
 20
0.0
 30
0.0
  9
$PLIMCHECK
 70
     0
  9
$PEXTMIN
 10
1.000000000000000E+20
 20
1.000000000000000E+20
 30
1.000000000000000E+20
  9
$PEXTMAX
 10
-1.000000000000000E+20
 20
-1.000000000000000E+20
 30
-1.000000000000000E+20
  9
$PLIMMIN
 10
-3.17498779296875
 20
-3.174999952316284
  9
$PLIMMAX
 10
293.4970092773438
 20
206.692492723465
  9
$UNITMODE
 70
     0
  9
$VISRETAIN
 70
     1
  9
$PLINEGEN
 70
     0
  9
$PSLTSCALE
 70
     1
  9
$TREEDEPTH
 70
  3020
  9
$CMLSTYLE
  2
Standard
  9
$CMLJUST
 70
     0
  9
$CMLSCALE
 40
20.0
  9
$PROXYGRAPHICS
 70
     1
  9
$MEASUREMENT
 70
     1
  9
$CELWEIGHT
370
    -1
  9
$ENDCAPS
280
     0
  9
$JOINSTYLE
280
     0
  9
$LWDISPLAY
290
     1
  9
$INSUNITS
 70
     4
  9
$HYPERLINKBASE
  1

  9
$STYLESHEET
  1
monochrome.ctb
  9
$XEDIT
290
     1
  9
$CEPSNTYPE
380
     0
  9
$PSTYLEMODE
290
     1
  9
$FINGERPRINTGUID
  2
{83FB3AA1-FF18-4BFE-AFE0-611B71DE056D}
  9
$VERSIONGUID
  2
{67E92047-5CE4-4A7D-9F21-AE4B619AF5BF}
  9
$EXTNAMES
290
     1
  9
$PSVPSCALE
 40
0.0
  9
$OLESTARTUP
290
     0
  0
ENDSEC
  0
SECTION
  2
CLASSES
  0
CLASS
  1
ACDBDICTIONARYWDFLT
  2
AcDbDictionaryWithDefault
  3
ObjectDBX Classes
 90
        0
280
     0
281
     0
  0
CLASS
  1
ACDBPLACEHOLDER
  2
AcDbPlaceHolder
  3
ObjectDBX Classes
 90
        0
280
     0
281
     0
  0
CLASS
  1
LAYOUT
  2
AcDbLayout
  3
ObjectDBX Classes
 90
        0
280
     0
281
     0
  0
CLASS
  1
AMGSETTINGSOBJ
  2
AmgSettingsObj
  3
"AcadM|Product Description: AutoCAD Mechanical|Company: Autodesk"
 90
        0
280
     0
281
     0
  0
CLASS
  1
ACME_DOCUMENT
  2
AcMeDbDoc
  3
AcMeServices
 90
        0
280
     0
281
     0
  0
CLASS
  1
ACMESCOPE
  2
AcMeScope
  3
AcMeServices
 90
        0
280
     0
281
     0
  0
CLASS
  1
ACMECOMMANDHISTORY
  2
AcMeCommandHistory
  3
AcMeServices
 90
        0
280
     0
281
     0
  0
CLASS
  1
DICTIONARYVAR
  2
AcDbDictionaryVar
  3
ObjectDBX Classes
 90
        0
280
     0
281
     0
  0
CLASS
  1
ACIMSYSVARMAN
  2
AcImSysVarManager
  3
AcMeServices
 90
        0
280
     0
281
     0
  0
CLASS
  1
ACIMREALSYSVAR
  2
AcImRealSysVar
  3
AcMeServices
 90
        0
280
     0
281
     0
  0
CLASS
  1
ACIMINTSYSVAR
  2
AcImIntSysVar
  3
AcMeServices
 90
        0
280
     0
281
     0
  0
CLASS
  1
ACMEDRAWINGMAN
  2
AcMeDrawingMan
  3
AcMeServices
 90
        0
280
     0
281
     0
  0
CLASS
  1
ACMEVIEW
  2
AcMeView
  3
AcMeServices
 90
        0
280
     0
281
     0
  0
CLASS
  1
ACDBENTITYCACHE
  2
AcMeEntityCache
  3
AcMeServices
 90
        0
280
     0
281
     0
  0
CLASS
  1
GSMANAGER
  2
AcMeGSManager
  3
AcMeServices
 90
        0
280
     0
281
     0
  0
CLASS
  1
AMDTINTERNALREACTOR
  2
AmdtInternalReactor
  3
AcMeServices
 90
        0
280
     0
281
     0
  0
CLASS
  1
ACMESTATEMGR
  2
AcMeStateMgr
  3
AcMeServices
 90
        0
280
     0
281
     0
  0
CLASS
  1
ACGREFMASTER
  2
AcGrefMaster
  3
AcAttribServices
 90
        0
280
     0
281
     0
  0
CLASS
  1
ACME_DATABASE
  2
AcMeDbDatabase
  3
AcMeServices
 90
        0
280
     0
281
     0
  0
CLASS
  1
ACRFINSADJUSTERMGR
  2
AcRfInsAdjusterMgr
  3
AcMeServices
 90
        0
280
     0
281
     0
  0
CLASS
  1
ACGREFACADMASTER
  2
AcGrefacadMaster
  3
AcGrefServices
 90
        0
280
     0
281
     0
  0
CLASS
  1
AMIMASTER
  2
AmiMaster
  3
AmiServices
 90
        0
280
     0
281
     0
  0
CLASS
  1
ACMDATADICTIONARY
  2
AcmDataDictionary
  3
"AcmSymBB|Product Description: AutoCAD Mechanical|Company: Autodesk"
 90
        0
280
     0
281
     0
  0
CLASS
  1
ACMDATAENTRYBLOCK
  2
AcmDataEntryBlock
  3
"AcmSymBB|Product Description: AutoCAD Mechanical|Company: Autodesk"
 90
        0
280
     0
281
     0
  0
CLASS
  1
ACIMSTRSYSVAR
  2
AcImStrSysVar
  3
AcMeServices
 90
        0
280
     0
281
     0
  0
CLASS
  1
ACMSTANDARDISO
  2
AcmStandardISO
  3
"Amdt_StdImp|Product Description: AutoCAD Mechanical|Company: Autodesk"
 90
        0
280
     0
281
     0
  0
CLASS
  1
AMGOBJPROPCFG
  2
AmgObjPropCfg
  3
"AmgLay|Product Description: AutoCAD Mechanical|Company: Autodesk"
 90
        1
280
     0
281
     0
  0
CLASS
  1
AMDTEDGESTANDARDISO
  2
AmdtEdgeStdISO
  3
"Amdt_StdImp|Product Description: AutoCAD Mechanical|Company: Autodesk"
 90
        0
280
     0
281
     0
  0
CLASS
  1
ACMSURFSTANDARDISO
  2
AcmSurfTextStdISO
  3
"Amdt_StdImp|Product Description: AutoCAD Mechanical|Company: Autodesk"
 90
        0
280
     0
281
     0
  0
CLASS
  1
ACMFCFSTANDARDISO
  2
AcmFCFStdISO
  3
"Amdt_StdImp|Product Description: AutoCAD Mechanical|Company: Autodesk"
 90
        0
280
     0
281
     0
  0
CLASS
  1
ACMWELDSTANDARDISO
  2
AcmWeldingStdISO
  3
"Amdt_StdImp|Product Description: AutoCAD Mechanical|Company: Autodesk"
 90
        0
280
     0
281
     0
  0
CLASS
  1
ACMIDSTANDARDISO
  2
AcmIdStdISO
  3
"Amdt_StdImp|Product Description: AutoCAD Mechanical|Company: Autodesk"
 90
        0
280
     0
281
     0
  0
CLASS
  1
ACMDATUMSTANDARDISO
  2
AcmDatumStdISO
  3
"Amdt_StdImp|Product Description: AutoCAD Mechanical|Company: Autodesk"
 90
        0
280
     0
281
     0
  0
CLASS
  1
ACMBOMSTANDARDISO
  2
AcmBOMStdISO
  3
"Amdt_StdImp|Product Description: AutoCAD Mechanical|Company: Autodesk"
 90
        0
280
     0
281
     0
  0
CLASS
  1
ACMDETAILSTANDARDISO
  2
AmdtDetailSymStdISO
  3
"Amdt_StdImp|Product Description: AutoCAD Mechanical|Company: Autodesk"
 90
        0
280
     0
281
     0
  0
CLASS
  1
ACMSECTIONSTANDARDISO
  2
AmdtSectionSymStdISO
  3
"Amdt_StdImp|Product Description: AutoCAD Mechanical|Company: Autodesk"
 90
        0
280
     0
281
     0
  0
CLASS
  1
ACMCENTERLINESTANDARDISO
  2
AmdtCenterLineStdISO
  3
"Amdt_StdImp|Product Description: AutoCAD Mechanical|Company: Autodesk"
 90
        0
280
     0
281
     0
  0
CLASS
  1
ACAMGLAYSTD
  2
AcAmgLayStd
  3
"AmgLay|Product Description: AutoCAD Mechanical|Company: Autodesk"
 90
        0
280
     0
281
     0
  0
CLASS
  1
ACAMGDIMSTD
  2
AcAmgDimStd
  3
"AmgDim|Product Description: AutoCAD Mechanical|Company: Autodesk"
 90
        0
280
     0
281
     0
  0
CLASS
  1
ACAMGTITLESTD
  2
AcAmgTitleStd
  3
"AmgTitle|Product Description: AutoCAD Mechanical|Company: Autodesk"
 90
        0
280
     0
281
     0
  0
CLASS
  1
ACAMGFILTERDAT
  2
AcAmgFilterDat
  3
"AcadM|Product Description: AutoCAD Mechanical|Company: Autodesk"
 90
        0
280
     0
281
     0
  0
CLASS
  1
LAYER_INDEX
  2
AcDbLayerIndex
  3
ObjectDBX Classes
 90
    32768
280
     0
281
     0
  0
CLASS
  1
IDBUFFER
  2
AcDbIdBuffer
  3
ObjectDBX Classes
 90
    32768
280
     0
281
     0
  0
CLASS
  1
PLOTSETTINGS
  2
AcDbPlotSettings
  3
ObjectDBX Classes
 90
        0
280
     0
281
     0
  0
CLASS
  1
AMDTFORMULAUPDATEDISPATCHER
  2
AmdtFormulaUpdateDispatcher
  3
AcMeServices
 90
        0
280
     0
281
     0
  0
CLASS
  1
ACMSTANDARDANSI
  2
AcmStandardANSI
  3
"Amdt_StdImp|Product Description: AutoCAD Mechanical|Company: Autodesk"
 90
        0
280
     0
281
     0
  0
CLASS
  1
ACMSURFSTANDARDANSI
  2
AcmSurfTextStdANSI
  3
"Amdt_StdImp|Product Description: AutoCAD Mechanical|Company: Autodesk"
 90
        0
280
     0
281
     0
  0
CLASS
  1
ACMFCFSTANDARDANSI
  2
AcmFCFStdANSI
  3
"Amdt_StdImp|Product Description: AutoCAD Mechanical|Company: Autodesk"
 90
        0
280
     0
281
     0
  0
CLASS
  1
ACMWELDSTANDARDANSI
  2
AcmWeldingStdANSI
  3
"Amdt_StdImp|Product Description: AutoCAD Mechanical|Company: Autodesk"
 90
        0
280
     0
281
     0
  0
CLASS
  1
ACMIDSTANDARDANSI
  2
AcmIdStdANSI
  3
"Amdt_StdImp|Product Description: AutoCAD Mechanical|Company: Autodesk"
 90
        0
280
     0
281
     0
  0
CLASS
  1
ACMDATUMSTANDARDANSI
  2
AcmDatumStdANSI
  3
"Amdt_StdImp|Product Description: AutoCAD Mechanical|Company: Autodesk"
 90
        0
280
     0
281
     0
  0
CLASS
  1
ACMBOMSTANDARDANSI
  2
AcmBOMStdANSI
  3
"Amdt_StdImp|Product Description: AutoCAD Mechanical|Company: Autodesk"
 90
        0
280
     0
281
     0
  0
CLASS
  1
ACMDETAILSTANDARDANSI
  2
AmdtDetailSymStdANSI
  3
"Amdt_StdImp|Product Description: AutoCAD Mechanical|Company: Autodesk"
 90
        0
280
     0
281
     0
  0
CLASS
  1
ACMSECTIONSTANDARDANSI
  2
AmdtSectionSymStdANSI
  3
"Amdt_StdImp|Product Description: AutoCAD Mechanical|Company: Autodesk"
 90
        0
280
     0
281
     0
  0
CLASS
  1
ACMCENTERLINESTANDARDANSI
  2
AmdtCenterLineStdANSI
  3
"Amdt_StdImp|Product Description: AutoCAD Mechanical|Company: Autodesk"
 90
        0
280
     0
281
     0
  0
CLASS
  1
ACMBOM
  2
AcmBom
  3
"AcmSymBB|Product Description: AutoCAD Mechanical|Company: Autodesk"
 90
        0
280
     0
281
     0
  0
CLASS
  1
ACMDATAENTRYPART
  2
AcmDataEntryPart
  3
"AcmSymBB|Product Description: AutoCAD Mechanical|Company: Autodesk"
 90
    32768
280
     0
281
     0
  0
CLASS
  1
ACMPARTREF
  2
AcmPartRef
  3
"AcmSymBB|Product Description: AutoCAD Mechanical|Company: Autodesk"
 90
    35839
280
     0
281
     1
  0
CLASS
  1
ACDBCIRCARCRES
  2
AcDbCircArcRes
  3
AcGrefServices
 90
    32768
280
     0
281
     0
  0
CLASS
  1
ACMBOMROW
  2
AcmBomRow
  3
"AcmSymBB|Product Description: AutoCAD Mechanical|Company: Autodesk"
 90
    32768
280
     0
281
     0
  0
CLASS
  1
ACMBALLOON
  2
AcmBalloon
  3
"AcmSymBB|Product Description: AutoCAD Mechanical|Company: Autodesk"
 90
    35839
280
     0
281
     1
  0
CLASS
  1
AMDTNOTE
  2
AmdtNote
  3
"AcmSymBB|Product Description: AutoCAD Mechanical|Company: Autodesk"
 90
     3071
280
     0
281
     1
  0
CLASS
  1
STDPART2D
  2
AmgStdPart
  3
"g3vace|Class: AmgStdPart|Product Description: AutoCAD Mechanical|Company: Autodesk"
 90
    35839
280
     0
281
     1
  0
CLASS
  1
ACDBSTDPARTRES_LINE
  2
AcDbStdPartRes_Line
  3
"g3vace|Class: AcDbStdPartRes_Line|Product Description: AutoCAD Mechanical|Company: Autodesk"
 90
    32768
280
     0
281
     0
  0
CLASS
  1
ACMDATAENTRY
  2
AcmDataEntry
  3
"AcmSymBB|Product Description: AutoCAD Mechanical|Company: Autodesk"
 90
        0
280
     0
281
     0
  0
CLASS
  1
ACDBOPPOLYLINERES
  2
AcDbOpPolylineRes
  3
AcGrefServices
 90
    32768
280
     0
281
     0
  0
CLASS
  1
ACMPARTLIST
  2
AcmPartList
  3
"AcmSymBB|Product Description: AutoCAD Mechanical|Company: Autodesk"
 90
    35839
280
     0
281
     1
  0
CLASS
  1
ACDBLINERES
  2
AcDbLineRes
  3
AcGrefServices
 90
    32768
280
     0
281
     0
  0
CLASS
  1
ACRFINSADJ
  2
AcRfInsAdjuster
  3
AcMeServices
 90
    32768
280
     0
281
     0
  0
CLASS
  1
AM_DRAWING_MGR
  2
AcDmDwgMgr
  3
AcMechDwgViewMgmt
 90
        0
280
     0
281
     0
  0
CLASS
  1
AM_DWG_DOCUMENT
  2
AcDmDwgDocument
  3
AcMechDwgViewMgmt
 90
        0
280
     0
281
     0
  0
CLASS
  1
AM_DWG_SHEET
  2
AcDmSheet
  3
AcMechDwgViewMgmt
 90
        0
280
     0
281
     0
  0
CLASS
  1
AM_VIEWDIMPARMAP
  2
AcDmViewDimParMap
  3
AcMechDwgViewMgmt
 90
        0
280
     0
281
     0
  0
CLASS
  1
AM_DWGMGR_NAME
  2
AcDmDwgMgrName
  3
AcMechDwgViewMgmt
 90
        0
280
     0
281
     0
  0
CLASS
  1
AMDTMENUSTATEMGR
  2
AmdtMenuStateMgr
  3
McadcomServices
 90
        0
280
     0
281
     0
  0
CLASS
  1
AMDTMCOMMENUSTATE
  2
AmdtMcomMenuState
  3
McadcomServices
 90
        0
280
     0
281
     0
  0
CLASS
  1
ASAPP
  2
AcAsAppObject
  3
AutoSurfServices
 90
        0
280
     0
281
     0
  0
CLASS
  1
IM_STATIC_MAN
  2
AcImStaticVarManager
  3
AcMeServices
 90
        0
280
     0
281
     0
  0
CLASS
  1
ACIMDBLSTATICVAR
  2
AcImDblStaticVar
  3
AcMeServices
 90
        0
280
     0
281
     0
  0
CLASS
  1
ACIMSTRSTATICVAR
  2
AcImStrStaticVar
  3
AcMeServices
 90
        0
280
     0
281
     0
  0
CLASS
  1
ACIMINTSTATICVAR
  2
AcImIntStaticVar
  3
AcMeServices
 90
        0
280
     0
281
     0
  0
CLASS
  1
ACASGREFMASTER
  2
AcAsGrefMaster
  3
AutoSurfResolverServices
 90
        0
280
     0
281
     0
  0
CLASS
  1
ACADGREFMODULE
  2
AcAdGrefModule
  3
AdGrefServices
 90
        0
280
     0
281
     0
  0
CLASS
  1
AMDTMAPISURFMOUDULE
  2
AmdtMApiSurfModule
  3
MApiSurfServices
 90
        0
280
     0
281
     0
  0
CLASS
  1
MAPIAMMOUDLE
  2
MApiAmModule
  3
MApiAmServices
 90
        0
280
     0
281
     0
  0
CLASS
  1
AMDTADMENUSTATE
  2
AmdtAdMenuState
  3
DesignerServices
 90
        0
280
     0
281
     0
  0
CLASS
  1
ADAPPL
  2
AcAdAppl
  3
DesignerServices
 90
        0
280
     0
281
     0
  0
CLASS
  1
DEPMGR
  2
AcAdDepMgr
  3
DesignerServices
 90
        0
280
     0
281
     0
  0
CLASS
  1
PARAMMGR
  2
AcAdParamMgr
  3
DesignerServices
 90
        0
280
     0
281
     0
  0
CLASS
  1
PARAMSCOPE
  2
AcAdParamScope
  3
DesignerServices
 90
        0
280
     0
281
     0
  0
CLASS
  1
NAMEDAPPL
  2
AcAdNamedAppl
  3
DesignerServices
 90
        0
280
     0
281
     0
  0
CLASS
  1
ADHNTMPLT
  2
AdHoleNoteTemplateMgr
  3
DesignerServices
 90
    32768
280
     0
281
     0
  0
CLASS
  1
AM_HNTEMPLATE_MGR_NAME
  2
AdHoleNoteTemplateMgrName
  3
DesignerServices
 90
    32768
280
     0
281
     0
  0
CLASS
  1
AMDTDMMENUSTATE
  2
AmdtDmMenuState
  3
AcMechDwgViewMgmt
 90
        0
280
     0
281
     0
  0
CLASS
  1
MAPIADMODULE
  2
MApiAdModule
  3
MApiAdServices
 90
        0
280
     0
281
     0
  0
CLASS
  1
AMDTAMMENUSTATE
  2
AmdtAmMenuState
  3
DesignerAssemblies
 90
        0
280
     0
281
     0
  0
CLASS
  1
ACAMPROJECT
  2
AcAmProject
  3
DesignerAssemblies
 90
        0
280
     0
281
     0
  0
CLASS
  1
ACAMGRCOMPDEF
  2
AcAmGrCompDef
  3
DesignerAssemblies
 90
        0
280
     0
281
     0
  0
CLASS
  1
ACCMCONTEXT
  2
AcCmContext
  3
DesignerAssemblies
 90
        0
280
     0
281
     0
  0
CLASS
  1
ACAMCOMPDEF
  2
AcAmCompDef
  3
DesignerAssemblies
 90
        0
280
     0
281
     0
  0
CLASS
  1
ACAMCOMPDEFMGR
  2
AcAmCompDefMgr
  3
DesignerAssemblies
 90
        0
280
     0
281
     0
  0
CLASS
  1
AMCONTEXTMGR
  2
AcAmContextMgr
  3
DesignerAssemblies
 90
        0
280
     0
281
     0
  0
CLASS
  1
ACAMCONTEXTMODELER
  2
AcAmContextModeler
  3
DesignerAssemblies
 90
        0
280
     0
281
     0
  0
CLASS
  1
CATALOGSTATE
  2
AcAmCatalogState
  3
DesignerAssemblies
 90
        0
280
     0
281
     0
  0
CLASS
  1
ACAMGRCOMPDEFSET
  2
AcAmGrCompDefSet
  3
DesignerAssemblies
 90
        0
280
     0
281
     0
  0
CLASS
  1
AMDTBROWSERDBTAB
  2
AmdtBrowserDbTab
  3
McadcomServices
 90
        0
280
     0
281
     0
  0
CLASS
  1
CBROWSERAPPOBJECT
  2
CBrowserAppObject
  3
McadcomServices
 90
        0
280
     0
281
     0
  0
CLASS
  1
DM_PLACEHOLDER
  2
AcDmSelsetPlaceholder
  3
AcMechDwgViewMgmt
 90
        0
280
     0
281
     0
  0
CLASS
  1
ACMPICKOBJ
  2
AcmPickEnt
  3
"AcmSymBB|Product Description: AutoCAD Mechanical|Company: Autodesk"
 90
    32768
280
     0
281
     1
  0
CLASS
  1
MATERIAL
  2
AcDbMaterial
  3
ObjectDBX Classes
 90
     1024
280
     0
281
     0
  0
CLASS
  1
VISUALSTYLE
  2
AcDbVisualStyle
  3
ObjectDBX Classes
 90
     4095
280
     0
281
     0
  0
CLASS
  1
TABLESTYLE
  2
AcDbTableStyle
  3
ObjectDBX Classes
 90
     4095
280
     0
281
     0
  0
CLASS
  1
ACRFATTGENMGR
  2
AcRfAttGeneralMgr
  3
AcAttribServices
 90
        0
280
     0
281
     0
  0
CLASS
  1
ACRFOBJATTMGR
  2
AcRfObjAttGroupMgr
  3
AcAttribServices
 90
        0
280
     0
281
     0
  0
CLASS
  1
ACRFMCADAPIATTHOLDER
  2
AcRfMCADAPIAttHolder
  3
AcAttribServices
 90
        0
280
     0
281
     0
  0
CLASS
  1
AMDTSYSATTR
  2
AmdtSystemAttribute
  3
AcAttribServices
 90
        0
280
     0
281
     0
  0
CLASS
  1
ACMTHREADLINESTANDARDISO
  2
AmdtThreadLineStdISO
  3
"Amdt_StdImp|Product Description: AutoCAD Mechanical|Company: Autodesk"
 90
        0
280
     0
281
     0
  0
CLASS
  1
ACMNOTESTANDARDISO
  2
AmdtNoteStdISO
  3
"Amdt_StdImp|Product Description: AutoCAD Mechanical|Company: Autodesk"
 90
        0
280
     0
281
     0
  0
CLASS
  1
AMDTNOTETEMPLATEDB
  2
AmdtNoteTemplateDB
  3
AMDT_STDIMP_MODULE_NAME
 90
        0
280
     0
281
     0
  0
CLASS
  1
ACMTAPERSTANDARDISO
  2
AcmTaperStdISO
  3
"Amdt_StdImp|Product Description: AutoCAD Mechanical|Company: Autodesk"
 90
        0
280
     0
281
     0
  0
CLASS
  1
ACMTHREADLINESTANDARDANSI
  2
AmdtThreadLineStdANSI
  3
"Amdt_StdImp|Product Description: AutoCAD Mechanical|Company: Autodesk"
 90
        0
280
     0
281
     0
  0
CLASS
  1
ACMNOTESTANDARDANSI
  2
AmdtNoteStdANSI
  3
"Amdt_StdImp|Product Description: AutoCAD Mechanical|Company: Autodesk"
 90
        0
280
     0
281
     0
  0
CLASS
  1
ACMTAPERSTANDARDANSI
  2
AcmTaperStdANSI
  3
"Amdt_StdImp|Product Description: AutoCAD Mechanical|Company: Autodesk"
 90
        0
280
     0
281
     0
  0
CLASS
  1
CAMSSTRUCTBTNSTATE
  2
StructBtnState
  3
L"DesignerAssemblies"
 90
        0
280
     0
281
     0
  0
CLASS
  1
SORTENTSTABLE
  2
AcDbSortentsTable
  3
ObjectDBX Classes
 90
        0
280
     0
281
     0
  0
CLASS
  1
DIMASSOC
  2
AcDbDimAssoc
  3
"AcDbDimAssoc|Product Desc:     AcDim ARX App For Dimension|Company:          Autodesk, Inc.|WEB Address:      www.autodesk.com"
 90
        0
280
     0
281
     0
  0
ENDSEC
  0
SECTION
  2
TABLES
  0
TABLE
  2
VPORT
  5
8
330
0
100
AcDbSymbolTable
 70
     1
  0
VPORT
  5
C444
330
8
100
AcDbSymbolTableRecord
100
AcDbViewportTableRecord
  2
*Active
 70
     0
 10
0.0
 20
0.0
 11
1.0
 21
1.0
 12
148.5000013830562
 22
105.0000009779185
 13
0.0
 23
0.0
 14
2.5
 24
2.5
 15
10.0
 25
10.0
 16
0.0
 26
0.0
 36
1.0
 17
0.0
 27
0.0
 37
0.0
 40
211.5204799290902
 41
1.599762470308788
 42
50.0
 43
-1370.695619172058
 44
-1370.695619172058
 50
0.0
 51
0.0
 71
    16
 72
   100
 73
     1
 74
     3
 75
     0
 76
     0
 77
     0
 78
     0
281
     0
 65
     0
110
0.0
120
0.0
130
0.0
111
1.0
121
0.0
131
0.0
112
0.0
122
1.0
132
0.0
 79
     0
146
0.0
  0
ENDTAB
  0
TABLE
  2
LTYPE
  5
5
330
0
100
AcDbSymbolTable
 70
    22
  0
LTYPE
  5
14
330
5
100
AcDbSymbolTableRecord
100
AcDbLinetypeTableRecord
  2
ByBlock
 70
     0
  3

 72
    65
 73
     0
 40
0.0
  0
LTYPE
  5
15
330
5
100
AcDbSymbolTableRecord
100
AcDbLinetypeTableRecord
  2
ByLayer
 70
     0
  3

 72
    65
 73
     0
 40
0.0
  0
LTYPE
  5
16
330
5
100
AcDbSymbolTableRecord
100
AcDbLinetypeTableRecord
  2
Continuous
 70
     0
  3
Solid line
 72
    65
 73
     0
 40
0.0
  0
LTYPE
  5
4F
330
5
100
AcDbSymbolTableRecord
100
AcDbLinetypeTableRecord
  2
AM_ISO02W050
 70
     0
  3
__ __ __ __ __ __ __ __ __ __ __ __ __ __ __
 72
    65
 73
     2
 40
7.5
 49
6.0
 74
     0
 49
-1.5
 74
     0
  0
LTYPE
  5
52
330
5
100
AcDbSymbolTableRecord
100
AcDbLinetypeTableRecord
  2
Amconstr
 70
     0
  3
_______________________
 72
    65
 73
     2
 40
9999.0
 49
9999.0
 74
     0
 49
0.0
 74
     0
  0
LTYPE
  5
64
330
5
100
AcDbSymbolTableRecord
100
AcDbLinetypeTableRecord
  2
ACISOWELD
 70
     0
  3
_ _ _ _ _
 72
    65
 73
     2
 40
2.0
 49
2.0
 74
     0
 49
-1.0
 74
     0
  0
LTYPE
  5
65
330
5
100
AcDbSymbolTableRecord
100
AcDbLinetypeTableRecord
  2
ACISOTGB
 70
     0
  3
__ . . __ . .
 72
    65
 73
     6
 40
9.0
 49
4.0
 74
     0
 49
-1.0
 74
     0
 49
1.0
 74
     0
 49
-1.0
 74
     0
 49
1.0
 74
     0
 49
-1.0
 74
     0
  0
LTYPE
  5
66
330
5
100
AcDbSymbolTableRecord
100
AcDbLinetypeTableRecord
  2
ACISOTGL
 70
     0
  3
_ _ _ _ _
 72
    65
 73
     2
 40
3.0
 49
2.0
 74
     0
 49
-1.0
 74
     0
  0
LTYPE
  5
69
330
5
100
AcDbSymbolTableRecord
100
AcDbLinetypeTableRecord
  2
CENTER
 70
     0
  3
__ . __
 72
    65
 73
     4
 40
7.0
 49
4.0
 74
     0
 49
-1.0
 74
     0
 49
1.0
 74
     0
 49
-1.0
 74
     0
  0
LTYPE
  5
A6E
330
5
100
AcDbSymbolTableRecord
100
AcDbLinetypeTableRecord
  2
PHANTOM2
 70
     0
  3
Phantom (.5x) ___ _ _ ___ _ _ ___ _ _ ___ _ _
 72
    65
 73
     6
 40
31.75
 49
15.875
 74
     0
 49
-3.174999999999999
 74
     0
 49
3.174999999999999
 74
     0
 49
-3.174999999999999
 74
     0
 49
3.174999999999999
 74
     0
 49
-3.174999999999999
 74
     0
  0
LTYPE
  5
FA3
330
5
100
AcDbSymbolTableRecord
100
AcDbLinetypeTableRecord
  2
ACANSTGB
 70
     0
  3
__ . . __ . .
 72
    65
 73
     6
 40
0.35433070866
 49
0.15748031496
 74
     0
 49
-0.03937007874
 74
     0
 49
0.03937007874
 74
     0
 49
-0.03937007874
 74
     0
 49
0.03937007874
 74
     0
 49
-0.03937007874
 74
     0
  0
LTYPE
  5
FA4
330
5
100
AcDbSymbolTableRecord
100
AcDbLinetypeTableRecord
  2
ACANSTGL
 70
     0
  3
_ _ _ _ _
 72
    65
 73
     2
 40
0.11811023622
 49
0.07874015748
 74
     0
 49
-0.03937007874
 74
     0
  0
LTYPE
  5
4DED
330
5
100
AcDbSymbolTableRecord
100
AcDbLinetypeTableRecord
  2
中線
 70
     0
  3
___________________
 72
    65
 73
     2
 40
2.0
 49
1.0
 74
     0
 49
1.0
 74
     0
  0
LTYPE
  5
4DF6
330
5
100
AcDbSymbolTableRecord
100
AcDbLinetypeTableRecord
  2
細線
 70
     0
  3
___________________
 72
    65
 73
     2
 40
2.0
 49
1.0
 74
     0
 49
1.0
 74
     0
  0
LTYPE
  5
4DF7
330
5
100
AcDbSymbolTableRecord
100
AcDbLinetypeTableRecord
  2
太線
 70
     0
  3
___________________
 72
    65
 73
     2
 40
2.0
 49
1.0
 74
     0
 49
1.0
 74
     0
  0
LTYPE
  5
4EA7
330
5
100
AcDbSymbolTableRecord
100
AcDbLinetypeTableRecord
  2
文字
 70
     0
  3
_________________
 72
    65
 73
     2
 40
2.0
 49
1.0
 74
     0
 49
1.0
 74
     0
  0
LTYPE
  5
4EA9
330
5
100
AcDbSymbolTableRecord
100
AcDbLinetypeTableRecord
  2
寸法線
 70
     0
  3
________________
 72
    65
 73
     2
 40
2.0
 49
1.0
 74
     0
 49
1.0
 74
     0
  0
LTYPE
  5
4F12
330
5
100
AcDbSymbolTableRecord
100
AcDbLinetypeTableRecord
  2
ハッチング
 70
     0
  3
_________________
 72
    65
 73
     2
 40
2.0
 49
1.0
 74
     0
 49
1.0
 74
     0
  0
LTYPE
  5
5180
330
5
100
AcDbSymbolTableRecord
100
AcDbLinetypeTableRecord
  2
陰線1
 70
     0
  3
__ __ __ __
 72
    65
 73
     2
 40
4.0
 49
2.2
 74
     0
 49
-1.8
 74
     0
  0
LTYPE
  5
5182
330
5
100
AcDbSymbolTableRecord
100
AcDbLinetypeTableRecord
  2
切断線
 70
     0
  3
/\/-/\/-/\/-/\/-/\/-/\/
 72
    65
 73
     2
 40
11.0001
 49
0.0001
 74
     4
 75
   135
340
56
 46
0.04
 50
0.0
 44
0.0
 45
0.0
 49
-11.0
 74
     0
  0
LTYPE
  5
5183
330
5
100
AcDbSymbolTableRecord
100
AcDbLinetypeTableRecord
  2
想像線1
 70
     0
  3
__ __ __ _____ __ __ ____
 72
    65
 73
     6
 40
14.5
 49
6.0
 74
     0
 49
-1.5
 74
     0
 49
2.0
 74
     0
 49
-1.5
 74
     0
 49
2.0
 74
     0
 49
-1.5
 74
     0
  0
LTYPE
  5
5185
330
5
100
AcDbSymbolTableRecord
100
AcDbLinetypeTableRecord
  2
中心線1
 70
     0
  3
___ _ ___ _ ___
 72
    65
 73
     4
 40
18.0
 49
12.0
 74
     0
 49
-2.0
 74
     0
 49
2.0
 74
     0
 49
-2.0
 74
     0
  0
LTYPE
  5
5188
330
5
100
AcDbSymbolTableRecord
100
AcDbLinetypeTableRecord
  2
補助線
 70
     0
  3
______________
 72
    65
 73
     2
 40
2.0
 49
1.0
 74
     0
 49
1.0
 74
     0
  0
LTYPE
  5
C49C
330
5
100
AcDbSymbolTableRecord
100
AcDbLinetypeTableRecord
  2
HIDDEN
 70
     0
  3
Hidden __ __ __ __ __ __ __ __ __ __ __ __ __ _
 72
    65
 73
     2
 40
9.524999999999998
 49
6.349999999999999
 74
     0
 49
-3.174999999999999
 74
     0
  0
ENDTAB
  0
TABLE
  2
LAYER
  5
2
102
{ACAD_XDICTIONARY
360
3F95
102
}
330
0
100
AcDbSymbolTable
 70
    11
  0
LAYER
  5
10
330
2
100
AcDbSymbolTableRecord
100
AcDbLayerTableRecord
  2
0
 70
     0
 62
     7
  6
Continuous
370
    -3
390
F
  0
LAYER
  5
6D1
330
2
100
AcDbSymbolTableRecord
100
AcDbLayerTableRecord
  2
Defpoints
 70
     0
 62
     7
  6
Continuous
290
     0
370
    -3
390
F
  0
LAYER
  5
A46
330
2
100
AcDbSymbolTableRecord
100
AcDbLayerTableRecord
  2
size
 70
     0
 62
     5
  6
Continuous
290
     0
370
    30
390
F
  0
LAYER
  5
A47
330
2
100
AcDbSymbolTableRecord
100
AcDbLayerTableRecord
  2
waku
 70
     0
 62
     7
  6
Continuous
370
    40
390
F
  0
LAYER
  5
A48
330
2
100
AcDbSymbolTableRecord
100
AcDbLayerTableRecord
  2
AM_6
 70
     0
 62
     2
  6
文字
370
    20
390
F
  0
LAYER
  5
5F85
330
2
100
AcDbSymbolTableRecord
100
AcDbLayerTableRecord
  2
AM_0
 70
     0
 62
     7
  6
中線
370
    30
390
F
  0
LAYER
  5
BFAA
330
2
100
AcDbSymbolTableRecord
100
AcDbLayerTableRecord
  2
AM_2
 70
     0
 62
     1
  6
細線
370
    20
390
F
  0
LAYER
  5
BFAB
330
2
100
AcDbSymbolTableRecord
100
AcDbLayerTableRecord
  2
AM_5
 70
     0
 62
     3
  6
寸法線
370
    18
390
F
  0
LAYER
  5
BFAC
330
2
100
AcDbSymbolTableRecord
100
AcDbLayerTableRecord
  2
AM_7
 70
     0
 62
     4
  6
中心線1
370
    15
390
F
  0
LAYER
  5
C7E9
330
2
100
AcDbSymbolTableRecord
100
AcDbLayerTableRecord
  2
AM_11
 70
     0
 62
     2
  6
想像線1
370
    20
390
F
  0
LAYER
  5
F07C
330
2
100
AcDbSymbolTableRecord
100
AcDbLayerTableRecord
  2
AM_CL
 70
     0
 62
     1
  6
Amconstr
370
    20
390
F
1001
AcAecLayerStandard
1000

1000

  0
ENDTAB
  0
TABLE
  2
STYLE
  5
3
330
0
100
AcDbSymbolTable
 70
     7
  0
STYLE
  5
11
330
3
100
AcDbSymbolTableRecord
100
AcDbTextStyleTableRecord
  2
STANDARD
 70
     0
 40
0.0
 41
0.7
 50
0.0
 71
     0
 42
3.2
  3
romans.shx
  4
extfont.shx
  0
STYLE
  5
56
330
3
100
AcDbSymbolTableRecord
100
AcDbTextStyleTableRecord
  2

 70
     1
 40
0.0
 41
1.0
 50
0.0
 71
     0
 42
2.5
  3
ltypeshp.shx
  4

  0
STYLE
  5
58
330
3
100
AcDbSymbolTableRecord
100
AcDbTextStyleTableRecord
  2
ACISOTS
 70
     0
 40
1.0
 41
1.0
 50
0.0
 71
     0
 42
2.5
  3
isocp.shx
  4
extfont.shx
  0
STYLE
  5
63
330
3
100
AcDbSymbolTableRecord
100
AcDbTextStyleTableRecord
  2
ACISOGDT
 70
     0
 40
0.0
 41
1.0
 50
0.0
 71
     0
 42
2.5
  3
amgdt.shx
  4

  0
STYLE
  5
A74
330
3
100
AcDbSymbolTableRecord
100
AcDbTextStyleTableRecord
  2
DIM
 70
     0
 40
0.0
 41
1.0
 50
0.0
 71
     0
 42
2.5
  3
monotxt.shx
  4
extfont.shx
  0
STYLE
  5
FA7
330
3
100
AcDbSymbolTableRecord
100
AcDbTextStyleTableRecord
  2
ACANSTS
 70
     0
 40
1.0
 41
1.0
 50
0.0
 71
     0
 42
0.2
  3
romans.shx
  4
extfont.shx
  0
STYLE
  5
FA8
330
3
100
AcDbSymbolTableRecord
100
AcDbTextStyleTableRecord
  2
ACANSGDT
 70
     0
 40
0.0
 41
1.0
 50
0.0
 71
     0
 42
0.2
  3
amgdtans.shx
  4

  0
ENDTAB
  0
TABLE
  2
VIEW
  5
6
330
0
100
AcDbSymbolTable
 70
     6
  0
VIEW
  5
AE1
330
6
100
AcDbSymbolTableRecord
100
AcDbViewTableRecord
  2
AM_VIEW1
 70
     0
 40
105.0
 10
90.503120124805
 20
157.5
 41
181.00624024961
 11
0.0
 21
0.0
 31
1.0
 12
0.0
 22
0.0
 32
0.0
 42
50.0
 43
-1370.695619172058
 44
-1370.695619172058
 50
0.0
 71
    16
281
     0
 72
     0
  0
VIEW
  5
AE2
330
6
100
AcDbSymbolTableRecord
100
AcDbViewTableRecord
  2
AM_VIEW2
 70
     0
 40
105.0
 10
206.496879875195
 20
157.5
 41
181.00624024961
 11
0.0
 21
0.0
 31
1.0
 12
0.0
 22
0.0
 32
0.0
 42
50.0
 43
-1370.695619172058
 44
-1370.695619172058
 50
0.0
 71
    16
281
     0
 72
     0
  0
VIEW
  5
AE3
330
6
100
AcDbSymbolTableRecord
100
AcDbViewTableRecord
  2
AM_VIEW3
 70
     0
 40
105.0
 10
90.503120124805
 20
52.5
 41
181.00624024961
 11
0.0
 21
0.0
 31
1.0
 12
0.0
 22
0.0
 32
0.0
 42
50.0
 43
-1370.695619172058
 44
-1370.695619172058
 50
0.0
 71
    16
281
     0
 72
     0
  0
VIEW
  5
AE4
330
6
100
AcDbSymbolTableRecord
100
AcDbViewTableRecord
  2
AM_VIEW4
 70
     0
 40
105.0
 10
206.496879875195
 20
52.5
 41
181.00624024961
 11
0.0
 21
0.0
 31
1.0
 12
0.0
 22
0.0
 32
0.0
 42
50.0
 43
-1370.695619172058
 44
-1370.695619172058
 50
0.0
 71
    16
281
     0
 72
     0
  0
VIEW
  5
AE5
330
6
100
AcDbSymbolTableRecord
100
AcDbViewTableRecord
  2
AM_VIEW5
 70
     0
 40
105.0
 10
148.5
 20
105.0
 41
181.0062402496099
 11
0.0
 21
0.0
 31
1.0
 12
0.0
 22
0.0
 32
0.0
 42
50.0
 43
-1370.695619172058
 44
-1370.695619172058
 50
0.0
 71
    16
281
     0
 72
     0
  0
VIEW
  5
AE6
330
6
100
AcDbSymbolTableRecord
100
AcDbViewTableRecord
  2
AM_VIEW6
 70
     0
 40
209.9979
 10
148.5
 20
105.0
 41
362.008860374415
 11
0.0
 21
0.0
 31
1.0
 12
0.0
 22
0.0
 32
0.0
 42
50.0
 43
-1370.695619172058
 44
-1370.695619172058
 50
0.0
 71
    16
281
     0
 72
     0
  0
ENDTAB
  0
TABLE
  2
UCS
  5
7
330
0
100
AcDbSymbolTable
 70
     0
  0
ENDTAB
  0
TABLE
  2
APPID
  5
9
330
0
100
AcDbSymbolTable
 70
    54
  0
APPID
  5
12
330
9
100
AcDbSymbolTableRecord
100
AcDbRegAppTableRecord
  2
ACAD
 70
     0
  0
APPID
  5
30
330
9
100
AcDbSymbolTableRecord
100
AcDbRegAppTableRecord
  2
MCAD_NO_VIS
 70
     0
  0
APPID
  5
31
330
9
100
AcDbSymbolTableRecord
100
AcDbRegAppTableRecord
  2
ACAD_TEMP_GRAPHIC
 70
     0
  0
APPID
  5
44
330
9
100
AcDbSymbolTableRecord
100
AcDbRegAppTableRecord
  2
ACATTRIBSERVICES
 70
     0
  0
APPID
  5
7A1
330
9
100
AcDbSymbolTableRecord
100
AcDbRegAppTableRecord
  2
GENIUS_GENDIMSH_14
 70
     0
  0
APPID
  5
A49
330
9
100
AcDbSymbolTableRecord
100
AcDbRegAppTableRecord
  2
GENIUS_GENREC_14
 70
     0
  0
APPID
  5
A4A
330
9
100
AcDbSymbolTableRecord
100
AcDbRegAppTableRecord
  2
GENIUS_GENOBJ-N-REC_13
 70
     0
  0
APPID
  5
A4B
330
9
100
AcDbSymbolTableRecord
100
AcDbRegAppTableRecord
  2
GENIUS_GENODEF_13
 70
     0
  0
APPID
  5
A4C
330
9
100
AcDbSymbolTableRecord
100
AcDbRegAppTableRecord
  2
DCO15
 70
     0
  0
APPID
  5
ADC
330
9
100
AcDbSymbolTableRecord
100
AcDbRegAppTableRecord
  2
GENIUS_GENOLIS_13
 70
     0
  0
APPID
  5
ADD
330
9
100
AcDbSymbolTableRecord
100
AcDbRegAppTableRecord
  2
GENIUS_GENOENT_13
 70
     0
  0
APPID
  5
ADE
330
9
100
AcDbSymbolTableRecord
100
AcDbRegAppTableRecord
  2
GENIUS_GENOBJ-N-TIT_13
 70
     0
  0
APPID
  5
ADF
330
9
100
AcDbSymbolTableRecord
100
AcDbRegAppTableRecord
  2
GENIUS_GENTITLE_13
 70
     0
  0
APPID
  5
AE0
330
9
100
AcDbSymbolTableRecord
100
AcDbRegAppTableRecord
  2
GENIUS_GENOREF_13
 70
     0
  0
APPID
  5
AE7
330
9
100
AcDbSymbolTableRecord
100
AcDbRegAppTableRecord
  2
GENIUS_GENSCREG_15
 70
     0
  0
APPID
  5
AE8
330
9
100
AcDbSymbolTableRecord
100
AcDbRegAppTableRecord
  2
GENIUS_GENOBJ-N-SDF_13
 70
     0
  0
APPID
  5
FAF
330
9
100
AcDbSymbolTableRecord
100
AcDbRegAppTableRecord
  2
GENIUS_GENBLLY_14
 70
     0
  0
APPID
  5
FB0
330
9
100
AcDbSymbolTableRecord
100
AcDbRegAppTableRecord
  2
GENIUS_GENTRA_14
 70
     0
  0
APPID
  5
1285
330
9
100
AcDbSymbolTableRecord
100
AcDbRegAppTableRecord
  2
GENIUS_GENDTOL_13
 70
     0
  0
APPID
  5
142D
330
9
100
AcDbSymbolTableRecord
100
AcDbRegAppTableRecord
  2
GENIUS_GENOBJ-N-CEN_13
 70
     0
  0
APPID
  5
1AB5
330
9
100
AcDbSymbolTableRecord
100
AcDbRegAppTableRecord
  2
GENIUS_GENOBJ-N-CRS_13
 70
     0
  0
APPID
  5
1B36
330
9
100
AcDbSymbolTableRecord
100
AcDbRegAppTableRecord
  2
GENIUS_GENOBJ-N-HTC_13
 70
     0
  0
APPID
  5
1B37
330
9
100
AcDbSymbolTableRecord
100
AcDbRegAppTableRecord
  2
GENIUS_GENHATCH_13
 70
     0
  0
APPID
  5
216D
330
9
100
AcDbSymbolTableRecord
100
AcDbRegAppTableRecord
  2
GENIUS_GENOBJ-N-FIL_13
 70
     0
  0
APPID
  5
2356
330
9
100
AcDbSymbolTableRecord
100
AcDbRegAppTableRecord
  2
GEVID990412420
 70
     0
  0
APPID
  5
2357
330
9
100
AcDbSymbolTableRecord
100
AcDbRegAppTableRecord
  2
GEVDC
 70
     0
  0
APPID
  5
2358
330
9
100
AcDbSymbolTableRecord
100
AcDbRegAppTableRecord
  2
GEVCON
 70
     0
  0
APPID
  5
235B
330
9
100
AcDbSymbolTableRecord
100
AcDbRegAppTableRecord
  2
GEVRADREF
 70
     0
  0
APPID
  5
2360
330
9
100
AcDbSymbolTableRecord
100
AcDbRegAppTableRecord
  2
GENIUS_GENBH_13
 70
     0
  0
APPID
  5
2362
330
9
100
AcDbSymbolTableRecord
100
AcDbRegAppTableRecord
  2
GENIUS_GENOBJ-NBEHI-BHF_13
 70
     0
  0
APPID
  5
2364
330
9
100
AcDbSymbolTableRecord
100
AcDbRegAppTableRecord
  2
GENIUS_GENOBJ-NBEHI-BHB_13
 70
     0
  0
APPID
  5
2379
330
9
100
AcDbSymbolTableRecord
100
AcDbRegAppTableRecord
  2
GENIUS_GENOBJ-F-SCPASSM_13
 70
     0
  0
APPID
  5
3D74
330
9
100
AcDbSymbolTableRecord
100
AcDbRegAppTableRecord
  2
GENIUS_GENDIM_13
 70
     0
  0
APPID
  5
3D76
330
9
100
AcDbSymbolTableRecord
100
AcDbRegAppTableRecord
  2
GENIUS_GE3DTOL_13
 70
     0
  0
APPID
  5
3D9C
330
9
100
AcDbSymbolTableRecord
100
AcDbRegAppTableRecord
  2
AD_DRAW
 70
     0
  0
APPID
  5
3DE8
330
9
100
AcDbSymbolTableRecord
100
AcDbRegAppTableRecord
  2
ASURF_PCURVE_APPNAME
 70
     0
  0
APPID
  5
3DED
330
9
100
AcDbSymbolTableRecord
100
AcDbRegAppTableRecord
  2
AMG_3D2D_5.0
 70
     0
  0
APPID
  5
3E1B
330
9
100
AcDbSymbolTableRecord
100
AcDbRegAppTableRecord
  2
DESIGNERASSEMBLIES
 70
     0
  0
APPID
  5
3E20
330
9
100
AcDbSymbolTableRecord
100
AcDbRegAppTableRecord
  2
ACADM_DIM_EDIT
 70
     0
  0
APPID
  5
3E21
330
9
100
AcDbSymbolTableRecord
100
AcDbRegAppTableRecord
  2
AMDT_DM_ADJ
 70
     0
  0
APPID
  5
4143
330
9
100
AcDbSymbolTableRecord
100
AcDbRegAppTableRecord
  2
GENIUS_GENFIL_13
 70
     0
  0
APPID
  5
4144
330
9
100
AcDbSymbolTableRecord
100
AcDbRegAppTableRecord
  2
GENIUS_GENOBJ-N-CHA_13
 70
     0
  0
APPID
  5
4E17
330
9
100
AcDbSymbolTableRecord
100
AcDbRegAppTableRecord
  2
GEVID1008153417
 70
     0
  0
APPID
  5
4E58
330
9
100
AcDbSymbolTableRecord
100
AcDbRegAppTableRecord
  2
GEVID1008153418
 70
     0
  0
APPID
  5
4E5E
330
9
100
AcDbSymbolTableRecord
100
AcDbRegAppTableRecord
  2
GEVID1008153419
 70
     0
  0
APPID
  5
4E64
330
9
100
AcDbSymbolTableRecord
100
AcDbRegAppTableRecord
  2
GEVID1008153420
 70
     0
  0
APPID
  5
4E75
330
9
100
AcDbSymbolTableRecord
100
AcDbRegAppTableRecord
  2
GEVID1008153421
 70
     0
  0
APPID
  5
4EB7
330
9
100
AcDbSymbolTableRecord
100
AcDbRegAppTableRecord
  2
GENIUS_AMGTXT_16
 70
     0
  0
APPID
  5
7645
330
9
100
AcDbSymbolTableRecord
100
AcDbRegAppTableRecord
  2
GENIUS_GENOBJ-N-DIM_13
 70
     0
  0
APPID
  5
C5F0
330
9
100
AcDbSymbolTableRecord
100
AcDbRegAppTableRecord
  2
GENIUS_GENCEN_19
 70
     0
  0
APPID
  5
C5FB
330
9
100
AcDbSymbolTableRecord
100
AcDbRegAppTableRecord
  2
ACAD_DSTYLE_DIMJOGGED_JOGANGLE_SYMBOL
 70
     0
  0
APPID
  5
C5FC
330
9
100
AcDbSymbolTableRecord
100
AcDbRegAppTableRecord
  2
ACAD_PSEXT
 70
     0
  0
APPID
  5
CA37
330
9
100
AcDbSymbolTableRecord
100
AcDbRegAppTableRecord
  2
AcAecLayerStandard
 70
     0
  0
APPID
  5
E9FD
330
9
100
AcDbSymbolTableRecord
100
AcDbRegAppTableRecord
  2
ACAD_EXEMPT_FROM_CAD_STANDARDS
 70
     0
  0
ENDTAB
  0
TABLE
  2
DIMSTYLE
  5
A
330
0
100
AcDbSymbolTable
 70
    25
100
AcDbDimStyleTable
 71
     5
340
2515
340
251A
340
251B
340
6C
340
FA9
  0
DIMSTYLE
105
6C
330
A
100
AcDbSymbolTableRecord
100
AcDbDimStyleTableRecord
  2
AM_ISO
 70
     0
  4
"
 41
2.5
 42
1.0
 43
10.0
 44
1.0
 47
0.1
 48
0.1
 73
     0
 74
     0
 77
     1
 78
     8
 79
     2
140
3.5
141
0.0
143
0.0393701
146
0.71
147
1.5
172
     1
176
   256
177
   256
178
     2
271
     2
272
     3
274
     4
283
     0
284
     8
340
11
371
    -1
372
    -1
  0
DIMSTYLE
105
6D
330
A
100
AcDbSymbolTableRecord
100
AcDbDimStyleTableRecord
  2
AM_ISO$3
 70
     0
  4
"
 41
0.8
 42
1.0
 43
10.0
 44
1.0
 47
0.1
 48
0.1
 73
     0
 77
     1
 78
     8
 79
     2
140
3.2
141
0.0
143
0.0393701
146
0.71
147
0.9999999999999996
176
   256
177
   256
178
     2
271
     2
272
     2
283
     0
284
     8
288
     1
289
     0
340
11
342
6C4
371
    -1
372
    -1
  0
DIMSTYLE
105
6E
330
A
100
AcDbSymbolTableRecord
100
AcDbDimStyleTableRecord
  2
AM_ISO$4
 70
     0
  4
"
 41
0.8
 42
1.0
 43
10.0
 44
1.0
 47
0.1
 48
0.1
 73
     0
 77
     1
 78
     8
 79
     2
140
3.2
141
0.0
143
0.0393701
146
0.71
147
1.0
173
     1
176
   256
177
   256
178
     2
271
     2
272
     2
283
     0
284
     8
288
     1
289
     0
340
11
344
6C4
371
    -1
372
    -1
  0
DIMSTYLE
105
6F
330
A
100
AcDbSymbolTableRecord
100
AcDbDimStyleTableRecord
  2
AM_ISO$6
 70
     0
  4
"
 41
0.8
 42
1.0
 43
10.0
 44
1.0
 47
0.1
 48
0.1
 73
     0
 74
     0
 78
     8
 79
     2
140
3.2
141
0.0
143
0.0393701
146
0.71
147
1.0
172
     1
176
   256
177
   256
178
     2
271
     2
272
     2
283
     0
284
     8
340
11
341
6C4
371
    -1
372
    -1
  0
DIMSTYLE
105
70
330
A
100
AcDbSymbolTableRecord
100
AcDbDimStyleTableRecord
  2
AM_ISO$7
 70
     0
  4
"
 41
0.8
 42
1.0
 43
10.0
 44
1.0
 47
0.1
 48
0.1
 73
     0
 74
     0
 77
     1
 78
     8
 79
     2
140
3.2
141
0.0
143
0.0393701
146
0.71
147
1.0
172
     1
176
   256
177
   256
178
     2
271
     2
272
     2
283
     0
284
     8
340
11
341
6C4
342
6C4
371
    -1
372
    -1
  0
DIMSTYLE
105
71
330
A
100
AcDbSymbolTableRecord
100
AcDbDimStyleTableRecord
  2
AM_ISO$SF
 70
     0
  4
"
 41
0.8
 42
1.0
 43
10.0
 44
1.0
 47
0.1
 48
0.1
 73
     0
 74
     0
 75
     1
 76
     1
 77
     1
 78
     8
 79
     2
140
3.2
141
0.0
143
0.0393701
146
0.71
147
1.0
172
     1
176
   256
177
   256
178
     2
271
     2
272
     2
283
     0
284
     8
340
11
341
6C4
342
6C4
371
    -1
372
    -1
  0
DIMSTYLE
105
76
330
A
100
AcDbSymbolTableRecord
100
AcDbDimStyleTableRecord
  2
AM_ISO$SH
 70
     0
  4
"
 41
0.8
 42
1.0
 43
10.0
 44
1.0
 47
0.1
 48
0.1
 73
     0
 74
     0
 75
     1
 76
     1
 77
     1
 78
     8
 79
     2
140
3.2
141
0.0
143
0.0393701
144
2.0
146
0.71
147
1.0
172
     1
176
   256
177
   256
178
     2
271
     2
272
     2
283
     0
284
     8
340
11
341
6C4
342
6C4
371
    -1
372
    -1
  0
DIMSTYLE
105
6BE
330
A
100
AcDbSymbolTableRecord
100
AcDbDimStyleTableRecord
  2
AM_ISO$0
 70
     0
  4
"
 41
0.8
 42
1.0
 43
10.0
 44
1.0
 47
0.1
 48
0.1
 73
     0
 74
     0
 77
     1
 78
     8
 79
     2
140
3.2
141
0.0
143
0.0393701
146
0.71
147
0.9999999999999996
172
     1
176
   256
177
   256
178
     2
271
     2
272
     2
283
     0
284
     8
340
11
341
6C4
342
6C4
371
    -1
372
    -1
  0
DIMSTYLE
105
6BF
330
A
100
AcDbSymbolTableRecord
100
AcDbDimStyleTableRecord
  2
AM_ISO$2
 70
     0
  4
"
 41
0.8
 42
1.0
 43
10.0
 44
1.0
 47
0.1
 48
0.1
 73
     0
 74
     0
 77
     3
 78
     8
 79
     2
140
3.200000000000001
141
0.0
143
0.0393701
146
0.71
147
0.9999999999999996
172
     1
176
   256
177
   256
178
     2
271
     2
272
     2
283
     0
284
     8
340
11
342
6C4
371
    -1
372
    -1
  0
DIMSTYLE
105
A76
330
A
100
AcDbSymbolTableRecord
100
AcDbDimStyleTableRecord
  2
STANDARD
 70
     0
 41
3.0
 42
1.0
 43
7.0
 44
2.0
 73
     0
 74
     0
 77
     1
140
2.799999999999999
141
0.0
143
0.0394
147
0.7
171
     4
172
     1
173
     1
176
     3
177
     3
178
     2
271
     3
272
     3
273
     8
274
     4
289
     0
340
A74
341
A66
343
A66
344
A66
  0
DIMSTYLE
105
FA9
330
A
100
AcDbSymbolTableRecord
100
AcDbDimStyleTableRecord
  2
AM_ANSI
 70
     0
  4
mm
 41
0.1
 42
0.05
 43
0.5
 44
0.1
 47
0.1
 48
0.1
 78
     7
 79
     2
140
0.12
141
0.0
146
0.71
147
0.06
176
   256
177
   256
178
     2
274
     4
284
     7
340
11
371
    -1
372
    -1
  0
DIMSTYLE
105
FAA
330
A
100
AcDbSymbolTableRecord
100
AcDbDimStyleTableRecord
  2
AM_ANSI$3
 70
     0
  4
mm
 41
0.1
 42
0.05
 43
0.5
 44
0.1
 47
0.1
 48
0.1
 78
     7
 79
     2
140
0.12
141
0.0
146
0.71
147
0.06
176
   256
177
   256
178
     2
274
     4
284
     7
288
     1
289
     0
340
11
371
    -1
372
    -1
  0
DIMSTYLE
105
FAB
330
A
100
AcDbSymbolTableRecord
100
AcDbDimStyleTableRecord
  2
AM_ANSI$4
 70
     0
  4
mm
 41
0.1
 42
0.05
 43
0.5
 44
0.1
 47
0.1
 48
0.1
 78
     7
 79
     2
140
0.12
141
0.0
146
0.71
147
0.06
176
   256
177
   256
178
     2
274
     4
284
     7
288
     1
289
     0
340
11
371
    -1
372
    -1
  0
DIMSTYLE
105
FAC
330
A
100
AcDbSymbolTableRecord
100
AcDbDimStyleTableRecord
  2
AM_ANSI$7
 70
     0
  4
mm
 41
0.1
 42
0.05
 43
0.5
 44
0.1
 47
0.1
 48
0.1
 78
     7
 79
     2
140
0.24
141
0.0
146
0.71
147
0.06
176
   256
177
   256
178
     2
274
     4
284
     7
340
11
371
    -1
372
    -1
  0
DIMSTYLE
105
FAD
330
A
100
AcDbSymbolTableRecord
100
AcDbDimStyleTableRecord
  2
AM_ANSI$SF
 70
     0
  4
mm
 41
0.1
 42
0.05
 43
0.5
 44
0.1
 47
0.1
 48
0.1
 75
     1
 76
     1
 78
     7
 79
     2
140
0.12
141
0.0
146
0.71
147
0.06
176
   256
177
   256
178
     2
274
     4
284
     7
340
11
371
    -1
372
    -1
  0
DIMSTYLE
105
FAE
330
A
100
AcDbSymbolTableRecord
100
AcDbDimStyleTableRecord
  2
AM_ANSI$SH
 70
     0
  4
mm
 41
0.1
 42
0.05
 43
0.5
 44
0.1
 47
0.1
 48
0.1
 75
     1
 76
     1
 78
     7
 79
     2
140
0.12
141
0.0
146
0.71
147
0.06
173
     1
176
   256
177
   256
178
     2
274
     4
284
     7
340
11
343
72
371
    -1
372
    -1
  0
DIMSTYLE
105
2515
330
A
100
AcDbSymbolTableRecord
100
AcDbDimStyleTableRecord
  2
SYS
 70
     0
  4
"
 41
2.5
 42
1.0
 43
10.0
 44
1.0
 47
0.1
 48
0.1
 73
     0
 74
     0
 77
     1
 78
     8
 79
     2
140
3.5
141
0.0
143
0.0393701
146
0.71
147
1.5
172
     1
176
   256
177
   256
178
     7
271
     2
272
     3
274
     4
283
     0
284
     8
340
11
371
    -1
372
    -1
  0
DIMSTYLE
105
2516
102
{ACAD_REACTORS
330
EDFF
102
}
330
A
100
AcDbSymbolTableRecord
100
AcDbDimStyleTableRecord
  2
SYS$3
 70
     0
  4
"
 41
2.0
 42
1.0
 43
10.0
 44
1.0
 47
0.1
 48
0.1
 73
     0
 77
     1
 78
     8
 79
     2
140
3.200000000000001
141
0.0
143
0.0393701
146
0.71
147
0.9999999999999996
176
   256
177
   256
178
     2
271
     1
272
     1
283
     0
284
     8
288
     1
340
11
342
A66
371
    -1
372
    -1
  0
DIMSTYLE
105
2517
330
A
100
AcDbSymbolTableRecord
100
AcDbDimStyleTableRecord
  2
SYS$4
 70
     0
  4
"
 41
2.0
 42
1.0
 43
10.0
 44
1.0
 47
0.1
 48
0.1
 73
     0
 77
     1
 78
     8
 79
     2
140
3.2
141
0.0
143
0.0393701
146
0.71
147
0.9999999999999996
173
     1
176
   256
177
   256
178
     2
271
     2
272
     2
283
     0
284
     8
288
     1
340
11
344
A66
371
    -1
372
    -1
  0
DIMSTYLE
105
2518
330
A
100
AcDbSymbolTableRecord
100
AcDbDimStyleTableRecord
  2
SYS$6
 70
     0
  4
"
 41
2.0
 42
1.0
 43
10.0
 44
1.0
 47
0.1
 48
0.1
 73
     0
 74
     0
 78
     8
 79
     2
140
3.2
141
0.0
143
0.0393701
146
0.71
147
0.9999999999999996
172
     1
176
   256
177
   256
178
     2
271
     2
272
     2
283
     0
284
     8
340
11
341
A66
371
    -1
372
    -1
  0
DIMSTYLE
105
2519
330
A
100
AcDbSymbolTableRecord
100
AcDbDimStyleTableRecord
  2
SYS$7
 70
     0
  4
"
 41
2.0
 42
1.5
 43
10.0
 44
1.0
 47
0.1
 48
0.1
 73
     0
 74
     0
 77
     1
 78
     8
 79
     2
140
3.2
141
0.0
143
0.0393701
146
0.71
147
0.9999999999999996
172
     1
176
   256
177
   256
178
     2
271
     2
272
     2
283
     0
284
     8
340
11
341
A66
342
A66
371
    -1
372
    -1
  0
DIMSTYLE
105
251A
330
A
100
AcDbSymbolTableRecord
100
AcDbDimStyleTableRecord
  2
SYS$SF
 70
     0
  4
"
 41
1.0
 42
1.0
 43
10.0
 44
1.0
 47
0.1
 48
0.1
 73
     0
 74
     0
 75
     1
 76
     1
 77
     1
 78
     8
 79
     2
140
3.2
141
0.0
143
0.0393701
146
0.71
147
0.9999999999999996
172
     1
176
   256
177
   256
178
     2
271
     2
272
     2
283
     0
284
     8
340
11
341
6C4
342
6C4
371
    -1
372
    -1
  0
DIMSTYLE
105
251B
330
A
100
AcDbSymbolTableRecord
100
AcDbDimStyleTableRecord
  2
SYS$SH
 70
     0
  4
"
 41
1.0
 42
1.0
 43
10.0
 44
1.0
 47
0.1
 48
0.1
 73
     0
 74
     0
 75
     1
 76
     1
 77
     1
 78
     8
 79
     2
140
3.2
141
0.0
143
0.0393701
144
2.0
146
0.71
147
0.9999999999999996
172
     1
173
     1
176
   256
177
   256
178
     2
271
     2
272
     2
283
     0
284
     8
340
11
341
6C4
343
72
344
6C4
371
    -1
372
    -1
  0
DIMSTYLE
105
2A59
330
A
100
AcDbSymbolTableRecord
100
AcDbDimStyleTableRecord
  2
SYS$2
 70
     0
  4
"
 41
1.0
 42
1.5
 43
10.0
 44
1.0
 47
0.1
 48
0.1
 73
     0
 74
     0
 77
     1
 78
     8
 79
     2
140
3.2
141
0.0
143
0.0393701
146
0.71
147
0.9999999999999996
172
     1
176
   256
177
   256
178
     2
271
     2
272
     2
283
     0
284
     8
340
11
342
6C4
371
    -1
372
    -1
  0
DIMSTYLE
105
2AAB
102
{ACAD_REACTORS
330
EB8A
330
EBBD
330
EBFA
330
EC12
330
EC3C
330
EC5D
330
EC7E
330
EC96
330
ECAE
330
ECE2
330
ED0C
330
ED24
330
ED45
330
ED5D
330
ED87
330
EDCE
102
}
330
A
100
AcDbSymbolTableRecord
100
AcDbDimStyleTableRecord
  2
SYS$0
 70
     0
  4
"
 41
1.0
 42
1.5
 43
10.0
 44
1.0
 47
0.1
 48
0.1
 73
     0
 74
     0
 77
     1
 78
     8
 79
     2
140
3.2
141
0.0
143
0.0393701
146
0.71
147
0.9999999999999996
172
     1
176
   256
177
   256
178
     2
271
     1
272
     1
283
     0
284
     8
340
11
341
A66
342
6C4
371
    -1
372
    -1
  0
ENDTAB
  0
TABLE
  2
BLOCK_RECORD
  5
1
330
0
100
AcDbSymbolTable
 70
    23
  0
BLOCK_RECORD
  5
1F
102
{ACAD_XDICTIONARY
360
8A
102
}
330
1
100
AcDbSymbolTableRecord
100
AcDbBlockTableRecord
  2
*Model_Space
340
22
  0
BLOCK_RECORD
  5
1B
330
1
100
AcDbSymbolTableRecord
100
AcDbBlockTableRecord
  2
*Paper_Space
340
1E
  0
BLOCK_RECORD
  5
23
330
1
100
AcDbSymbolTableRecord
100
AcDbBlockTableRecord
  2
*Paper_Space0
340
26
  0
BLOCK_RECORD
  5
72
330
1
100
AcDbSymbolTableRecord
100
AcDbBlockTableRecord
  2
GENAXEH
340
0
  0
BLOCK_RECORD
  5
6C4
330
1
100
AcDbSymbolTableRecord
100
AcDbBlockTableRecord
  2
_Dot
340
0
102
{BLKREFS
331
EFBB
331
EFBC
331
EFF2
331
EFF3
331
EFFB
331
EFFC
331
F004
331
F005
331
F031
331
F032
331
F03A
331
F03B
331
F044
331
F045
331
F058
331
F059
331
F13B
331
F13C
331
F1D3
331
F1D4
331
F1DC
331
F1DD
331
F1E5
331
F1E6
331
F1F7
331
F1F8
331
F221
331
F222
331
F22A
331
F22B
331
F233
331
F234
331
F245
331
F246
102
}
  0
BLOCK_RECORD
  5
A66
330
1
100
AcDbSymbolTableRecord
100
AcDbBlockTableRecord
  2
_OPEN30
340
0
  0
BLOCK_RECORD
  5
EB8B
330
1
100
AcDbSymbolTableRecord
100
AcDbBlockTableRecord
  2
*D5
340
0
  0
BLOCK_RECORD
  5
EBBE
330
1
100
AcDbSymbolTableRecord
100
AcDbBlockTableRecord
  2
*D6
340
0
  0
BLOCK_RECORD
  5
EBFB
330
1
100
AcDbSymbolTableRecord
100
AcDbBlockTableRecord
  2
*D7
340
0
  0
BLOCK_RECORD
  5
EC13
330
1
100
AcDbSymbolTableRecord
100
AcDbBlockTableRecord
  2
*D8
340
0
  0
BLOCK_RECORD
  5
EC3D
330
1
100
AcDbSymbolTableRecord
100
AcDbBlockTableRecord
  2
*D9
340
0
  0
BLOCK_RECORD
  5
EC5E
330
1
100
AcDbSymbolTableRecord
100
AcDbBlockTableRecord
  2
*D10
340
0
  0
BLOCK_RECORD
  5
EC7F
330
1
100
AcDbSymbolTableRecord
100
AcDbBlockTableRecord
  2
*D11
340
0
  0
BLOCK_RECORD
  5
EC97
330
1
100
AcDbSymbolTableRecord
100
AcDbBlockTableRecord
  2
*D12
340
0
  0
BLOCK_RECORD
  5
ECAF
330
1
100
AcDbSymbolTableRecord
100
AcDbBlockTableRecord
  2
*D13
340
0
  0
BLOCK_RECORD
  5
ECE3
330
1
100
AcDbSymbolTableRecord
100
AcDbBlockTableRecord
  2
*D14
340
0
  0
BLOCK_RECORD
  5
ED0D
330
1
100
AcDbSymbolTableRecord
100
AcDbBlockTableRecord
  2
*D15
340
0
  0
BLOCK_RECORD
  5
ED25
330
1
100
AcDbSymbolTableRecord
100
AcDbBlockTableRecord
  2
*D16
340
0
  0
BLOCK_RECORD
  5
ED46
330
1
100
AcDbSymbolTableRecord
100
AcDbBlockTableRecord
  2
*D17
340
0
  0
BLOCK_RECORD
  5
ED5E
330
1
100
AcDbSymbolTableRecord
100
AcDbBlockTableRecord
  2
*D18
340
0
  0
BLOCK_RECORD
  5
ED88
330
1
100
AcDbSymbolTableRecord
100
AcDbBlockTableRecord
  2
*D19
340
0
  0
BLOCK_RECORD
  5
EDCF
330
1
100
AcDbSymbolTableRecord
100
AcDbBlockTableRecord
  2
*D20
340
0
  0
BLOCK_RECORD
  5
EE00
330
1
100
AcDbSymbolTableRecord
100
AcDbBlockTableRecord
  2
*D21
340
0
  0
BLOCK_RECORD
  5
F268
330
1
100
AcDbSymbolTableRecord
100
AcDbBlockTableRecord
  2
*S22
340
0
  0
ENDTAB
  0
ENDSEC
  0
SECTION
  2
BLOCKS
  0
BLOCK
  5
20
330
1F
100
AcDbEntity
  8
0
100
AcDbBlockBegin
  2
*Model_Space
 70
     0
 10
0.0
 20
0.0
 30
0.0
  3
*Model_Space
  1

  0
ENDBLK
  5
21
330
1F
100
AcDbEntity
  8
0
100
AcDbBlockEnd
  0
BLOCK
  5
1C
330
1B
100
AcDbEntity
 67
     1
  8
0
100
AcDbBlockBegin
  2
*Paper_Space
 70
     0
 10
0.0
 20
0.0
 30
0.0
  3
*Paper_Space
  1

  0
ENDBLK
  5
1D
330
1B
100
AcDbEntity
 67
     1
  8
0
100
AcDbBlockEnd
  0
BLOCK
  5
24
330
23
100
AcDbEntity
 67
     1
  8
0
100
AcDbBlockBegin
  2
*Paper_Space0
 70
     0
 10
0.0
 20
0.0
 30
0.0
  3
*Paper_Space0
  1

  0
ENDBLK
  5
25
330
23
100
AcDbEntity
 67
     1
  8
0
100
AcDbBlockEnd
  0
BLOCK
  5
74
330
72
100
AcDbEntity
  8
0
100
AcDbBlockBegin
  2
GENAXEH
 70
     0
 10
0.0
 20
0.0
 30
0.0
  3
GENAXEH
  1

  0
LINE
  5
73
330
72
100
AcDbEntity
  8
0
100
AcDbLine
 10
-1.0
 20
0.0
 30
0.0
 11
1.0
 21
0.0
 31
0.0
  0
ENDBLK
  5
75
330
72
100
AcDbEntity
  8
0
100
AcDbBlockEnd
  0
BLOCK
  5
6C7
330
6C4
100
AcDbEntity
  8
0
100
AcDbBlockBegin
  2
_Dot
 70
     0
 10
0.0
 20
0.0
 30
0.0
  3
_Dot
  1

  0
LWPOLYLINE
  5
6C5
330
6C4
100
AcDbEntity
  8
0
  6
ByBlock
 62
     0
100
AcDbPolyline
 90
        2
 70
     1
 43
0.5
 10
-0.25
 20
0.0
 42
1.0
 10
0.25
 20
0.0
 42
1.0
  0
LINE
  5
6C6
330
6C4
100
AcDbEntity
  8
0
  6
ByBlock
 62
     0
370
    -2
100
AcDbLine
 10
-0.5
 20
0.0
 30
0.0
 11
-1.0
 21
0.0
 31
0.0
  0
ENDBLK
  5
6C8
330
6C4
100
AcDbEntity
  8
0
100
AcDbBlockEnd
  0
BLOCK
  5
A6A
330
A66
100
AcDbEntity
  8
0
100
AcDbBlockBegin
  2
_OPEN30
 70
     0
 10
0.0
 20
0.0
 30
0.0
  3
_OPEN30
  1

  0
LINE
  5
A67
330
A66
100
AcDbEntity
  8
0
  6
ByBlock
 62
     0
100
AcDbLine
 10
-1.0
 20
0.26794919
 30
0.0
 11
0.0
 21
0.0
 31
0.0
  0
LINE
  5
A68
330
A66
100
AcDbEntity
  8
0
  6
ByBlock
 62
     0
100
AcDbLine
 10
0.0
 20
0.0
 30
0.0
 11
-1.0
 21
-0.26794919
 31
0.0
  0
LINE
  5
A69
330
A66
100
AcDbEntity
  8
0
  6
ByBlock
 62
     0
100
AcDbLine
 10
0.0
 20
0.0
 30
0.0
 11
-1.0
 21
0.0
 31
0.0
  0
ENDBLK
  5
A6B
330
A66
100
AcDbEntity
  8
0
100
AcDbBlockEnd
  0
BLOCK
  5
EB97
330
EB8B
100
AcDbEntity
  8
0
100
AcDbBlockBegin
  2
*D5
 70
     1
 10
0.0
 20
0.0
 30
0.0
  3
*D5
  1

  0
LINE
  5
EFB8
330
EB8B
100
AcDbEntity
  8
AM_5
100
AcDbLine
 10
253.9999999999992
 20
82.49999999999976
 30
0.0
 11
263.4999999999991
 21
82.49999999999976
 31
0.0
  0
LINE
  5
EFB9
330
EB8B
100
AcDbEntity
  8
AM_5
100
AcDbLine
 10
253.9999999999992
 20
77.49999999999977
 30
0.0
 11
263.4999999999991
 21
77.49999999999977
 31
0.0
  0
LINE
  5
EFBA
330
EB8B
100
AcDbEntity
  8
AM_5
100
AcDbLine
 10
262.4999999999992
 20
81.49999999999977
 30
0.0
 11
262.4999999999992
 21
78.49999999999977
 31
0.0
  0
INSERT
  5
EFBB
330
EB8B
100
AcDbEntity
  8
AM_5
100
AcDbBlockReference
  2
_Dot
 10
262.4999999999992
 20
82.49999999999976
 30
0.0
 41
1.0
 42
1.0
 43
1.0
 50
90.0
  0
INSERT
  5
EFBC
330
EB8B
100
AcDbEntity
  8
AM_5
100
AcDbBlockReference
  2
_Dot
 10
262.4999999999992
 20
77.49999999999977
 30
0.0
 41
1.0
 42
1.0
 43
1.0
 50
270.0
  0
MTEXT
  5
EFBD
330
EB8B
100
AcDbEntity
  8
AM_5
 62
     2
100
AcDbMText
 10
259.8999999999991
 20
79.99999999999982
 30
0.0
 40
3.2
 41
0.0
 71
     5
 72
     1
  1
5
 11
0.0000000000000001
 21
1.0
 31
0.0
 73
     1
 44
1.0
1001
ACAD
1000
MTEXTBEGIN
1070
    73
1070
     1
1070
    44
1040
1.0
1070
    74
1070
     0
1000
MTEXTEND
  0
POINT
  5
EFBE
330
EB8B
100
AcDbEntity
  8
Defpoints
 62
     0
100
AcDbPoint
 10
252.4999999999991
 20
82.49999999999976
 30
0.0
  0
POINT
  5
EFBF
330
EB8B
100
AcDbEntity
  8
Defpoints
 62
     0
100
AcDbPoint
 10
252.4999999999991
 20
77.49999999999977
 30
0.0
  0
POINT
  5
EFC0
330
EB8B
100
AcDbEntity
  8
Defpoints
 62
     0
100
AcDbPoint
 10
262.4999999999992
 20
77.49999999999977
 30
0.0
  0
ENDBLK
  5
EB98
330
EB8B
100
AcDbEntity
  8
0
100
AcDbBlockEnd
  0
BLOCK
  5
EBC8
330
EBBE
100
AcDbEntity
  8
0
100
AcDbBlockBegin
  2
*D6
 70
     1
 10
0.0
 20
0.0
 30
0.0
  3
*D6
  1

  0
LINE
  5
F137
330
EBBE
100
AcDbEntity
  8
AM_5
100
AcDbLine
 10
165.9999999999991
 20
89.99999999999976
 30
0.0
 11
165.9999999999991
 21
85.49999999999979
 31
0.0
  0
LINE
  5
F138
330
EBBE
100
AcDbEntity
  8
AM_5
100
AcDbLine
 10
176.9999999999991
 20
89.99999999999976
 30
0.0
 11
176.9999999999991
 21
85.49999999999979
 31
0.0
  0
LINE
  5
F139
330
EBBE
100
AcDbEntity
  8
AM_5
100
AcDbLine
 10
166.9999999999991
 20
86.49999999999979
 30
0.0
 11
175.9999999999991
 21
86.49999999999979
 31
0.0
  0
LINE
  5
F13A
330
EBBE
100
AcDbEntity
  8
AM_5
100
AcDbLine
 10
176.9999999999991
 20
86.49999999999979
 30
0.0
 11
185.0133333333324
 21
86.49999999999979
 31
0.0
  0
INSERT
  5
F13B
330
EBBE
100
AcDbEntity
  8
AM_5
100
AcDbBlockReference
  2
_Dot
 10
165.9999999999991
 20
86.49999999999979
 30
0.0
 41
1.0
 42
1.0
 43
1.0
 50
180.0
  0
INSERT
  5
F13C
330
EBBE
100
AcDbEntity
  8
AM_5
100
AcDbBlockReference
  2
_Dot
 10
176.9999999999991
 20
86.49999999999979
 30
0.0
 41
1.0
 42
1.0
 43
1.0
  0
MTEXT
  5
F13D
330
EBBE
100
AcDbEntity
  8
AM_5
 62
     2
100
AcDbMText
 10
181.5066666666658
 20
89.09999999999978
 30
0.0
 40
3.2
 41
0.0
 71
     5
 72
     1
  1
%%c11
 73
     1
 44
1.0
1001
ACAD
1000
MTEXTBEGIN
1070
    73
1070
     1
1070
    44
1040
1.0
1070
    74
1070
     0
1000
MTEXTEND
  0
POINT
  5
F13E
330
EBBE
100
AcDbEntity
  8
Defpoints
 62
     0
100
AcDbPoint
 10
165.9999999999991
 20
91.49999999999977
 30
0.0
  0
POINT
  5
F13F
330
EBBE
100
AcDbEntity
  8
Defpoints
 62
     0
100
AcDbPoint
 10
176.9999999999991
 20
91.49999999999977
 30
0.0
  0
POINT
  5
F140
330
EBBE
100
AcDbEntity
  8
Defpoints
 62
     0
100
AcDbPoint
 10
176.9999999999991
 20
86.49999999999979
 30
0.0
  0
ENDBLK
  5
EBC9
330
EBBE
100
AcDbEntity
  8
0
100
AcDbBlockEnd
  0
BLOCK
  5
EC05
330
EBFB
100
AcDbEntity
  8
0
100
AcDbBlockBegin
  2
*D7
 70
     1
 10
0.0
 20
0.0
 30
0.0
  3
*D7
  1

  0
LINE
  5
F227
330
EBFB
100
AcDbEntity
  8
AM_5
100
AcDbLine
 10
151.4999999999991
 20
150.7499999999998
 30
0.0
 11
151.4999999999991
 21
166.9999999999997
 31
0.0
  0
LINE
  5
F228
330
EBFB
100
AcDbEntity
  8
AM_5
100
AcDbLine
 10
191.4999999999991
 20
144.9999999999997
 30
0.0
 11
191.4999999999991
 21
166.9999999999997
 31
0.0
  0
LINE
  5
F229
330
EBFB
100
AcDbEntity
  8
AM_5
100
AcDbLine
 10
152.4999999999991
 20
165.9999999999997
 30
0.0
 11
190.4999999999991
 21
165.9999999999997
 31
0.0
  0
INSERT
  5
F22A
330
EBFB
100
AcDbEntity
  8
AM_5
100
AcDbBlockReference
  2
_Dot
 10
151.4999999999991
 20
165.9999999999997
 30
0.0
 41
1.0
 42
1.0
 43
1.0
 50
180.0
  0
INSERT
  5
F22B
330
EBFB
100
AcDbEntity
  8
AM_5
100
AcDbBlockReference
  2
_Dot
 10
191.4999999999991
 20
165.9999999999997
 30
0.0
 41
1.0
 42
1.0
 43
1.0
  0
MTEXT
  5
F22C
330
EBFB
100
AcDbEntity
  8
AM_5
 62
     2
100
AcDbMText
 10
171.4999999999991
 20
168.5999999999997
 30
0.0
 40
3.2
 41
0.0
 71
     5
 72
     1
  1
40
 73
     1
 44
1.0
1001
ACAD
1000
MTEXTBEGIN
1070
    73
1070
     1
1070
    44
1040
1.0
1070
    74
1070
     0
1000
MTEXTEND
  0
POINT
  5
F22D
330
EBFB
100
AcDbEntity
  8
Defpoints
 62
     0
100
AcDbPoint
 10
151.4999999999991
 20
149.2499999999997
 30
0.0
  0
POINT
  5
F22E
330
EBFB
100
AcDbEntity
  8
Defpoints
 62
     0
100
AcDbPoint
 10
191.4999999999991
 20
143.4999999999998
 30
0.0
  0
POINT
  5
F22F
330
EBFB
100
AcDbEntity
  8
Defpoints
 62
     0
100
AcDbPoint
 10
191.4999999999991
 20
165.9999999999997
 30
0.0
  0
ENDBLK
  5
EC06
330
EBFB
100
AcDbEntity
  8
0
100
AcDbBlockEnd
  0
BLOCK
  5
EC1D
330
EC13
100
AcDbEntity
  8
0
100
AcDbBlockBegin
  2
*D8
 70
     1
 10
0.0
 20
0.0
 30
0.0
  3
*D8
  1

  0
LINE
  5
F230
330
EC13
100
AcDbEntity
  8
AM_5
100
AcDbLine
 10
151.4999999999991
 20
150.7499999999998
 30
0.0
 11
151.4999999999991
 21
166.9999999999997
 31
0.0
  0
LINE
  5
F231
330
EC13
100
AcDbEntity
  8
AM_5
100
AcDbLine
 10
141.4999999999991
 20
151.9999999999997
 30
0.0
 11
141.4999999999991
 21
166.9999999999997
 31
0.0
  0
LINE
  5
F232
330
EC13
100
AcDbEntity
  8
AM_5
100
AcDbLine
 10
150.4999999999991
 20
165.9999999999997
 30
0.0
 11
142.4999999999991
 21
165.9999999999997
 31
0.0
  0
INSERT
  5
F233
330
EC13
100
AcDbEntity
  8
AM_5
100
AcDbBlockReference
  2
_Dot
 10
151.4999999999991
 20
165.9999999999997
 30
0.0
 41
1.0
 42
1.0
 43
1.0
  0
INSERT
  5
F234
330
EC13
100
AcDbEntity
  8
AM_5
100
AcDbBlockReference
  2
_Dot
 10
141.4999999999991
 20
165.9999999999997
 30
0.0
 41
1.0
 42
1.0
 43
1.0
 50
180.0
  0
MTEXT
  5
F235
330
EC13
100
AcDbEntity
  8
AM_5
 62
     2
100
AcDbMText
 10
146.4999999999991
 20
168.5999999999997
 30
0.0
 40
3.2
 41
0.0
 71
     5
 72
     1
  1
10
 73
     1
 44
1.0
1001
ACAD
1000
MTEXTBEGIN
1070
    73
1070
     1
1070
    44
1040
1.0
1070
    74
1070
     0
1000
MTEXTEND
  0
POINT
  5
F236
330
EC13
100
AcDbEntity
  8
Defpoints
 62
     0
100
AcDbPoint
 10
151.4999999999991
 20
149.2499999999997
 30
0.0
  0
POINT
  5
F237
330
EC13
100
AcDbEntity
  8
Defpoints
 62
     0
100
AcDbPoint
 10
141.4999999999991
 20
150.4999999999997
 30
0.0
  0
POINT
  5
F238
330
EC13
100
AcDbEntity
  8
Defpoints
 62
     0
100
AcDbPoint
 10
141.4999999999991
 20
165.9999999999997
 30
0.0
  0
ENDBLK
  5
EC1E
330
EC13
100
AcDbEntity
  8
0
100
AcDbBlockEnd
  0
BLOCK
  5
EC47
330
EC3D
100
AcDbEntity
  8
0
100
AcDbBlockBegin
  2
*D9
 70
     1
 10
0.0
 20
0.0
 30
0.0
  3
*D9
  1

  0
LINE
  5
F242
330
EC3D
100
AcDbEntity
  8
AM_5
100
AcDbLine
 10
191.4999999999991
 20
144.9999999999997
 30
0.0
 11
191.4999999999991
 21
166.9999999999997
 31
0.0
  0
LINE
  5
F243
330
EC3D
100
AcDbEntity
  8
AM_5
100
AcDbLine
 10
201.4999999999992
 20
151.9999999999997
 30
0.0
 11
201.4999999999992
 21
166.9999999999997
 31
0.0
  0
LINE
  5
F244
330
EC3D
100
AcDbEntity
  8
AM_5
100
AcDbLine
 10
192.4999999999991
 20
165.9999999999997
 30
0.0
 11
200.4999999999991
 21
165.9999999999997
 31
0.0
  0
INSERT
  5
F245
330
EC3D
100
AcDbEntity
  8
AM_5
100
AcDbBlockReference
  2
_Dot
 10
191.4999999999991
 20
165.9999999999997
 30
0.0
 41
1.0
 42
1.0
 43
1.0
 50
180.0
  0
INSERT
  5
F246
330
EC3D
100
AcDbEntity
  8
AM_5
100
AcDbBlockReference
  2
_Dot
 10
201.4999999999992
 20
165.9999999999997
 30
0.0
 41
1.0
 42
1.0
 43
1.0
  0
MTEXT
  5
F247
330
EC3D
100
AcDbEntity
  8
AM_5
 62
     2
100
AcDbMText
 10
196.4999999999991
 20
168.5999999999997
 30
0.0
 40
3.2
 41
0.0
 71
     5
 72
     1
  1
10
 73
     1
 44
1.0
1001
ACAD
1000
MTEXTBEGIN
1070
    73
1070
     1
1070
    44
1040
1.0
1070
    74
1070
     0
1000
MTEXTEND
  0
POINT
  5
F248
330
EC3D
100
AcDbEntity
  8
Defpoints
 62
     0
100
AcDbPoint
 10
191.4999999999991
 20
143.4999999999998
 30
0.0
  0
POINT
  5
F249
330
EC3D
100
AcDbEntity
  8
Defpoints
 62
     0
100
AcDbPoint
 10
201.4999999999992
 20
150.4999999999997
 30
0.0
  0
POINT
  5
F24A
330
EC3D
100
AcDbEntity
  8
Defpoints
 62
     0
100
AcDbPoint
 10
201.4999999999992
 20
165.9999999999997
 30
0.0
  0
ENDBLK
  5
EC48
330
EC3D
100
AcDbEntity
  8
0
100
AcDbBlockEnd
  0
BLOCK
  5
EC68
330
EC5E
100
AcDbEntity
  8
0
100
AcDbBlockBegin
  2
*D10
 70
     1
 10
0.0
 20
0.0
 30
0.0
  3
*D10
  1

  0
LINE
  5
F21E
330
EC5E
100
AcDbEntity
  8
AM_5
100
AcDbLine
 10
141.4999999999991
 20
151.9999999999997
 30
0.0
 11
141.4999999999991
 21
174.9999999999998
 31
0.0
  0
LINE
  5
F21F
330
EC5E
100
AcDbEntity
  8
AM_5
100
AcDbLine
 10
201.4999999999992
 20
151.9999999999997
 30
0.0
 11
201.4999999999992
 21
174.9999999999998
 31
0.0
  0
LINE
  5
F220
330
EC5E
100
AcDbEntity
  8
AM_5
100
AcDbLine
 10
142.4999999999991
 20
173.9999999999997
 30
0.0
 11
200.4999999999991
 21
173.9999999999997
 31
0.0
  0
INSERT
  5
F221
330
EC5E
100
AcDbEntity
  8
AM_5
100
AcDbBlockReference
  2
_Dot
 10
141.4999999999991
 20
173.9999999999997
 30
0.0
 41
1.0
 42
1.0
 43
1.0
 50
180.0
  0
INSERT
  5
F222
330
EC5E
100
AcDbEntity
  8
AM_5
100
AcDbBlockReference
  2
_Dot
 10
201.4999999999992
 20
173.9999999999997
 30
0.0
 41
1.0
 42
1.0
 43
1.0
  0
MTEXT
  5
F223
330
EC5E
100
AcDbEntity
  8
AM_5
 62
     2
100
AcDbMText
 10
171.4999999999991
 20
176.5999999999998
 30
0.0
 40
3.2
 41
0.0
 71
     5
 72
     1
  1
60
 73
     1
 44
1.0
1001
ACAD
1000
MTEXTBEGIN
1070
    73
1070
     1
1070
    44
1040
1.0
1070
    74
1070
     0
1000
MTEXTEND
  0
POINT
  5
F224
330
EC5E
100
AcDbEntity
  8
Defpoints
 62
     0
100
AcDbPoint
 10
141.4999999999991
 20
150.4999999999997
 30
0.0
  0
POINT
  5
F225
330
EC5E
100
AcDbEntity
  8
Defpoints
 62
     0
100
AcDbPoint
 10
201.4999999999992
 20
150.4999999999997
 30
0.0
  0
POINT
  5
F226
330
EC5E
100
AcDbEntity
  8
Defpoints
 62
     0
100
AcDbPoint
 10
201.4999999999992
 20
173.9999999999997
 30
0.0
  0
ENDBLK
  5
EC69
330
EC5E
100
AcDbEntity
  8
0
100
AcDbBlockEnd
  0
BLOCK
  5
EC89
330
EC7F
100
AcDbEntity
  8
0
100
AcDbBlockBegin
  2
*D11
 70
     1
 10
0.0
 20
0.0
 30
0.0
  3
*D11
  1

  0
LINE
  5
EFEF
330
EC7F
100
AcDbEntity
  8
AM_5
100
AcDbLine
 10
136.9999999999991
 20
143.4999999999998
 30
0.0
 11
132.4999999999991
 21
143.4999999999998
 31
0.0
  0
LINE
  5
EFF0
330
EC7F
100
AcDbEntity
  8
AM_5
100
AcDbLine
 10
145.4999999999991
 20
155.9999999999998
 30
0.0
 11
132.4999999999991
 21
155.9999999999998
 31
0.0
  0
LINE
  5
EFF1
330
EC7F
100
AcDbEntity
  8
AM_5
100
AcDbLine
 10
133.4999999999991
 20
144.4999999999998
 30
0.0
 11
133.4999999999991
 21
154.9999999999998
 31
0.0
  0
INSERT
  5
EFF2
330
EC7F
100
AcDbEntity
  8
AM_5
100
AcDbBlockReference
  2
_Dot
 10
133.4999999999991
 20
143.4999999999998
 30
0.0
 41
1.0
 42
1.0
 43
1.0
 50
270.0
  0
INSERT
  5
EFF3
330
EC7F
100
AcDbEntity
  8
AM_5
100
AcDbBlockReference
  2
_Dot
 10
133.4999999999991
 20
155.9999999999998
 30
0.0
 41
1.0
 42
1.0
 43
1.0
 50
90.0
  0
MTEXT
  5
EFF4
330
EC7F
100
AcDbEntity
  8
AM_5
 62
     2
100
AcDbMText
 10
130.8999999999991
 20
149.7499999999998
 30
0.0
 40
3.2
 41
0.0
 71
     5
 72
     1
  1
12.5
 11
0.0000000000000001
 21
1.0
 31
0.0
 73
     1
 44
1.0
1001
ACAD
1000
MTEXTBEGIN
1070
    73
1070
     1
1070
    44
1040
1.0
1070
    74
1070
     0
1000
MTEXTEND
  0
POINT
  5
EFF5
330
EC7F
100
AcDbEntity
  8
Defpoints
 62
     0
100
AcDbPoint
 10
138.4999999999991
 20
143.4999999999998
 30
0.0
  0
POINT
  5
EFF6
330
EC7F
100
AcDbEntity
  8
Defpoints
 62
     0
100
AcDbPoint
 10
146.9999999999991
 20
155.9999999999998
 30
0.0
  0
POINT
  5
EFF7
330
EC7F
100
AcDbEntity
  8
Defpoints
 62
     0
100
AcDbPoint
 10
133.4999999999991
 20
155.9999999999998
 30
0.0
  0
ENDBLK
  5
EC8A
330
EC7F
100
AcDbEntity
  8
0
100
AcDbBlockEnd
  0
BLOCK
  5
ECA1
330
EC97
100
AcDbEntity
  8
0
100
AcDbBlockBegin
  2
*D12
 70
     1
 10
0.0
 20
0.0
 30
0.0
  3
*D12
  1

  0
LINE
  5
EFF8
330
EC97
100
AcDbEntity
  8
AM_5
100
AcDbLine
 10
136.9999999999991
 20
143.4999999999998
 30
0.0
 11
132.4999999999991
 21
143.4999999999998
 31
0.0
  0
LINE
  5
EFF9
330
EC97
100
AcDbEntity
  8
AM_5
100
AcDbLine
 10
145.4999999999991
 20
130.9999999999997
 30
0.0
 11
132.4999999999991
 21
130.9999999999997
 31
0.0
  0
LINE
  5
EFFA
330
EC97
100
AcDbEntity
  8
AM_5
100
AcDbLine
 10
133.4999999999991
 20
142.4999999999998
 30
0.0
 11
133.4999999999991
 21
131.9999999999997
 31
0.0
  0
INSERT
  5
EFFB
330
EC97
100
AcDbEntity
  8
AM_5
100
AcDbBlockReference
  2
_Dot
 10
133.4999999999991
 20
143.4999999999998
 30
0.0
 41
1.0
 42
1.0
 43
1.0
 50
90.0
  0
INSERT
  5
EFFC
330
EC97
100
AcDbEntity
  8
AM_5
100
AcDbBlockReference
  2
_Dot
 10
133.4999999999991
 20
130.9999999999997
 30
0.0
 41
1.0
 42
1.0
 43
1.0
 50
270.0
  0
MTEXT
  5
EFFD
330
EC97
100
AcDbEntity
  8
AM_5
 62
     2
100
AcDbMText
 10
130.8999999999991
 20
137.2499999999998
 30
0.0
 40
3.2
 41
0.0
 71
     5
 72
     1
  1
12.5
 11
0.0000000000000001
 21
1.0
 31
0.0
 73
     1
 44
1.0
1001
ACAD
1000
MTEXTBEGIN
1070
    73
1070
     1
1070
    44
1040
1.0
1070
    74
1070
     0
1000
MTEXTEND
  0
POINT
  5
EFFE
330
EC97
100
AcDbEntity
  8
Defpoints
 62
     0
100
AcDbPoint
 10
138.4999999999991
 20
143.4999999999998
 30
0.0
  0
POINT
  5
EFFF
330
EC97
100
AcDbEntity
  8
Defpoints
 62
     0
100
AcDbPoint
 10
146.9999999999991
 20
130.9999999999997
 30
0.0
  0
POINT
  5
F000
330
EC97
100
AcDbEntity
  8
Defpoints
 62
     0
100
AcDbPoint
 10
133.4999999999991
 20
130.9999999999997
 30
0.0
  0
ENDBLK
  5
ECA2
330
EC97
100
AcDbEntity
  8
0
100
AcDbBlockEnd
  0
BLOCK
  5
ECB9
330
ECAF
100
AcDbEntity
  8
0
100
AcDbBlockBegin
  2
*D13
 70
     1
 10
0.0
 20
0.0
 30
0.0
  3
*D13
  1

  0
LINE
  5
F001
330
ECAF
100
AcDbEntity
  8
AM_5
100
AcDbLine
 10
145.4999999999991
 20
130.9999999999997
 30
0.0
 11
124.4999999999991
 21
130.9999999999997
 31
0.0
  0
LINE
  5
F002
330
ECAF
100
AcDbEntity
  8
AM_5
100
AcDbLine
 10
145.4999999999991
 20
155.9999999999998
 30
0.0
 11
124.4999999999991
 21
155.9999999999998
 31
0.0
  0
LINE
  5
F003
330
ECAF
100
AcDbEntity
  8
AM_5
100
AcDbLine
 10
125.4999999999991
 20
131.9999999999997
 30
0.0
 11
125.4999999999991
 21
154.9999999999998
 31
0.0
  0
INSERT
  5
F004
330
ECAF
100
AcDbEntity
  8
AM_5
100
AcDbBlockReference
  2
_Dot
 10
125.4999999999991
 20
130.9999999999997
 30
0.0
 41
1.0
 42
1.0
 43
1.0
 50
270.0
  0
INSERT
  5
F005
330
ECAF
100
AcDbEntity
  8
AM_5
100
AcDbBlockReference
  2
_Dot
 10
125.4999999999991
 20
155.9999999999998
 30
0.0
 41
1.0
 42
1.0
 43
1.0
 50
90.0
  0
MTEXT
  5
F006
330
ECAF
100
AcDbEntity
  8
AM_5
 62
     2
100
AcDbMText
 10
122.8999999999991
 20
143.4999999999998
 30
0.0
 40
3.2
 41
0.0
 71
     5
 72
     1
  1
25
 11
0.0000000000000001
 21
1.0
 31
0.0
 73
     1
 44
1.0
1001
ACAD
1000
MTEXTBEGIN
1070
    73
1070
     1
1070
    44
1040
1.0
1070
    74
1070
     0
1000
MTEXTEND
  0
POINT
  5
F007
330
ECAF
100
AcDbEntity
  8
Defpoints
 62
     0
100
AcDbPoint
 10
146.9999999999991
 20
130.9999999999997
 30
0.0
  0
POINT
  5
F008
330
ECAF
100
AcDbEntity
  8
Defpoints
 62
     0
100
AcDbPoint
 10
146.9999999999991
 20
155.9999999999998
 30
0.0
  0
POINT
  5
F009
330
ECAF
100
AcDbEntity
  8
Defpoints
 62
     0
100
AcDbPoint
 10
125.4999999999991
 20
155.9999999999998
 30
0.0
  0
ENDBLK
  5
ECBA
330
ECAF
100
AcDbEntity
  8
0
100
AcDbBlockEnd
  0
BLOCK
  5
ECED
330
ECE3
100
AcDbEntity
  8
0
100
AcDbBlockBegin
  2
*D14
 70
     1
 10
0.0
 20
0.0
 30
0.0
  3
*D14
  1

  0
LINE
  5
F1F4
330
ECE3
100
AcDbEntity
  8
AM_5
100
AcDbLine
 10
153.9999999999991
 20
97.99999999999975
 30
0.0
 11
153.9999999999991
 21
113.9999999999997
 31
0.0
  0
LINE
  5
F1F5
330
ECE3
100
AcDbEntity
  8
AM_5
100
AcDbLine
 10
188.9999999999991
 20
97.99999999999977
 30
0.0
 11
188.9999999999991
 21
113.9999999999997
 31
0.0
  0
LINE
  5
F1F6
330
ECE3
100
AcDbEntity
  8
AM_5
100
AcDbLine
 10
154.9999999999991
 20
112.9999999999997
 30
0.0
 11
187.9999999999991
 21
112.9999999999997
 31
0.0
  0
INSERT
  5
F1F7
330
ECE3
100
AcDbEntity
  8
AM_5
100
AcDbBlockReference
  2
_Dot
 10
153.9999999999991
 20
112.9999999999997
 30
0.0
 41
1.0
 42
1.0
 43
1.0
 50
180.0
  0
INSERT
  5
F1F8
330
ECE3
100
AcDbEntity
  8
AM_5
100
AcDbBlockReference
  2
_Dot
 10
188.9999999999991
 20
112.9999999999997
 30
0.0
 41
1.0
 42
1.0
 43
1.0
  0
MTEXT
  5
F1F9
330
ECE3
100
AcDbEntity
  8
AM_5
 62
     2
100
AcDbMText
 10
171.4999999999991
 20
115.5999999999997
 30
0.0
 40
3.2
 41
0.0
 71
     5
 72
     1
  1
%%c35
 73
     1
 44
1.0
1001
ACAD
1000
MTEXTBEGIN
1070
    73
1070
     1
1070
    44
1040
1.0
1070
    74
1070
     0
1000
MTEXTEND
  0
POINT
  5
F1FA
330
ECE3
100
AcDbEntity
  8
Defpoints
 62
     0
100
AcDbPoint
 10
153.9999999999991
 20
96.49999999999977
 30
0.0
  0
POINT
  5
F1FB
330
ECE3
100
AcDbEntity
  8
Defpoints
 62
     0
100
AcDbPoint
 10
188.9999999999991
 20
96.49999999999977
 30
0.0
  0
POINT
  5
F1FC
330
ECE3
100
AcDbEntity
  8
Defpoints
 62
     0
100
AcDbPoint
 10
188.9999999999991
 20
112.9999999999997
 30
0.0
  0
ENDBLK
  5
ECEE
330
ECE3
100
AcDbEntity
  8
0
100
AcDbBlockEnd
  0
BLOCK
  5
ED17
330
ED0D
100
AcDbEntity
  8
0
100
AcDbBlockBegin
  2
*D15
 70
     1
 10
0.0
 20
0.0
 30
0.0
  3
*D15
  1

  0
LINE
  5
F1D0
330
ED0D
100
AcDbEntity
  8
AM_5
100
AcDbLine
 10
157.4999999999991
 20
91.49999999999979
 30
0.0
 11
132.4999999999991
 21
91.49999999999979
 31
0.0
  0
LINE
  5
F1D1
330
ED0D
100
AcDbEntity
  8
AM_5
100
AcDbLine
 10
139.9999999999991
 20
77.49999999999977
 30
0.0
 11
132.4999999999991
 21
77.49999999999977
 31
0.0
  0
LINE
  5
F1D2
330
ED0D
100
AcDbEntity
  8
AM_5
100
AcDbLine
 10
133.4999999999991
 20
90.49999999999979
 30
0.0
 11
133.4999999999991
 21
78.49999999999977
 31
0.0
  0
INSERT
  5
F1D3
330
ED0D
100
AcDbEntity
  8
AM_5
100
AcDbBlockReference
  2
_Dot
 10
133.4999999999991
 20
91.49999999999979
 30
0.0
 41
1.0
 42
1.0
 43
1.0
 50
90.0
  0
INSERT
  5
F1D4
330
ED0D
100
AcDbEntity
  8
AM_5
100
AcDbBlockReference
  2
_Dot
 10
133.4999999999991
 20
77.49999999999977
 30
0.0
 41
1.0
 42
1.0
 43
1.0
 50
270.0
  0
MTEXT
  5
F1D5
330
ED0D
100
AcDbEntity
  8
AM_5
 62
     2
100
AcDbMText
 10
130.8999999999991
 20
84.49999999999979
 30
0.0
 40
3.2
 41
0.0
 71
     5
 72
     1
  1
14
 11
0.0000000000000001
 21
1.0
 31
0.0
 73
     1
 44
1.0
1001
ACAD
1000
MTEXTBEGIN
1070
    73
1070
     1
1070
    44
1040
1.0
1070
    74
1070
     0
1000
MTEXTEND
  0
POINT
  5
F1D6
330
ED0D
100
AcDbEntity
  8
Defpoints
 62
     0
100
AcDbPoint
 10
158.9999999999991
 20
91.49999999999979
 30
0.0
  0
POINT
  5
F1D7
330
ED0D
100
AcDbEntity
  8
Defpoints
 62
     0
100
AcDbPoint
 10
141.4999999999991
 20
77.49999999999977
 30
0.0
  0
POINT
  5
F1D8
330
ED0D
100
AcDbEntity
  8
Defpoints
 62
     0
100
AcDbPoint
 10
133.4999999999991
 20
77.49999999999977
 30
0.0
  0
ENDBLK
  5
ED18
330
ED0D
100
AcDbEntity
  8
0
100
AcDbBlockEnd
  0
BLOCK
  5
ED2F
330
ED25
100
AcDbEntity
  8
0
100
AcDbBlockBegin
  2
*D16
 70
     1
 10
0.0
 20
0.0
 30
0.0
  3
*D16
  1

  0
LINE
  5
F1D9
330
ED25
100
AcDbEntity
  8
AM_5
100
AcDbLine
 10
157.4999999999991
 20
91.49999999999979
 30
0.0
 11
132.4999999999991
 21
91.49999999999979
 31
0.0
  0
LINE
  5
F1DA
330
ED25
100
AcDbEntity
  8
AM_5
100
AcDbLine
 10
157.4999999999991
 20
101.4999999999998
 30
0.0
 11
132.4999999999991
 21
101.4999999999998
 31
0.0
  0
LINE
  5
F1DB
330
ED25
100
AcDbEntity
  8
AM_5
100
AcDbLine
 10
133.4999999999991
 20
92.49999999999978
 30
0.0
 11
133.4999999999991
 21
100.4999999999998
 31
0.0
  0
INSERT
  5
F1DC
330
ED25
100
AcDbEntity
  8
AM_5
100
AcDbBlockReference
  2
_Dot
 10
133.4999999999991
 20
91.49999999999979
 30
0.0
 41
1.0
 42
1.0
 43
1.0
 50
270.0
  0
INSERT
  5
F1DD
330
ED25
100
AcDbEntity
  8
AM_5
100
AcDbBlockReference
  2
_Dot
 10
133.4999999999991
 20
101.4999999999998
 30
0.0
 41
1.0
 42
1.0
 43
1.0
 50
90.0
  0
MTEXT
  5
F1DE
330
ED25
100
AcDbEntity
  8
AM_5
 62
     2
100
AcDbMText
 10
130.8999999999991
 20
96.49999999999982
 30
0.0
 40
3.2
 41
0.0
 71
     5
 72
     1
  1
10
 11
0.0000000000000001
 21
1.0
 31
0.0
 73
     1
 44
1.0
1001
ACAD
1000
MTEXTBEGIN
1070
    73
1070
     1
1070
    44
1040
1.0
1070
    74
1070
     0
1000
MTEXTEND
  0
POINT
  5
F1DF
330
ED25
100
AcDbEntity
  8
Defpoints
 62
     0
100
AcDbPoint
 10
158.9999999999991
 20
91.49999999999979
 30
0.0
  0
POINT
  5
F1E0
330
ED25
100
AcDbEntity
  8
Defpoints
 62
     0
100
AcDbPoint
 10
158.9999999999991
 20
101.4999999999998
 30
0.0
  0
POINT
  5
F1E1
330
ED25
100
AcDbEntity
  8
Defpoints
 62
     0
100
AcDbPoint
 10
133.4999999999991
 20
101.4999999999998
 30
0.0
  0
ENDBLK
  5
ED30
330
ED25
100
AcDbEntity
  8
0
100
AcDbBlockEnd
  0
BLOCK
  5
ED50
330
ED46
100
AcDbEntity
  8
0
100
AcDbBlockBegin
  2
*D17
 70
     1
 10
0.0
 20
0.0
 30
0.0
  3
*D17
  1

  0
LINE
  5
F1E2
330
ED46
100
AcDbEntity
  8
AM_5
100
AcDbLine
 10
139.9999999999991
 20
77.49999999999977
 30
0.0
 11
124.4999999999991
 21
77.49999999999977
 31
0.0
  0
LINE
  5
F1E3
330
ED46
100
AcDbEntity
  8
AM_5
100
AcDbLine
 10
157.4999999999991
 20
101.4999999999997
 30
0.0
 11
124.4999999999991
 21
101.4999999999997
 31
0.0
  0
LINE
  5
F1E4
330
ED46
100
AcDbEntity
  8
AM_5
100
AcDbLine
 10
125.4999999999991
 20
78.49999999999977
 30
0.0
 11
125.4999999999991
 21
100.4999999999997
 31
0.0
  0
INSERT
  5
F1E5
330
ED46
100
AcDbEntity
  8
AM_5
100
AcDbBlockReference
  2
_Dot
 10
125.4999999999991
 20
77.49999999999977
 30
0.0
 41
1.0
 42
1.0
 43
1.0
 50
270.0
  0
INSERT
  5
F1E6
330
ED46
100
AcDbEntity
  8
AM_5
100
AcDbBlockReference
  2
_Dot
 10
125.4999999999991
 20
101.4999999999997
 30
0.0
 41
1.0
 42
1.0
 43
1.0
 50
90.0
  0
MTEXT
  5
F1E7
330
ED46
100
AcDbEntity
  8
AM_5
 62
     2
100
AcDbMText
 10
122.8999999999991
 20
89.49999999999979
 30
0.0
 40
3.2
 41
0.0
 71
     5
 72
     1
  1
24
 11
0.0000000000000001
 21
1.0
 31
0.0
 73
     1
 44
1.0
1001
ACAD
1000
MTEXTBEGIN
1070
    73
1070
     1
1070
    44
1040
1.0
1070
    74
1070
     0
1000
MTEXTEND
  0
POINT
  5
F1E8
330
ED46
100
AcDbEntity
  8
Defpoints
 62
     0
100
AcDbPoint
 10
141.4999999999991
 20
77.49999999999977
 30
0.0
  0
POINT
  5
F1E9
330
ED46
100
AcDbEntity
  8
Defpoints
 62
     0
100
AcDbPoint
 10
158.9999999999991
 20
101.4999999999997
 30
0.0
  0
POINT
  5
F1EA
330
ED46
100
AcDbEntity
  8
Defpoints
 62
     0
100
AcDbPoint
 10
125.4999999999991
 20
101.4999999999997
 30
0.0
  0
ENDBLK
  5
ED51
330
ED46
100
AcDbEntity
  8
0
100
AcDbBlockEnd
  0
BLOCK
  5
ED68
330
ED5E
100
AcDbEntity
  8
0
100
AcDbBlockBegin
  2
*D18
 70
     1
 10
0.0
 20
0.0
 30
0.0
  3
*D18
  1

  0
LINE
  5
F02E
330
ED5E
100
AcDbEntity
  8
AM_5
100
AcDbLine
 10
139.9999999999991
 20
77.49999999999977
 30
0.0
 11
116.4999999999991
 21
77.49999999999977
 31
0.0
  0
LINE
  5
F02F
330
ED5E
100
AcDbEntity
  8
AM_5
100
AcDbLine
 10
169.9999999999991
 20
104.9999999999998
 30
0.0
 11
116.4999999999991
 21
104.9999999999998
 31
0.0
  0
LINE
  5
F030
330
ED5E
100
AcDbEntity
  8
AM_5
100
AcDbLine
 10
117.4999999999991
 20
78.49999999999977
 30
0.0
 11
117.4999999999991
 21
103.9999999999998
 31
0.0
  0
INSERT
  5
F031
330
ED5E
100
AcDbEntity
  8
AM_5
100
AcDbBlockReference
  2
_Dot
 10
117.4999999999991
 20
77.49999999999977
 30
0.0
 41
1.0
 42
1.0
 43
1.0
 50
270.0
  0
INSERT
  5
F032
330
ED5E
100
AcDbEntity
  8
AM_5
100
AcDbBlockReference
  2
_Dot
 10
117.4999999999991
 20
104.9999999999998
 30
0.0
 41
1.0
 42
1.0
 43
1.0
 50
90.0
  0
MTEXT
  5
F033
330
ED5E
100
AcDbEntity
  8
AM_5
 62
     2
100
AcDbMText
 10
114.8999999999991
 20
91.2499999999998
 30
0.0
 40
3.2
 41
0.0
 71
     5
 72
     1
  1
27.5
 11
0.0000000000000001
 21
1.0
 31
0.0
 73
     1
 44
1.0
1001
ACAD
1000
MTEXTBEGIN
1070
    73
1070
     1
1070
    44
1040
1.0
1070
    74
1070
     0
1000
MTEXTEND
  0
POINT
  5
F034
330
ED5E
100
AcDbEntity
  8
Defpoints
 62
     0
100
AcDbPoint
 10
141.4999999999991
 20
77.49999999999977
 30
0.0
  0
POINT
  5
F035
330
ED5E
100
AcDbEntity
  8
Defpoints
 62
     0
100
AcDbPoint
 10
171.4999999999991
 20
104.9999999999998
 30
0.0
  0
POINT
  5
F036
330
ED5E
100
AcDbEntity
  8
Defpoints
 62
     0
100
AcDbPoint
 10
117.4999999999991
 20
104.9999999999998
 30
0.0
  0
ENDBLK
  5
ED69
330
ED5E
100
AcDbEntity
  8
0
100
AcDbBlockEnd
  0
BLOCK
  5
ED92
330
ED88
100
AcDbEntity
  8
0
100
AcDbBlockBegin
  2
*D19
 70
     1
 10
0.0
 20
0.0
 30
0.0
  3
*D19
  1

  0
LINE
  5
F037
330
ED88
100
AcDbEntity
  8
AM_5
100
AcDbLine
 10
139.9999999999991
 20
77.49999999999977
 30
0.0
 11
116.4999999999991
 21
77.49999999999977
 31
0.0
  0
LINE
  5
F038
330
ED88
100
AcDbEntity
  8
AM_5
100
AcDbLine
 10
145.7500007475597
 20
49.49999999999977
 30
0.0
 11
116.4999999999991
 21
49.49999999999977
 31
0.0
  0
LINE
  5
F039
330
ED88
100
AcDbEntity
  8
AM_5
100
AcDbLine
 10
117.4999999999991
 20
76.49999999999977
 30
0.0
 11
117.4999999999991
 21
50.49999999999978
 31
0.0
  0
INSERT
  5
F03A
330
ED88
100
AcDbEntity
  8
AM_5
100
AcDbBlockReference
  2
_Dot
 10
117.4999999999991
 20
77.49999999999977
 30
0.0
 41
1.0
 42
1.0
 43
1.0
 50
90.0
  0
INSERT
  5
F03B
330
ED88
100
AcDbEntity
  8
AM_5
100
AcDbBlockReference
  2
_Dot
 10
117.4999999999991
 20
49.49999999999977
 30
0.0
 41
1.0
 42
1.0
 43
1.0
 50
270.0
  0
MTEXT
  5
F03C
330
ED88
100
AcDbEntity
  8
AM_5
 62
     2
100
AcDbMText
 10
114.8999999999991
 20
63.4999999999998
 30
0.0
 40
3.2
 41
0.0
 71
     5
 72
     1
  1
下孔深さ28mm
 11
0.0000000000000001
 21
1.0
 31
0.0
 73
     1
 44
1.0
1001
ACAD
1000
MTEXTBEGIN
1070
    73
1070
     1
1070
    44
1040
1.0
1070
    74
1070
     0
1000
MTEXTEND
  0
POINT
  5
F03D
330
ED88
100
AcDbEntity
  8
Defpoints
 62
     0
100
AcDbPoint
 10
141.4999999999991
 20
77.49999999999977
 30
0.0
  0
POINT
  5
F03E
330
ED88
100
AcDbEntity
  8
Defpoints
 62
     0
100
AcDbPoint
 10
147.2500007475597
 20
49.49999999999977
 30
0.0
  0
POINT
  5
F03F
330
ED88
100
AcDbEntity
  8
Defpoints
 62
     0
100
AcDbPoint
 10
117.4999999999991
 20
49.49999999999977
 30
0.0
  0
ENDBLK
  5
ED93
330
ED88
100
AcDbEntity
  8
0
100
AcDbBlockEnd
  0
BLOCK
  5
EDD9
330
EDCF
100
AcDbEntity
  8
0
100
AcDbBlockBegin
  2
*D20
 70
     1
 10
0.0
 20
0.0
 30
0.0
  3
*D20
  1

  0
LINE
  5
F040
330
EDCF
100
AcDbEntity
  8
AM_5
100
AcDbLine
 10
147.2500007475597
 20
47.99999999999977
 30
0.0
 11
147.2500007475597
 21
38.49999999999977
 31
0.0
  0
LINE
  5
F041
330
EDCF
100
AcDbEntity
  8
AM_5
100
AcDbLine
 10
155.7500007475596
 20
47.99999999999977
 30
0.0
 11
155.7500007475596
 21
38.49999999999977
 31
0.0
  0
LINE
  5
F042
330
EDCF
100
AcDbEntity
  8
AM_5
100
AcDbLine
 10
148.2500007475597
 20
39.49999999999977
 30
0.0
 11
154.7500007475596
 21
39.49999999999977
 31
0.0
  0
LINE
  5
F043
330
EDCF
100
AcDbEntity
  8
AM_5
100
AcDbLine
 10
155.7500007475596
 20
39.49999999999977
 30
0.0
 11
173.8540007475596
 21
39.49999999999977
 31
0.0
  0
INSERT
  5
F044
330
EDCF
100
AcDbEntity
  8
AM_5
100
AcDbBlockReference
  2
_Dot
 10
147.2500007475597
 20
39.49999999999977
 30
0.0
 41
1.0
 42
1.0
 43
1.0
 50
180.0
  0
INSERT
  5
F045
330
EDCF
100
AcDbEntity
  8
AM_5
100
AcDbBlockReference
  2
_Dot
 10
155.7500007475596
 20
39.49999999999977
 30
0.0
 41
1.0
 42
1.0
 43
1.0
  0
MTEXT
  5
F046
330
EDCF
100
AcDbEntity
  8
AM_5
 62
     2
100
AcDbMText
 10
165.3020007475596
 20
42.09999999999977
 30
0.0
 40
3.2
 41
0.0
 71
     5
 72
     1
  1
下孔径%%c8.5
 73
     1
 44
1.0
1001
ACAD
1000
MTEXTBEGIN
1070
    73
1070
     1
1070
    44
1040
1.0
1070
    74
1070
     0
1000
MTEXTEND
  0
POINT
  5
F047
330
EDCF
100
AcDbEntity
  8
Defpoints
 62
     0
100
AcDbPoint
 10
147.2500007475597
 20
49.49999999999977
 30
0.0
  0
POINT
  5
F048
330
EDCF
100
AcDbEntity
  8
Defpoints
 62
     0
100
AcDbPoint
 10
155.7500007475596
 20
49.49999999999977
 30
0.0
  0
POINT
  5
F049
330
EDCF
100
AcDbEntity
  8
Defpoints
 62
     0
100
AcDbPoint
 10
155.7500007475596
 20
39.49999999999977
 30
0.0
  0
ENDBLK
  5
EDDA
330
EDCF
100
AcDbEntity
  8
0
100
AcDbBlockEnd
  0
BLOCK
  5
EE07
330
EE00
100
AcDbEntity
  8
0
100
AcDbBlockBegin
  2
*D21
 70
     1
 10
0.0
 20
0.0
 30
0.0
  3
*D21
  1

  0
LINE
  5
F053
330
EE00
100
AcDbEntity
  8
AM_5
100
AcDbLine
 10
133.779999999999
 20
122.9999999999996
 30
0.0
 11
141.4999999999993
 21
122.9999999999996
 31
0.0
  0
LINE
  5
F054
330
EE00
100
AcDbEntity
  8
AM_5
100
AcDbLine
 10
141.4999999999993
 20
122.9999999999996
 30
0.0
 11
149.8559113799188
 21
140.1296183288351
 31
0.0
  0
LINE
  5
F055
330
EE00
100
AcDbEntity
  8
AM_5
100
AcDbLine
 10
153.1440886200794
 20
146.8703816711643
 30
0.0
 11
153.5825122521008
 21
147.7691501168082
 31
0.0
  0
MTEXT
  5
F056
330
EE00
100
AcDbEntity
  8
AM_5
 62
     2
100
AcDbMText
 10
137.139999999999
 20
125.5999999999996
 30
0.0
 40
3.200000000000001
 41
0.0
 71
     5
 72
     1
  1
\U+22055.5
 73
     1
 44
1.0
1001
ACAD
1000
MTEXTBEGIN
1070
    73
1070
     1
1070
    44
1040
1.0
1070
    74
1070
     0
1000
MTEXTEND
  0
LINE
  5
F057
330
EE00
100
AcDbEntity
  8
AM_5
100
AcDbLine
 10
152.705664988058
 20
145.9716132255204
 30
0.0
 11
150.2943350119403
 21
141.028386774479
 31
0.0
  0
INSERT
  5
F058
330
EE00
100
AcDbEntity
  8
AM_5
100
AcDbBlockReference
  2
_Dot
 10
152.705664988058
 20
145.9716132255204
 30
0.0
 50
243.9966541554889
  0
INSERT
  5
F059
330
EE00
100
AcDbEntity
  8
AM_5
100
AcDbBlockReference
  2
_Dot
 10
150.2943350119403
 20
141.028386774479
 30
0.0
 50
63.99665415548896
  0
POINT
  5
F05A
330
EE00
100
AcDbEntity
  8
Defpoints
 62
     0
100
AcDbPoint
 10
150.2943350119403
 20
141.028386774479
 30
0.0
  0
POINT
  5
F05B
330
EE00
100
AcDbEntity
  8
Defpoints
 62
     0
100
AcDbPoint
 10
152.705664988058
 20
145.9716132255204
 30
0.0
  0
ENDBLK
  5
EE08
330
EE00
100
AcDbEntity
  8
0
100
AcDbBlockEnd
  0
BLOCK
  5
F26F
330
F268
100
AcDbEntity
  8
0
100
AcDbBlockBegin
  2
*S22
 70
     1
 10
0.0
 20
0.0
 30
0.0
  3
*S22
  1

  0
LINE
  5
F269
330
F268
100
AcDbEntity
  8
AM_5
 62
     3
100
AcDbLine
 10
231.6013333333325
 20
122.9999999999997
 30
0.0
 11
201.4999999999991
 21
122.9999999999997
 31
0.0
  0
LINE
  5
F26A
330
F268
100
AcDbEntity
  8
AM_5
 62
     3
100
AcDbLine
 10
201.4999999999991
 20
122.9999999999997
 30
0.0
 11
194.8300175581716
 21
136.6734640057462
 31
0.0
  0
LINE
  5
F26B
330
F268
100
AcDbEntity
  8
AM_5
  6
Continuous
 62
     3
100
AcDbLine
 10
194.8300175581716
 20
136.6734640057462
 30
0.0
 11
193.9531702941287
 21
138.471000897034
 31
0.0
  0
LINE
  5
F26C
330
F268
100
AcDbEntity
  8
AM_5
  6
Continuous
 62
     3
100
AcDbLine
 10
195.3116661121873
 20
136.9084145199002
 30
0.0
 11
193.9531702941287
 21
138.471000897034
 31
0.0
  0
LINE
  5
F26D
330
F268
100
AcDbEntity
  8
AM_5
  6
Continuous
 62
     3
100
AcDbLine
 10
193.9531702941287
 20
138.471000897034
 30
0.0
 11
194.3483690041559
 21
136.4385134915922
 31
0.0
  0
MTEXT
  5
F26E
330
F268
100
AcDbEntity
  8
AM_5
 62
     2
100
AcDbMText
 10
204.6999999999991
 20
124.5999999999997
 30
0.0
 40
3.2
 41
0.0
 71
     7
 72
     5
  1
%%c5.5×15.2スロット
 73
     1
 44
1.0
1001
ACAD
1000
MTEXTBEGIN
1070
    73
1070
     1
1070
    44
1040
1.0
1070
    74
1070
     0
1000
MTEXTEND
  0
ENDBLK
  5
F270
330
F268
100
AcDbEntity
  8
0
100
AcDbBlockEnd
  0
ENDSEC
  0
SECTION
  2
ENTITIES
  0
LINE
  5
E9A9
330
1F
100
AcDbEntity
  8
AM_0
100
AcDbLine
 10
11.5
 20
201.5
 30
0.0
 11
11.50000000001228
 21
129.499999999999
 31
0.0
  0
LINE
  5
E9AA
330
1F
100
AcDbEntity
  8
AM_0
100
AcDbLine
 10
11.5
 20
201.5
 30
0.0
 11
101.5
 21
201.5
 31
0.0
  0
LINE
  5
E9AB
330
1F
100
AcDbEntity
  8
AM_0
100
AcDbLine
 10
101.5
 20
201.5
 30
0.0
 11
101.4999999999991
 21
129.499999999999
 31
0.0
  0
LINE
  5
E9AC
330
1F
100
AcDbEntity
  8
AM_0
100
AcDbLine
 10
31.49999999999915
 20
129.499999999999
 30
0.0
 11
31.5
 21
201.5
 31
0.0
  0
LINE
  5
E9AD
330
1F
100
AcDbEntity
  8
AM_5
100
AcDbLine
 10
11.5
 20
193.5
 30
0.0
 11
101.5
 21
193.5
 31
0.0
  0
MTEXT
  5
E9AE
330
1F
100
AcDbEntity
  8
AM_6
100
AcDbMText
 10
21.5
 20
197.5
 30
0.0
 40
3.2
 41
20.0
 71
     5
 72
     5
  1
品　名
 73
     1
 44
1.0
1001
ACAD
1000
MTEXTBEGIN
1070
    73
1070
     1
1070
    44
1040
1.0
1070
    74
1070
     0
1000
MTEXTEND
  0
MTEXT
  5
E9AF
330
1F
100
AcDbEntity
  8
AM_6
100
AcDbMText
 10
31.5
 20
197.5
 30
0.0
 40
3.2
 41
70.0
 71
     4
 72
     5
  1
　ガイドローラー（%%C35）
 73
     1
 44
1.0
1001
ACAD
1000
MTEXTBEGIN
1070
    73
1070
     1
1070
    44
1040
1.0
1070
    74
1070
     0
1000
MTEXTEND
  0
MTEXT
  5
E9B0
330
1F
100
AcDbEntity
  8
AM_6
100
AcDbMText
 10
21.5
 20
189.4999999999999
 30
0.0
 40
3.2
 41
20.0
 71
     5
 72
     5
  1
品　番
 73
     1
 44
1.0
1001
ACAD
1000
MTEXTBEGIN
1070
    73
1070
     1
1070
    44
1040
1.0
1070
    74
1070
     0
1000
MTEXTEND
  0
MTEXT
  5
E9B1
330
1F
100
AcDbEntity
  8
AM_6
100
AcDbMText
 10
31.5
 20
189.4999999999999
 30
0.0
 40
3.2
 41
70.0
 71
     4
 72
     5
  1
　ST-70-35
 73
     1
 44
1.0
1001
ACAD
1000
MTEXTBEGIN
1070
    73
1070
     1
1070
    44
1040
1.0
1070
    74
1070
     0
1000
MTEXTEND
  0
MTEXT
  5
E9B2
330
1F
100
AcDbEntity
  8
AM_6
100
AcDbMText
 10
31.5
 20
181.4999999999999
 30
0.0
 40
3.2
 41
70.0
 71
     4
 72
     5
  1
　ブラケット：ステンレス
 73
     1
 44
1.0
1001
ACAD
1000
MTEXTBEGIN
1070
    73
1070
     1
1070
    44
1040
1.0
1070
    74
1070
     0
1000
MTEXTEND
  0
LINE
  5
E9B3
330
1F
100
AcDbEntity
  8
AM_5
100
AcDbLine
 10
11.50000000000037
 20
169.4999999999997
 30
0.0
 11
101.5000000000003
 21
169.4999999999997
 31
0.0
  0
MTEXT
  5
E9B4
330
1F
100
AcDbEntity
  8
AM_6
100
AcDbMText
 10
21.50000000000037
 20
165.4999999999997
 30
0.0
 40
3.2
 41
20.0
 71
     5
 72
     5
  1
仕上げ
 73
     1
 44
1.0
1001
ACAD
1000
MTEXTBEGIN
1070
    73
1070
     1
1070
    44
1040
1.0
1070
    74
1070
     0
1000
MTEXTEND
  0
LINE
  5
E9B5
330
1F
100
AcDbEntity
  8
AM_5
100
AcDbLine
 10
11.50000000000391
 20
153.4999999999997
 30
0.0
 11
101.5000000000011
 21
153.4999999999997
 31
0.0
  0
MTEXT
  5
E9B6
330
1F
100
AcDbEntity
  8
AM_6
100
AcDbMText
 10
21.50000000000026
 20
149.4999999999997
 30
0.0
 40
3.2
 41
20.0
 71
     5
 72
     5
  1
セットビス
 73
     1
 44
1.0
1001
ACAD
1000
MTEXTBEGIN
1070
    73
1070
     1
1070
    44
1040
1.0
1070
    74
1070
     0
1000
MTEXTEND
  0
LINE
  5
E9B7
330
1F
100
AcDbEntity
  8
AM_0
100
AcDbLine
 10
11.5000000000027
 20
129.499999999999
 30
0.0
 11
101.5000000000009
 21
129.499999999999
 31
0.0
  0
LINE
  5
E9B8
330
1F
100
AcDbEntity
  8
AM_5
100
AcDbLine
 10
11.5
 20
185.5
 30
0.0
 11
101.5
 21
185.5
 31
0.0
  0
MTEXT
  5
E9B9
330
1F
100
AcDbEntity
  8
AM_6
100
AcDbMText
 10
21.5
 20
181.4999999999999
 30
0.0
 40
3.2
 41
20.0
 71
     5
 72
     5
  1
材　質
 73
     1
 44
1.0
1001
ACAD
1000
MTEXTBEGIN
1070
    73
1070
     1
1070
    44
1040
1.0
1070
    74
1070
     0
1000
MTEXTEND
  0
MTEXT
  5
E9BB
330
1F
100
AcDbEntity
  8
AM_6
100
AcDbMText
 10
31.50000000000027
 20
149.4999999999997
 30
0.0
 40
3.2
 41
70.0
 71
     4
 72
     5
  1
　M5×25座金組込み六角ボルト　　SUS：2本付
 73
     1
 44
1.0
1001
ACAD
1000
MTEXTBEGIN
1070
    73
1070
     1
1070
    44
1040
1.0
1070
    74
1070
     0
1000
MTEXTEND
  0
LINE
  5
E9BC
330
1F
100
AcDbEntity
  8
AM_5
100
AcDbLine
 10
31.49999999999927
 20
137.499999999999
 30
0.0
 11
101.5
 21
137.499999999999
 31
0.0
  0
MTEXT
  5
E9BD
330
1F
100
AcDbEntity
  8
AM_6
100
AcDbMText
 10
31.49999999999996
 20
133.499999999999
 30
0.0
 40
3.2
 41
70.0
 71
     4
 72
     5
  1
　オールプラグボルト　亜鉛ダイキャスト：2本付
 73
     1
 44
1.0
1001
ACAD
1000
MTEXTBEGIN
1070
    73
1070
     1
1070
    44
1040
1.0
1070
    74
1070
     0
1000
MTEXTEND
  0
LWPOLYLINE
  5
E9C0
330
1F
100
AcDbEntity
  8
waku
100
AcDbPolyline
 90
        4
 70
     1
 43
0.0
 10
11.5
 20
201.5
 10
285.5
 20
201.5
 10
285.5
 20
8.499999999999971
 10
11.5
 20
8.5
1001
GENIUS_GENREC_14
1002
{
1000
PYDIR
1011
11.5
1021
8.499999999999971
1031
0.0
1002
}
1002
{
1000
PXDIR
1011
285.5
1021
201.5
1031
0.0
1002
}
1002
{
1000
PORI
1011
11.5
1021
201.5
1031
0.0
1002
}
1002
{
1000
PINS
1011
11.5
1021
201.5
1031
0.0
1002
}
1002
{
1000
PINS2
1011
285.5
1021
8.499999999999971
1031
0.0
1002
}
1002
{
1000
C
1070
     1
1002
}
1001
GENIUS_GENODEF_13
1002
{
1000
HIER
1070
     0
1002
}
1002
{
1000
MANEDIT
1070
     0
1002
}
1002
{
1000
NOSEL
1070
     0
1002
}
1002
{
1000
BEHIND
1070
     0
1002
}
1002
{
1000
OTHER
1070
     0
1002
}
1002
{
1000
REACTOR
1002
}
1001
GENIUS_GENOBJ-N-REC_13
1002
{
1000
OWNER
1000
GEN
1002
}
  0
LWPOLYLINE
  5
E9C1
330
1F
100
AcDbEntity
  8
size
100
AcDbPolyline
 90
        4
 70
     1
 43
0.0
 10
0.0
 20
210.0
 10
297.0
 20
210.0
 10
297.0
 20
-0.0000000000000568
 10
0.0
 20
0.0
1001
GENIUS_GENREC_14
1002
{
1000
PYDIR
1011
0.0
1021
-0.0000000000000568
1031
0.0
1002
}
1002
{
1000
PXDIR
1011
297.0
1021
210.0
1031
0.0
1002
}
1002
{
1000
PORI
1011
0.0
1021
210.0
1031
0.0
1002
}
1002
{
1000
PINS
1011
0.0
1021
210.0
1031
0.0
1002
}
1002
{
1000
PINS2
1011
297.0
1021
-0.0000000000000568
1031
0.0
1002
}
1002
{
1000
C
1070
     1
1002
}
1001
GENIUS_GENOBJ-N-REC_13
1002
{
1000
OWNER
1000
GEN
1002
}
1001
GENIUS_GENODEF_13
1002
{
1000
HIER
1070
     0
1002
}
1002
{
1000
MANEDIT
1070
     0
1002
}
1002
{
1000
NOSEL
1070
     0
1002
}
1002
{
1000
BEHIND
1070
     0
1002
}
1002
{
1000
OTHER
1070
     0
1002
}
1002
{
1000
REACTOR
1002
}
  0
MTEXT
  5
E9D5
330
1F
100
AcDbEntity
  8
AM_6
100
AcDbMText
 10
31.4999999999999
 20
173.4999999999999
 30
0.0
 40
3.2
 41
70.0
 71
     4
 72
     5
  1
　車：ポリアセタール樹脂
 73
     1
 44
1.0
1001
ACAD
1000
MTEXTBEGIN
1070
    73
1070
     1
1070
    44
1040
1.0
1070
    74
1070
     0
1000
MTEXTEND
  0
LINE
  5
E9D6
330
1F
100
AcDbEntity
  8
AM_5
100
AcDbLine
 10
31.49999999999972
 20
177.4999999999999
 30
0.0
 11
101.4999999999999
 21
177.4999999999999
 31
0.0
  0
MTEXT
  5
E9D7
330
1F
100
AcDbEntity
  8
AM_6
100
AcDbMText
 10
31.49999999999982
 20
165.4999999999997
 30
0.0
 40
3.2
 41
70.0
 71
     4
 72
     5
  1
　ブラケット：バレル研磨
 73
     1
 44
1.0
1001
ACAD
1000
MTEXTBEGIN
1070
    73
1070
     1
1070
    44
1040
1.0
1070
    74
1070
     0
1000
MTEXTEND
  0
MTEXT
  5
E9D8
330
1F
100
AcDbEntity
  8
AM_6
100
AcDbMText
 10
31.49999999999972
 20
157.4999999999997
 30
0.0
 40
3.2
 41
70.0
 71
     4
 72
     5
  1
　車：生地
 73
     1
 44
1.0
1001
ACAD
1000
MTEXTBEGIN
1070
    73
1070
     1
1070
    44
1040
1.0
1070
    74
1070
     0
1000
MTEXTEND
  0
LINE
  5
E9D9
330
1F
100
AcDbEntity
  8
AM_5
100
AcDbLine
 10
31.49999999999953
 20
161.4999999999997
 30
0.0
 11
101.4999999999997
 21
161.4999999999997
 31
0.0
  0
LINE
  5
E9DA
330
1F
100
AcDbEntity
  8
AM_5
100
AcDbLine
 10
31.49999999999927
 20
145.4999999999991
 30
0.0
 11
101.5
 21
145.4999999999991
 31
0.0
  0
MTEXT
  5
E9DB
330
1F
100
AcDbEntity
  8
AM_6
100
AcDbMText
 10
31.49999999999996
 20
141.499999999999
 30
0.0
 40
3.2
 41
70.0
 71
     4
 72
     5
  1
　（ばね座金 + 平座金組込み）
 73
     1
 44
1.0
1001
ACAD
1000
MTEXTBEGIN
1070
    73
1070
     1
1070
    44
1040
1.0
1070
    74
1070
     0
1000
MTEXTEND
  0
CIRCLE
  5
E9DC
330
1F
100
AcDbEntity
  8
AM_2
100
AcDbCircle
 10
74.88776780211947
 20
149.4999999999994
 30
0.0
 40
1.6
  0
MTEXT
  5
E9DD
330
1F
100
AcDbEntity
  8
AM_6
100
AcDbMText
 10
74.88776780211947
 20
149.4999999999994
 30
0.0
 40
3.2
 41
10.37503552890848
 71
     5
 72
     5
  1
＋
 73
     1
 44
1.0
1001
ACAD
1000
MTEXTBEGIN
1070
    73
1070
     1
1070
    44
1040
1.0
1070
    74
1070
     0
1000
MTEXTEND
  0
CIRCLE
  5
EA0C
330
1F
100
AcDbEntity
  8
AM_0
100
AcDbCircle
 10
171.4999999999991
 20
143.4999999999998
 30
0.0
 40
17.5
  0
LWPOLYLINE
  5
EA0D
102
{ACAD_REACTORS
330
EC8C
330
ECA4
330
ECBC
102
}
330
1F
100
AcDbEntity
  8
AM_0
100
AcDbPolyline
 90
        6
 70
     0
 43
0.0
 10
159.2525512860833
 20
130.9999999999998
 10
146.9999999999991
 20
130.9999999999997
 42
-0.4142135623730951
 10
141.4999999999991
 20
136.4999999999997
 10
141.4999999999991
 20
150.4999999999997
 42
-0.4142135623730951
 10
146.9999999999991
 20
155.9999999999998
 10
159.2525512860832
 20
155.9999999999998
1001
GENIUS_GENREC_14
1002
{
1000
PYDIR
1011
141.4999999999991
1021
130.9999999999998
1031
0.0
1002
}
1002
{
1000
PXDIR
1011
201.4999999999992
1021
155.9999999999998
1031
0.0
1002
}
1002
{
1000
PORI
1011
141.4999999999991
1021
155.9999999999998
1031
0.0
1002
}
1002
{
1000
PINS
1011
141.4999999999991
1021
155.9999999999998
1031
0.0
1002
}
1002
{
1000
PINS2
1011
201.4999999999992
1021
130.9999999999998
1031
0.0
1002
}
1002
{
1000
C
1070
     1
1002
}
1001
GENIUS_GENODEF_13
1002
{
1000
HIER
1070
     0
1002
}
1002
{
1000
MANEDIT
1070
     0
1002
}
1002
{
1000
NOSEL
1070
     0
1002
}
1002
{
1000
BEHIND
1070
     0
1002
}
1002
{
1000
OTHER
1070
     0
1002
}
1002
{
1000
REACTOR
1002
}
1001
GENIUS_GENOBJ-N-REC_13
1002
{
1000
OWNER
1000
GEN
1002
}
  0
ARC
  5
EA12
102
{ACAD_REACTORS
330
EE10
102
}
330
1F
100
AcDbEntity
  8
AM_0
100
AcDbCircle
 10
151.4999999999991
 20
143.4999999999998
 30
0.0
 40
2.75
100
AcDbArc
 50
22.92394139984426
 51
337.0760586001558
  0
ARC
  5
EA13
330
1F
100
AcDbEntity
  8
AM_0
100
AcDbCircle
 10
191.201846065652
 20
148.3747737362056
 30
0.0
 40
2.749999999999999
100
AcDbArc
 50
6.999999999999437
 51
186.9999999999994
  0
ARC
  5
EA6D
330
1F
100
AcDbEntity
  8
AM_0
100
AcDbCircle
 10
191.201846065652
 20
138.6252262637938
 30
0.0
 40
2.75
100
AcDbArc
 50
173.0000000000005
 51
353.0000000000005
  0
ARC
  5
EA6F
330
1F
100
AcDbEntity
  8
AM_0
100
AcDbCircle
 10
151.4999999999991
 20
143.4999999999998
 30
0.0
 40
37.25
100
AcDbArc
 50
353.0000000000005
 51
353.8098218932934
  0
ARC
  5
EA70
330
1F
100
AcDbEntity
  8
AM_0
100
AcDbCircle
 10
151.4999999999991
 20
143.4999999999998
 30
0.0
 40
42.75
100
AcDbArc
 50
353.0000000000005
 51
6.999999999999437
  0
LINE
  5
EA73
102
{ACAD_REACTORS
330
EC08
330
EC20
102
}
330
1F
100
AcDbEntity
  8
AM_7
 48
0.5
100
AcDbLine
 10
151.4999999999991
 20
149.2499999999997
 30
0.0
 11
151.4999999999991
 21
137.7499999999997
 31
0.0
1001
GENIUS_GENODEF_13
1002
{
1000
HIER
1070
     0
1002
}
1002
{
1000
MANEDIT
1070
     0
1002
}
1002
{
1000
NOSEL
1070
     0
1002
}
1002
{
1000
BEHIND
1070
     0
1002
}
1002
{
1000
OTHER
1070
     0
1002
}
1002
{
1000
REACTOR
1002
}
1001
GENIUS_GENOBJ-N-CEN_13
1002
{
1000
OWNER
1000
GEN
1002
}
1001
GENIUS_GENCEN_19
1002
{
1040
3.0
1002
}
  0
ARC
  5
EA74
330
1F
100
AcDbEntity
  8
AM_7
 48
0.5
100
AcDbCircle
 10
151.4999999999991
 20
143.4999999999998
 30
0.0
 40
40.0
100
AcDbArc
 50
344.7566237101217
 51
15.24337628987836
  0
LINE
  5
EA82
330
1F
100
AcDbEntity
  8
AM_0
100
AcDbLine
 10
161.6677669529655
 20
81.76776695296615
 30
0.0
 11
159.8999999999991
 21
79.99999999999977
 31
0.0
  0
LINE
  5
EA83
330
1F
100
AcDbEntity
  8
AM_0
100
AcDbLine
 10
181.3322330470328
 20
81.76776695296615
 30
0.0
 11
183.0999999999991
 21
79.99999999999977
 31
0.0
  0
LINE
  5
EA84
330
1F
100
AcDbEntity
  8
AM_0
100
AcDbLine
 10
163.4355339059318
 20
79.99999999999977
 30
0.0
 11
161.6677669529654
 21
78.23223304703342
 31
0.0
  0
LINE
  5
EA85
330
1F
100
AcDbEntity
  8
AM_0
100
AcDbLine
 10
179.5644660940663
 20
79.99999999999977
 30
0.0
 11
181.3322330470328
 21
78.23223304703342
 31
0.0
  0
LINE
  5
EA86
330
1F
100
AcDbEntity
  8
AM_0
100
AcDbLine
 10
163.4355339059318
 20
79.99999999999977
 30
0.0
 11
179.5644660940664
 21
79.99999999999977
 31
0.0
  0
LINE
  5
EA87
330
1F
100
AcDbEntity
  8
AM_0
100
AcDbLine
 10
163.4355339059318
 20
82.4999999999998
 30
0.0
 11
179.5644660940664
 21
82.49999999999976
 31
0.0
  0
LINE
  5
EA88
330
1F
100
AcDbEntity
  8
AM_0
100
AcDbLine
 10
159.8999999999991
 20
79.99999999999977
 30
0.0
 11
141.4999999999991
 21
79.99999999999977
 31
0.0
  0
LINE
  5
EA89
102
{ACAD_REACTORS
330
ED53
102
}
330
1F
100
AcDbEntity
  8
AM_0
100
AcDbLine
 10
141.4999999999991
 20
79.99999999999977
 30
0.0
 11
141.4999999999991
 21
77.49999999999977
 31
0.0
  0
LINE
  5
EA8A
102
{ACAD_REACTORS
330
ED1A
330
ED6B
330
ED95
102
}
330
1F
100
AcDbEntity
  8
AM_0
100
AcDbLine
 10
141.4999999999991
 20
77.49999999999977
 30
0.0
 11
159.8999999999991
 21
77.4999999999998
 31
0.0
  0
LINE
  5
EA8B
330
1F
100
AcDbEntity
  8
AM_0
100
AcDbLine
 10
183.0999999999991
 20
79.99999999999977
 30
0.0
 11
201.4999999999992
 21
79.99999999999977
 31
0.0
  0
LINE
  5
EA8C
330
1F
100
AcDbEntity
  8
AM_0
100
AcDbLine
 10
201.4999999999992
 20
79.99999999999977
 30
0.0
 11
201.4999999999992
 21
77.49999999999977
 31
0.0
  0
LINE
  5
EA8D
330
1F
100
AcDbEntity
  8
AM_0
100
AcDbLine
 10
201.4999999999992
 20
77.49999999999977
 30
0.0
 11
183.0999999999992
 21
77.4999999999998
 31
0.0
  0
LINE
  5
EA8F
102
{ACAD_REACTORS
330
EC8C
330
ECA4
102
}
330
1F
100
AcDbEntity
  8
AM_7
 48
0.5
100
AcDbLine
 10
138.4999999999991
 20
143.4999999999998
 30
0.0
 11
204.4999999999991
 21
143.4999999999998
 31
0.0
1001
GENIUS_GENODEF_13
1002
{
1000
HIER
1070
     0
1002
}
1002
{
1000
MANEDIT
1070
     0
1002
}
1002
{
1000
NOSEL
1070
     0
1002
}
1002
{
1000
BEHIND
1070
     0
1002
}
1002
{
1000
OTHER
1070
     0
1002
}
1002
{
1000
REACTOR
1002
}
1001
GENIUS_GENOBJ-N-CEN_13
1002
{
1000
OWNER
1000
GEN
1002
}
1001
GENIUS_GENCEN_19
1002
{
1040
3.0
1002
}
  0
ARC
  5
EA90
330
1F
100
AcDbEntity
  8
AM_0
100
AcDbCircle
 10
159.8999999999991
 20
79.9999999999998
 30
0.0
 40
2.5
100
AcDbArc
 50
270.0
 51
314.9999999999995
  0
ARC
  5
EA91
330
1F
100
AcDbEntity
  8
AM_0
100
AcDbCircle
 10
163.4355339059318
 20
79.9999999999998
 30
0.0
 40
2.5
100
AcDbArc
 50
90.0
 51
135.0
  0
ARC
  5
EA92
330
1F
100
AcDbEntity
  8
AM_0
100
AcDbCircle
 10
183.0999999999992
 20
79.9999999999998
 30
0.0
 40
2.5
100
AcDbArc
 50
225.0000000000006
 51
270.0
  0
ARC
  5
EA93
330
1F
100
AcDbEntity
  8
AM_0
100
AcDbCircle
 10
179.5644660940664
 20
79.99999999999977
 30
0.0
 40
2.5
100
AcDbArc
 50
45.0
 51
90.0
  0
LINE
  5
EA94
330
1F
100
AcDbEntity
  8
AM_7
100
AcDbLine
 10
171.4999999999991
 20
85.49999999999977
 30
0.0
 11
171.4999999999991
 21
76.99999999999977
 31
0.0
1001
GENIUS_GENOBJ-N-CEN_13
1002
{
1000
OWNER
1000
GEN
1002
}
1001
GENIUS_GENODEF_13
1002
{
1000
HIER
1070
     0
1002
}
1002
{
1000
MANEDIT
1070
     0
1002
}
1002
{
1000
NOSEL
1070
     0
1002
}
1002
{
1000
BEHIND
1070
     0
1002
}
1002
{
1000
OTHER
1070
     0
1002
}
1002
{
1000
REACTOR
1002
}
1001
GENIUS_GENCEN_19
1002
{
1040
3.0
1002
}
  0
LINE
  5
EAA2
102
{ACAD_REACTORS
330
EBCB
102
}
330
1F
100
AcDbEntity
  8
AM_0
100
AcDbLine
 10
165.9999999999991
 20
91.49999999999977
 30
0.0
 11
165.9999999999991
 21
82.4999999999998
 31
0.0
  0
LINE
  5
EAA3
102
{ACAD_REACTORS
330
EBCB
102
}
330
1F
100
AcDbEntity
  8
AM_0
100
AcDbLine
 10
176.9999999999991
 20
91.49999999999977
 30
0.0
 11
176.9999999999991
 21
82.49999999999976
 31
0.0
  0
LINE
  5
EAAD
330
1F
100
AcDbEntity
  8
AM_7
 48
0.5
100
AcDbLine
 10
171.4999999999991
 20
74.49999999999977
 30
0.0
 11
171.4999999999991
 21
107.9999999999998
 31
0.0
1001
GENIUS_GENODEF_13
1002
{
1000
HIER
1070
     0
1002
}
1002
{
1000
MANEDIT
1070
     0
1002
}
1002
{
1000
NOSEL
1070
     0
1002
}
1002
{
1000
BEHIND
1070
     0
1002
}
1002
{
1000
OTHER
1070
     0
1002
}
1002
{
1000
REACTOR
1002
}
1001
GENIUS_GENOBJ-N-CEN_13
1002
{
1000
OWNER
1000
GEN
1002
}
1001
GENIUS_GENCEN_19
1002
{
1040
3.0
1002
}
  0
CIRCLE
  5
EAAE
330
1F
100
AcDbEntity
  8
AM_0
100
AcDbCircle
 10
171.4999999999991
 20
143.4999999999998
 30
0.0
 40
5.75
  0
LWPOLYLINE
  5
EACF
330
1F
100
AcDbEntity
  8
AM_0
100
AcDbPolyline
 90
        4
 70
     1
 43
0.0
 10
165.7499999999991
 20
103.0999999999997
 10
177.2499999999991
 20
103.0999999999997
 10
177.2499999999991
 20
101.4999999999997
 10
165.7499999999991
 20
101.4999999999997
1001
GENIUS_GENREC_14
1002
{
1000
PYDIR
1011
165.7499999999991
1021
101.4999999999997
1031
0.0
1002
}
1002
{
1000
PXDIR
1011
177.2499999999991
1021
103.0999999999997
1031
0.0
1002
}
1002
{
1000
PORI
1011
165.7499999999991
1021
103.0999999999997
1031
0.0
1002
}
1002
{
1000
PINS
1011
165.7499999999991
1021
103.0999999999997
1031
0.0
1002
}
1002
{
1000
PINS2
1011
177.2499999999991
1021
101.4999999999997
1031
0.0
1002
}
1002
{
1000
C
1070
     1
1002
}
1001
GENIUS_GENOBJ-N-REC_13
1002
{
1000
OWNER
1000
GEN
1002
}
1001
GENIUS_GENODEF_13
1002
{
1000
HIER
1070
     0
1002
}
1002
{
1000
MANEDIT
1070
     0
1002
}
1002
{
1000
NOSEL
1070
     0
1002
}
1002
{
1000
BEHIND
1070
     0
1002
}
1002
{
1000
OTHER
1070
     0
1002
}
1002
{
1000
REACTOR
1002
}
  0
ARC
  5
EAD6
330
1F
100
AcDbEntity
  8
AM_0
100
AcDbCircle
 10
171.4999999999991
 20
98.72105263157877
 30
0.0
 40
6.278947368421007
100
AcDbArc
 50
44.21889668750389
 51
135.7811033124961
  0
CIRCLE
  5
EAD9
330
1F
100
AcDbEntity
  8
AM_0
100
AcDbCircle
 10
171.4999999999991
 20
143.4999999999998
 30
0.0
 40
4.5
  0
ARC
  5
EAE0
330
1F
100
AcDbEntity
  8
AM_0
100
AcDbCircle
 10
171.4999999999991
 20
85.77499999999981
 30
0.0
 40
7.97500000000002
100
AcDbArc
 50
226.3971810272961
 51
313.6028189727039
  0
LINE
  5
EAFB
330
1F
100
AcDbEntity
  8
AM_0
100
AcDbLine
 10
146.499999999999
 20
80.99999999999978
 30
0.0
 11
156.4999999999991
 21
80.99999999999978
 31
0.0
  0
LINE
  5
EAFC
330
1F
100
AcDbEntity
  8
AM_0
100
AcDbLine
 10
155.499999999999
 20
73.99958799999978
 30
0.0
 11
155.996799999999
 21
57.60602199999977
 31
0.0
  0
LINE
  5
EAFD
330
1F
100
AcDbEntity
  8
AM_0
100
AcDbLine
 10
147.0032399999991
 20
57.60602199999977
 30
0.0
 11
147.499999999999
 21
73.99956599999979
 31
0.0
  0
LINE
  5
EAFE
330
1F
100
AcDbEntity
  8
AM_0
100
AcDbLine
 10
150.501619999999
 20
57.49999999999977
 30
0.0
 11
150.9002999999991
 21
70.65606699999978
 31
0.0
  0
LINE
  5
EAFF
330
1F
100
AcDbEntity
  8
AM_0
100
AcDbLine
 10
152.099729999999
 20
70.65607499999981
 30
0.0
 11
152.498379999999
 21
57.5000119999998
 31
0.0
  0
LINE
  5
EB00
102
{ACAD_REACTORS
330
ED95
330
EDDC
102
}
330
1F
100
AcDbEntity
  8
AM_11
 48
0.5
100
AcDbLine
 10
147.2500007475597
 20
49.49999999999977
 30
0.0
 11
155.7500007475596
 21
49.49999999999977
 31
0.0
  0
LINE
  5
EB01
330
1F
100
AcDbEntity
  8
AM_0
100
AcDbLine
 10
153.999999999999
 20
57.54551399999979
 30
0.0
 11
153.999999999999
 21
57.29999999999979
 31
0.0
  0
LINE
  5
EB02
330
1F
100
AcDbEntity
  8
AM_0
100
AcDbLine
 10
153.4999999999991
 20
57.53036199999979
 30
0.0
 11
153.4999999999991
 21
57.29999999999979
 31
0.0
  0
LINE
  5
EB03
330
1F
100
AcDbEntity
  8
AM_0
100
AcDbLine
 10
155.996799999999
 20
57.60602199999977
 30
0.0
 11
152.498399999999
 21
57.5000119999998
 31
0.0
  0
LINE
  5
EB04
330
1F
100
AcDbEntity
  8
AM_0
100
AcDbLine
 10
148.9999999999991
 20
57.54551399999979
 30
0.0
 11
148.9999999999991
 21
57.29999999999979
 31
0.0
  0
LINE
  5
EB05
330
1F
100
AcDbEntity
  8
AM_0
100
AcDbLine
 10
149.499999999999
 20
57.53036199999979
 30
0.0
 11
149.499999999999
 21
57.29999999999979
 31
0.0
  0
LINE
  5
EB06
330
1F
100
AcDbEntity
  8
AM_0
100
AcDbLine
 10
147.0032399999991
 20
57.60602199999977
 30
0.0
 11
150.501619999999
 21
57.5000119999998
 31
0.0
  0
LINE
  5
EB07
330
1F
100
AcDbEntity
  8
AM_0
100
AcDbLine
 10
150.501619999999
 20
57.50000399999976
 30
0.0
 11
152.498379999999
 21
57.50000399999976
 31
0.0
  0
LINE
  5
EB08
330
1F
100
AcDbEntity
  8
AM_0
100
AcDbLine
 10
148.9999999999991
 20
57.29999999999979
 30
0.0
 11
153.999999999999
 21
57.29999999999979
 31
0.0
  0
LINE
  5
EB09
330
1F
100
AcDbEntity
  8
AM_0
100
AcDbLine
 10
155.499999999999
 20
77.49999999999977
 30
0.0
 11
155.499999999999
 21
73.99958099999975
 31
0.0
  0
LINE
  5
EB0A
330
1F
100
AcDbEntity
  8
AM_0
100
AcDbLine
 10
147.499999999999
 20
77.49999999999977
 30
0.0
 11
147.499999999999
 21
73.99956599999979
 31
0.0
  0
LINE
  5
EB0B
330
1F
100
AcDbEntity
  8
AM_0
100
AcDbLine
 10
156.100009999999
 20
85.64999399999976
 30
0.0
 11
156.100009999999
 21
82.29999599999979
 31
0.0
  0
LINE
  5
EB0C
330
1F
100
AcDbEntity
  8
AM_0
100
AcDbLine
 10
153.7969699999991
 20
85.64999399999976
 30
0.0
 11
153.7969699999991
 21
82.29999599999979
 31
0.0
  0
LINE
  5
EB0D
330
1F
100
AcDbEntity
  8
AM_0
100
AcDbLine
 10
149.1969599999991
 20
85.64999399999976
 30
0.0
 11
149.1969599999991
 21
82.29999599999979
 31
0.0
  0
LINE
  5
EB0E
330
1F
100
AcDbEntity
  8
AM_0
100
AcDbLine
 10
146.899999999999
 20
85.64999399999976
 30
0.0
 11
146.899999999999
 21
82.29999599999979
 31
0.0
  0
LINE
  5
EB0F
330
1F
100
AcDbEntity
  8
AM_0
100
AcDbLine
 10
156.100009999999
 20
82.29999599999979
 30
0.0
 11
146.899999999999
 21
82.29999599999979
 31
0.0
  0
LINE
  5
EB10
330
1F
100
AcDbEntity
  8
AM_0
100
AcDbLine
 10
146.899999999999
 20
85.64999399999976
 30
0.0
 11
156.100009999999
 21
85.64999399999976
 31
0.0
  0
LINE
  5
EB11
330
1F
100
AcDbEntity
  8
AM_0
100
AcDbLine
 10
146.499999999999
 20
79.99999999999977
 30
0.0
 11
146.499999999999
 21
80.99999999999978
 31
0.0
  0
LINE
  5
EB12
330
1F
100
AcDbEntity
  8
AM_0
100
AcDbLine
 10
155.749999999999
 20
80.99999999999978
 30
0.0
 11
155.749999999999
 21
82.29999599999979
 31
0.0
  0
LINE
  5
EB13
330
1F
100
AcDbEntity
  8
AM_0
100
AcDbLine
 10
147.2499999999991
 20
80.99999999999978
 30
0.0
 11
147.2499999999991
 21
82.29999599999979
 31
0.0
  0
LINE
  5
EB14
330
1F
100
AcDbEntity
  8
AM_0
100
AcDbLine
 10
156.4999999999991
 20
79.99999999999977
 30
0.0
 11
156.4999999999991
 21
80.99999999999978
 31
0.0
  0
LINE
  5
EB15
330
1F
100
AcDbEntity
  8
AM_11
 48
0.5
100
AcDbLine
 10
147.2499999999991
 20
57.59854199999978
 30
0.0
 11
147.2500007475597
 21
49.49999999999977
 31
0.0
  0
LINE
  5
EB16
330
1F
100
AcDbEntity
  8
AM_11
 48
0.5
100
AcDbLine
 10
155.749999999999
 20
57.59854199999978
 30
0.0
 11
155.7500007475596
 21
49.49999999999977
 31
0.0
  0
ARC
  5
EB17
330
1F
100
AcDbEntity
  8
AM_0
100
AcDbCircle
 10
151.4999999999991
 20
70.63789399999979
 30
0.0
 40
0.60000002
100
AcDbArc
 50
1.735660499998382
 51
178.2643400000005
  0
LINE
  5
EB18
330
1F
100
AcDbEntity
  8
AM_7
 48
0.5
100
AcDbLine
 10
151.500005414937
 20
88.64999399999973
 30
0.0
 11
151.5000003326217
 21
46.49999999999979
 31
0.0
1001
GENIUS_GENOBJ-N-CEN_13
1002
{
1000
OWNER
1000
GEN
1002
}
1001
GENIUS_GENODEF_13
1002
{
1000
HIER
1070
     0
1002
}
1002
{
1000
MANEDIT
1070
     0
1002
}
1002
{
1000
NOSEL
1070
     0
1002
}
1002
{
1000
BEHIND
1070
     0
1002
}
1002
{
1000
OTHER
1070
     0
1002
}
1002
{
1000
REACTOR
1002
}
1001
GENIUS_GENCEN_19
1002
{
1040
3.0
1002
}
  0
LINE
  5
EB19
330
1F
100
AcDbEntity
  8
AM_0
100
AcDbLine
 10
186.499999999999
 20
80.99999999999978
 30
0.0
 11
196.4999999999991
 21
80.99999999999978
 31
0.0
  0
LINE
  5
EB1A
330
1F
100
AcDbEntity
  8
AM_0
100
AcDbLine
 10
195.499999999999
 20
73.99958799999978
 30
0.0
 11
195.996799999999
 21
57.60602199999977
 31
0.0
  0
LINE
  5
EB1B
330
1F
100
AcDbEntity
  8
AM_0
100
AcDbLine
 10
187.0032399999991
 20
57.60602199999977
 30
0.0
 11
187.499999999999
 21
73.99956599999979
 31
0.0
  0
LINE
  5
EB1C
330
1F
100
AcDbEntity
  8
AM_0
100
AcDbLine
 10
190.501619999999
 20
57.49999999999977
 30
0.0
 11
190.9002999999991
 21
70.65606699999978
 31
0.0
  0
LINE
  5
EB1D
330
1F
100
AcDbEntity
  8
AM_0
100
AcDbLine
 10
192.099729999999
 20
70.65607499999981
 30
0.0
 11
192.498379999999
 21
57.5000119999998
 31
0.0
  0
LINE
  5
EB1E
330
1F
100
AcDbEntity
  8
AM_0
100
AcDbLine
 10
193.999999999999
 20
57.54551399999979
 30
0.0
 11
193.999999999999
 21
57.29999999999979
 31
0.0
  0
LINE
  5
EB1F
330
1F
100
AcDbEntity
  8
AM_0
100
AcDbLine
 10
193.4999999999991
 20
57.53036199999979
 30
0.0
 11
193.4999999999991
 21
57.29999999999979
 31
0.0
  0
LINE
  5
EB20
330
1F
100
AcDbEntity
  8
AM_0
100
AcDbLine
 10
195.996799999999
 20
57.60602199999977
 30
0.0
 11
192.4983999999989
 21
57.5000119999998
 31
0.0
  0
LINE
  5
EB21
330
1F
100
AcDbEntity
  8
AM_0
100
AcDbLine
 10
188.9999999999991
 20
57.54551399999979
 30
0.0
 11
188.9999999999991
 21
57.29999999999979
 31
0.0
  0
LINE
  5
EB22
330
1F
100
AcDbEntity
  8
AM_0
100
AcDbLine
 10
189.499999999999
 20
57.53036199999979
 30
0.0
 11
189.499999999999
 21
57.29999999999979
 31
0.0
  0
LINE
  5
EB23
330
1F
100
AcDbEntity
  8
AM_0
100
AcDbLine
 10
187.0032399999991
 20
57.60602199999977
 30
0.0
 11
190.501619999999
 21
57.5000119999998
 31
0.0
  0
LINE
  5
EB24
330
1F
100
AcDbEntity
  8
AM_0
100
AcDbLine
 10
190.501619999999
 20
57.50000399999976
 30
0.0
 11
192.498379999999
 21
57.50000399999976
 31
0.0
  0
LINE
  5
EB25
330
1F
100
AcDbEntity
  8
AM_0
100
AcDbLine
 10
188.9999999999991
 20
57.29999999999979
 30
0.0
 11
193.999999999999
 21
57.29999999999979
 31
0.0
  0
LINE
  5
EB26
330
1F
100
AcDbEntity
  8
AM_0
100
AcDbLine
 10
195.499999999999
 20
77.49999999999977
 30
0.0
 11
195.499999999999
 21
73.99958099999975
 31
0.0
  0
LINE
  5
EB27
330
1F
100
AcDbEntity
  8
AM_0
100
AcDbLine
 10
187.499999999999
 20
77.49999999999977
 30
0.0
 11
187.499999999999
 21
73.99956599999979
 31
0.0
  0
LINE
  5
EB28
330
1F
100
AcDbEntity
  8
AM_0
100
AcDbLine
 10
196.100009999999
 20
85.64999399999976
 30
0.0
 11
196.100009999999
 21
82.29999599999979
 31
0.0
  0
LINE
  5
EB29
330
1F
100
AcDbEntity
  8
AM_0
100
AcDbLine
 10
193.7969699999991
 20
85.64999399999976
 30
0.0
 11
193.7969699999991
 21
82.29999599999979
 31
0.0
  0
LINE
  5
EB2A
330
1F
100
AcDbEntity
  8
AM_0
100
AcDbLine
 10
189.1969599999991
 20
85.64999399999976
 30
0.0
 11
189.1969599999991
 21
82.29999599999979
 31
0.0
  0
LINE
  5
EB2B
330
1F
100
AcDbEntity
  8
AM_0
100
AcDbLine
 10
186.899999999999
 20
85.64999399999976
 30
0.0
 11
186.899999999999
 21
82.29999599999979
 31
0.0
  0
LINE
  5
EB2C
330
1F
100
AcDbEntity
  8
AM_0
100
AcDbLine
 10
196.100009999999
 20
82.29999599999979
 30
0.0
 11
186.899999999999
 21
82.29999599999979
 31
0.0
  0
LINE
  5
EB2D
330
1F
100
AcDbEntity
  8
AM_0
100
AcDbLine
 10
186.899999999999
 20
85.64999399999976
 30
0.0
 11
196.100009999999
 21
85.64999399999976
 31
0.0
  0
LINE
  5
EB2E
330
1F
100
AcDbEntity
  8
AM_0
100
AcDbLine
 10
186.499999999999
 20
79.99999999999977
 30
0.0
 11
186.499999999999
 21
80.99999999999978
 31
0.0
  0
LINE
  5
EB2F
330
1F
100
AcDbEntity
  8
AM_0
100
AcDbLine
 10
195.749999999999
 20
80.99999999999978
 30
0.0
 11
195.749999999999
 21
82.29999599999979
 31
0.0
  0
LINE
  5
EB30
330
1F
100
AcDbEntity
  8
AM_0
100
AcDbLine
 10
187.2499999999991
 20
80.99999999999978
 30
0.0
 11
187.2499999999991
 21
82.29999599999979
 31
0.0
  0
LINE
  5
EB31
330
1F
100
AcDbEntity
  8
AM_0
100
AcDbLine
 10
196.4999999999991
 20
79.99999999999977
 30
0.0
 11
196.4999999999991
 21
80.99999999999978
 31
0.0
  0
ARC
  5
EB32
330
1F
100
AcDbEntity
  8
AM_0
100
AcDbCircle
 10
191.4999999999991
 20
70.63789399999979
 30
0.0
 40
0.60000002
100
AcDbArc
 50
1.735660499998382
 51
178.2643400000005
  0
LINE
  5
EB33
330
1F
100
AcDbEntity
  8
AM_7
 48
0.5
100
AcDbLine
 10
191.500005414937
 20
88.64999399999973
 30
0.0
 11
191.5000006638981
 21
54.29999999999978
 31
0.0
1001
GENIUS_GENOBJ-N-CEN_13
1002
{
1000
OWNER
1000
GEN
1002
}
1001
GENIUS_GENODEF_13
1002
{
1000
HIER
1070
     0
1002
}
1002
{
1000
MANEDIT
1070
     0
1002
}
1002
{
1000
NOSEL
1070
     0
1002
}
1002
{
1000
BEHIND
1070
     0
1002
}
1002
{
1000
OTHER
1070
     0
1002
}
1002
{
1000
REACTOR
1002
}
1001
GENIUS_GENCEN_19
1002
{
1040
3.0
1002
}
  0
LINE
  5
EB60
330
1F
100
AcDbEntity
  8
AM_0
100
AcDbLine
 10
227.4999999999991
 20
82.49999999999976
 30
0.0
 11
227.4999999999991
 21
77.49999999999977
 31
0.0
  0
LINE
  5
EB61
102
{ACAD_REACTORS
330
EB9A
102
}
330
1F
100
AcDbEntity
  8
AM_0
100
AcDbLine
 10
227.4999999999991
 20
77.49999999999977
 30
0.0
 11
252.4999999999991
 21
77.49999999999977
 31
0.0
  0
LINE
  5
EB62
330
1F
100
AcDbEntity
  8
AM_0
100
AcDbLine
 10
252.4999999999991
 20
77.49999999999977
 30
0.0
 11
252.4999999999991
 21
82.49999999999976
 31
0.0
  0
LINE
  5
EB63
102
{ACAD_REACTORS
330
EB9A
102
}
330
1F
100
AcDbEntity
  8
AM_0
100
AcDbLine
 10
252.4999999999991
 20
82.49999999999976
 30
0.0
 11
244.5999699999991
 21
82.49999999999976
 31
0.0
  0
LINE
  5
EB64
330
1F
100
AcDbEntity
  8
AM_0
100
AcDbLine
 10
227.4999999999991
 20
79.99999999999977
 30
0.0
 11
252.4999999999991
 21
79.99999999999977
 31
0.0
  0
LINE
  5
EB67
330
1F
100
AcDbEntity
  8
AM_0
100
AcDbLine
 10
234.4999999999991
 20
91.49999999999977
 30
0.0
 11
234.4999999999991
 21
82.4999999999998
 31
0.0
  0
LINE
  5
EB68
330
1F
100
AcDbEntity
  8
AM_0
100
AcDbLine
 10
245.4999999999992
 20
91.49999999999977
 30
0.0
 11
245.4999999999992
 21
82.49999999999976
 31
0.0
  0
LINE
  5
EB69
330
1F
100
AcDbEntity
  8
AM_7
 48
0.5
100
AcDbLine
 10
239.9999999999991
 20
54.29999999999978
 30
0.0
 11
239.9999999999991
 21
107.9999999999998
 31
0.0
1001
GENIUS_GENODEF_13
1002
{
1000
HIER
1070
     0
1002
}
1002
{
1000
MANEDIT
1070
     0
1002
}
1002
{
1000
NOSEL
1070
     0
1002
}
1002
{
1000
BEHIND
1070
     0
1002
}
1002
{
1000
OTHER
1070
     0
1002
}
1002
{
1000
REACTOR
1002
}
1001
GENIUS_GENOBJ-N-CEN_13
1002
{
1000
OWNER
1000
GEN
1002
}
1001
GENIUS_GENCEN_19
1002
{
1040
3.0
1002
}
  0
LWPOLYLINE
  5
EB6A
330
1F
100
AcDbEntity
  8
AM_0
100
AcDbPolyline
 90
        4
 70
     1
 43
0.0
 10
234.2499999999991
 20
103.0999999999997
 10
245.7499999999992
 20
103.0999999999997
 10
245.7499999999992
 20
101.4999999999997
 10
234.2499999999991
 20
101.4999999999997
1001
GENIUS_GENREC_14
1002
{
1000
PYDIR
1011
234.2499999999991
1021
101.4999999999997
1031
0.0
1002
}
1002
{
1000
PXDIR
1011
245.7499999999992
1021
103.0999999999997
1031
0.0
1002
}
1002
{
1000
PORI
1011
234.2499999999991
1021
103.0999999999997
1031
0.0
1002
}
1002
{
1000
PINS
1011
234.2499999999991
1021
103.0999999999997
1031
0.0
1002
}
1002
{
1000
PINS2
1011
245.7499999999992
1021
101.4999999999997
1031
0.0
1002
}
1002
{
1000
C
1070
     1
1002
}
1001
GENIUS_GENOBJ-N-REC_13
1002
{
1000
OWNER
1000
GEN
1002
}
1001
GENIUS_GENODEF_13
1002
{
1000
HIER
1070
     0
1002
}
1002
{
1000
MANEDIT
1070
     0
1002
}
1002
{
1000
NOSEL
1070
     0
1002
}
1002
{
1000
BEHIND
1070
     0
1002
}
1002
{
1000
OTHER
1070
     0
1002
}
1002
{
1000
REACTOR
1002
}
  0
ARC
  5
EB6B
330
1F
100
AcDbEntity
  8
AM_0
100
AcDbCircle
 10
239.9999999999991
 20
98.72105263157877
 30
0.0
 40
6.278947368421007
100
AcDbArc
 50
44.21889668750155
 51
135.7811033124961
  0
LINE
  5
EB6C
330
1F
100
AcDbEntity
  8
AM_0
100
AcDbLine
 10
243.9999999999991
 20
73.99958099999975
 30
0.0
 11
244.496789999999
 21
57.60602199999977
 31
0.0
  0
LINE
  5
EB6D
330
1F
100
AcDbEntity
  8
AM_0
100
AcDbLine
 10
235.5031999999991
 20
57.60602999999981
 30
0.0
 11
235.9999699999992
 21
73.99957299999977
 31
0.0
  0
LINE
  5
EB6E
330
1F
100
AcDbEntity
  8
AM_0
100
AcDbLine
 10
239.001579999999
 20
57.5000119999998
 30
0.0
 11
239.4002699999989
 21
70.65608299999979
 31
0.0
  0
LINE
  5
EB6F
330
1F
100
AcDbEntity
  8
AM_0
100
AcDbLine
 10
240.5997299999991
 20
70.65606699999978
 30
0.0
 11
240.9983799999991
 21
57.5000119999998
 31
0.0
  0
LINE
  5
EB70
330
1F
100
AcDbEntity
  8
AM_0
100
AcDbLine
 10
235.5031999999991
 20
57.60602999999981
 30
0.0
 11
239.001579999999
 21
57.50001899999978
 31
0.0
  0
LINE
  5
EB71
330
1F
100
AcDbEntity
  8
AM_0
100
AcDbLine
 10
237.4999999999991
 20
57.29999999999979
 30
0.0
 11
242.4999999999991
 21
57.29999999999979
 31
0.0
  0
LINE
  5
EB72
330
1F
100
AcDbEntity
  8
AM_0
100
AcDbLine
 10
237.4999999999991
 20
57.54552099999978
 30
0.0
 11
237.4999999999991
 21
57.29999999999979
 31
0.0
  0
LINE
  5
EB73
330
1F
100
AcDbEntity
  8
AM_0
100
AcDbLine
 10
237.9999999999991
 20
57.53036899999978
 30
0.0
 11
237.9999999999991
 21
57.29999999999979
 31
0.0
  0
LINE
  5
EB74
330
1F
100
AcDbEntity
  8
AM_0
100
AcDbLine
 10
242.4999999999991
 20
57.54551399999979
 30
0.0
 11
242.4999999999991
 21
57.29999999999979
 31
0.0
  0
LINE
  5
EB75
330
1F
100
AcDbEntity
  8
AM_0
100
AcDbLine
 10
241.9999999999991
 20
57.53036199999979
 30
0.0
 11
241.9999999999991
 21
57.29999999999979
 31
0.0
  0
LINE
  5
EB76
330
1F
100
AcDbEntity
  8
AM_0
100
AcDbLine
 10
244.4967599999991
 20
57.60602199999977
 30
0.0
 11
240.9983799999991
 21
57.5000119999998
 31
0.0
  0
LINE
  5
EB77
330
1F
100
AcDbEntity
  8
AM_0
100
AcDbLine
 10
239.001579999999
 20
57.50000399999976
 30
0.0
 11
240.9983799999991
 21
57.50000399999976
 31
0.0
  0
LINE
  5
EB78
330
1F
100
AcDbEntity
  8
AM_0
100
AcDbLine
 10
243.9999999999991
 20
77.49999999999977
 30
0.0
 11
243.9999999999991
 21
73.99958099999975
 31
0.0
  0
LINE
  5
EB79
330
1F
100
AcDbEntity
  8
AM_0
100
AcDbLine
 10
235.9999999999991
 20
77.49999999999977
 30
0.0
 11
235.9999999999991
 21
73.99956599999979
 31
0.0
  0
LINE
  5
EB7A
330
1F
100
AcDbEntity
  8
AM_0
100
AcDbLine
 10
244.5999699999991
 20
82.29999599999979
 30
0.0
 11
235.3999899999991
 21
82.29999599999979
 31
0.0
  0
LINE
  5
EB7B
330
1F
100
AcDbEntity
  8
AM_0
100
AcDbLine
 10
235.3999899999991
 20
85.64999399999976
 30
0.0
 11
244.5999699999991
 21
85.64999399999976
 31
0.0
  0
LINE
  5
EB7C
330
1F
100
AcDbEntity
  8
AM_0
100
AcDbLine
 10
234.9999999999991
 20
80.99999999999978
 30
0.0
 11
244.999999999999
 21
80.99999999999978
 31
0.0
  0
LINE
  5
EB7D
330
1F
100
AcDbEntity
  8
AM_0
100
AcDbLine
 10
235.3999899999991
 20
85.64999399999976
 30
0.0
 11
235.3999899999991
 21
82.29999599999979
 31
0.0
  0
LINE
  5
EB7E
330
1F
100
AcDbEntity
  8
AM_0
100
AcDbLine
 10
234.9999999999991
 20
79.99999999999977
 30
0.0
 11
234.9999999999991
 21
80.99999999999978
 31
0.0
  0
LINE
  5
EB7F
330
1F
100
AcDbEntity
  8
AM_0
100
AcDbLine
 10
235.7499999999991
 20
80.99999999999978
 30
0.0
 11
235.7499999999991
 21
82.29999599999979
 31
0.0
  0
LINE
  5
EB80
330
1F
100
AcDbEntity
  8
AM_0
100
AcDbLine
 10
244.5999699999991
 20
85.64999399999976
 30
0.0
 11
244.5999699999991
 21
82.29999599999979
 31
0.0
  0
LINE
  5
EB81
330
1F
100
AcDbEntity
  8
AM_0
100
AcDbLine
 10
239.9969499999992
 20
85.64999399999976
 30
0.0
 11
239.9969499999992
 21
82.29999599999979
 31
0.0
  0
LINE
  5
EB82
330
1F
100
AcDbEntity
  8
AM_0
100
AcDbLine
 10
244.999999999999
 20
79.99999999999977
 30
0.0
 11
244.999999999999
 21
80.99999999999978
 31
0.0
  0
LINE
  5
EB83
330
1F
100
AcDbEntity
  8
AM_0
100
AcDbLine
 10
244.2499999999991
 20
80.99999999999978
 30
0.0
 11
244.2499999999991
 21
82.29999599999979
 31
0.0
  0
ARC
  5
EB84
330
1F
100
AcDbEntity
  8
AM_0
100
AcDbCircle
 10
239.9999999999991
 20
70.63789399999979
 30
0.0
 40
0.60000002
100
AcDbArc
 50
1.735660499998382
 51
178.2643400000005
  0
LINE
  5
EB85
330
1F
100
AcDbEntity
  8
AM_0
100
AcDbLine
 10
235.3999899999991
 20
82.4999999999998
 30
0.0
 11
227.4999999999991
 21
82.4999999999998
 31
0.0
  0
DIMENSION
  5
EB8A
102
{ACAD_XDICTIONARY
360
EB99
102
}
102
{ACAD_REACTORS
330
EB9A
102
}
330
1F
100
AcDbEntity
  8
AM_5
100
AcDbDimension
  2
*D5
 10
262.4999999999992
 20
77.49999999999977
 30
0.0
 11
259.8999999999991
 21
79.99999999999982
 31
0.0
 70
    32
 71
     5
 42
5.0
  3
SYS$0
100
AcDbAlignedDimension
 13
252.4999999999991
 23
82.49999999999976
 33
0.0
 14
252.4999999999991
 24
77.49999999999977
 34
0.0
 50
90.0
100
AcDbRotatedDimension
1001
ACAD
1000
DSTYLE
1002
{
1070
   271
1070
     1
1002
}
  0
DIMENSION
  5
EBBD
102
{ACAD_XDICTIONARY
360
EBCA
102
}
102
{ACAD_REACTORS
330
EBCB
102
}
330
1F
100
AcDbEntity
  8
AM_5
100
AcDbDimension
  2
*D6
 10
176.9999999999991
 20
86.49999999999979
 30
0.0
 11
181.5066666666658
 21
86.49999999999979
 31
0.0
 70
   160
  1
%%c<>
 71
     5
 42
11.0
  3
SYS$0
100
AcDbAlignedDimension
 13
165.9999999999991
 23
91.49999999999977
 33
0.0
 14
176.9999999999991
 24
91.49999999999977
 34
0.0
100
AcDbRotatedDimension
1001
ACAD
1000
DSTYLE
1002
{
1070
   271
1070
     1
1002
}
  0
DIMENSION
  5
EBFA
102
{ACAD_XDICTIONARY
360
EC07
102
}
102
{ACAD_REACTORS
330
EC08
102
}
330
1F
100
AcDbEntity
  8
AM_5
100
AcDbDimension
  2
*D7
 10
191.4999999999991
 20
165.9999999999997
 30
0.0
 11
171.4999999999991
 21
168.5999999999997
 31
0.0
 70
    32
 71
     5
 42
40.0
  3
SYS$0
100
AcDbAlignedDimension
 13
151.4999999999991
 23
149.2499999999997
 33
0.0
 14
191.4999999999991
 24
143.4999999999998
 34
0.0
100
AcDbRotatedDimension
1001
ACAD
1000
DSTYLE
1002
{
1070
   271
1070
     1
1002
}
  0
DIMENSION
  5
EC12
102
{ACAD_XDICTIONARY
360
EC1F
102
}
102
{ACAD_REACTORS
330
EC20
102
}
330
1F
100
AcDbEntity
  8
AM_5
100
AcDbDimension
  2
*D8
 10
141.4999999999991
 20
165.9999999999997
 30
0.0
 11
146.4999999999991
 21
168.5999999999997
 31
0.0
 70
    32
 71
     5
 42
10.0
  3
SYS$0
100
AcDbAlignedDimension
 13
151.4999999999991
 23
149.2499999999997
 33
0.0
 14
141.4999999999991
 24
150.4999999999997
 34
0.0
100
AcDbRotatedDimension
1001
ACAD
1000
DSTYLE
1002
{
1070
   271
1070
     1
1002
}
  0
DIMENSION
  5
EC3C
330
1F
100
AcDbEntity
  8
AM_5
100
AcDbDimension
  2
*D9
 10
201.4999999999992
 20
165.9999999999997
 30
0.0
 11
196.4999999999991
 21
168.5999999999997
 31
0.0
 70
    32
 71
     5
 42
10.0
  3
SYS$0
100
AcDbAlignedDimension
 13
191.4999999999991
 23
143.4999999999998
 33
0.0
 14
201.4999999999992
 24
150.4999999999997
 34
0.0
100
AcDbRotatedDimension
1001
ACAD
1000
DSTYLE
1002
{
1070
   271
1070
     1
1002
}
  0
DIMENSION
  5
EC5D
330
1F
100
AcDbEntity
  8
AM_5
100
AcDbDimension
  2
*D10
 10
201.4999999999992
 20
173.9999999999997
 30
0.0
 11
171.4999999999991
 21
176.5999999999998
 31
0.0
 70
    32
 71
     5
 42
60.0
  3
SYS$0
100
AcDbAlignedDimension
 13
141.4999999999991
 23
150.4999999999997
 33
0.0
 14
201.4999999999992
 24
150.4999999999997
 34
0.0
100
AcDbRotatedDimension
1001
ACAD
1000
DSTYLE
1002
{
1070
   271
1070
     1
1002
}
  0
DIMENSION
  5
EC7E
102
{ACAD_XDICTIONARY
360
EC8B
102
}
102
{ACAD_REACTORS
330
EC8C
102
}
330
1F
100
AcDbEntity
  8
AM_5
100
AcDbDimension
  2
*D11
 10
133.4999999999991
 20
155.9999999999998
 30
0.0
 11
130.8999999999991
 21
149.7499999999998
 31
0.0
 70
    32
 71
     5
 42
12.5
  3
SYS$0
100
AcDbAlignedDimension
 13
138.4999999999991
 23
143.4999999999998
 33
0.0
 14
146.9999999999991
 24
155.9999999999998
 34
0.0
 50
90.0
100
AcDbRotatedDimension
1001
ACAD
1000
DSTYLE
1002
{
1070
   271
1070
     1
1002
}
  0
DIMENSION
  5
EC96
102
{ACAD_XDICTIONARY
360
ECA3
102
}
102
{ACAD_REACTORS
330
ECA4
102
}
330
1F
100
AcDbEntity
  8
AM_5
100
AcDbDimension
  2
*D12
 10
133.4999999999991
 20
130.9999999999997
 30
0.0
 11
130.8999999999991
 21
137.2499999999998
 31
0.0
 70
    32
 71
     5
 42
12.50000000000003
  3
SYS$0
100
AcDbAlignedDimension
 13
138.4999999999991
 23
143.4999999999998
 33
0.0
 14
146.9999999999991
 24
130.9999999999997
 34
0.0
 50
90.0
100
AcDbRotatedDimension
1001
ACAD
1000
DSTYLE
1002
{
1070
   271
1070
     1
1002
}
  0
DIMENSION
  5
ECAE
102
{ACAD_XDICTIONARY
360
ECBB
102
}
102
{ACAD_REACTORS
330
ECBC
102
}
330
1F
100
AcDbEntity
  8
AM_5
100
AcDbDimension
  2
*D13
 10
125.4999999999991
 20
155.9999999999998
 30
0.0
 11
122.8999999999991
 21
143.4999999999998
 31
0.0
 70
    32
 71
     5
 42
25.00000000000003
  3
SYS$0
100
AcDbAlignedDimension
 13
146.9999999999991
 23
130.9999999999997
 33
0.0
 14
146.9999999999991
 24
155.9999999999998
 34
0.0
 50
90.0
100
AcDbRotatedDimension
1001
ACAD
1000
DSTYLE
1002
{
1070
   271
1070
     1
1002
}
  0
DIMENSION
  5
ECE2
330
1F
100
AcDbEntity
  8
AM_5
100
AcDbDimension
  2
*D14
 10
188.9999999999991
 20
112.9999999999997
 30
0.0
 11
171.4999999999991
 21
115.5999999999997
 31
0.0
 70
    32
  1
%%c<>
 71
     5
 42
35.0
  3
SYS$0
100
AcDbAlignedDimension
 13
153.9999999999991
 23
96.49999999999977
 33
0.0
 14
188.9999999999991
 24
96.49999999999977
 34
0.0
100
AcDbRotatedDimension
1001
ACAD
1000
DSTYLE
1002
{
1070
   271
1070
     1
1002
}
  0
DIMENSION
  5
ED0C
102
{ACAD_XDICTIONARY
360
ED19
102
}
102
{ACAD_REACTORS
330
ED1A
102
}
330
1F
100
AcDbEntity
  8
AM_5
100
AcDbDimension
  2
*D15
 10
133.4999999999991
 20
77.49999999999977
 30
0.0
 11
130.8999999999991
 21
84.49999999999979
 31
0.0
 70
    32
 71
     5
 42
14.00000000000001
  3
SYS$0
100
AcDbAlignedDimension
 13
158.9999999999991
 23
91.49999999999979
 33
0.0
 14
141.4999999999991
 24
77.49999999999977
 34
0.0
 50
90.0
100
AcDbRotatedDimension
1001
ACAD
1000
DSTYLE
1002
{
1070
   271
1070
     1
1002
}
  0
DIMENSION
  5
ED24
330
1F
100
AcDbEntity
  8
AM_5
100
AcDbDimension
  2
*D16
 10
133.4999999999991
 20
101.4999999999998
 30
0.0
 11
130.8999999999991
 21
96.49999999999982
 31
0.0
 70
    32
 71
     5
 42
10.00000000000001
  3
SYS$0
100
AcDbAlignedDimension
 13
158.9999999999991
 23
91.49999999999979
 33
0.0
 14
158.9999999999991
 24
101.4999999999998
 34
0.0
 50
90.0
100
AcDbRotatedDimension
1001
ACAD
1000
DSTYLE
1002
{
1070
   271
1070
     1
1002
}
  0
DIMENSION
  5
ED45
102
{ACAD_XDICTIONARY
360
ED52
102
}
102
{ACAD_REACTORS
330
ED53
102
}
330
1F
100
AcDbEntity
  8
AM_5
100
AcDbDimension
  2
*D17
 10
125.4999999999991
 20
101.4999999999997
 30
0.0
 11
122.8999999999991
 21
89.49999999999979
 31
0.0
 70
    32
 71
     5
 42
24.0
  3
SYS$0
100
AcDbAlignedDimension
 13
141.4999999999991
 23
77.49999999999977
 33
0.0
 14
158.9999999999991
 24
101.4999999999997
 34
0.0
 50
90.0
100
AcDbRotatedDimension
1001
ACAD
1000
DSTYLE
1002
{
1070
   271
1070
     1
1002
}
  0
DIMENSION
  5
ED5D
102
{ACAD_XDICTIONARY
360
ED6A
102
}
102
{ACAD_REACTORS
330
ED6B
102
}
330
1F
100
AcDbEntity
  8
AM_5
100
AcDbDimension
  2
*D18
 10
117.4999999999991
 20
104.9999999999998
 30
0.0
 11
114.8999999999991
 21
91.2499999999998
 31
0.0
 70
    32
 71
     5
 42
27.50000000000002
  3
SYS$0
100
AcDbAlignedDimension
 13
141.4999999999991
 23
77.49999999999977
 33
0.0
 14
171.4999999999991
 24
104.9999999999998
 34
0.0
 50
90.0
100
AcDbRotatedDimension
1001
ACAD
1000
DSTYLE
1002
{
1070
   271
1070
     1
1002
}
  0
DIMENSION
  5
ED87
102
{ACAD_XDICTIONARY
360
ED94
102
}
102
{ACAD_REACTORS
330
ED95
102
}
330
1F
100
AcDbEntity
  8
AM_5
100
AcDbDimension
  2
*D19
 10
117.4999999999991
 20
49.49999999999977
 30
0.0
 11
114.8999999999991
 21
63.4999999999998
 31
0.0
 70
    32
  1
下孔深さ<>mm
 71
     5
 42
27.99999999999999
  3
SYS$0
100
AcDbAlignedDimension
 13
141.4999999999991
 23
77.49999999999977
 33
0.0
 14
147.2500007475597
 24
49.49999999999977
 34
0.0
 50
90.0
100
AcDbRotatedDimension
1001
ACAD
1000
DSTYLE
1002
{
1070
   271
1070
     1
1002
}
  0
DIMENSION
  5
EDCE
102
{ACAD_XDICTIONARY
360
EDDB
102
}
102
{ACAD_REACTORS
330
EDDC
102
}
330
1F
100
AcDbEntity
  8
AM_5
100
AcDbDimension
  2
*D20
 10
155.7500007475596
 20
39.49999999999977
 30
0.0
 11
165.3020007475596
 21
42.09999999999977
 31
0.0
 70
    32
  1
下孔径%%c<>
 71
     5
 42
8.499999999999886
  3
SYS$0
100
AcDbAlignedDimension
 13
147.2500007475597
 23
49.49999999999977
 33
0.0
 14
155.7500007475596
 24
49.49999999999977
 34
0.0
100
AcDbRotatedDimension
1001
ACAD
1000
DSTYLE
1002
{
1070
   271
1070
     1
1002
}
  0
DIMENSION
  5
EDFF
102
{ACAD_XDICTIONARY
360
EE09
102
}
102
{ACAD_REACTORS
330
EE10
102
}
330
1F
100
AcDbEntity
  8
AM_5
100
AcDbDimension
  2
*D21
 10
152.705664988058
 20
145.9716132255204
 30
0.0
 11
137.139999999999
 21
122.9999999999996
 31
0.0
 70
   163
 71
     5
 42
5.499999999999943
  3
SYS$3
100
AcDbDiametricDimension
 15
150.2943350119403
 25
141.028386774479
 35
0.0
 40
0.0
1001
ACAD
1000
DSTYLE
1002
{
1070
    41
1040
1.0
1070
   344
1005
6C4
1070
   342
1005
0
1070
   173
1070
     1
1070
   343
1005
6C4
1070
   172
1070
     1
1002
}
  0
INSERT
  5
EE51
330
1F
100
AcDbEntity
  8
AM_5
100
AcDbBlockReference
  2
*S22
 10
0.0
 20
0.0
 30
0.0
  0
LWPOLYLINE
  5
F0EF
330
1F
100
AcDbEntity
  8
AM_0
100
AcDbPolyline
 90
        8
 70
     1
 43
0.0
 10
158.9999999999991
 20
101.4999999999997
 10
183.9999999999991
 20
101.4999999999997
 42
-0.4142135623730951
 10
188.9999999999991
 20
96.49999999999977
 10
188.9999999999991
 20
96.49999999999979
 42
-0.4142135623730951
 10
183.9999999999991
 20
91.49999999999979
 10
158.9999999999991
 20
91.49999999999979
 42
-0.4142135623730951
 10
153.9999999999991
 20
96.49999999999979
 10
153.9999999999991
 20
96.49999999999977
 42
-0.4142135623730951
1001
GENIUS_GENREC_14
1002
{
1000
PYDIR
1011
153.9999999999991
1021
91.49999999999979
1031
0.0
1002
}
1002
{
1000
PXDIR
1011
188.9999999999991
1021
101.4999999999997
1031
0.0
1002
}
1002
{
1000
PORI
1011
153.9999999999991
1021
101.4999999999997
1031
0.0
1002
}
1002
{
1000
PINS
1011
153.9999999999991
1021
101.4999999999997
1031
0.0
1002
}
1002
{
1000
PINS2
1011
188.9999999999991
1021
91.49999999999979
1031
0.0
1002
}
1002
{
1000
C
1070
     1
1002
}
1001
GENIUS_GENOBJ-N-REC_13
1002
{
1000
OWNER
1000
GEN
1002
}
1001
GENIUS_GENODEF_13
1002
{
1000
HIER
1070
     0
1002
}
1002
{
1000
MANEDIT
1070
     0
1002
}
1002
{
1000
NOSEL
1070
     0
1002
}
1002
{
1000
BEHIND
1070
     0
1002
}
1002
{
1000
OTHER
1070
     0
1002
}
1002
{
1000
REACTOR
1002
}
  0
LWPOLYLINE
  5
F128
330
1F
100
AcDbEntity
  8
AM_0
100
AcDbPolyline
 90
        8
 70
     1
 43
0.0
 10
227.4999999999991
 20
101.4999999999997
 10
252.4999999999991
 20
101.4999999999997
 42
-0.4142135623730951
 10
257.4999999999992
 20
96.49999999999977
 10
257.4999999999992
 20
96.49999999999979
 42
-0.4142135623730951
 10
252.4999999999991
 20
91.49999999999979
 10
227.4999999999991
 20
91.49999999999979
 42
-0.4142135623730951
 10
222.4999999999992
 20
96.49999999999979
 10
222.4999999999992
 20
96.49999999999977
 42
-0.4142135623730951
1001
GENIUS_GENREC_14
1002
{
1000
PYDIR
1011
222.4999999999992
1021
91.49999999999979
1031
0.0
1002
}
1002
{
1000
PXDIR
1011
257.4999999999992
1021
101.4999999999997
1031
0.0
1002
}
1002
{
1000
PORI
1011
222.4999999999992
1021
101.4999999999997
1031
0.0
1002
}
1002
{
1000
PINS
1011
222.4999999999992
1021
101.4999999999997
1031
0.0
1002
}
1002
{
1000
PINS2
1011
257.4999999999992
1021
91.49999999999979
1031
0.0
1002
}
1002
{
1000
C
1070
     1
1002
}
1001
GENIUS_GENOBJ-N-REC_13
1002
{
1000
OWNER
1000
GEN
1002
}
1001
GENIUS_GENODEF_13
1002
{
1000
HIER
1070
     0
1002
}
1002
{
1000
MANEDIT
1070
     0
1002
}
1002
{
1000
NOSEL
1070
     0
1002
}
1002
{
1000
BEHIND
1070
     0
1002
}
1002
{
1000
OTHER
1070
     0
1002
}
1002
{
1000
REACTOR
1002
}
  0
LWPOLYLINE
  5
F15E
102
{ACAD_REACTORS
330
EC20
330
EC8C
330
ECA4
330
ECBC
102
}
330
1F
100
AcDbEntity
  8
AM_0
100
AcDbPolyline
 90
        6
 70
     0
 43
0.0
 10
183.747448713915
 20
155.9999999999998
 10
195.9999999999991
 20
155.9999999999998
 42
-0.4142135623730953
 10
201.4999999999992
 20
150.4999999999997
 10
201.4999999999991
 20
136.4999999999998
 42
-0.4142135623730951
 10
195.9999999999991
 20
130.9999999999998
 10
183.747448713915
 20
130.9999999999998
1001
GENIUS_GENREC_14
1002
{
1000
PYDIR
1011
141.4999999999991
1021
130.9999999999998
1031
0.0
1002
}
1002
{
1000
PXDIR
1011
201.4999999999992
1021
155.9999999999998
1031
0.0
1002
}
1002
{
1000
PORI
1011
141.4999999999991
1021
155.9999999999998
1031
0.0
1002
}
1002
{
1000
PINS
1011
141.4999999999991
1021
155.9999999999998
1031
0.0
1002
}
1002
{
1000
PINS2
1011
201.4999999999992
1021
130.9999999999998
1031
0.0
1002
}
1002
{
1000
C
1070
     1
1002
}
1001
GENIUS_GENODEF_13
1002
{
1000
HIER
1070
     0
1002
}
1002
{
1000
MANEDIT
1070
     0
1002
}
1002
{
1000
NOSEL
1070
     0
1002
}
1002
{
1000
BEHIND
1070
     0
1002
}
1002
{
1000
OTHER
1070
     0
1002
}
1002
{
1000
REACTOR
1002
}
1001
GENIUS_GENOBJ-N-REC_13
1002
{
1000
OWNER
1000
GEN
1002
}
  0
ARC
  5
F1CE
330
1F
100
AcDbEntity
  8
AM_0
100
AcDbCircle
 10
151.4999999999991
 20
143.4999999999998
 30
0.0
 40
37.25
100
AcDbArc
 50
6.190178106706626
 51
6.999999999999437
  0
LINE
  5
F1CF
330
1F
100
AcDbEntity
  8
AM_7
 48
0.5
100
AcDbLine
 10
171.4999999999991
 20
163.9999999999997
 30
0.0
 11
171.4999999999991
 21
122.9999999999997
 31
0.0
1001
GENIUS_GENODEF_13
1002
{
1000
HIER
1070
     0
1002
}
1002
{
1000
MANEDIT
1070
     0
1002
}
1002
{
1000
NOSEL
1070
     0
1002
}
1002
{
1000
BEHIND
1070
     0
1002
}
1002
{
1000
OTHER
1070
     0
1002
}
1002
{
1000
REACTOR
1002
}
1001
GENIUS_GENOBJ-N-CEN_13
1002
{
1000
OWNER
1000
GEN
1002
}
1001
GENIUS_GENCEN_19
1002
{
1040
3.0
1002
}
  0
ENDSEC
  0
SECTION
  2
OBJECTS
  0
DICTIONARY
  5
C
330
0
100
AcDbDictionary
281
     1
  3
ACAD_COLOR
350
C45B
  3
ACAD_GROUP
350
D
  3
ACAD_LAYOUT
350
1A
  3
ACAD_MATERIAL
350
C446
  3
ACAD_MLINESTYLE
350
17
  3
ACAD_PLOTSETTINGS
350
19
  3
ACAD_PLOTSTYLENAME
350
E
  3
ACAD_TABLESTYLE
350
C45C
  3
ACAD_VISUALSTYLE
350
C44A
  3
AcAsAppObject
350
3DA1
  3
ACASGREF_MASTER
350
3DE9
  3
AcDbVariableDictionary
350
34
  3
AcmDictionary
350
47
  3
AD_GREF_MODULE
350
3DEA
  3
AD_MAPI_MODULE
350
3E06
  3
AMG
350
2B
  3
AMGSNAPSETTINGS
350
7D
  3
ASE_INDEX_DICTIONARY
350
E473
  3
DWGPROPS
350
F272
  3
MAPISURF_MODULE
350
3DEB
  0
DICTIONARY
  5
3F95
330
2
100
AcDbDictionary
280
     1
281
     1
  3
ACAD_LAYERFILTERS
360
CB0C
  3
ACAD_LAYERSTATES
360
3F96
  3
ACLYDICTIONARY
360
CB0B
  3
AMLAYER_GROUPCOLORS
360
CB2F
  0
DICTIONARY
  5
8A
330
1F
100
AcDbDictionary
280
     1
281
     1
  3
ACAD_SORTENTS
360
EA76
  0
DICTIONARY
  5
EB99
330
EB8A
100
AcDbDictionary
280
     1
281
     1
  3
ACAD_DIMASSOC
360
EB9A
  0
DICTIONARY
  5
EBCA
330
EBBD
100
AcDbDictionary
280
     1
281
     1
  3
ACAD_DIMASSOC
360
EBCB
  0
DICTIONARY
  5
EC07
330
EBFA
100
AcDbDictionary
280
     1
281
     1
  3
ACAD_DIMASSOC
360
EC08
  0
DICTIONARY
  5
EC1F
330
EC12
100
AcDbDictionary
280
     1
281
     1
  3
ACAD_DIMASSOC
360
EC20
  0
DICTIONARY
  5
EC8B
330
EC7E
100
AcDbDictionary
280
     1
281
     1
  3
ACAD_DIMASSOC
360
EC8C
  0
DICTIONARY
  5
ECA3
330
EC96
100
AcDbDictionary
280
     1
281
     1
  3
ACAD_DIMASSOC
360
ECA4
  0
DICTIONARY
  5
ECBB
330
ECAE
100
AcDbDictionary
280
     1
281
     1
  3
ACAD_DIMASSOC
360
ECBC
  0
DICTIONARY
  5
ED19
330
ED0C
100
AcDbDictionary
280
     1
281
     1
  3
ACAD_DIMASSOC
360
ED1A
  0
DICTIONARY
  5
ED52
330
ED45
100
AcDbDictionary
280
     1
281
     1
  3
ACAD_DIMASSOC
360
ED53
  0
DICTIONARY
  5
ED6A
330
ED5D
100
AcDbDictionary
280
     1
281
     1
  3
ACAD_DIMASSOC
360
ED6B
  0
DICTIONARY
  5
ED94
330
ED87
100
AcDbDictionary
280
     1
281
     1
  3
ACAD_DIMASSOC
360
ED95
  0
DICTIONARY
  5
EDDB
330
EDCE
100
AcDbDictionary
280
     1
281
     1
  3
ACAD_DIMASSOC
360
EDDC
  0
DICTIONARY
  5
EE09
330
EDFF
100
AcDbDictionary
280
     1
281
     1
  3
ACAD_DIMASSOC
360
EE10
  0
DICTIONARY
  5
C45B
102
{ACAD_REACTORS
330
C
102
}
330
C
100
AcDbDictionary
281
     1
  0
DICTIONARY
  5
D
102
{ACAD_REACTORS
330
C
102
}
330
C
100
AcDbDictionary
281
     1
  0
DICTIONARY
  5
1A
102
{ACAD_REACTORS
330
C
102
}
330
C
100
AcDbDictionary
281
     1
  3
Model
350
22
  3
ﾚｲｱｳﾄ1
350
1E
  3
ﾚｲｱｳﾄ2
350
26
  0
DICTIONARY
  5
C446
102
{ACAD_REACTORS
330
C
102
}
330
C
100
AcDbDictionary
281
     1
  3
ByBlock
350
C448
  3
ByLayer
350
C447
  3
Global
350
C449
  0
DICTIONARY
  5
17
102
{ACAD_REACTORS
330
C
102
}
330
C
100
AcDbDictionary
281
     1
  3
Standard
350
18
  0
DICTIONARY
  5
19
102
{ACAD_REACTORS
330
C
102
}
330
C
100
AcDbDictionary
281
     1
  3
-00
350
C85D
  0
ACDBDICTIONARYWDFLT
  5
E
102
{ACAD_REACTORS
330
C
102
}
330
C
100
AcDbDictionary
281
     1
  3
Normal
350
F
100
AcDbDictionaryWithDefault
340
F
  0
DICTIONARY
  5
C45C
102
{ACAD_REACTORS
330
C
102
}
330
C
100
AcDbDictionary
281
     1
  3
Standard
350
C45D
  0
DICTIONARY
  5
C44A
102
{ACAD_REACTORS
330
C
102
}
330
C
100
AcDbDictionary
281
     1
  3
2dWireframe
350
C450
  3
3D Hidden
350
C452
  3
3dWireframe
350
C451
  3
Basic
350
C44F
  3
Brighten
350
C456
  3
ColorChange
350
C45A
  3
Conceptual
350
C453
  3
Dim
350
C455
  3
Facepattern
350
C459
  3
Flat
350
C44B
  3
FlatWithEdges
350
C44C
  3
Gouraud
350
C44D
  3
GouraudWithEdges
350
C44E
  3
Linepattern
350
C458
  3
Realistic
350
C454
  3
Thicken
350
C457
  0
ACAD_PROXY_OBJECT
  5
3DA1
102
{ACAD_REACTORS
330
C
102
}
330
C
100
AcDbProxyObject
 90
      499
 91
      576
 95
   720919
 70
     0
 93
       10
310
407F
 94
        0
1001
ACAD
1000
AcRTDxfName
1000
ASAPP
  0
ACAD_PROXY_OBJECT
  5
3DE9
102
{ACAD_REACTORS
330
C
102
}
330
C
100
AcDbProxyObject
 90
      499
 91
      581
 95
   720919
 70
     0
 93
       34
310
010000407F
 94
        0
1001
ACAD
1000
AcRTDxfName
1000
ACASGREFMASTER
  0
DICTIONARY
  5
34
102
{ACAD_REACTORS
330
C
102
}
330
C
100
AcDbDictionary
281
     1
  3
CTABLESTYLE
350
C4A2
  3
DIMASSOC
350
AC85
  3
INDEXCTL
350
35
  3
SORTENTS
350
194C
  0
DICTIONARY
  5
47
102
{ACAD_REACTORS
330
C
102
}
330
C
100
AcDbDictionary
281
     1
  3
AcmBOM
350
7E8
  3
AcmStdDictionary
350
4C
  3
AMDTSECTSYM_ARROWCOLOR
350
C487
  0
ACAD_PROXY_OBJECT
  5
3DEA
102
{ACAD_REACTORS
330
C
102
}
330
C
100
AcDbProxyObject
 90
      499
 91
      582
 95
   720919
 70
     0
 93
      114
310
00000043800000000000000000003F
 94
        0
1001
ACAD
1000
AcRTDxfName
1000
ACADGREFMODULE
  0
ACAD_PROXY_OBJECT
  5
3E06
102
{ACAD_REACTORS
330
C
102
}
330
C
100
AcDbProxyObject
 90
      499
 91
      594
 95
   720919
 70
     0
 93
       34
310
05000044FF
 94
        0
1001
ACAD
1000
AcRTDxfName
1000
MAPIADMODULE
  0
DICTIONARY
  5
2B
102
{ACAD_REACTORS
330
C
102
}
330
C
100
AcDbDictionary
281
     1
  0
DICTIONARY
  5
7D
102
{ACAD_REACTORS
330
C
102
}
330
C
100
AcDbDictionary
281
     1
  0
DICTIONARY
  5
E473
102
{ACAD_REACTORS
330
C
102
}
330
C
100
AcDbDictionary
281
     1
  3
ASEBlockHierarchyIndexRecord
350
E474
1001
DCO15
1040
1728116413.781
  0
XRECORD
  5
F272
102
{ACAD_REACTORS
330
C
102
}
330
C
100
AcDbXrecord
280
     1
  1
DWGPROPS COOKIE
  2

  3

  4

  6

  7

  8
shibutanishibutani
  9

300
AmdtFileType=84
301
=
302
=
303
=
304
=
305
=
306
=
307
=
308
=
309
=
 40
3.900206527777777
 41
2452002.615067627
 42
2456260.422475035
  1

 90
        1
  0
ACAD_PROXY_OBJECT
  5
3DEB
102
{ACAD_REACTORS
330
C
102
}
330
C
100
AcDbProxyObject
 90
      499
 91
      583
 95
   720919
 70
     0
 93
        8
310
047D
 94
        0
1001
ACAD
1000
AcRTDxfName
1000
AMDTMAPISURFMOUDULE
  0
DICTIONARY
  5
CB0C
102
{ACAD_REACTORS
330
3F95
102
}
330
3F95
100
AcDbDictionary
281
     1
  3
50
350
CB0E
  0
DICTIONARY
  5
3F96
102
{ACAD_REACTORS
330
3F95
102
}
330
3F95
100
AcDbDictionary
281
     1
  3
20011210
350
3FB7
  0
DICTIONARY
  5
CB0B
102
{ACAD_REACTORS
330
3F95
102
}
330
3F95
100
AcDbDictionary
281
     1
  3
*A1
350
CB0D
1001
ACAD
1000
<All
  0
DICTIONARY
  5
CB2F
102
{ACAD_REACTORS
330
3F95
102
}
330
3F95
100
AcDbDictionary
280
     1
281
     1
  0
SORTENTSTABLE
  5
EA76
102
{ACAD_REACTORS
330
8A
102
}
330
8A
100
AcDbSortentsTable
330
1F
331
EA12
  5
EA13
331
E9AB
  5
E9AB
331
E9B3
  5
E9B3
331
EB63
  5
EB6B
331
EB04
  5
EB06
331
EB6B
  5
EB72
331
EB0C
  5
EB0E
331
EB73
  5
EB7A
331
EBFA
  5
ECAE
331
EAAD
  5
EACF
331
EB14
  5
EB16
331
EB7B
  5
EB82
331
EB1C
  5
EB1E
331
E9BB
  5
E9BB
331
EA82
  5
EA84
331
EA8A
  5
EA8F
331
E9DB
  5
E9DB
331
EB83
  5
EC3C
331
EB24
  5
EB26
331
EC12
  5
ECE2
331
EDCE
  5
F0CB
331
EB2C
  5
EB2E
331
EAFD
  5
EAFF
331
EA13
  5
EA6F
331
E9AC
  5
E9AC
331
E9B4
  5
E9B4
331
EB64
  5
EB6D
331
EB05
  5
EB07
331
EB6C
  5
EB73
331
EB0D
  5
EB0F
331
EB74
  5
EB7B
331
ED87
  5
F094
331
EAAE
  5
EAD6
331
EB15
  5
EB17
331
EB7C
  5
EB83
331
EB1D
  5
EB1F
331
E9BC
  5
E9BC
331
EA73
  5
EA82
331
EA83
  5
EA87
331
EA8B
  5
EA90
331
E9DC
  5
E9DC
331
EB84
  5
EC5D
331
EAD6
  5
EAE0
331
EB25
  5
EB27
331
EB2D
  5
EB2F
331
EAFE
  5
EB00
331
EDFF
  5
F0F1
331
EA0C
  5
EA0C
331
E9AD
  5
E9AD
331
E9B5
  5
E9B5
331
EB06
  5
EB08
331
EB6D
  5
EB74
331
EB0E
  5
EB10
331
EB75
  5
EB7C
331
EB16
  5
EB18
331
EB7D
  5
EB84
331
EACF
  5
EAD9
331
EB1E
  5
EB20
331
E9BD
  5
E9BD
331
EA74
  5
EA83
331
EA84
  5
EA85
331
E9D5
  5
E9D5
331
EA8C
  5
EA91
331
E9DD
  5
E9DD
331
EB85
  5
EB6C
331
ECE2
  5
EDCE
331
EB26
  5
EB28
331
EB2E
  5
EB30
331
EAFF
  5
EB01
331
EA0D
  5
EA0D
331
E9AE
  5
E9AE
331
EA6D
  5
EA71
331
E9B6
  5
E9B6
331
EA90
  5
EA86
331
EBBD
  5
EC96
331
EB07
  5
EB09
331
EB6E
  5
EB75
331
EC3C
  5
ED0C
331
EB0F
  5
EB11
331
EB76
  5
EB7D
331
EB17
  5
EB19
331
EB7E
  5
EB85
331
EB1F
  5
EB21
331
EA85
  5
EA88
331
E9D6
  5
E9D6
331
EA8D
  5
EA92
331
EB27
  5
EB29
331
EAE0
  5
EAFC
331
EB2F
  5
EB31
331
E9AF
  5
E9AF
331
E9B7
  5
E9B7
331
EA91
  5
EA8C
331
EB00
  5
EB02
331
EB67
  5
EB6E
331
EB08
  5
EB0A
331
EB6F
  5
EB76
331
EB10
  5
EB12
331
EB77
  5
EB7E
331
EB18
  5
EB1A
331
EB7F
  5
EB8A
331
EA86
  5
EA89
331
E9D7
  5
E9D7
331
EB20
  5
EB22
331
EC5D
  5
ED24
331
EAD9
  5
EAFB
331
EB28
  5
EB2A
331
EB30
  5
EB32
331
ED0C
  5
EDFF
331
E9B0
  5
E9B0
331
EA6F
  5
EA72
331
EB60
  5
EB67
331
EA92
  5
EA94
331
EB01
  5
EB03
331
EB68
  5
EB6F
331
EAA2
  5
EAAD
331
EB09
  5
EB0B
331
EB70
  5
EB77
331
EB11
  5
EB13
331
EB78
  5
EB7F
331
ED24
  5
EE51
331
EB19
  5
EB1B
331
E9B8
  5
E9B8
331
E9C0
  5
E9C0
331
EA87
  5
EA8A
331
E9D8
  5
E9D8
331
EA8F
  5
EAA2
331
EB80
  5
EBBD
331
EB21
  5
EB23
331
EB29
  5
EB2B
331
EB31
  5
EB33
331
EC7E
  5
ED45
331
E9A9
  5
E9A9
331
E9B1
  5
E9B1
331
EB61
  5
EB68
331
EA93
  5
EA8B
331
EB02
  5
EB04
331
EB69
  5
EB70
331
EC96
  5
ED5D
331
EAA3
  5
EAAE
331
EB0A
  5
EB0C
331
EB71
  5
EB78
331
EB12
  5
EB14
331
EB79
  5
EB80
331
ECAE
  5
ED87
331
EB1A
  5
EB1C
331
F15E
  5
EA12
331
F1CE
  5
EA75
331
EE51
  5
F128
331
E9B9
  5
E9B9
331
EA70
  5
EA77
331
E9C1
  5
E9C1
331
EA88
  5
EA8D
331
E9D9
  5
E9D9
331
EB81
  5
EBFA
331
EB22
  5
EB24
331
EB2A
  5
EB2C
331
ED45
  5
F079
331
EB32
  5
EB39
331
EAFB
  5
EAFD
331
ED5D
  5
F07A
331
F0EF
  5
F15E
331
E9AA
  5
E9AA
331
E9B2
  5
E9B2
331
EB62
  5
EB6A
331
EA94
  5
EAA3
331
EB03
  5
EB05
331
EB6A
  5
EB71
331
EB0B
  5
EB0D
331
EB72
  5
EB79
331
EB13
  5
EB15
331
EB7A
  5
EB81
331
EB1B
  5
EB1D
331
EA89
  5
EA8E
331
E9DA
  5
E9DA
331
EB82
  5
EC12
331
EB23
  5
EB25
331
EB8A
  5
EC7E
331
EB2B
  5
EB2D
331
EB33
  5
EB66
331
EAFC
  5
EAFE
331
F128
  5
F15F
  0
DIMASSOC
  5
EB9A
102
{ACAD_REACTORS
330
EB99
102
}
330
EB99
100
AcDbDimAssoc
330
EB8A
 90
        3
 70
     0
 71
     0
  1
AcDbOsnapPointRef
 72
    13
331
EB63
 73
     0
 91
        0
 40
0.0
 10
0.0
 20
0.0
 30
2.000000000000000E+50
 75
     0
  1
AcDbOsnapPointRef
 72
     1
331
EB61
 73
     0
 91
        0
 40
0.0
 10
0.0
 20
0.0
 30
2.000000000000000E+50
 75
     0
  0
DIMASSOC
  5
EBCB
102
{ACAD_REACTORS
330
EBCA
102
}
330
EBCA
100
AcDbDimAssoc
330
EBBD
 90
        3
 70
     0
 71
     0
  1
AcDbOsnapPointRef
 72
    13
331
EAA2
 73
     0
 91
        0
 40
0.0
 10
0.0
 20
0.0
 30
2.000000000000000E+50
 75
     0
  1
AcDbOsnapPointRef
 72
    13
331
EAA3
 73
     0
 91
        0
 40
0.0
 10
0.0
 20
0.0
 30
2.000000000000000E+50
 75
     0
  0
DIMASSOC
  5
EC08
102
{ACAD_REACTORS
330
EC07
102
}
330
EC07
100
AcDbDimAssoc
330
EBFA
 90
        1
 70
     0
 71
     0
  1
AcDbOsnapPointRef
 72
    13
331
EA73
 73
     0
 91
        0
 40
0.0
 10
0.0
 20
0.0
 30
2.000000000000000E+50
 75
     0
  0
DIMASSOC
  5
EC20
102
{ACAD_REACTORS
330
EC1F
102
}
330
EC1F
100
AcDbDimAssoc
330
EC12
 90
        1
 70
     0
 71
     0
  1
AcDbOsnapPointRef
 72
    13
331
EA73
 73
     0
 91
        0
 40
0.0
 10
0.0
 20
0.0
 30
2.000000000000000E+50
 75
     0
  0
DIMASSOC
  5
EC8C
102
{ACAD_REACTORS
330
EC8B
102
}
330
EC8B
100
AcDbDimAssoc
330
EC7E
 90
        3
 70
     0
 71
     0
  1
AcDbOsnapPointRef
 72
    13
331
EA8F
 73
     0
 91
        0
 40
0.0
 10
0.0
 20
0.0
 30
2.000000000000000E+50
 75
     0
  1
AcDbOsnapPointRef
 72
     1
331
EA0D
 73
     2
 91
        8
 40
0.0
 10
0.0
 20
0.0
 30
2.000000000000000E+50
 75
     0
  0
DIMASSOC
  5
ECA4
102
{ACAD_REACTORS
330
ECA3
102
}
330
ECA3
100
AcDbDimAssoc
330
EC96
 90
        3
 70
     0
 71
     0
  1
AcDbOsnapPointRef
 72
    13
331
EA8F
 73
     0
 91
        0
 40
0.0
 10
0.0
 20
0.0
 30
2.000000000000000E+50
 75
     0
  1
AcDbOsnapPointRef
 72
    11
331
EA0D
 73
     2
 91
        6
 40
4.712388980384692
 10
0.0
 20
0.0
 30
0.0
332
EA0D
 74
     2
 92
        5
 75
     0
  0
DIMASSOC
  5
ECBC
102
{ACAD_REACTORS
330
ECBB
102
}
330
ECBB
100
AcDbDimAssoc
330
ECAE
 90
        3
 70
     0
 71
     0
  1
AcDbOsnapPointRef
 72
    11
331
EA0D
 73
     2
 91
        6
 40
4.712388980384692
 10
0.0
 20
0.0
 30
0.0
332
EA0D
 74
     2
 92
        5
 75
     0
  1
AcDbOsnapPointRef
 72
     8
331
EA0D
 73
     2
 91
        1
 40
0.0
 10
0.0
 20
0.0
 30
0.0
 75
     1
  1
AcDbOsnapPointRef
 72
    11
331
EA0D
 73
     2
 91
        6
 40
4.712388980384692
 10
0.0
 20
0.0
 30
0.0
332
EA0D
 74
     2
 92
        5
 75
     0
  0
DIMASSOC
  5
ED1A
102
{ACAD_REACTORS
330
ED19
102
}
330
ED19
100
AcDbDimAssoc
330
ED0C
 90
        2
 70
     0
 71
     0
  1
AcDbOsnapPointRef
 72
    13
331
EA8A
 73
     0
 91
        0
 40
0.0
 10
0.0
 20
0.0
 30
2.000000000000000E+50
 75
     0
  0
DIMASSOC
  5
ED53
102
{ACAD_REACTORS
330
ED52
102
}
330
ED52
100
AcDbDimAssoc
330
ED45
 90
        1
 70
     0
 71
     0
  1
AcDbOsnapPointRef
 72
     1
331
EA89
 73
     0
 91
        0
 40
0.0
 10
0.0
 20
0.0
 30
2.000000000000000E+50
 75
     0
  0
DIMASSOC
  5
ED6B
102
{ACAD_REACTORS
330
ED6A
102
}
330
ED6A
100
AcDbDimAssoc
330
ED5D
 90
        1
 70
     0
 71
     0
  1
AcDbOsnapPointRef
 72
    13
331
EA8A
 73
     0
 91
        0
 40
0.0
 10
0.0
 20
0.0
 30
2.000000000000000E+50
 75
     0
  0
DIMASSOC
  5
ED95
102
{ACAD_REACTORS
330
ED94
102
}
330
ED94
100
AcDbDimAssoc
330
ED87
 90
        3
 70
     0
 71
     0
  1
AcDbOsnapPointRef
 72
    13
331
EA8A
 73
     0
 91
        0
 40
0.0
 10
0.0
 20
0.0
 30
2.000000000000000E+50
 75
     0
  1
AcDbOsnapPointRef
 72
    13
331
EB00
 73
     0
 91
        0
 40
0.0
 10
0.0
 20
0.0
 30
2.000000000000000E+50
 75
     0
  0
DIMASSOC
  5
EDDC
102
{ACAD_REACTORS
330
EDDB
102
}
330
EDDB
100
AcDbDimAssoc
330
EDCE
 90
        3
 70
     0
 71
     0
  1
AcDbOsnapPointRef
 72
    13
331
EB00
 73
     0
 91
        0
 40
0.0
 10
0.0
 20
0.0
 30
2.000000000000000E+50
 75
     0
  1
AcDbOsnapPointRef
 72
     1
331
EB00
 73
     0
 91
        0
 40
0.0
 10
0.0
 20
0.0
 30
2.000000000000000E+50
 75
     0
  0
DIMASSOC
  5
EE10
102
{ACAD_REACTORS
330
EE09
102
}
330
EE09
100
AcDbDimAssoc
330
EDFF
 90
        2
 70
     0
 71
     0
  1
AcDbOsnapPointRef
 72
     3
331
EA12
 73
     2
 91
        0
 40
0.0
 10
0.0
 20
0.0
 30
0.0
 75
     0
  0
LAYOUT
  5
22
102
{ACAD_XDICTIONARY
360
F275
102
}
102
{ACAD_REACTORS
330
1A
102
}
330
1A
100
AcDbPlotSettings
  1

  2
FX DocuWide 2055
  4
A3
  6
AM_VIEW1
 40
3.174999952316284
 41
3.174999952316284
 42
3.17498779296875
 43
3.17498779296875
 44
297.0106506347656
 45
419.9889831542968
 46
-3.169668555259704
 47
-3.180502295494079
 48
347.0000006405867
 49
-0.0000003719120514
140
767.0000006405866
141
296.9999996280879
142
1.0
143
1.0
 70
 11956
 72
     1
 73
     1
 74
     4
  7
monochrome.ctb
 75
    16
147
1.0
148
-347.0000006405867
149
0.0000003719120514
100
AcDbLayout
  1
Model
 70
     1
 71
     0
 10
0.0
 20
0.0
 11
12.0
 21
9.0
 12
0.0
 22
0.0
 32
0.0
 14
0.0
 24
0.0
 34
0.0
 15
0.0
 25
0.0
 35
0.0
146
0.0
 13
0.0
 23
0.0
 33
0.0
 16
1.0
 26
0.0
 36
0.0
 17
0.0
 27
1.0
 37
0.0
 76
     0
330
1F
331
C444
1001
ACAD_PSEXT
1000
FX DocuWide 2055
1000
FX DocuWide 2055
1000
DW2055
1000

1070
     0
  0
LAYOUT
  5
1E
102
{ACAD_XDICTIONARY
360
F273
102
}
102
{ACAD_REACTORS
330
1A
102
}
330
1A
100
AcDbPlotSettings
  1

  2
\\ML370\XEROX
  4
A4
  6

 40
3.174999952316284
 41
3.174999952316284
 42
3.175003051757812
 43
3.17498779296875
 44
209.8674926757813
 45
296.6719970703125
 46
0.0
 47
0.0
 48
0.0
 49
0.0
140
0.0
141
0.0
142
1.0
143
1.0
 70
   688
 72
     1
 73
     1
 74
     5
  7
monochrome.ctb
 75
    16
147
1.0
148
0.0
149
0.0
100
AcDbLayout
  1
ﾚｲｱｳﾄ1
 70
     1
 71
     1
 10
-3.17498779296875
 20
-3.174999952316284
 11
293.4970092773438
 21
206.692492723465
 12
0.0
 22
0.0
 32
0.0
 14
1.000000000000000E+20
 24
1.000000000000000E+20
 34
1.000000000000000E+20
 15
-1.000000000000000E+20
 25
-1.000000000000000E+20
 35
-1.000000000000000E+20
146
0.0
 13
0.0
 23
0.0
 33
0.0
 16
1.0
 26
0.0
 36
0.0
 17
0.0
 27
1.0
 37
0.0
 76
     0
330
1B
  0
LAYOUT
  5
26
102
{ACAD_XDICTIONARY
360
F277
102
}
102
{ACAD_REACTORS
330
1A
102
}
330
1A
100
AcDbPlotSettings
  1

  2
\\ML370\XEROX
  4

  6

 40
0.0
 41
0.0
 42
0.0
 43
0.0
 44
0.0
 45
0.0
 46
0.0
 47
0.0
 48
0.0
 49
0.0
140
0.0
141
0.0
142
1.0
143
1.0
 70
   688
 72
     0
 73
     0
 74
     5
  7
monochrome.ctb
 75
    16
147
1.0
148
0.0
149
0.0
100
AcDbLayout
  1
ﾚｲｱｳﾄ2
 70
     1
 71
     2
 10
0.0
 20
0.0
 11
12.0
 21
9.0
 12
0.0
 22
0.0
 32
0.0
 14
0.0
 24
0.0
 34
0.0
 15
0.0
 25
0.0
 35
0.0
146
0.0
 13
0.0
 23
0.0
 33
0.0
 16
1.0
 26
0.0
 36
0.0
 17
0.0
 27
1.0
 37
0.0
 76
     0
330
23
  0
MATERIAL
  5
C448
102
{ACAD_XDICTIONARY
360
F27B
102
}
102
{ACAD_REACTORS
330
C446
102
}
330
C446
100
AcDbMaterial
  1
ByBlock
  0
MATERIAL
  5
C447
102
{ACAD_XDICTIONARY
360
F279
102
}
102
{ACAD_REACTORS
330
C446
102
}
330
C446
100
AcDbMaterial
  1
ByLayer
  0
MATERIAL
  5
C449
102
{ACAD_XDICTIONARY
360
F27D
102
}
102
{ACAD_REACTORS
330
C446
102
}
330
C446
100
AcDbMaterial
  1
Global
  0
MLINESTYLE
  5
18
102
{ACAD_REACTORS
330
17
102
}
330
17
100
AcDbMlineStyle
  2
STANDARD
 70
     0
  3

 62
   256
 51
90.0
 52
90.0
 71
     2
 49
0.5
 62
   256
  6
BYLAYER
 49
-0.5
 62
   256
  6
BYLAYER
  0
PLOTSETTINGS
  5
C85D
102
{ACAD_XDICTIONARY
360
F281
102
}
102
{ACAD_REACTORS
330
19
102
}
330
19
100
AcDbPlotSettings
  1
-00
  2
RICOH imagio Wide 7040e RP-GL/2
  4
A3
  6
AM_VIEW1
 40
5.069416522979736
 41
7.228392601013183
 42
5.23870849609375
 43
7.05908203125
 44
419.9889831542968
 45
296.9683227539062
 46
-5.159570932388305
 47
-7.159575939178466
 48
347.0000006405867
 49
-0.0000003719120514
140
767.0000006405866
141
296.9999996280879
142
1.0
143
1.0
 70
 11956
 72
     1
 73
     0
 74
     4
  7
monochrome.ctb
 75
    16
147
1.0
148
-347.0000006405867
149
0.0000003719120514
1001
ACAD_PSEXT
1000
RICOH imagio Wide 7040e RP-GL/2
1000
RICOH imagio Wide 7040e RP-GL/2
1000
\\ADMINISTRATOR
1000
RP-GL/2 Driver (Windows 2000/XP/Server 2003)
1070
     0
  0
ACDBPLACEHOLDER
  5
F
102
{ACAD_REACTORS
330
E
102
}
330
E
  0
TABLESTYLE
  5
C45D
102
{ACAD_XDICTIONARY
360
F27F
102
}
102
{ACAD_REACTORS
330
C45C
102
}
330
C45C
100
AcDbTableStyle
  3
Standard
 70
     0
 71
     0
 40
1.5
 41
1.5
280
     0
281
     0
  7
STANDARD
140
4.5
170
     2
 62
     0
 63
     7
283
     0
274
    -2
284
     1
 64
     0
275
    -2
285
     1
 65
     0
276
    -2
286
     1
 66
     0
277
    -2
287
     1
 67
     0
278
    -2
288
     1
 68
     0
279
    -2
289
     1
 69
     0
  7
STANDARD
140
6.0
170
     5
 62
     0
 63
     7
283
     0
274
    -2
284
     1
 64
     0
275
    -2
285
     1
 65
     0
276
    -2
286
     1
 66
     0
277
    -2
287
     1
 67
     0
278
    -2
288
     1
 68
     0
279
    -2
289
     1
 69
     0
  7
STANDARD
140
4.5
170
     5
 62
     0
 63
     7
283
     0
274
    -2
284
     1
 64
     0
275
    -2
285
     1
 65
     0
276
    -2
286
     1
 66
     0
277
    -2
287
     1
 67
     0
278
    -2
288
     1
 68
     0
279
    -2
289
     1
 69
     0
  0
VISUALSTYLE
  5
C450
102
{ACAD_REACTORS
330
C44A
102
}
330
C44A
100
AcDbVisualStyle
  2
2dWireframe
 70
     4
 71
     0
 72
     2
 73
     0
 90
        0
 40
-0.6
 41
-30.0
 62
     5
 63
     7
 74
     1
 91
        4
 64
     7
 65
   257
 75
     1
175
     1
 42
1.0
 92
        0
 66
   257
 43
1.0
 76
     1
 77
     6
 78
     2
 67
     7
 79
     5
170
     0
171
     0
290
     0
174
     0
 93
        1
 44
0.0
173
     0
291
     0
 45
0.0
1001
ACAD
1000
AcDbSavedByObjectVersion
1070
     0
  0
VISUALSTYLE
  5
C452
102
{ACAD_REACTORS
330
C44A
102
}
330
C44A
100
AcDbVisualStyle
  2
3D Hidden
 70
     6
 71
     1
 72
     2
 73
     2
 90
        0
 40
-0.6
 41
-30.0
 62
     5
 63
     7
 74
     2
 91
        2
 64
     7
 65
   257
 75
     2
175
     1
 42
40.0
 92
        0
 66
   257
 43
1.0
 76
     1
 77
     6
 78
     2
 67
     7
 79
     3
170
     0
171
     0
290
     0
174
     0
 93
        1
 44
0.0
173
     0
291
     0
 45
0.0
1001
ACAD
1000
AcDbSavedByObjectVersion
1070
     0
  0
VISUALSTYLE
  5
C451
102
{ACAD_REACTORS
330
C44A
102
}
330
C44A
100
AcDbVisualStyle
  2
3dWireframe
 70
     5
 71
     0
 72
     2
 73
     0
 90
        0
 40
-0.6
 41
-30.0
 62
     5
 63
     7
 74
     1
 91
        4
 64
     7
 65
   257
 75
     1
175
     1
 42
1.0
 92
        0
 66
   257
 43
1.0
 76
     1
 77
     6
 78
     2
 67
     7
 79
     5
170
     0
171
     0
290
     0
174
     0
 93
        1
 44
0.0
173
     0
291
     0
 45
0.0
1001
ACAD
1000
AcDbSavedByObjectVersion
1070
     0
  0
VISUALSTYLE
  5
C44F
102
{ACAD_REACTORS
330
C44A
102
}
330
C44A
100
AcDbVisualStyle
  2
Basic
 70
     7
 71
     1
 72
     0
 73
     1
 90
        0
 40
-0.6
 41
-30.0
 62
     5
 63
     7
 74
     0
 91
        4
 64
     7
 65
   257
 75
     1
175
     1
 42
1.0
 92
        8
 66
     7
 43
1.0
 76
     1
 77
     6
 78
     2
 67
     7
 79
     5
170
     0
171
     0
290
     0
174
     0
 93
        1
 44
0.0
173
     0
291
     1
 45
0.0
1001
ACAD
1000
AcDbSavedByObjectVersion
1070
     0
  0
VISUALSTYLE
  5
C456
102
{ACAD_REACTORS
330
C44A
102
}
330
C44A
100
AcDbVisualStyle
  2
Brighten
 70
    12
 71
     2
 72
     2
 73
     0
 90
        0
 40
-0.6
 41
-30.0
 62
     5
 63
     7
 74
     1
 91
        4
 64
     7
 65
   257
 75
     1
175
     1
 42
1.0
 92
        8
 66
     7
 43
1.0
 76
     1
 77
     6
 78
     2
 67
     7
 79
     5
170
     0
171
     0
290
     0
174
     0
 93
        1
 44
50.0
173
     0
291
     1
 45
0.0
1001
ACAD
1000
AcDbSavedByObjectVersion
1070
     0
  0
VISUALSTYLE
  5
C45A
102
{ACAD_REACTORS
330
C44A
102
}
330
C44A
100
AcDbVisualStyle
  2
ColorChange
 70
    16
 71
     2
 72
     2
 73
     3
 90
        0
 40
-0.6
 41
-30.0
 62
     5
 63
     8
 74
     1
 91
        4
 64
     7
 65
   257
 75
     1
175
     1
 42
1.0
 92
        8
 66
     8
 43
1.0
 76
     1
 77
     6
 78
     2
 67
     7
 79
     5
170
     0
171
     0
290
     0
174
     0
 93
        1
 44
0.0
173
     0
291
     1
 45
0.0
1001
ACAD
1000
AcDbSavedByObjectVersion
1070
     0
  0
VISUALSTYLE
  5
C453
102
{ACAD_REACTORS
330
C44A
102
}
330
C44A
100
AcDbVisualStyle
  2
Conceptual
 70
     9
 71
     3
 72
     2
 73
     0
 90
        0
 40
-0.6
 41
-30.0
 62
     5
 63
     7
 74
     2
 91
        2
 64
     7
 65
   257
 75
     1
175
     1
 42
40.0
 92
        8
 66
     7
 43
1.0
 76
     1
 77
     6
 78
     2
 67
     7
 79
     3
170
     0
171
     0
290
     0
174
     0
 93
        1
 44
0.0
173
     0
291
     0
 45
0.0
1001
ACAD
1000
AcDbSavedByObjectVersion
1070
     0
  0
VISUALSTYLE
  5
C455
102
{ACAD_REACTORS
330
C44A
102
}
330
C44A
100
AcDbVisualStyle
  2
Dim
 70
    11
 71
     2
 72
     2
 73
     0
 90
        0
 40
-0.6
 41
-30.0
 62
     5
 63
     7
 74
     1
 91
        4
 64
     7
 65
   257
 75
     1
175
     1
 42
1.0
 92
        8
 66
     7
 43
1.0
 76
     1
 77
     6
 78
     2
 67
     7
 79
     5
170
     0
171
     0
290
     0
174
     0
 93
        1
 44
-50.0
173
     0
291
     1
 45
0.0
1001
ACAD
1000
AcDbSavedByObjectVersion
1070
     0
  0
VISUALSTYLE
  5
C459
102
{ACAD_REACTORS
330
C44A
102
}
330
C44A
100
AcDbVisualStyle
  2
Facepattern
 70
    15
 71
     2
 72
     2
 73
     0
 90
        0
 40
-0.6
 41
-30.0
 62
     5
 63
     7
 74
     1
 91
        4
 64
     7
 65
   257
 75
     1
175
     1
 42
1.0
 92
        8
 66
     7
 43
1.0
 76
     1
 77
     6
 78
     2
 67
     7
 79
     5
170
     0
171
     0
290
     0
174
     0
 93
        1
 44
0.0
173
     0
291
     1
 45
0.0
1001
ACAD
1000
AcDbSavedByObjectVersion
1070
     0
  0
VISUALSTYLE
  5
C44B
102
{ACAD_REACTORS
330
C44A
102
}
330
C44A
100
AcDbVisualStyle
  2
Flat
 70
     0
 71
     2
 72
     1
 73
     1
 90
        2
 40
-0.6
 41
30.0
 62
     5
 63
     7
 74
     0
 91
        4
 64
     7
 65
   257
 75
     1
175
     1
 42
1.0
 92
        8
 66
     7
 43
1.0
 76
     1
 77
     6
 78
     2
 67
     7
 79
     5
170
     0
171
     0
290
     0
174
     0
 93
       13
 44
0.0
173
     0
291
     1
 45
0.0
1001
ACAD
1000
AcDbSavedByObjectVersion
1070
     0
  0
VISUALSTYLE
  5
C44C
102
{ACAD_REACTORS
330
C44A
102
}
330
C44A
100
AcDbVisualStyle
  2
FlatWithEdges
 70
     1
 71
     2
 72
     1
 73
     1
 90
        2
 40
-0.6
 41
30.0
 62
     5
 63
     7
 74
     1
 91
        4
 64
     7
 65
   257
 75
     1
175
     1
 42
1.0
 92
        0
 66
   257
 43
1.0
 76
     1
 77
     6
 78
     2
 67
     7
 79
     5
170
     0
171
     0
290
     0
174
     0
 93
       13
 44
0.0
173
     0
291
     1
 45
0.0
1001
ACAD
1000
AcDbSavedByObjectVersion
1070
     0
  0
VISUALSTYLE
  5
C44D
102
{ACAD_REACTORS
330
C44A
102
}
330
C44A
100
AcDbVisualStyle
  2
Gouraud
 70
     2
 71
     2
 72
     2
 73
     1
 90
        2
 40
-0.6
 41
30.0
 62
     5
 63
     7
 74
     0
 91
        4
 64
     7
 65
   257
 75
     1
175
     1
 42
1.0
 92
        0
 66
     7
 43
1.0
 76
     1
 77
     6
 78
     2
 67
     7
 79
     5
170
     0
171
     0
290
     0
174
     0
 93
       13
 44
0.0
173
     0
291
     1
 45
0.0
1001
ACAD
1000
AcDbSavedByObjectVersion
1070
     0
  0
VISUALSTYLE
  5
C44E
102
{ACAD_REACTORS
330
C44A
102
}
330
C44A
100
AcDbVisualStyle
  2
GouraudWithEdges
 70
     3
 71
     2
 72
     2
 73
     1
 90
        2
 40
-0.6
 41
30.0
 62
     5
 63
     7
 74
     1
 91
        4
 64
     7
 65
   257
 75
     1
175
     1
 42
1.0
 92
        0
 66
   257
 43
1.0
 76
     1
 77
     6
 78
     2
 67
     7
 79
     5
170
     0
171
     0
290
     0
174
     0
 93
       13
 44
0.0
173
     0
291
     1
 45
0.0
1001
ACAD
1000
AcDbSavedByObjectVersion
1070
     0
  0
VISUALSTYLE
  5
C458
102
{ACAD_REACTORS
330
C44A
102
}
330
C44A
100
AcDbVisualStyle
  2
Linepattern
 70
    14
 71
     2
 72
     2
 73
     0
 90
        0
 40
-0.6
 41
-30.0
 62
     5
 63
     7
 74
     1
 91
        4
 64
     7
 65
   257
 75
     7
175
     7
 42
1.0
 92
        8
 66
     7
 43
1.0
 76
     1
 77
     6
 78
     2
 67
     7
 79
     5
170
     0
171
     0
290
     0
174
     0
 93
        1
 44
0.0
173
     0
291
     1
 45
0.0
1001
ACAD
1000
AcDbSavedByObjectVersion
1070
     0
  0
VISUALSTYLE
  5
C454
102
{ACAD_REACTORS
330
C44A
102
}
330
C44A
100
AcDbVisualStyle
  2
Realistic
 70
     8
 71
     2
 72
     2
 73
     0
 90
        0
 40
-0.6
 41
-30.0
 62
     5
 63
     7
 74
     1
 91
        0
 64
     7
 65
   257
 75
     1
175
     1
 42
1.0
 92
        8
 66
     8
 43
1.0
 76
     1
 77
     6
 78
     2
 67
     7
 79
     5
170
     0
171
     0
290
     0
174
     0
 93
       13
 44
0.0
173
     0
291
     0
 45
0.0
1001
ACAD
1000
AcDbSavedByObjectVersion
1070
     0
  0
VISUALSTYLE
  5
C457
102
{ACAD_REACTORS
330
C44A
102
}
330
C44A
100
AcDbVisualStyle
  2
Thicken
 70
    13
 71
     2
 72
     2
 73
     0
 90
        0
 40
-0.6
 41
-30.0
 62
     5
 63
     7
 74
     1
 91
        4
 64
     7
 65
   257
 75
     1
175
     1
 42
1.0
 92
       12
 66
     7
 43
1.0
 76
     1
 77
     6
 78
     2
 67
     7
 79
     5
170
     0
171
     0
290
     0
174
     0
 93
        1
 44
0.0
173
     0
291
     1
 45
0.0
1001
ACAD
1000
AcDbSavedByObjectVersion
1070
     0
  0
DICTIONARYVAR
  5
C4A2
102
{ACAD_REACTORS
330
34
102
}
330
34
100
DictionaryVariables
280
     0
  1
STANDARD
  0
DICTIONARYVAR
  5
AC85
102
{ACAD_REACTORS
330
34
102
}
330
34
100
DictionaryVariables
280
     0
  1
2
  0
DICTIONARYVAR
  5
35
102
{ACAD_REACTORS
330
34
102
}
330
34
100
DictionaryVariables
280
     0
  1
0
  0
DICTIONARYVAR
  5
194C
102
{ACAD_REACTORS
330
34
102
}
330
34
100
DictionaryVariables
280
     0
  1
96
  0
DICTIONARY
  5
7E8
102
{ACAD_REACTORS
330
47
102
}
330
47
100
AcDbDictionary
281
     1
  0
DICTIONARY
  5
4C
102
{ACAD_REACTORS
330
47
102
}
330
47
100
AcDbDictionary
281
     1
  0
XRECORD
  5
C487
102
{ACAD_REACTORS
330
47
102
}
330
47
100
AcDbXrecord
280
     1
 90
-1023410169
  0
XRECORD
  5
E474
102
{ACAD_REACTORS
330
E473
102
}
330
E473
100
AcDbXrecord
280
     1
330
0
330
0
330
0
330
0
330
0
330
0
330
0
330
0
  0
XRECORD
  5
CB0E
102
{ACAD_REACTORS
330
CB0C
102
}
330
CB0C
100
AcDbXrecord
280
     1
  1
50
  1
*-50
  1
*
  1
*
 70
     0
  1
*
  1
*
1001
ACAD
1000
( NAME== "*-50" )
  0
XRECORD
  5
3FB7
102
{ACAD_REACTORS
330
3F96
102
}
330
3F96
100
AcDbXrecord
280
     1
 91
        3
330
A47
 90
        8
 62
     7
370
    40
331
16
  1
Color_7
330
A46
 90
        0
 62
    14
370
    -3
331
16
  1
Color_14
330
0
 90
        8
 62
     7
370
    20
331
16
  1
Color_7
330
6D1
 90
        0
 62
     7
370
    -3
331
16
  1
Color_7
330
0
 90
        8
 62
     7
370
    50
331
16
  1
Color_7
330
A48
 90
        8
 62
     2
370
    35
331
16
  1
Color_2
330
0
 90
        8
 62
     7
370
    -3
331
16
  1
Color_7
330
10
 90
        8
 62
     7
370
    -3
331
16
  1
Color_7
  0
XRECORD
  5
CB0D
102
{ACAD_REACTORS
330
CB0B
102
}
330
CB0B
100
AcDbXrecord
280
     1
  1
AcLyLayerFilter
 90
        1
300
50
301
( NAME== "*-50" )
  0
DICTIONARY
  5
F275
330
22
100
AcDbDictionary
280
     1
281
     1
  3
ACAD_XREC_ROUNDTRIP
360
F276
  0
DICTIONARY
  5
F273
330
1E
100
AcDbDictionary
280
     1
281
     1
  3
ACAD_XREC_ROUNDTRIP
360
F274
  0
DICTIONARY
  5
F277
330
26
100
AcDbDictionary
280
     1
281
     1
  3
ACAD_XREC_ROUNDTRIP
360
F278
  0
DICTIONARY
  5
F27B
330
C448
100
AcDbDictionary
280
     1
281
     1
  3
ACAD_XREC_ROUNDTRIP
360
F27C
  0
DICTIONARY
  5
F279
330
C447
100
AcDbDictionary
280
     1
281
     1
  3
ACAD_XREC_ROUNDTRIP
360
F27A
  0
DICTIONARY
  5
F27D
330
C449
100
AcDbDictionary
280
     1
281
     1
  3
ACAD_XREC_ROUNDTRIP
360
F27E
  0
DICTIONARY
  5
F281
330
C85D
100
AcDbDictionary
280
     1
281
     1
  3
ACAD_XREC_ROUNDTRIP
360
F282
  0
DICTIONARY
  5
F27F
330
C45D
100
AcDbDictionary
280
     1
281
     1
  3
ACAD_XREC_ROUNDTRIP
360
F280
  0
XRECORD
  5
F276
102
{ACAD_REACTORS
330
F275
102
}
330
F275
100
AcDbXrecord
280
     1
102
SHADEPLOT
 70
     0
102
SHADEPLOTRESLEVEL
 70
     2
102
SHADEPLOTCUSTOMDPI
 70
   300
  0
XRECORD
  5
F274
102
{ACAD_REACTORS
330
F273
102
}
330
F273
100
AcDbXrecord
280
     1
102
SHADEPLOT
 70
     0
102
SHADEPLOTRESLEVEL
 70
     2
102
SHADEPLOTCUSTOMDPI
 70
   300
  0
XRECORD
  5
F278
102
{ACAD_REACTORS
330
F277
102
}
330
F277
100
AcDbXrecord
280
     1
102
SHADEPLOT
 70
     0
102
SHADEPLOTRESLEVEL
 70
     2
102
SHADEPLOTCUSTOMDPI
 70
   300
  0
XRECORD
  5
F27C
102
{ACAD_REACTORS
330
F27B
102
}
330
F27B
100
AcDbXrecord
280
     1
102
MATERIAL
148
0.0
149
0.0
149
0.0
 93
        0
 94
       63
282
     0
 72
     1
 77
     1
171
     1
175
     1
179
     1
273
     0
  0
XRECORD
  5
F27A
102
{ACAD_REACTORS
330
F279
102
}
330
F279
100
AcDbXrecord
280
     1
102
MATERIAL
148
0.0
149
0.0
149
0.0
 93
        0
 94
       63
282
     0
 72
     1
 77
     1
171
     1
175
     1
179
     1
273
     0
  0
XRECORD
  5
F27E
102
{ACAD_REACTORS
330
F27D
102
}
330
F27D
100
AcDbXrecord
280
     1
102
MATERIAL
148
0.0
149
0.0
149
0.0
 93
        0
 94
       63
282
     0
 72
     1
 77
     1
171
     1
175
     1
179
     1
273
     0
  0
XRECORD
  5
F282
102
{ACAD_REACTORS
330
F281
102
}
330
F281
100
AcDbXrecord
280
     1
102
SHADEPLOT
 70
     0
102
SHADEPLOTRESLEVEL
 70
     2
102
SHADEPLOTCUSTOMDPI
 70
   300
  0
XRECORD
  5
F280
102
{ACAD_REACTORS
330
F27F
102
}
330
F27F
100
AcDbXrecord
280
     1
102
ACAD_ROUNDTRIP_PRE2007_TABLESTYLE
 90
      512
 91
        0
  1

 92
      512
 93
        0
  2

 94
      512
 95
        0
  3

  0
ENDSEC
  0
EOF
