  0
SECTION
  2
HEADER
  9
$ACADVER
  1
AC1015
  9
$ACADMAINTVER
 70
    20
  9
$DWGCODEPAGE
  3
ANSI_932
  9
$INSBASE
 10
0.0
 20
0.0
 30
0.0
  9
$EXTMIN
 10
-0.000000000007276
 20
-18.81278125374661
 30
0.0
  9
$EXTMAX
 10
728.9918280459549
 20
420.0000000000145
 30
0.0
  9
$LIMMIN
 10
0.0
 20
0.0
  9
$LIMMAX
 10
594.0000000000073
 20
420.0000000000145
  9
$ORTHOMODE
 70
     1
  9
$REGENMODE
 70
     1
  9
$FILLMODE
 70
     1
  9
$QTEXTMODE
 70
     0
  9
$MIRRTEXT
 70
     0
  9
$LTSCALE
 40
1.0
  9
$ATTMODE
 70
     1
  9
$TEXTSIZE
 40
3.2
  9
$TRACEWID
 40
1.0
  9
$TEXTSTYLE
  7
STANDARD
  9
$CLAYER
  8
0
  9
$CELTYPE
  6
ByLayer
  9
$CECOLOR
 62
   256
  9
$CELTSCALE
 40
1.0
  9
$DISPSILH
 70
     0
  9
$DIMSCALE
 40
1.0
  9
$DIMASZ
 40
1.0
  9
$DIMEXO
 40
1.0
  9
$DIMDLI
 40
10.0
  9
$DIMRND
 40
0.0
  9
$DIMDLE
 40
0.0
  9
$DIMEXE
 40
0.0
  9
$DIMTP
 40
0.1
  9
$DIMTM
 40
0.1
  9
$DIMTXT
 40
3.5
  9
$DIMCEN
 40
0.0
  9
$DIMTSZ
 40
0.0
  9
$DIMTOL
 70
     0
  9
$DIMLIM
 70
     0
  9
$DIMTIH
 70
     0
  9
$DIMTOH
 70
     0
  9
$DIMSE1
 70
     0
  9
$DIMSE2
 70
     0
  9
$DIMTAD
 70
     1
  9
$DIMZIN
 70
     8
  9
$DIMBLK
  1
Dot
  9
$DIMASO
 70
     1
  9
$DIMSHO
 70
     1
  9
$DIMPOST
  1

  9
$DIMAPOST
  1
"
  9
$DIMALT
 70
     0
  9
$DIMALTD
 70
     2
  9
$DIMALTF
 40
0.0393701
  9
$DIMLFAC
 40
1.0
  9
$DIMTOFL
 70
     1
  9
$DIMTVP
 40
0.0
  9
$DIMTIX
 70
     0
  9
$DIMSOXD
 70
     0
  9
$DIMSAH
 70
     0
  9
$DIMBLK1
  1

  9
$DIMBLK2
  1

  9
$DIMSTYLE
  2
S-1
  9
$DIMCLRD
 70
   256
  9
$DIMCLRE
 70
   256
  9
$DIMCLRT
 70
     2
  9
$DIMTFAC
 40
0.71
  9
$DIMGAP
 40
1.5
  9
$DIMJUST
 70
     0
  9
$DIMSD1
 70
     0
  9
$DIMSD2
 70
     0
  9
$DIMTOLJ
 70
     0
  9
$DIMTZIN
 70
     8
  9
$DIMALTZ
 70
     0
  9
$DIMALTTZ
 70
     0
  9
$DIMUPT
 70
     0
  9
$DIMDEC
 70
     2
  9
$DIMTDEC
 70
     2
  9
$DIMALTU
 70
     2
  9
$DIMALTTD
 70
     2
  9
$DIMTXSTY
  7
STANDARD
  9
$DIMAUNIT
 70
     0
  9
$DIMADEC
 70
     0
  9
$DIMALTRND
 40
0.0
  9
$DIMAZIN
 70
     2
  9
$DIMDSEP
 70
    46
  9
$DIMATFIT
 70
     3
  9
$DIMFRAC
 70
     0
  9
$DIMLDRBLK
  1
Dot
  9
$DIMLUNIT
 70
     2
  9
$DIMLWD
 70
    -1
  9
$DIMLWE
 70
    -1
  9
$DIMTMOVE
 70
     0
  9
$LUNITS
 70
     2
  9
$LUPREC
 70
     2
  9
$SKETCHINC
 40
1.0
  9
$FILLETRAD
 40
0.0
  9
$AUNITS
 70
     0
  9
$AUPREC
 70
     0
  9
$MENU
  1
.
  9
$ELEVATION
 40
0.0
  9
$PELEVATION
 40
0.0
  9
$THICKNESS
 40
0.0
  9
$LIMCHECK
 70
     0
  9
$CHAMFERA
 40
0.0
  9
$CHAMFERB
 40
0.0
  9
$CHAMFERC
 40
20.0
  9
$CHAMFERD
 40
0.0
  9
$SKPOLY
 70
     0
  9
$TDCREATE
 40
2455567.561054317
  9
$TDUCREATE
 40
2455567.186054318
  9
$TDUPDATE
 40
2457192.340891991
  9
$TDUUPDATE
 40
2457191.965891991
  9
$TDINDWG
 40
3.3530194792
  9
$TDUSRTIMER
 40
3.3530174537
  9
$USRTIMER
 70
     1
  9
$ANGBASE
 50
0.0
  9
$ANGDIR
 70
     0
  9
$PDMODE
 70
     0
  9
$PDSIZE
 40
-3.0
  9
$PLINEWID
 40
0.0
  9
$SPLFRAME
 70
     0
  9
$SPLINETYPE
 70
     6
  9
$SPLINESEGS
 70
     8
  9
$HANDSEED
  5
AECA9
  9
$SURFTAB1
 70
     6
  9
$SURFTAB2
 70
     6
  9
$SURFTYPE
 70
     6
  9
$SURFU
 70
     6
  9
$SURFV
 70
     6
  9
$UCSBASE
  2

  9
$UCSNAME
  2

  9
$UCSORG
 10
0.0
 20
0.0
 30
0.0
  9
$UCSXDIR
 10
1.0
 20
0.0
 30
0.0
  9
$UCSYDIR
 10
0.0
 20
1.0
 30
0.0
  9
$UCSORTHOREF
  2

  9
$UCSORTHOVIEW
 70
     0
  9
$UCSORGTOP
 10
0.0
 20
0.0
 30
0.0
  9
$UCSORGBOTTOM
 10
0.0
 20
0.0
 30
0.0
  9
$UCSORGLEFT
 10
0.0
 20
0.0
 30
0.0
  9
$UCSORGRIGHT
 10
0.0
 20
0.0
 30
0.0
  9
$UCSORGFRONT
 10
0.0
 20
0.0
 30
0.0
  9
$UCSORGBACK
 10
0.0
 20
0.0
 30
0.0
  9
$PUCSBASE
  2

  9
$PUCSNAME
  2

  9
$PUCSORG
 10
0.0
 20
0.0
 30
0.0
  9
$PUCSXDIR
 10
1.0
 20
0.0
 30
0.0
  9
$PUCSYDIR
 10
0.0
 20
1.0
 30
0.0
  9
$PUCSORTHOREF
  2

  9
$PUCSORTHOVIEW
 70
     0
  9
$PUCSORGTOP
 10
0.0
 20
0.0
 30
0.0
  9
$PUCSORGBOTTOM
 10
0.0
 20
0.0
 30
0.0
  9
$PUCSORGLEFT
 10
0.0
 20
0.0
 30
0.0
  9
$PUCSORGRIGHT
 10
0.0
 20
0.0
 30
0.0
  9
$PUCSORGFRONT
 10
0.0
 20
0.0
 30
0.0
  9
$PUCSORGBACK
 10
0.0
 20
0.0
 30
0.0
  9
$USERI1
 70
     0
  9
$USERI2
 70
     0
  9
$USERI3
 70
     0
  9
$USERI4
 70
     0
  9
$USERI5
 70
     0
  9
$USERR1
 40
0.0
  9
$USERR2
 40
0.0
  9
$USERR3
 40
0.0
  9
$USERR4
 40
0.0
  9
$USERR5
 40
0.0
  9
$WORLDVIEW
 70
     1
  9
$SHADEDGE
 70
     3
  9
$SHADEDIF
 70
    70
  9
$TILEMODE
 70
     1
  9
$MAXACTVP
 70
    64
  9
$PINSBASE
 10
0.0
 20
0.0
 30
0.0
  9
$PLIMCHECK
 70
     0
  9
$PEXTMIN
 10
1.000000000000000E+20
 20
1.000000000000000E+20
 30
1.000000000000000E+20
  9
$PEXTMAX
 10
-1.000000000000000E+20
 20
-1.000000000000000E+20
 30
-1.000000000000000E+20
  9
$PLIMMIN
 10
-3.17498779296875
 20
-3.174999952316283
  9
$PLIMMAX
 10
293.4970092773438
 20
206.692492723465
  9
$UNITMODE
 70
     0
  9
$VISRETAIN
 70
     1
  9
$PLINEGEN
 70
     0
  9
$PSLTSCALE
 70
     1
  9
$TREEDEPTH
 70
  3020
  9
$CMLSTYLE
  2
Standard
  9
$CMLJUST
 70
     0
  9
$CMLSCALE
 40
20.0
  9
$PROXYGRAPHICS
 70
     1
  9
$MEASUREMENT
 70
     1
  9
$CELWEIGHT
370
    -1
  9
$ENDCAPS
280
     0
  9
$JOINSTYLE
280
     0
  9
$LWDISPLAY
290
     1
  9
$INSUNITS
 70
     4
  9
$HYPERLINKBASE
  1

  9
$STYLESHEET
  1
PRINTER1.ctb
  9
$XEDIT
290
     1
  9
$CEPSNTYPE
380
     0
  9
$PSTYLEMODE
290
     1
  9
$FINGERPRINTGUID
  2
{E0FB5660-30B4-4D8A-8C1D-9D7E99D72F0A}
  9
$VERSIONGUID
  2
{322EA2D1-1F66-4541-9E52-D836323E81F8}
  9
$EXTNAMES
290
     1
  9
$PSVPSCALE
 40
0.0
  9
$OLESTARTUP
290
     0
  0
ENDSEC
  0
SECTION
  2
CLASSES
  0
CLASS
  1
ACDBDICTIONARYWDFLT
  2
AcDbDictionaryWithDefault
  3
ObjectDBX Classes
 90
        0
280
     0
281
     0
  0
CLASS
  1
ACDBPLACEHOLDER
  2
AcDbPlaceHolder
  3
ObjectDBX Classes
 90
        0
280
     0
281
     0
  0
CLASS
  1
LAYOUT
  2
AcDbLayout
  3
ObjectDBX Classes
 90
        0
280
     0
281
     0
  0
CLASS
  1
AMGSETTINGSOBJ
  2
AmgSettingsObj
  3
"AcadM|Product Description: AutoCAD Mechanical|Company: Autodesk"
 90
    32768
280
     0
281
     0
  0
CLASS
  1
ACME_DOCUMENT
  2
AcMeDbDoc
  3
AcMeServices
 90
    32768
280
     0
281
     0
  0
CLASS
  1
ACMESCOPE
  2
AcMeScope
  3
AcMeServices
 90
    32768
280
     0
281
     0
  0
CLASS
  1
ACMECOMMANDHISTORY
  2
AcMeCommandHistory
  3
AcMeServices
 90
    32768
280
     0
281
     0
  0
CLASS
  1
DICTIONARYVAR
  2
AcDbDictionaryVar
  3
ObjectDBX Classes
 90
        0
280
     0
281
     0
  0
CLASS
  1
ACIMSYSVARMAN
  2
AcImSysVarManager
  3
AcMeServices
 90
    32768
280
     0
281
     0
  0
CLASS
  1
ACIMREALSYSVAR
  2
AcImRealSysVar
  3
AcMeServices
 90
    32768
280
     0
281
     0
  0
CLASS
  1
ACIMINTSYSVAR
  2
AcImIntSysVar
  3
AcMeServices
 90
    32768
280
     0
281
     0
  0
CLASS
  1
ACMEDRAWINGMAN
  2
AcMeDrawingMan
  3
AcMeServices
 90
    32768
280
     0
281
     0
  0
CLASS
  1
ACMEVIEW
  2
AcMeView
  3
AcMeServices
 90
    32768
280
     0
281
     0
  0
CLASS
  1
ACDBENTITYCACHE
  2
AcMeEntityCache
  3
AcMeServices
 90
    32768
280
     0
281
     0
  0
CLASS
  1
GSMANAGER
  2
AcMeGSManager
  3
AcMeServices
 90
    32768
280
     0
281
     0
  0
CLASS
  1
AMDTINTERNALREACTOR
  2
AmdtInternalReactor
  3
AcMeServices
 90
    32768
280
     0
281
     0
  0
CLASS
  1
ACMESTATEMGR
  2
AcMeStateMgr
  3
AcMeServices
 90
    32768
280
     0
281
     0
  0
CLASS
  1
ACGREFMASTER
  2
AcGrefMaster
  3
AcAttribServices
 90
    32768
280
     0
281
     0
  0
CLASS
  1
ACME_DATABASE
  2
AcMeDbDatabase
  3
AcMeServices
 90
    32768
280
     0
281
     0
  0
CLASS
  1
ACRFINSADJUSTERMGR
  2
AcRfInsAdjusterMgr
  3
AcMeServices
 90
    32768
280
     0
281
     0
  0
CLASS
  1
ACGREFACADMASTER
  2
AcGrefacadMaster
  3
AcGrefServices
 90
    32768
280
     0
281
     0
  0
CLASS
  1
AMIMASTER
  2
AmiMaster
  3
AmiServices
 90
    32768
280
     0
281
     0
  0
CLASS
  1
ACMDATADICTIONARY
  2
AcmDataDictionary
  3
"AcmSymBB|Product Description: AutoCAD Mechanical|Company: Autodesk"
 90
    32768
280
     0
281
     0
  0
CLASS
  1
ACMDATAENTRYBLOCK
  2
AcmDataEntryBlock
  3
"AcmSymBB|Product Description: AutoCAD Mechanical|Company: Autodesk"
 90
    32768
280
     0
281
     0
  0
CLASS
  1
ACIMSTRSYSVAR
  2
AcImStrSysVar
  3
AcMeServices
 90
    32768
280
     0
281
     0
  0
CLASS
  1
ACMSTANDARDISO
  2
AcmStandardISO
  3
"Amdt_StdImp|Product Description: AutoCAD Mechanical|Company: Autodesk"
 90
    32768
280
     0
281
     0
  0
CLASS
  1
AMGOBJPROPCFG
  2
AmgObjPropCfg
  3
"AmgLay|Product Description: AutoCAD Mechanical|Company: Autodesk"
 90
    32769
280
     0
281
     0
  0
CLASS
  1
AMDTEDGESTANDARDISO
  2
AmdtEdgeStdISO
  3
"Amdt_StdImp|Product Description: AutoCAD Mechanical|Company: Autodesk"
 90
    32768
280
     0
281
     0
  0
CLASS
  1
ACMSURFSTANDARDISO
  2
AcmSurfTextStdISO
  3
"Amdt_StdImp|Product Description: AutoCAD Mechanical|Company: Autodesk"
 90
    32768
280
     0
281
     0
  0
CLASS
  1
ACMFCFSTANDARDISO
  2
AcmFCFStdISO
  3
"Amdt_StdImp|Product Description: AutoCAD Mechanical|Company: Autodesk"
 90
    32768
280
     0
281
     0
  0
CLASS
  1
ACMWELDSTANDARDISO
  2
AcmWeldingStdISO
  3
"Amdt_StdImp|Product Description: AutoCAD Mechanical|Company: Autodesk"
 90
    32768
280
     0
281
     0
  0
CLASS
  1
ACMIDSTANDARDISO
  2
AcmIdStdISO
  3
"Amdt_StdImp|Product Description: AutoCAD Mechanical|Company: Autodesk"
 90
    32768
280
     0
281
     0
  0
CLASS
  1
ACMDATUMSTANDARDISO
  2
AcmDatumStdISO
  3
"Amdt_StdImp|Product Description: AutoCAD Mechanical|Company: Autodesk"
 90
    32768
280
     0
281
     0
  0
CLASS
  1
ACMBOMSTANDARDISO
  2
AcmBOMStdISO
  3
"Amdt_StdImp|Product Description: AutoCAD Mechanical|Company: Autodesk"
 90
    32768
280
     0
281
     0
  0
CLASS
  1
ACMDETAILSTANDARDISO
  2
AmdtDetailSymStdISO
  3
"Amdt_StdImp|Product Description: AutoCAD Mechanical|Company: Autodesk"
 90
    32768
280
     0
281
     0
  0
CLASS
  1
ACMSECTIONSTANDARDISO
  2
AmdtSectionSymStdISO
  3
"Amdt_StdImp|Product Description: AutoCAD Mechanical|Company: Autodesk"
 90
    32768
280
     0
281
     0
  0
CLASS
  1
ACMCENTERLINESTANDARDISO
  2
AmdtCenterLineStdISO
  3
"Amdt_StdImp|Product Description: AutoCAD Mechanical|Company: Autodesk"
 90
    32768
280
     0
281
     0
  0
CLASS
  1
ACAMGLAYSTD
  2
AcAmgLayStd
  3
"AmgLay|Product Description: AutoCAD Mechanical|Company: Autodesk"
 90
    32768
280
     0
281
     0
  0
CLASS
  1
ACAMGDIMSTD
  2
AcAmgDimStd
  3
"AmgDim|Product Description: AutoCAD Mechanical|Company: Autodesk"
 90
    32768
280
     0
281
     0
  0
CLASS
  1
ACAMGTITLESTD
  2
AcAmgTitleStd
  3
"AmgTitle|Product Description: AutoCAD Mechanical|Company: Autodesk"
 90
    32768
280
     0
281
     0
  0
CLASS
  1
ACAMGFILTERDAT
  2
AcAmgFilterDat
  3
"AcadM|Product Description: AutoCAD Mechanical|Company: Autodesk"
 90
    32768
280
     0
281
     0
  0
CLASS
  1
LAYER_INDEX
  2
AcDbLayerIndex
  3
ObjectDBX Classes
 90
    32768
280
     0
281
     0
  0
CLASS
  1
IDBUFFER
  2
AcDbIdBuffer
  3
ObjectDBX Classes
 90
    32768
280
     0
281
     0
  0
CLASS
  1
PLOTSETTINGS
  2
AcDbPlotSettings
  3
ObjectDBX Classes
 90
    32768
280
     0
281
     0
  0
CLASS
  1
AMDTFORMULAUPDATEDISPATCHER
  2
AmdtFormulaUpdateDispatcher
  3
AcMeServices
 90
    32768
280
     0
281
     0
  0
CLASS
  1
ACMSTANDARDANSI
  2
AcmStandardANSI
  3
"Amdt_StdImp|Product Description: AutoCAD Mechanical|Company: Autodesk"
 90
    32768
280
     0
281
     0
  0
CLASS
  1
ACMSURFSTANDARDANSI
  2
AcmSurfTextStdANSI
  3
"Amdt_StdImp|Product Description: AutoCAD Mechanical|Company: Autodesk"
 90
    32768
280
     0
281
     0
  0
CLASS
  1
ACMFCFSTANDARDANSI
  2
AcmFCFStdANSI
  3
"Amdt_StdImp|Product Description: AutoCAD Mechanical|Company: Autodesk"
 90
    32768
280
     0
281
     0
  0
CLASS
  1
ACMWELDSTANDARDANSI
  2
AcmWeldingStdANSI
  3
"Amdt_StdImp|Product Description: AutoCAD Mechanical|Company: Autodesk"
 90
    32768
280
     0
281
     0
  0
CLASS
  1
ACMIDSTANDARDANSI
  2
AcmIdStdANSI
  3
"Amdt_StdImp|Product Description: AutoCAD Mechanical|Company: Autodesk"
 90
    32768
280
     0
281
     0
  0
CLASS
  1
ACMDATUMSTANDARDANSI
  2
AcmDatumStdANSI
  3
"Amdt_StdImp|Product Description: AutoCAD Mechanical|Company: Autodesk"
 90
    32768
280
     0
281
     0
  0
CLASS
  1
ACMBOMSTANDARDANSI
  2
AcmBOMStdANSI
  3
"Amdt_StdImp|Product Description: AutoCAD Mechanical|Company: Autodesk"
 90
    32768
280
     0
281
     0
  0
CLASS
  1
ACMDETAILSTANDARDANSI
  2
AmdtDetailSymStdANSI
  3
"Amdt_StdImp|Product Description: AutoCAD Mechanical|Company: Autodesk"
 90
    32768
280
     0
281
     0
  0
CLASS
  1
ACMSECTIONSTANDARDANSI
  2
AmdtSectionSymStdANSI
  3
"Amdt_StdImp|Product Description: AutoCAD Mechanical|Company: Autodesk"
 90
    32768
280
     0
281
     0
  0
CLASS
  1
ACMCENTERLINESTANDARDANSI
  2
AmdtCenterLineStdANSI
  3
"Amdt_StdImp|Product Description: AutoCAD Mechanical|Company: Autodesk"
 90
    32768
280
     0
281
     0
  0
CLASS
  1
ACMBOM
  2
AcmBom
  3
"AcmSymBB|Product Description: AutoCAD Mechanical|Company: Autodesk"
 90
    32768
280
     0
281
     0
  0
CLASS
  1
ACMDATAENTRYPART
  2
AcmDataEntryPart
  3
"AcmSymBB|Product Description: AutoCAD Mechanical|Company: Autodesk"
 90
    32768
280
     0
281
     0
  0
CLASS
  1
ACMPARTREF
  2
AcmPartRef
  3
"AcmSymBB|Product Description: AutoCAD Mechanical|Company: Autodesk"
 90
    35839
280
     0
281
     1
  0
CLASS
  1
ACDBCIRCARCRES
  2
AcDbCircArcRes
  3
AcGrefServices
 90
    32768
280
     0
281
     0
  0
CLASS
  1
ACMBOMROW
  2
AcmBomRow
  3
"AcmSymBB|Product Description: AutoCAD Mechanical|Company: Autodesk"
 90
    32768
280
     0
281
     0
  0
CLASS
  1
ACMBALLOON
  2
AcmBalloon
  3
"AcmSymBB|Product Description: AutoCAD Mechanical|Company: Autodesk"
 90
    35839
280
     0
281
     1
  0
CLASS
  1
AMDTNOTE
  2
AmdtNote
  3
"AcmSymBB|Product Description: AutoCAD Mechanical|Company: Autodesk"
 90
    35839
280
     0
281
     1
  0
CLASS
  1
STDPART2D
  2
AmgStdPart
  3
"g3vace|Class: AmgStdPart|Product Description: AutoCAD Mechanical|Company: Autodesk"
 90
    35839
280
     0
281
     1
  0
CLASS
  1
ACDBSTDPARTRES_LINE
  2
AcDbStdPartRes_Line
  3
"g3vace|Class: AcDbStdPartRes_Line|Product Description: AutoCAD Mechanical|Company: Autodesk"
 90
    32768
280
     0
281
     0
  0
CLASS
  1
ACMDATAENTRY
  2
AcmDataEntry
  3
"AcmSymBB|Product Description: AutoCAD Mechanical|Company: Autodesk"
 90
    32768
280
     0
281
     0
  0
CLASS
  1
ACDBOPPOLYLINERES
  2
AcDbOpPolylineRes
  3
AcGrefServices
 90
    32768
280
     0
281
     0
  0
CLASS
  1
ACMPARTLIST
  2
AcmPartList
  3
"AcmSymBB|Product Description: AutoCAD Mechanical|Company: Autodesk"
 90
    35839
280
     0
281
     1
  0
CLASS
  1
ACDBLINERES
  2
AcDbLineRes
  3
AcGrefServices
 90
    32768
280
     0
281
     0
  0
CLASS
  1
ACRFINSADJ
  2
AcRfInsAdjuster
  3
AcMeServices
 90
    32768
280
     0
281
     0
  0
CLASS
  1
AM_DRAWING_MGR
  2
AcDmDwgMgr
  3
AcMechDwgViewMgmt
 90
    32768
280
     0
281
     0
  0
CLASS
  1
AM_DWG_DOCUMENT
  2
AcDmDwgDocument
  3
AcMechDwgViewMgmt
 90
    32768
280
     0
281
     0
  0
CLASS
  1
AM_DWG_SHEET
  2
AcDmSheet
  3
AcMechDwgViewMgmt
 90
    32768
280
     0
281
     0
  0
CLASS
  1
AM_VIEWDIMPARMAP
  2
AcDmViewDimParMap
  3
AcMechDwgViewMgmt
 90
    32768
280
     0
281
     0
  0
CLASS
  1
AM_DWGMGR_NAME
  2
AcDmDwgMgrName
  3
AcMechDwgViewMgmt
 90
    32768
280
     0
281
     0
  0
CLASS
  1
AMDTMENUSTATEMGR
  2
AmdtMenuStateMgr
  3
McadcomServices
 90
    32768
280
     0
281
     0
  0
CLASS
  1
AMDTMCOMMENUSTATE
  2
AmdtMcomMenuState
  3
McadcomServices
 90
    32768
280
     0
281
     0
  0
CLASS
  1
ASAPP
  2
AcAsAppObject
  3
AutoSurfServices
 90
        0
280
     0
281
     0
  0
CLASS
  1
IM_STATIC_MAN
  2
AcImStaticVarManager
  3
AcMeServices
 90
    32768
280
     0
281
     0
  0
CLASS
  1
ACIMDBLSTATICVAR
  2
AcImDblStaticVar
  3
AcMeServices
 90
    32768
280
     0
281
     0
  0
CLASS
  1
ACIMSTRSTATICVAR
  2
AcImStrStaticVar
  3
AcMeServices
 90
    32768
280
     0
281
     0
  0
CLASS
  1
ACIMINTSTATICVAR
  2
AcImIntStaticVar
  3
AcMeServices
 90
    32768
280
     0
281
     0
  0
CLASS
  1
ACASGREFMASTER
  2
AcAsGrefMaster
  3
AutoSurfResolverServices
 90
        0
280
     0
281
     0
  0
CLASS
  1
ACADGREFMODULE
  2
AcAdGrefModule
  3
AdGrefServices
 90
        0
280
     0
281
     0
  0
CLASS
  1
AMDTMAPISURFMOUDULE
  2
AmdtMApiSurfModule
  3
MApiSurfServices
 90
        0
280
     0
281
     0
  0
CLASS
  1
MAPIAMMOUDLE
  2
MApiAmModule
  3
MApiAmServices
 90
    32768
280
     0
281
     0
  0
CLASS
  1
AMDTADMENUSTATE
  2
AmdtAdMenuState
  3
DesignerServices
 90
    32768
280
     0
281
     0
  0
CLASS
  1
ADAPPL
  2
AcAdAppl
  3
DesignerServices
 90
    32768
280
     0
281
     0
  0
CLASS
  1
DEPMGR
  2
AcAdDepMgr
  3
DesignerServices
 90
    32768
280
     0
281
     0
  0
CLASS
  1
PARAMMGR
  2
AcAdParamMgr
  3
DesignerServices
 90
    32768
280
     0
281
     0
  0
CLASS
  1
PARAMSCOPE
  2
AcAdParamScope
  3
DesignerServices
 90
    32768
280
     0
281
     0
  0
CLASS
  1
NAMEDAPPL
  2
AcAdNamedAppl
  3
DesignerServices
 90
    32768
280
     0
281
     0
  0
CLASS
  1
ADHNTMPLT
  2
AdHoleNoteTemplateMgr
  3
DesignerServices
 90
    32768
280
     0
281
     0
  0
CLASS
  1
AM_HNTEMPLATE_MGR_NAME
  2
AdHoleNoteTemplateMgrName
  3
DesignerServices
 90
    32768
280
     0
281
     0
  0
CLASS
  1
AMDTDMMENUSTATE
  2
AmdtDmMenuState
  3
AcMechDwgViewMgmt
 90
    32768
280
     0
281
     0
  0
CLASS
  1
MAPIADMODULE
  2
MApiAdModule
  3
MApiAdServices
 90
        0
280
     0
281
     0
  0
CLASS
  1
AMDTAMMENUSTATE
  2
AmdtAmMenuState
  3
DesignerAssemblies
 90
    32768
280
     0
281
     0
  0
CLASS
  1
ACAMPROJECT
  2
AcAmProject
  3
DesignerAssemblies
 90
    32768
280
     0
281
     0
  0
CLASS
  1
ACAMGRCOMPDEF
  2
AcAmGrCompDef
  3
DesignerAssemblies
 90
    32768
280
     0
281
     0
  0
CLASS
  1
ACCMCONTEXT
  2
AcCmContext
  3
DesignerAssemblies
 90
    32768
280
     0
281
     0
  0
CLASS
  1
ACAMCOMPDEF
  2
AcAmCompDef
  3
DesignerAssemblies
 90
    32768
280
     0
281
     0
  0
CLASS
  1
ACAMCOMPDEFMGR
  2
AcAmCompDefMgr
  3
DesignerAssemblies
 90
    32768
280
     0
281
     0
  0
CLASS
  1
AMCONTEXTMGR
  2
AcAmContextMgr
  3
DesignerAssemblies
 90
    32768
280
     0
281
     0
  0
CLASS
  1
ACAMCONTEXTMODELER
  2
AcAmContextModeler
  3
DesignerAssemblies
 90
    32768
280
     0
281
     0
  0
CLASS
  1
CATALOGSTATE
  2
AcAmCatalogState
  3
DesignerAssemblies
 90
    32768
280
     0
281
     0
  0
CLASS
  1
ACAMGRCOMPDEFSET
  2
AcAmGrCompDefSet
  3
DesignerAssemblies
 90
    32768
280
     0
281
     0
  0
CLASS
  1
AMDTBROWSERDBTAB
  2
AmdtBrowserDbTab
  3
McadcomServices
 90
    32768
280
     0
281
     0
  0
CLASS
  1
CBROWSERAPPOBJECT
  2
CBrowserAppObject
  3
McadcomServices
 90
    32768
280
     0
281
     0
  0
CLASS
  1
DM_PLACEHOLDER
  2
AcDmSelsetPlaceholder
  3
AcMechDwgViewMgmt
 90
    32768
280
     0
281
     0
  0
CLASS
  1
ACMPICKOBJ
  2
AcmPickEnt
  3
"AcmSymBB|Product Description: AutoCAD Mechanical|Company: Autodesk"
 90
    32768
280
     0
281
     1
  0
CLASS
  1
ACMNOTESTANDARDISO
  2
AmdtNoteStdISO
  3
"Amdt_StdImp|Product Description: AutoCAD Mechanical|Company: Autodesk"
 90
    32768
280
     0
281
     0
  0
CLASS
  1
ACMNOTESTANDARDANSI
  2
AmdtNoteStdANSI
  3
"Amdt_StdImp|Product Description: AutoCAD Mechanical|Company: Autodesk"
 90
    32768
280
     0
281
     0
  0
CLASS
  1
ACMTHREADLINESTANDARDISO
  2
AmdtThreadLineStdISO
  3
"Amdt_StdImp|Product Description: AutoCAD Mechanical|Company: Autodesk"
 90
    32768
280
     0
281
     0
  0
CLASS
  1
ACMTHREADLINESTANDARDANSI
  2
AmdtThreadLineStdANSI
  3
"Amdt_StdImp|Product Description: AutoCAD Mechanical|Company: Autodesk"
 90
    32768
280
     0
281
     0
  0
CLASS
  1
TABLESTYLE
  2
AcDbTableStyle
  3
ObjectDBX Classes
 90
     4095
280
     0
281
     0
  0
CLASS
  1
SORTENTSTABLE
  2
AcDbSortentsTable
  3
ObjectDBX Classes
 90
        0
280
     0
281
     0
  0
CLASS
  1
MATERIAL
  2
AcDbMaterial
  3
ObjectDBX Classes
 90
     1153
280
     0
281
     0
  0
CLASS
  1
VISUALSTYLE
  2
AcDbVisualStyle
  3
ObjectDBX Classes
 90
     4095
280
     0
281
     0
  0
CLASS
  1
ACRFATTGENMGR
  2
AcRfAttGeneralMgr
  3
AcAttribServices
 90
    32768
280
     0
281
     0
  0
CLASS
  1
ACRFOBJATTMGR
  2
AcRfObjAttGroupMgr
  3
AcAttribServices
 90
    32768
280
     0
281
     0
  0
CLASS
  1
ACRFMCADAPIATTHOLDER
  2
AcRfMCADAPIAttHolder
  3
AcAttribServices
 90
    32768
280
     0
281
     0
  0
CLASS
  1
AMDTSYSATTR
  2
AmdtSystemAttribute
  3
AcAttribServices
 90
    32768
280
     0
281
     0
  0
CLASS
  1
ACMTAPERSTANDARDISO
  2
AcmTaperStdISO
  3
"Amdt_StdImp|Product Description: AutoCAD Mechanical|Company: Autodesk"
 90
    32768
280
     0
281
     0
  0
CLASS
  1
CAMSSTRUCTBTNSTATE
  2
StructBtnState
  3
L"DesignerAssemblies"
 90
    32768
280
     0
281
     0
  0
CLASS
  1
DIMASSOC
  2
AcDbDimAssoc
  3
"AcDbDimAssoc|Product Desc:     AcDim ARX App For Dimension|Company:          Autodesk, Inc.|WEB Address:      www.autodesk.com"
 90
    32768
280
     0
281
     0
  0
CLASS
  1
AMDTNOTETEMPLATEDB
  2
AmdtNoteTemplateDB
  3
AMDT_STDIMP_MODULE_NAME
 90
    32768
280
     0
281
     0
  0
CLASS
  1
ACMTAPERSTANDARDANSI
  2
AcmTaperStdANSI
  3
"Amdt_StdImp|Product Description: AutoCAD Mechanical|Company: Autodesk"
 90
    32768
280
     0
281
     0
  0
CLASS
  1
ACAMGHOLECHARTSTDANSI
  2
AcAmgHoleChartStdANSI
  3
ACMSYMBB_MODULE_NAME
 90
    32768
280
     0
281
     0
  0
CLASS
  1
AMDTEDGESTANDARDISO13715
  2
AmdtEdgeStdISO13715
  3
"Amdt_StdImp|Product Description: AutoCAD Mechanical|Company: Autodesk"
 90
    32768
280
     0
281
     0
  0
CLASS
  1
ACAMGHOLECHARTSTDISO
  2
AcAmgHoleChartStdISO
  3
ACMSYMBB_MODULE_NAME
 90
    32768
280
     0
281
     0
  0
CLASS
  1
ACDBDIMENSIONRES
  2
AcDbDimensionRes
  3
L"AcDbDimensionRes|Product Description: AutoCAD Mechanical 2000|Company: Autodesk"
 90
    32768
280
     0
281
     0
  0
CLASS
  1
SCALE
  2
AcDbScale
  3
ObjectDBX Classes
 90
     1153
280
     0
281
     0
  0
CLASS
  1
MLEADERSTYLE
  2
AcDbMLeaderStyle
  3
ACDB_MLEADERSTYLE_CLASS
 90
     4095
280
     0
281
     0
  0
CLASS
  1
ACDBSECTIONVIEWSTYLE
  2
AcDbSectionViewStyle
  3
ObjectDBX Classes
 90
     1025
280
     0
281
     0
  0
CLASS
  1
ACDBDETAILVIEWSTYLE
  2
AcDbDetailViewStyle
  3
ObjectDBX Classes
 90
     1025
280
     0
281
     0
  0
CLASS
  1
CELLSTYLEMAP
  2
AcDbCellStyleMap
  3
ObjectDBX Classes
 90
     1152
280
     0
281
     0
  0
ENDSEC
  0
SECTION
  2
TABLES
  0
TABLE
  2
VPORT
  5
8
330
0
100
AcDbSymbolTable
 70
     1
  0
VPORT
  5
B0EC
330
8
100
AcDbSymbolTableRecord
100
AcDbViewportTableRecord
  2
*Active
 70
     0
 10
0.0
 20
0.0
 11
1.0
 21
1.0
 12
297.0
 22
210.0
 13
0.0
 23
0.0
 14
2.5
 24
2.5
 15
10.0
 25
10.0
 16
0.0
 26
0.0
 36
1.0
 17
0.0
 27
0.0
 37
0.0
 40
420.0
 41
2.046913580246913
 42
50.0
 43
-1370.695619172058
 44
-1370.695619172058
 50
0.0
 51
0.0
 71
     0
 72
   100
 73
     1
 74
     3
 75
     0
 76
     0
 77
     0
 78
     0
281
     0
 65
     0
110
0.0
120
0.0
130
0.0
111
1.0
121
0.0
131
0.0
112
0.0
122
1.0
132
0.0
 79
     0
146
0.0
1001
ACAD_NAV_VCDISPLAY
1070
     3
  0
ENDTAB
  0
TABLE
  2
LTYPE
  5
5
330
0
100
AcDbSymbolTable
 70
    15
  0
LTYPE
  5
14
330
5
100
AcDbSymbolTableRecord
100
AcDbLinetypeTableRecord
  2
ByBlock
 70
     0
  3

 72
    65
 73
     0
 40
0.0
  0
LTYPE
  5
15
330
5
100
AcDbSymbolTableRecord
100
AcDbLinetypeTableRecord
  2
ByLayer
 70
     0
  3

 72
    65
 73
     0
 40
0.0
  0
LTYPE
  5
16
330
5
100
AcDbSymbolTableRecord
100
AcDbLinetypeTableRecord
  2
Continuous
 70
     0
  3
Solid line
 72
    65
 73
     0
 40
0.0
  0
LTYPE
  5
52
330
5
100
AcDbSymbolTableRecord
100
AcDbLinetypeTableRecord
  2
Amconstr
 70
     0
  3
_______________________
 72
    65
 73
     2
 40
9999.0
 49
9999.0
 74
     0
 49
0.0
 74
     0
  0
LTYPE
  5
4DED
330
5
100
AcDbSymbolTableRecord
100
AcDbLinetypeTableRecord
  2
中線
 70
     0
  3
___________________
 72
    65
 73
     2
 40
2.0
 49
1.0
 74
     0
 49
1.0
 74
     0
  0
LTYPE
  5
4DF6
330
5
100
AcDbSymbolTableRecord
100
AcDbLinetypeTableRecord
  2
細線
 70
     0
  3
___________________
 72
    65
 73
     2
 40
2.0
 49
1.0
 74
     0
 49
1.0
 74
     0
  0
LTYPE
  5
4DF7
330
5
100
AcDbSymbolTableRecord
100
AcDbLinetypeTableRecord
  2
太線
 70
     0
  3
___________________
 72
    65
 73
     2
 40
2.0
 49
1.0
 74
     0
 49
1.0
 74
     0
  0
LTYPE
  5
4EA7
330
5
100
AcDbSymbolTableRecord
100
AcDbLinetypeTableRecord
  2
文字
 70
     0
  3
_________________
 72
    65
 73
     2
 40
2.0
 49
1.0
 74
     0
 49
1.0
 74
     0
  0
LTYPE
  5
4EA9
330
5
100
AcDbSymbolTableRecord
100
AcDbLinetypeTableRecord
  2
寸法線
 70
     0
  3
________________
 72
    65
 73
     2
 40
2.0
 49
1.0
 74
     0
 49
1.0
 74
     0
  0
LTYPE
  5
4F12
330
5
100
AcDbSymbolTableRecord
100
AcDbLinetypeTableRecord
  2
ハッチング
 70
     0
  3
_________________
 72
    65
 73
     2
 40
2.0
 49
1.0
 74
     0
 49
1.0
 74
     0
  0
LTYPE
  5
5180
330
5
100
AcDbSymbolTableRecord
100
AcDbLinetypeTableRecord
  2
陰線1
 70
     0
  3
__ __ __ __
 72
    65
 73
     2
 40
4.0
 49
2.2
 74
     0
 49
-1.8
 74
     0
  0
LTYPE
  5
5182
330
5
100
AcDbSymbolTableRecord
100
AcDbLinetypeTableRecord
  2
切断線
 70
     0
  3
/\/-/\/-/\/-/\/-/\/-/\/
 72
    65
 73
     2
 40
11.0001
 49
0.0001
 74
     4
 75
   135
340
56
 46
0.04
 50
0.0
 44
0.0
 45
0.0
 49
-11.0
 74
     0
  0
LTYPE
  5
5183
330
5
100
AcDbSymbolTableRecord
100
AcDbLinetypeTableRecord
  2
想像線1
 70
     0
  3
__ __ __ _____ __ __ ____
 72
    65
 73
     6
 40
14.5
 49
6.0
 74
     0
 49
-1.5
 74
     0
 49
2.0
 74
     0
 49
-1.5
 74
     0
 49
2.0
 74
     0
 49
-1.5
 74
     0
  0
LTYPE
  5
5185
330
5
100
AcDbSymbolTableRecord
100
AcDbLinetypeTableRecord
  2
中心線1
 70
     0
  3
___ _ ___ _ ___
 72
    65
 73
     4
 40
18.0
 49
12.0
 74
     0
 49
-2.0
 74
     0
 49
2.0
 74
     0
 49
-2.0
 74
     0
  0
LTYPE
  5
AB711
330
5
100
AcDbSymbolTableRecord
100
AcDbLinetypeTableRecord
  2
DASHED
 70
     0
  3
__ __ __ __ __ __ __ __ __ __ __ __ __ __ __
 72
    65
 73
     2
 40
0.75
 49
0.5
 74
     0
 49
-0.25
 74
     0
  0
LTYPE
  5
AB712
330
5
100
AcDbSymbolTableRecord
100
AcDbLinetypeTableRecord
  2
CENTER
 70
     0
  3
____ _ ____ _ ____ _ ____ _ ____ _ ____ _ ____
 72
    65
 73
     4
 40
2.0
 49
1.25
 74
     0
 49
-0.25
 74
     0
 49
0.25
 74
     0
 49
-0.25
 74
     0
  0
LTYPE
  5
AB885
330
5
100
AcDbSymbolTableRecord
100
AcDbLinetypeTableRecord
  2
PHANTOM
 70
     0
  3
_____ _ _ _____ _ _ _____ _ _ _____ _ _ ____  
 72
    65
 73
     6
 40
15.5
 49
8.0
 74
     0
 49
-1.5
 74
     0
 49
1.5
 74
     0
 49
-1.5
 74
     0
 49
1.5
 74
     0
 49
-1.5
 74
     0
  0
ENDTAB
  0
TABLE
  2
LAYER
  5
2
102
{ACAD_XDICTIONARY
360
3F95
102
}
330
0
100
AcDbSymbolTable
 70
    20
  0
LAYER
  5
10
102
{ACAD_XDICTIONARY
360
AB489
102
}
330
2
100
AcDbSymbolTableRecord
100
AcDbLayerTableRecord
  2
0
 70
     0
 62
     7
  6
Continuous
370
    -3
390
F
  0
LAYER
  5
6D1
330
2
100
AcDbSymbolTableRecord
100
AcDbLayerTableRecord
  2
Defpoints
 70
     0
 62
     7
  6
Continuous
290
     0
370
    -3
390
F
  0
LAYER
  5
ACA1
102
{ACAD_XDICTIONARY
360
AB491
102
}
330
2
100
AcDbSymbolTableRecord
100
AcDbLayerTableRecord
  2
AM_6
 70
     0
 62
     2
  6
文字
370
    13
390
F
1001
AcAecLayerStandard
1000

1000

  0
LAYER
  5
AB501
102
{ACAD_XDICTIONARY
360
AB502
102
}
330
2
100
AcDbSymbolTableRecord
100
AcDbLayerTableRecord
  2
AM_0
 70
     0
 62
     7
  6
中線
370
    30
390
F
1001
AcAecLayerStandard
1000

1000

  0
LAYER
  5
AB503
102
{ACAD_XDICTIONARY
360
AB504
102
}
330
2
100
AcDbSymbolTableRecord
100
AcDbLayerTableRecord
  2
size
 70
     0
 62
     5
  6
Continuous
290
     0
370
    25
390
F
  0
LAYER
  5
AB505
102
{ACAD_XDICTIONARY
360
AB506
102
}
330
2
100
AcDbSymbolTableRecord
100
AcDbLayerTableRecord
  2
waku
 70
     0
 62
     7
  6
Continuous
370
    35
390
F
  0
LAYER
  5
AB507
102
{ACAD_XDICTIONARY
360
AB508
102
}
330
2
100
AcDbSymbolTableRecord
100
AcDbLayerTableRecord
  2
hyomoji
 70
     0
 62
     2
  6
Continuous
370
    13
390
F
  0
LAYER
  5
AB509
102
{ACAD_XDICTIONARY
360
AB50A
102
}
330
2
100
AcDbSymbolTableRecord
100
AcDbLayerTableRecord
  2
hyosen1
 70
     0
 62
     1
  6
Continuous
370
    30
390
F
  0
LAYER
  5
AB50B
102
{ACAD_XDICTIONARY
360
AB50C
102
}
330
2
100
AcDbSymbolTableRecord
100
AcDbLayerTableRecord
  2
hyosen2
 70
     0
 62
     1
  6
Continuous
370
    13
390
F
  0
LAYER
  5
AB50D
102
{ACAD_XDICTIONARY
360
AB50E
102
}
330
2
100
AcDbSymbolTableRecord
100
AcDbLayerTableRecord
  2
AM_1
 70
     0
 62
    30
  6
太線
370
    40
390
F
1001
AcAecLayerStandard
1000

1000

  0
LAYER
  5
AB50F
102
{ACAD_XDICTIONARY
360
AB510
102
}
330
2
100
AcDbSymbolTableRecord
100
AcDbLayerTableRecord
  2
AM_2
 70
     0
 62
     1
  6
細線
370
    13
390
F
1001
AcAecLayerStandard
1000

1000

  0
LAYER
  5
AB511
102
{ACAD_XDICTIONARY
360
AB512
102
}
330
2
100
AcDbSymbolTableRecord
100
AcDbLayerTableRecord
  2
AM_3
 70
     0
 62
     6
  6
陰線1
370
    13
390
F
1001
AcAecLayerStandard
1000

1000

  0
LAYER
  5
AB513
102
{ACAD_XDICTIONARY
360
AB514
102
}
330
2
100
AcDbSymbolTableRecord
100
AcDbLayerTableRecord
  2
AM_5
 70
     0
 62
     3
  6
寸法線
370
    13
390
F
1001
AcAecLayerStandard
1000

1000

  0
LAYER
  5
AB515
102
{ACAD_XDICTIONARY
360
AB516
102
}
330
2
100
AcDbSymbolTableRecord
100
AcDbLayerTableRecord
  2
AM_7
 70
     0
 62
     4
  6
中心線1
370
    13
390
F
1001
AcAecLayerStandard
1000

1000

  0
LAYER
  5
AB517
102
{ACAD_XDICTIONARY
360
AB518
102
}
330
2
100
AcDbSymbolTableRecord
100
AcDbLayerTableRecord
  2
AM_8
 70
     0
 62
     1
  6
ハッチング
370
    13
390
F
1001
AcAecLayerStandard
1000

1000

  0
LAYER
  5
AB519
102
{ACAD_XDICTIONARY
360
AB51A
102
}
330
2
100
AcDbSymbolTableRecord
100
AcDbLayerTableRecord
  2
AM_10
 70
     0
 62
     7
  6
切断線
370
    30
390
F
1001
AcAecLayerStandard
1000

1000

  0
LAYER
  5
AB51B
102
{ACAD_XDICTIONARY
360
AB51C
102
}
330
2
100
AcDbSymbolTableRecord
100
AcDbLayerTableRecord
  2
AM_11
 70
     0
 62
     2
  6
想像線1
370
    13
390
F
1001
AcAecLayerStandard
1000

1000

  0
LAYER
  5
AB51D
102
{ACAD_XDICTIONARY
360
AB51E
102
}
330
2
100
AcDbSymbolTableRecord
100
AcDbLayerTableRecord
  2
AM_CL
 70
     0
 62
     1
  6
Amconstr
370
    15
390
F
1001
AcAecLayerStandard
1000

1000

  0
LAYER
  5
AB51F
102
{ACAD_XDICTIONARY
360
AB520
102
}
330
2
100
AcDbSymbolTableRecord
100
AcDbLayerTableRecord
  2
JISSEN
 70
     0
 62
     7
  6
Continuous
370
    -3
390
F
  0
LAYER
  5
AE71A
330
2
100
AcDbSymbolTableRecord
100
AcDbLayerTableRecord
  2
SAISEN
 70
     0
 62
     4
  6
Continuous
370
    -3
390
F
  0
ENDTAB
  0
TABLE
  2
STYLE
  5
3
330
0
100
AcDbSymbolTable
 70
     5
  0
STYLE
  5
11
330
3
100
AcDbSymbolTableRecord
100
AcDbTextStyleTableRecord
  2
STANDARD
 70
     0
 40
0.0
 41
0.7
 50
0.0
 71
     0
 42
3.2
  3
romans.shx
  4
extfont.shx
  0
STYLE
  5
56
330
3
100
AcDbSymbolTableRecord
100
AcDbTextStyleTableRecord
  2

 70
     1
 40
0.0
 41
1.0
 50
0.0
 71
     0
 42
2.5
  3
ltypeshp.shx
  4

  0
STYLE
  5
AC80
330
3
100
AcDbSymbolTableRecord
100
AcDbTextStyleTableRecord
  2

 70
     1
 40
0.0
 41
1.0
 50
0.0
 71
     0
 42
3.2
  3
genltshp.shx
  4

  0
STYLE
  5
AB715
330
3
100
AcDbSymbolTableRecord
100
AcDbTextStyleTableRecord
  2
K
 70
     0
 40
0.0
 41
1.0
 50
0.0
 71
     0
 42
3.0
  3
ROMANS
  4
EXTFONT
  0
STYLE
  5
AB89B
330
3
100
AcDbSymbolTableRecord
100
AcDbTextStyleTableRecord
  2
NORMAL
 70
     0
 40
0.0
 41
1.0
 50
0.0
 71
     0
 42
3.2
  3
monotxt.shx
  4
extfont.shx
  0
ENDTAB
  0
TABLE
  2
VIEW
  5
6
330
0
100
AcDbSymbolTable
 70
     6
  0
VIEW
  5
AE1
330
6
100
AcDbSymbolTableRecord
100
AcDbViewTableRecord
  2
AM_VIEW1
 70
     0
 40
297.0
 10
-970.0097649269439
 20
-11756.86094600418
 41
473.7940828402367
 11
0.0
 21
0.0
 31
1.0
 12
0.0
 22
0.0
 32
0.0
 42
50.0
 43
-1370.695619172058
 44
-1370.695619172058
 50
0.0
 71
     0
281
     0
 72
     0
  0
VIEW
  5
AE2
330
6
100
AcDbSymbolTableRecord
100
AcDbViewTableRecord
  2
AM_VIEW2
 70
     0
 40
297.0
 10
-603.8038477671805
 20
-11756.86094600418
 41
473.7940828402367
 11
0.0
 21
0.0
 31
1.0
 12
0.0
 22
0.0
 32
0.0
 42
50.0
 43
-1370.695619172058
 44
-1370.695619172058
 50
0.0
 71
     0
281
     0
 72
     0
  0
VIEW
  5
AE3
330
6
100
AcDbSymbolTableRecord
100
AcDbViewTableRecord
  2
AM_VIEW3
 70
     0
 40
297.0
 10
-970.0097649269439
 20
-12053.86094600418
 41
473.7940828402367
 11
0.0
 21
0.0
 31
1.0
 12
0.0
 22
0.0
 32
0.0
 42
50.0
 43
-1370.695619172058
 44
-1370.695619172058
 50
0.0
 71
     0
281
     0
 72
     0
  0
VIEW
  5
AE4
330
6
100
AcDbSymbolTableRecord
100
AcDbViewTableRecord
  2
AM_VIEW4
 70
     0
 40
297.0
 10
-603.8038477671805
 20
-12053.86094600418
 41
473.7940828402367
 11
0.0
 21
0.0
 31
1.0
 12
0.0
 22
0.0
 32
0.0
 42
50.0
 43
-1370.695619172058
 44
-1370.695619172058
 50
0.0
 71
     0
281
     0
 72
     0
  0
VIEW
  5
AE5
330
6
100
AcDbSymbolTableRecord
100
AcDbViewTableRecord
  2
AM_VIEW5
 70
     0
 40
297.0
 10
-786.9068063470622
 20
-11905.36094600418
 41
473.7940828402365
 11
0.0
 21
0.0
 31
1.0
 12
0.0
 22
0.0
 32
0.0
 42
50.0
 43
-1370.695619172058
 44
-1370.695619172058
 50
0.0
 71
     0
281
     0
 72
     0
  0
VIEW
  5
AE6
330
6
100
AcDbSymbolTableRecord
100
AcDbViewTableRecord
  2
AM_VIEW6
 70
     0
 40
593.9940600000007
 10
-786.9068063470622
 20
-11905.36094600418
 41
947.5786897988164
 11
0.0
 21
0.0
 31
1.0
 12
0.0
 22
0.0
 32
0.0
 42
50.0
 43
-1370.695619172058
 44
-1370.695619172058
 50
0.0
 71
     0
281
     0
 72
     0
  0
ENDTAB
  0
TABLE
  2
UCS
  5
7
330
0
100
AcDbSymbolTable
 70
     0
  0
ENDTAB
  0
TABLE
  2
APPID
  5
9
330
0
100
AcDbSymbolTable
 70
    65
  0
APPID
  5
12
330
9
100
AcDbSymbolTableRecord
100
AcDbRegAppTableRecord
  2
ACAD
 70
     0
  0
APPID
  5
30
330
9
100
AcDbSymbolTableRecord
100
AcDbRegAppTableRecord
  2
MCAD_NO_VIS
 70
     0
  0
APPID
  5
31
330
9
100
AcDbSymbolTableRecord
100
AcDbRegAppTableRecord
  2
ACAD_TEMP_GRAPHIC
 70
     0
  0
APPID
  5
44
330
9
100
AcDbSymbolTableRecord
100
AcDbRegAppTableRecord
  2
ACATTRIBSERVICES
 70
     0
  0
APPID
  5
7A1
330
9
100
AcDbSymbolTableRecord
100
AcDbRegAppTableRecord
  2
GENIUS_GENDIMSH_14
 70
     0
  0
APPID
  5
A49
330
9
100
AcDbSymbolTableRecord
100
AcDbRegAppTableRecord
  2
GENIUS_GENREC_14
 70
     0
  0
APPID
  5
A4A
330
9
100
AcDbSymbolTableRecord
100
AcDbRegAppTableRecord
  2
GENIUS_GENOBJ-N-REC_13
 70
     0
  0
APPID
  5
A4B
330
9
100
AcDbSymbolTableRecord
100
AcDbRegAppTableRecord
  2
GENIUS_GENODEF_13
 70
     0
  0
APPID
  5
A4C
330
9
100
AcDbSymbolTableRecord
100
AcDbRegAppTableRecord
  2
DCO15
 70
     0
  0
APPID
  5
ADC
330
9
100
AcDbSymbolTableRecord
100
AcDbRegAppTableRecord
  2
GENIUS_GENOLIS_13
 70
     0
  0
APPID
  5
ADD
330
9
100
AcDbSymbolTableRecord
100
AcDbRegAppTableRecord
  2
GENIUS_GENOENT_13
 70
     0
  0
APPID
  5
ADE
330
9
100
AcDbSymbolTableRecord
100
AcDbRegAppTableRecord
  2
GENIUS_GENOBJ-N-TIT_13
 70
     0
  0
APPID
  5
ADF
330
9
100
AcDbSymbolTableRecord
100
AcDbRegAppTableRecord
  2
GENIUS_GENTITLE_13
 70
     0
  0
APPID
  5
AE0
330
9
100
AcDbSymbolTableRecord
100
AcDbRegAppTableRecord
  2
GENIUS_GENOREF_13
 70
     0
  0
APPID
  5
AE7
330
9
100
AcDbSymbolTableRecord
100
AcDbRegAppTableRecord
  2
GENIUS_GENSCREG_15
 70
     0
  0
APPID
  5
AE8
330
9
100
AcDbSymbolTableRecord
100
AcDbRegAppTableRecord
  2
GENIUS_GENOBJ-N-SDF_13
 70
     0
  0
APPID
  5
FAF
330
9
100
AcDbSymbolTableRecord
100
AcDbRegAppTableRecord
  2
GENIUS_GENBLLY_14
 70
     0
  0
APPID
  5
FB0
330
9
100
AcDbSymbolTableRecord
100
AcDbRegAppTableRecord
  2
GENIUS_GENTRA_14
 70
     0
  0
APPID
  5
1285
330
9
100
AcDbSymbolTableRecord
100
AcDbRegAppTableRecord
  2
GENIUS_GENDTOL_13
 70
     0
  0
APPID
  5
142D
330
9
100
AcDbSymbolTableRecord
100
AcDbRegAppTableRecord
  2
GENIUS_GENOBJ-N-CEN_13
 70
     0
  0
APPID
  5
1AB5
330
9
100
AcDbSymbolTableRecord
100
AcDbRegAppTableRecord
  2
GENIUS_GENOBJ-N-CRS_13
 70
     0
  0
APPID
  5
1B36
330
9
100
AcDbSymbolTableRecord
100
AcDbRegAppTableRecord
  2
GENIUS_GENOBJ-N-HTC_13
 70
     0
  0
APPID
  5
1B37
330
9
100
AcDbSymbolTableRecord
100
AcDbRegAppTableRecord
  2
GENIUS_GENHATCH_13
 70
     0
  0
APPID
  5
216D
330
9
100
AcDbSymbolTableRecord
100
AcDbRegAppTableRecord
  2
GENIUS_GENOBJ-N-FIL_13
 70
     0
  0
APPID
  5
2356
330
9
100
AcDbSymbolTableRecord
100
AcDbRegAppTableRecord
  2
GEVID990412420
 70
     0
  0
APPID
  5
2357
330
9
100
AcDbSymbolTableRecord
100
AcDbRegAppTableRecord
  2
GEVDC
 70
     0
  0
APPID
  5
2358
330
9
100
AcDbSymbolTableRecord
100
AcDbRegAppTableRecord
  2
GEVCON
 70
     0
  0
APPID
  5
235B
330
9
100
AcDbSymbolTableRecord
100
AcDbRegAppTableRecord
  2
GEVRADREF
 70
     0
  0
APPID
  5
2360
330
9
100
AcDbSymbolTableRecord
100
AcDbRegAppTableRecord
  2
GENIUS_GENBH_13
 70
     0
  0
APPID
  5
2362
330
9
100
AcDbSymbolTableRecord
100
AcDbRegAppTableRecord
  2
GENIUS_GENOBJ-NBEHI-BHF_13
 70
     0
  0
APPID
  5
2364
330
9
100
AcDbSymbolTableRecord
100
AcDbRegAppTableRecord
  2
GENIUS_GENOBJ-NBEHI-BHB_13
 70
     0
  0
APPID
  5
2379
330
9
100
AcDbSymbolTableRecord
100
AcDbRegAppTableRecord
  2
GENIUS_GENOBJ-F-SCPASSM_13
 70
     0
  0
APPID
  5
3D74
330
9
100
AcDbSymbolTableRecord
100
AcDbRegAppTableRecord
  2
GENIUS_GENDIM_13
 70
     0
  0
APPID
  5
3D76
330
9
100
AcDbSymbolTableRecord
100
AcDbRegAppTableRecord
  2
GENIUS_GE3DTOL_13
 70
     0
  0
APPID
  5
3D9C
330
9
100
AcDbSymbolTableRecord
100
AcDbRegAppTableRecord
  2
AD_DRAW
 70
     0
  0
APPID
  5
3DE8
330
9
100
AcDbSymbolTableRecord
100
AcDbRegAppTableRecord
  2
ASURF_PCURVE_APPNAME
 70
     0
  0
APPID
  5
3DED
330
9
100
AcDbSymbolTableRecord
100
AcDbRegAppTableRecord
  2
AMG_3D2D_5.0
 70
     0
  0
APPID
  5
3E1B
330
9
100
AcDbSymbolTableRecord
100
AcDbRegAppTableRecord
  2
DESIGNERASSEMBLIES
 70
     0
  0
APPID
  5
3E20
330
9
100
AcDbSymbolTableRecord
100
AcDbRegAppTableRecord
  2
ACADM_DIM_EDIT
 70
     0
  0
APPID
  5
3E21
330
9
100
AcDbSymbolTableRecord
100
AcDbRegAppTableRecord
  2
AMDT_DM_ADJ
 70
     0
  0
APPID
  5
4143
330
9
100
AcDbSymbolTableRecord
100
AcDbRegAppTableRecord
  2
GENIUS_GENFIL_13
 70
     0
  0
APPID
  5
4144
330
9
100
AcDbSymbolTableRecord
100
AcDbRegAppTableRecord
  2
GENIUS_GENOBJ-N-CHA_13
 70
     0
  0
APPID
  5
4E17
330
9
100
AcDbSymbolTableRecord
100
AcDbRegAppTableRecord
  2
GEVID1008153417
 70
     0
  0
APPID
  5
4E58
330
9
100
AcDbSymbolTableRecord
100
AcDbRegAppTableRecord
  2
GEVID1008153418
 70
     0
  0
APPID
  5
4E5E
330
9
100
AcDbSymbolTableRecord
100
AcDbRegAppTableRecord
  2
GEVID1008153419
 70
     0
  0
APPID
  5
4E64
330
9
100
AcDbSymbolTableRecord
100
AcDbRegAppTableRecord
  2
GEVID1008153420
 70
     0
  0
APPID
  5
4E75
330
9
100
AcDbSymbolTableRecord
100
AcDbRegAppTableRecord
  2
GEVID1008153421
 70
     0
  0
APPID
  5
4EB7
330
9
100
AcDbSymbolTableRecord
100
AcDbRegAppTableRecord
  2
GENIUS_AMGTXT_16
 70
     0
  0
APPID
  5
7645
330
9
100
AcDbSymbolTableRecord
100
AcDbRegAppTableRecord
  2
GENIUS_GENOBJ-N-DIM_13
 70
     0
  0
APPID
  5
AAD0
330
9
100
AcDbSymbolTableRecord
100
AcDbRegAppTableRecord
  2
ACAD_DSTYLE_DIMARC_LENGTH_SYMBOL
 70
     0
  0
APPID
  5
AAD1
330
9
100
AcDbSymbolTableRecord
100
AcDbRegAppTableRecord
  2
ACAD_DSTYLE_DIMJOGGED_JOGANGLE_SYMBOL
 70
     0
  0
APPID
  5
AAFD
330
9
100
AcDbSymbolTableRecord
100
AcDbRegAppTableRecord
  2
ACAD_PSEXT
 70
     0
  0
APPID
  5
AD61
330
9
100
AcDbSymbolTableRecord
100
AcDbRegAppTableRecord
  2
AcAecLayerStandard
 70
     0
  0
APPID
  5
AEE3
330
9
100
AcDbSymbolTableRecord
100
AcDbRegAppTableRecord
  2
ACAD_EXEMPT_FROM_CAD_STANDARDS
 70
     0
  0
APPID
  5
B1BE
330
9
100
AcDbSymbolTableRecord
100
AcDbRegAppTableRecord
  2
GENIUS_GENCEN_19
 70
     0
  0
APPID
  5
B4DF
330
9
100
AcDbSymbolTableRecord
100
AcDbRegAppTableRecord
  2
ACAD_MLEADERVER
 70
     0
  0
APPID
  5
AB4D9
330
9
100
AcDbSymbolTableRecord
100
AcDbRegAppTableRecord
  2
ACAD_NAV_VCDISPLAY
 70
     0
  0
APPID
  5
AB523
330
9
100
AcDbSymbolTableRecord
100
AcDbRegAppTableRecord
  2
ACAD_DSTYLE_DIMJAG
 70
     0
  0
APPID
  5
AB524
330
9
100
AcDbSymbolTableRecord
100
AcDbRegAppTableRecord
  2
ACAD_DSTYLE_DIMTALN
 70
     0
  0
APPID
  5
AB525
330
9
100
AcDbSymbolTableRecord
100
AcDbRegAppTableRecord
  2
ACAD_DSTYLE_DIMBREAK
 70
     0
  0
APPID
  5
AB89D
330
9
100
AcDbSymbolTableRecord
100
AcDbRegAppTableRecord
  2
CONTENTBLOCKDESCRIPTION
 70
     0
  0
APPID
  5
AB89E
330
9
100
AcDbSymbolTableRecord
100
AcDbRegAppTableRecord
  2
CONTENTBLOCKICON
 70
     0
  0
APPID
  5
AB89F
330
9
100
AcDbSymbolTableRecord
100
AcDbRegAppTableRecord
  2
CONTENTTABDATA
 70
     0
  0
APPID
  5
AB8A0
330
9
100
AcDbSymbolTableRecord
100
AcDbRegAppTableRecord
  2
CONTENTCURRENTTAB
 70
     0
  0
APPID
  5
AC67F
330
9
100
AcDbSymbolTableRecord
100
AcDbRegAppTableRecord
  2
ACAD_DSTYLE_DIMRADIAL_EXTENSION
 70
     0
  0
ENDTAB
  0
TABLE
  2
DIMSTYLE
  5
A
330
0
100
AcDbSymbolTable
 70
     1
100
AcDbDimStyleTable
 71
     1
340
AB521
  0
DIMSTYLE
105
AB521
102
{ACAD_REACTORS
330
AC63E
330
AC64B
330
AC658
330
AC665
330
AC68A
330
AE8AB
330
AE8AC
330
AE8AD
330
AE9B9
102
}
330
A
100
AcDbSymbolTableRecord
100
AcDbDimStyleTableRecord
  2
S-1
 70
     0
  4
"
 41
1.0
 42
1.0
 43
10.0
 44
0.0
 47
0.1
 48
0.1
 73
     0
 74
     0
 77
     1
 78
     8
 79
     2
140
3.5
141
0.0
143
0.0393701
146
0.71
147
1.5
172
     1
176
   256
177
   256
178
     2
271
     2
272
     2
283
     0
284
     8
340
11
341
AB69A
342
AB69A
371
    -1
372
    -1
1001
ACAD_DSTYLE_DIMJOGGED_JOGANGLE_SYMBOL
1070
   384
1040
0.7853981633974483
1001
ACAD_DSTYLE_DIMJAG
1070
   388
1040
1.5
1001
ACAD_DSTYLE_DIMTALN
1070
   392
1070
     0
1001
ACAD_DSTYLE_DIMARC_LENGTH_SYMBOL
1070
   379
1070
     1
  0
ENDTAB
  0
TABLE
  2
BLOCK_RECORD
  5
1
330
0
100
AcDbSymbolTable
 70
    11
  0
BLOCK_RECORD
  5
1F
102
{ACAD_XDICTIONARY
360
8A
102
}
330
1
100
AcDbSymbolTableRecord
100
AcDbBlockTableRecord
  2
*Model_Space
340
22
  0
BLOCK_RECORD
  5
1B
330
1
100
AcDbSymbolTableRecord
100
AcDbBlockTableRecord
  2
*Paper_Space
340
1E
  0
BLOCK_RECORD
  5
23
330
1
100
AcDbSymbolTableRecord
100
AcDbBlockTableRecord
  2
*Paper_Space0
340
26
  0
BLOCK_RECORD
  5
AB69A
330
1
100
AcDbSymbolTableRecord
100
AcDbBlockTableRecord
  2
_Dot
340
0
102
{BLKREFS
331
AE9D5
331
AE9D6
331
AE9DE
331
AE9DF
331
AE9E7
331
AE9E8
331
AE9F0
331
AE9F1
331
AE9F9
331
AE9FA
331
AEA02
331
AEA03
331
AEA0B
331
AEA0C
331
AEA15
331
AEA16
331
AEA1C
102
}
  0
BLOCK_RECORD
  5
AC63F
330
1
100
AcDbSymbolTableRecord
100
AcDbBlockTableRecord
  2
*D2
340
0
  0
BLOCK_RECORD
  5
AC64C
330
1
100
AcDbSymbolTableRecord
100
AcDbBlockTableRecord
  2
*D3
340
0
  0
BLOCK_RECORD
  5
AC659
330
1
100
AcDbSymbolTableRecord
100
AcDbBlockTableRecord
  2
*D4
340
0
  0
BLOCK_RECORD
  5
AC666
330
1
100
AcDbSymbolTableRecord
100
AcDbBlockTableRecord
  2
*D5
340
0
  0
BLOCK_RECORD
  5
AC68B
330
1
100
AcDbSymbolTableRecord
100
AcDbBlockTableRecord
  2
*D6
340
0
  0
BLOCK_RECORD
  5
AE8AE
330
1
100
AcDbSymbolTableRecord
100
AcDbBlockTableRecord
  2
*D7
340
0
  0
BLOCK_RECORD
  5
AE8BA
330
1
100
AcDbSymbolTableRecord
100
AcDbBlockTableRecord
  2
*D8
340
0
  0
BLOCK_RECORD
  5
AE8C6
330
1
100
AcDbSymbolTableRecord
100
AcDbBlockTableRecord
  2
*D9
340
0
  0
BLOCK_RECORD
  5
AE9BA
330
1
100
AcDbSymbolTableRecord
100
AcDbBlockTableRecord
  2
*D10
340
0
  0
ENDTAB
  0
ENDSEC
  0
SECTION
  2
BLOCKS
  0
BLOCK
  5
20
330
1F
100
AcDbEntity
  8
0
100
AcDbBlockBegin
  2
*Model_Space
 70
     0
 10
0.0
 20
0.0
 30
0.0
  3
*Model_Space
  1

  0
ENDBLK
  5
21
330
1F
100
AcDbEntity
  8
0
100
AcDbBlockEnd
  0
BLOCK
  5
1C
330
1B
100
AcDbEntity
 67
     1
  8
0
100
AcDbBlockBegin
  2
*Paper_Space
 70
     0
 10
0.0
 20
0.0
 30
0.0
  3
*Paper_Space
  1

  0
ENDBLK
  5
1D
330
1B
100
AcDbEntity
 67
     1
  8
0
100
AcDbBlockEnd
  0
BLOCK
  5
24
330
23
100
AcDbEntity
 67
     1
  8
0
100
AcDbBlockBegin
  2
*Paper_Space0
 70
     0
 10
0.0
 20
0.0
 30
0.0
  3
*Paper_Space0
  1

  0
ENDBLK
  5
25
330
23
100
AcDbEntity
 67
     1
  8
0
100
AcDbBlockEnd
  0
BLOCK
  5
AB69D
330
AB69A
100
AcDbEntity
  8
0
100
AcDbBlockBegin
  2
_Dot
 70
     0
 10
0.0
 20
0.0
 30
0.0
  3
_Dot
  1

  0
LWPOLYLINE
  5
AB69B
330
AB69A
100
AcDbEntity
  8
0
  6
ByBlock
 62
     0
100
AcDbPolyline
 90
        2
 70
     1
 43
0.5
 10
-0.25
 20
0.0
 42
1.0
 10
0.25
 20
0.0
 42
1.0
  0
LINE
  5
AB69C
330
AB69A
100
AcDbEntity
  8
0
  6
ByBlock
 62
     0
370
    -2
100
AcDbLine
 10
-0.5
 20
0.0
 30
0.0
 11
-1.0
 21
0.0
 31
0.0
  0
ENDBLK
  5
AB69E
330
AB69A
100
AcDbEntity
  8
0
100
AcDbBlockEnd
  0
BLOCK
  5
AC640
330
AC63F
100
AcDbEntity
  8
0
100
AcDbBlockBegin
  2
*D2
 70
     1
 10
0.0
 20
0.0
 30
0.0
  3
*D2
  1

  0
LINE
  5
AE9D2
330
AC63F
100
AcDbEntity
  8
AM_5
100
AcDbLine
 10
513.1310973121293
 20
328.4168915087906
 30
0.0
 11
548.9205779366511
 21
328.4168915087906
 31
0.0
  0
LINE
  5
AE9D3
330
AC63F
100
AcDbEntity
  8
AM_5
100
AcDbLine
 10
513.1310973121293
 20
270.4168915087906
 30
0.0
 11
548.9205779366511
 21
270.4168915087906
 31
0.0
  0
LINE
  5
AE9D4
330
AC63F
100
AcDbEntity
  8
AM_5
100
AcDbLine
 10
548.9205779366511
 20
327.4168915087906
 30
0.0
 11
548.9205779366511
 21
271.4168915087906
 31
0.0
  0
INSERT
  5
AE9D5
330
AC63F
100
AcDbEntity
  8
AM_5
100
AcDbBlockReference
  2
_Dot
 10
548.9205779366511
 20
328.4168915087906
 30
0.0
 50
90.0
  0
INSERT
  5
AE9D6
330
AC63F
100
AcDbEntity
  8
AM_5
100
AcDbBlockReference
  2
_Dot
 10
548.9205779366511
 20
270.4168915087906
 30
0.0
 50
270.0
  0
MTEXT
  5
AE9D7
330
AC63F
100
AcDbEntity
  8
AM_5
 62
     2
100
AcDbMText
 10
545.670577936651
 20
299.4168915087907
 30
0.0
 40
3.5
 41
0.0
 71
     5
 72
     1
  1
B
 11
0.0000000000000001
 21
1.0
 31
0.0
 73
     1
 44
1.0
1001
ACAD
1000
MTEXTBEGIN
1070
    73
1070
     1
1070
    44
1040
1.0
1070
    74
1070
     0
1000
MTEXTEND
  0
POINT
  5
AE9D8
330
AC63F
100
AcDbEntity
  8
Defpoints
 62
     0
100
AcDbPoint
 10
512.1310973121293
 20
328.4168915087906
 30
0.0
  0
POINT
  5
AE9D9
330
AC63F
100
AcDbEntity
  8
Defpoints
 62
     0
100
AcDbPoint
 10
512.1310973121293
 20
270.4168915087906
 30
0.0
  0
POINT
  5
AE9DA
330
AC63F
100
AcDbEntity
  8
Defpoints
 62
     0
100
AcDbPoint
 10
548.9205779366511
 20
270.4168915087906
 30
0.0
  0
ENDBLK
  5
AC641
330
AC63F
100
AcDbEntity
  8
0
100
AcDbBlockEnd
  0
BLOCK
  5
AC64D
330
AC64C
100
AcDbEntity
  8
0
100
AcDbBlockBegin
  2
*D3
 70
     1
 10
0.0
 20
0.0
 30
0.0
  3
*D3
  1

  0
LINE
  5
AE9DB
330
AC64C
100
AcDbEntity
  8
AM_5
100
AcDbLine
 10
520.0310973121292
 20
320.4168915087906
 30
0.0
 11
540.3159396851915
 21
320.4168915087906
 31
0.0
  0
LINE
  5
AE9DC
330
AC64C
100
AcDbEntity
  8
AM_5
100
AcDbLine
 10
520.0310973121291
 20
278.4168915087906
 30
0.0
 11
540.3159396851915
 21
278.4168915087906
 31
0.0
  0
LINE
  5
AE9DD
330
AC64C
100
AcDbEntity
  8
AM_5
100
AcDbLine
 10
540.3159396851915
 20
319.4168915087906
 30
0.0
 11
540.3159396851915
 21
279.4168915087906
 31
0.0
  0
INSERT
  5
AE9DE
330
AC64C
100
AcDbEntity
  8
AM_5
100
AcDbBlockReference
  2
_Dot
 10
540.3159396851915
 20
320.4168915087906
 30
0.0
 50
90.0
  0
INSERT
  5
AE9DF
330
AC64C
100
AcDbEntity
  8
AM_5
100
AcDbBlockReference
  2
_Dot
 10
540.3159396851915
 20
278.4168915087906
 30
0.0
 50
270.0
  0
MTEXT
  5
AE9E0
330
AC64C
100
AcDbEntity
  8
AM_5
 62
     2
100
AcDbMText
 10
537.0659396851914
 20
299.4168915087907
 30
0.0
 40
3.5
 41
0.0
 71
     5
 72
     1
  1
Y
 11
0.0000000000000001
 21
1.0
 31
0.0
 73
     1
 44
1.0
1001
ACAD
1000
MTEXTBEGIN
1070
    73
1070
     1
1070
    44
1040
1.0
1070
    74
1070
     0
1000
MTEXTEND
  0
POINT
  5
AE9E1
330
AC64C
100
AcDbEntity
  8
Defpoints
 62
     0
100
AcDbPoint
 10
519.0310973121293
 20
320.4168915087906
 30
0.0
  0
POINT
  5
AE9E2
330
AC64C
100
AcDbEntity
  8
Defpoints
 62
     0
100
AcDbPoint
 10
519.0310973121292
 20
278.4168915087906
 30
0.0
  0
POINT
  5
AE9E3
330
AC64C
100
AcDbEntity
  8
Defpoints
 62
     0
100
AcDbPoint
 10
540.3159396851915
 20
278.4168915087906
 30
0.0
  0
ENDBLK
  5
AC64E
330
AC64C
100
AcDbEntity
  8
0
100
AcDbBlockEnd
  0
BLOCK
  5
AC65A
330
AC659
100
AcDbEntity
  8
0
100
AcDbBlockBegin
  2
*D4
 70
     1
 10
0.0
 20
0.0
 30
0.0
  3
*D4
  1

  0
LINE
  5
AE9E4
330
AC659
100
AcDbEntity
  8
AM_5
100
AcDbLine
 10
457.6310973121293
 20
271.0168915087907
 30
0.0
 11
457.6310973121293
 21
253.1611197913185
 31
0.0
  0
LINE
  5
AE9E5
330
AC659
100
AcDbEntity
  8
AM_5
100
AcDbLine
 10
512.6310973121293
 20
271.0168915087907
 30
0.0
 11
512.6310973121293
 21
253.1611197913185
 31
0.0
  0
LINE
  5
AE9E6
330
AC659
100
AcDbEntity
  8
AM_5
100
AcDbLine
 10
458.6310973121292
 20
253.1611197913185
 30
0.0
 11
511.6310973121293
 21
253.1611197913185
 31
0.0
  0
INSERT
  5
AE9E7
330
AC659
100
AcDbEntity
  8
AM_5
100
AcDbBlockReference
  2
_Dot
 10
457.6310973121293
 20
253.1611197913185
 30
0.0
 50
180.0
  0
INSERT
  5
AE9E8
330
AC659
100
AcDbEntity
  8
AM_5
100
AcDbBlockReference
  2
_Dot
 10
512.6310973121293
 20
253.1611197913185
 30
0.0
  0
MTEXT
  5
AE9E9
330
AC659
100
AcDbEntity
  8
AM_5
 62
     2
100
AcDbMText
 10
485.1310973121293
 20
256.4111197913184
 30
0.0
 40
3.5
 41
0.0
 71
     5
 72
     1
  1
X
 73
     1
 44
1.0
1001
ACAD
1000
MTEXTBEGIN
1070
    73
1070
     1
1070
    44
1040
1.0
1070
    74
1070
     0
1000
MTEXTEND
  0
POINT
  5
AE9EA
330
AC659
100
AcDbEntity
  8
Defpoints
 62
     0
100
AcDbPoint
 10
457.6310973121293
 20
272.0168915087906
 30
0.0
  0
POINT
  5
AE9EB
330
AC659
100
AcDbEntity
  8
Defpoints
 62
     0
100
AcDbPoint
 10
512.6310973121293
 20
272.0168915087906
 30
0.0
  0
POINT
  5
AE9EC
330
AC659
100
AcDbEntity
  8
Defpoints
 62
     0
100
AcDbPoint
 10
512.6310973121293
 20
253.1611197913185
 30
0.0
  0
ENDBLK
  5
AC65B
330
AC659
100
AcDbEntity
  8
0
100
AcDbBlockEnd
  0
BLOCK
  5
AC667
330
AC666
100
AcDbEntity
  8
0
100
AcDbBlockBegin
  2
*D5
 70
     1
 10
0.0
 20
0.0
 30
0.0
  3
*D5
  1

  0
LINE
  5
AE9ED
330
AC666
100
AcDbEntity
  8
AM_5
100
AcDbLine
 10
520.1310973121293
 20
277.4168915087906
 30
0.0
 11
520.1310973121293
 21
245.8223574866593
 31
0.0
  0
LINE
  5
AE9EE
330
AC666
100
AcDbEntity
  8
AM_5
100
AcDbLine
 10
450.1310973121294
 20
277.4168915087906
 30
0.0
 11
450.1310973121294
 21
245.8223574866593
 31
0.0
  0
LINE
  5
AE9EF
330
AC666
100
AcDbEntity
  8
AM_5
100
AcDbLine
 10
519.1310973121293
 20
245.8223574866593
 30
0.0
 11
451.1310973121294
 21
245.8223574866593
 31
0.0
  0
INSERT
  5
AE9F0
330
AC666
100
AcDbEntity
  8
AM_5
100
AcDbBlockReference
  2
_Dot
 10
520.1310973121293
 20
245.8223574866593
 30
0.0
  0
INSERT
  5
AE9F1
330
AC666
100
AcDbEntity
  8
AM_5
100
AcDbBlockReference
  2
_Dot
 10
450.1310973121294
 20
245.8223574866593
 30
0.0
 50
180.0
  0
MTEXT
  5
AE9F2
330
AC666
100
AcDbEntity
  8
AM_5
 62
     2
100
AcDbMText
 10
485.1310973121293
 20
249.0723574866593
 30
0.0
 40
3.5
 41
0.0
 71
     5
 72
     1
  1
A
 73
     1
 44
1.0
1001
ACAD
1000
MTEXTBEGIN
1070
    73
1070
     1
1070
    44
1040
1.0
1070
    74
1070
     0
1000
MTEXTEND
  0
POINT
  5
AE9F3
330
AC666
100
AcDbEntity
  8
Defpoints
 62
     0
100
AcDbPoint
 10
520.1310973121293
 20
278.4168915087906
 30
0.0
  0
POINT
  5
AE9F4
330
AC666
100
AcDbEntity
  8
Defpoints
 62
     0
100
AcDbPoint
 10
450.1310973121294
 20
278.4168915087906
 30
0.0
  0
POINT
  5
AE9F5
330
AC666
100
AcDbEntity
  8
Defpoints
 62
     0
100
AcDbPoint
 10
450.1310973121294
 20
245.8223574866593
 30
0.0
  0
ENDBLK
  5
AC668
330
AC666
100
AcDbEntity
  8
0
100
AcDbBlockEnd
  0
BLOCK
  5
AC68C
330
AC68B
100
AcDbEntity
  8
0
100
AcDbBlockBegin
  2
*D6
 70
     1
 10
0.0
 20
0.0
 30
0.0
  3
*D6
  1

  0
LINE
  5
AE9F6
330
AC68B
100
AcDbEntity
  8
AM_5
100
AcDbLine
 10
435.1310973121293
 20
285.4168915087906
 30
0.0
 11
418.5681009065835
 21
285.4168915087906
 31
0.0
  0
LINE
  5
AE9F7
330
AC68B
100
AcDbEntity
  8
AM_5
100
AcDbLine
 10
435.1310973121293
 20
313.4168915087904
 30
0.0
 11
418.5681009065835
 21
313.4168915087904
 31
0.0
  0
LINE
  5
AE9F8
330
AC68B
100
AcDbEntity
  8
AM_5
100
AcDbLine
 10
418.5681009065835
 20
286.4168915087906
 30
0.0
 11
418.5681009065835
 21
312.4168915087904
 31
0.0
  0
INSERT
  5
AE9F9
330
AC68B
100
AcDbEntity
  8
AM_5
100
AcDbBlockReference
  2
_Dot
 10
418.5681009065835
 20
285.4168915087906
 30
0.0
 50
270.0
  0
INSERT
  5
AE9FA
330
AC68B
100
AcDbEntity
  8
AM_5
100
AcDbBlockReference
  2
_Dot
 10
418.5681009065835
 20
313.4168915087904
 30
0.0
 50
90.0
  0
MTEXT
  5
AE9FB
330
AC68B
100
AcDbEntity
  8
AM_5
 62
     2
100
AcDbMText
 10
415.3181009065835
 20
299.4168915087906
 30
0.0
 40
3.5
 41
0.0
 71
     5
 72
     1
  1
W
 11
0.0000000000000001
 21
1.0
 31
0.0
 73
     1
 44
1.0
1001
ACAD
1000
MTEXTBEGIN
1070
    73
1070
     1
1070
    44
1040
1.0
1070
    74
1070
     0
1000
MTEXTEND
  0
POINT
  5
AE9FC
330
AC68B
100
AcDbEntity
  8
Defpoints
 62
     0
100
AcDbPoint
 10
436.1310973121293
 20
285.4168915087906
 30
0.0
  0
POINT
  5
AE9FD
330
AC68B
100
AcDbEntity
  8
Defpoints
 62
     0
100
AcDbPoint
 10
436.1310973121293
 20
313.4168915087904
 30
0.0
  0
POINT
  5
AE9FE
330
AC68B
100
AcDbEntity
  8
Defpoints
 62
     0
100
AcDbPoint
 10
418.5681009065835
 20
313.4168915087904
 30
0.0
  0
ENDBLK
  5
AC68D
330
AC68B
100
AcDbEntity
  8
0
100
AcDbBlockEnd
  0
BLOCK
  5
AE8AF
330
AE8AE
100
AcDbEntity
  8
0
100
AcDbBlockBegin
  2
*D7
 70
     1
 10
0.0
 20
0.0
 30
0.0
  3
*D7
  1

  0
LINE
  5
AE9FF
330
AE8AE
100
AcDbEntity
  8
AM_5
100
AcDbLine
 10
457.1310973121294
 20
155.3810379115105
 30
0.0
 11
416.9028329509562
 21
155.3810379115105
 31
0.0
  0
LINE
  5
AEA00
330
AE8AE
100
AcDbEntity
  8
AM_5
100
AcDbLine
 10
449.1310973121294
 20
225.3810379115104
 30
0.0
 11
416.9028329509562
 21
225.3810379115104
 31
0.0
  0
LINE
  5
AEA01
330
AE8AE
100
AcDbEntity
  8
AM_5
100
AcDbLine
 10
416.9028329509562
 20
156.3810379115105
 30
0.0
 11
416.9028329509562
 21
224.3810379115104
 31
0.0
  0
INSERT
  5
AEA02
330
AE8AE
100
AcDbEntity
  8
AM_5
100
AcDbBlockReference
  2
_Dot
 10
416.9028329509562
 20
155.3810379115105
 30
0.0
 50
270.0
  0
INSERT
  5
AEA03
330
AE8AE
100
AcDbEntity
  8
AM_5
100
AcDbBlockReference
  2
_Dot
 10
416.9028329509562
 20
225.3810379115104
 30
0.0
 50
90.0
  0
MTEXT
  5
AEA04
330
AE8AE
100
AcDbEntity
  8
AM_5
 62
     2
100
AcDbMText
 10
413.6528329509562
 20
190.3810379115105
 30
0.0
 40
3.5
 41
0.0
 71
     5
 72
     1
  1
H
 11
0.0000000000000001
 21
1.0
 31
0.0
 73
     1
 44
1.0
1001
ACAD
1000
MTEXTBEGIN
1070
    73
1070
     1
1070
    44
1040
1.0
1070
    74
1070
     0
1000
MTEXTEND
  0
POINT
  5
AEA05
330
AE8AE
100
AcDbEntity
  8
Defpoints
 62
     0
100
AcDbPoint
 10
458.1310973121294
 20
155.3810379115105
 30
0.0
  0
POINT
  5
AEA06
330
AE8AE
100
AcDbEntity
  8
Defpoints
 62
     0
100
AcDbPoint
 10
450.1310973121294
 20
225.3810379115104
 30
0.0
  0
POINT
  5
AEA07
330
AE8AE
100
AcDbEntity
  8
Defpoints
 62
     0
100
AcDbPoint
 10
416.9028329509562
 20
225.3810379115104
 30
0.0
  0
ENDBLK
  5
AE8B0
330
AE8AE
100
AcDbEntity
  8
0
100
AcDbBlockEnd
  0
BLOCK
  5
AE8BB
330
AE8BA
100
AcDbEntity
  8
0
100
AcDbBlockBegin
  2
*D8
 70
     1
 10
0.0
 20
0.0
 30
0.0
  3
*D8
  1

  0
LINE
  5
AEA08
330
AE8BA
100
AcDbEntity
  8
AM_5
100
AcDbLine
 10
458.1310973121294
 20
151.3810379115105
 30
0.0
 11
458.1310973121294
 21
139.8180415059625
 31
0.0
  0
LINE
  5
AEA09
330
AE8BA
100
AcDbEntity
  8
AM_5
100
AcDbLine
 10
485.1310973121293
 20
194.9327819804874
 30
0.0
 11
485.1310973121293
 21
139.8180415059625
 31
0.0
  0
LINE
  5
AEA0A
330
AE8BA
100
AcDbEntity
  8
AM_5
100
AcDbLine
 10
459.1310973121294
 20
139.8180415059625
 30
0.0
 11
484.1310973121293
 21
139.8180415059625
 31
0.0
  0
INSERT
  5
AEA0B
330
AE8BA
100
AcDbEntity
  8
AM_5
100
AcDbBlockReference
  2
_Dot
 10
458.1310973121294
 20
139.8180415059625
 30
0.0
 50
180.0
  0
INSERT
  5
AEA0C
330
AE8BA
100
AcDbEntity
  8
AM_5
100
AcDbBlockReference
  2
_Dot
 10
485.1310973121293
 20
139.8180415059625
 30
0.0
  0
MTEXT
  5
AEA0D
330
AE8BA
100
AcDbEntity
  8
AM_5
 62
     2
100
AcDbMText
 10
471.6310973121293
 20
143.0680415059625
 30
0.0
 40
3.5
 41
0.0
 71
     5
 72
     1
  1
E
 73
     1
 44
1.0
1001
ACAD
1000
MTEXTBEGIN
1070
    73
1070
     1
1070
    44
1040
1.0
1070
    74
1070
     0
1000
MTEXTEND
  0
POINT
  5
AEA0E
330
AE8BA
100
AcDbEntity
  8
Defpoints
 62
     0
100
AcDbPoint
 10
458.1310973121294
 20
152.3810379115105
 30
0.0
  0
POINT
  5
AEA0F
330
AE8BA
100
AcDbEntity
  8
Defpoints
 62
     0
100
AcDbPoint
 10
485.1310973121293
 20
195.9327819804874
 30
0.0
  0
POINT
  5
AEA10
330
AE8BA
100
AcDbEntity
  8
Defpoints
 62
     0
100
AcDbPoint
 10
485.1310973121293
 20
139.8180415059625
 30
0.0
  0
ENDBLK
  5
AE8BC
330
AE8BA
100
AcDbEntity
  8
0
100
AcDbBlockEnd
  0
BLOCK
  5
AE8C7
330
AE8C6
100
AcDbEntity
  8
0
100
AcDbBlockBegin
  2
*D9
 70
     1
 10
0.0
 20
0.0
 30
0.0
  3
*D9
  1

  0
LINE
  5
AEA11
330
AE8C6
100
AcDbEntity
  8
AM_5
100
AcDbLine
 10
491.1529677253743
 20
167.6444610467002
 30
0.0
 11
482.3892465615283
 21
171.0246392991206
 31
0.0
  0
LINE
  5
AEA12
330
AE8C6
100
AcDbEntity
  8
AM_5
100
AcDbLine
 10
433.8729480627325
 20
189.7374365239006
 30
0.0
 11
432.939942322371
 21
190.0972980089925
 31
0.0
  0
MTEXT
  5
AEA13
330
AE8C6
100
AcDbEntity
  8
AM_5
 62
     2
100
AcDbMText
 10
490.161054253419
 20
171.5104088100047
 30
0.0
 40
3.5
 41
0.0
 71
     5
 72
     1
  1
D
 11
0.9330057403614592
 21
-0.359861485091924
 31
0.0
 73
     1
 44
1.0
1001
ACAD
1000
MTEXTBEGIN
1070
    73
1070
     1
1070
    44
1040
1.0
1070
    74
1070
     0
1000
MTEXTEND
  0
LINE
  5
AEA14
330
AE8C6
100
AcDbEntity
  8
AM_5
100
AcDbLine
 10
434.8059538030939
 20
189.3775750388087
 30
0.0
 11
481.4562408211669
 21
171.3845007842125
 31
0.0
  0
INSERT
  5
AEA15
330
AE8C6
100
AcDbEntity
  8
AM_5
100
AcDbBlockReference
  2
_Dot
 10
434.8059538030939
 20
189.3775750388087
 30
0.0
 50
338.908310404704
  0
INSERT
  5
AEA16
330
AE8C6
100
AcDbEntity
  8
AM_5
100
AcDbBlockReference
  2
_Dot
 10
481.4562408211669
 20
171.3845007842125
 30
0.0
 50
158.908310404704
  0
POINT
  5
AEA17
330
AE8C6
100
AcDbEntity
  8
Defpoints
 62
     0
100
AcDbPoint
 10
481.4562408211669
 20
171.3845007842125
 30
0.0
  0
POINT
  5
AEA18
330
AE8C6
100
AcDbEntity
  8
Defpoints
 62
     0
100
AcDbPoint
 10
434.8059538030939
 20
189.3775750388087
 30
0.0
  0
ENDBLK
  5
AE8C8
330
AE8C6
100
AcDbEntity
  8
0
100
AcDbBlockEnd
  0
BLOCK
  5
AE9BB
330
AE9BA
100
AcDbEntity
  8
0
100
AcDbBlockBegin
  2
*D10
 70
     1
 10
0.0
 20
0.0
 30
0.0
  3
*D10
  1

  0
LINE
  5
AEA19
330
AE9BA
100
AcDbEntity
  8
AM_5
100
AcDbLine
 10
433.1901822771376
 20
270.1205472014847
 30
0.0
 11
438.0968422217512
 21
272.8880610013364
 31
0.0
  0
MTEXT
  5
AEA1A
330
AE9BA
100
AcDbEntity
  8
AM_5
 62
     2
100
AcDbMText
 10
433.6113673106589
 20
274.0894321345587
 30
0.0
 40
3.5
 41
0.0
 71
     5
 72
     1
  1
R
 11
0.871004723895894
 21
0.4912746390269268
 31
0.0
 73
     1
 44
1.0
1001
ACAD
1000
MTEXTBEGIN
1070
    73
1070
     1
1070
    44
1040
1.0
1070
    74
1070
     0
1000
MTEXTEND
  0
LINE
  5
AEA1B
330
AE9BA
100
AcDbEntity
  8
AM_5
100
AcDbLine
 10
485.1310973121295
 20
299.4168915087904
 30
0.0
 11
438.967846945647
 21
273.3793356403633
 31
0.0
  0
INSERT
  5
AEA1C
330
AE9BA
100
AcDbEntity
  8
AM_5
100
AcDbBlockReference
  2
_Dot
 10
438.967846945647
 20
273.3793356403633
 30
0.0
 50
29.42439437766297
  0
ARC
  5
AEA1D
330
AE9BA
100
AcDbEntity
  8
AM_5
100
AcDbCircle
 10
485.1310973121295
 20
299.4168915087904
 30
0.0
 40
53.0
100
AcDbArc
 50
199.4323599107247
 51
209.424394377663
  0
POINT
  5
AEA1E
330
AE9BA
100
AcDbEntity
  8
Defpoints
 62
     0
100
AcDbPoint
 10
438.967846945647
 20
273.3793356403633
 30
0.0
  0
POINT
  5
AEA1F
330
AE9BA
100
AcDbEntity
  8
Defpoints
 62
     0
100
AcDbPoint
 10
485.1310973121295
 20
299.4168915087904
 30
0.0
  0
ENDBLK
  5
AE9BC
330
AE9BA
100
AcDbEntity
  8
0
100
AcDbBlockEnd
  0
ENDSEC
  0
SECTION
  2
ENTITIES
  0
MTEXT
  5
7AC05
330
1F
100
AcDbEntity
  8
AM_6
100
AcDbMText
 10
-1051.000000000001
 20
-5888.0
 30
0.0
 40
6.4
 41
180.0
 71
     4
 72
     5
  1
　
 73
     1
 44
1.0
1001
ACAD
1000
MTEXTBEGIN
1070
    73
1070
     1
1070
    44
1040
1.0
1070
    74
1070
     0
1000
MTEXTEND
  0
MTEXT
  5
7AC06
330
1F
100
AcDbEntity
  8
AM_6
100
AcDbMText
 10
-1051.000000000001
 20
-5920.0
 30
0.0
 40
6.4
 41
180.0
 71
     4
 72
     5
  1
　
 73
     1
 44
1.0
1001
ACAD
1000
MTEXTBEGIN
1070
    73
1070
     1
1070
    44
1040
1.0
1070
    74
1070
     0
1000
MTEXTEND
  0
LWPOLYLINE
  5
AB559
330
1F
100
AcDbEntity
  8
waku
100
AcDbPolyline
 90
        4
 70
     1
 43
0.0
 10
22.99999999999272
 20
403.0
 10
571.0000000000084
 20
403.0000000000145
 10
571.0000000000157
 20
17.00000000001455
 10
23.0
 20
17.0
1001
GENIUS_GENREC_14
1002
{
1000
PYDIR
1011
23.0
1021
17.0
1031
0.0
1002
}
1002
{
1000
PXDIR
1011
571.0000000000084
1021
403.0000000000145
1031
0.0
1002
}
1002
{
1000
PORI
1011
22.99999999999272
1021
403.0
1031
0.0
1002
}
1002
{
1000
PINS
1011
22.99999999999272
1021
403.0
1031
0.0
1002
}
1002
{
1000
PINS2
1011
571.0000000000157
1021
17.00000000001455
1031
0.0
1002
}
1002
{
1000
C
1070
     1
1002
}
1001
GENIUS_GENOBJ-N-REC_13
1002
{
1000
OWNER
1000
GEN
1002
}
1001
GENIUS_GENODEF_13
1002
{
1000
HIER
1070
     0
1002
}
1002
{
1000
MANEDIT
1070
     0
1002
}
1002
{
1000
NOSEL
1070
     0
1002
}
1002
{
1000
BEHIND
1070
     0
1002
}
1002
{
1000
OTHER
1070
     0
1002
}
1002
{
1000
REACTOR
1002
}
  0
LWPOLYLINE
  5
AB55A
330
1F
100
AcDbEntity
  8
size
100
AcDbPolyline
 90
        4
 70
     1
 43
0.0
 10
-0.000000000007276
 20
420.0
 10
594.0000000000073
 20
420.0000000000145
 10
594.0000000000146
 20
0.0000000000145519
 10
0.0
 20
0.0
1001
GENIUS_GENREC_14
1002
{
1000
PYDIR
1011
0.0
1021
0.0
1031
0.0
1002
}
1002
{
1000
PXDIR
1011
594.0000000000073
1021
420.0000000000145
1031
0.0
1002
}
1002
{
1000
PORI
1011
-0.000000000007276
1021
420.0
1031
0.0
1002
}
1002
{
1000
PINS
1011
-0.000000000007276
1021
420.0
1031
0.0
1002
}
1002
{
1000
PINS2
1011
594.0000000000146
1021
0.0000000000145519
1031
0.0
1002
}
1002
{
1000
C
1070
     1
1002
}
1001
GENIUS_GENODEF_13
1002
{
1000
HIER
1070
     0
1002
}
1002
{
1000
MANEDIT
1070
     0
1002
}
1002
{
1000
NOSEL
1070
     0
1002
}
1002
{
1000
BEHIND
1070
     0
1002
}
1002
{
1000
OTHER
1070
     0
1002
}
1002
{
1000
REACTOR
1002
}
1001
GENIUS_GENOBJ-N-REC_13
1002
{
1000
OWNER
1000
GEN
1002
}
  0
TEXT
  5
AB55B
330
1F
100
AcDbEntity
  8
AM_11
100
AcDbText
 10
555.1303967084155
 20
-18.81278125374661
 30
0.0
 40
8.0
  1
A-2
 41
0.73811
 72
     1
 11
563.8471243274632
 21
-18.81278125374661
 31
0.0
100
AcDbText
  0
LINE
  5
AB6B4
330
1F
100
AcDbEntity
  8
0
100
AcDbLine
 10
637.4421387318712
 20
165.3427567089855
 30
0.0
 11
676.7380379472902
 21
165.3427567089855
 31
0.0
  0
LINE
  5
AB6B5
330
1F
100
AcDbEntity
  8
AM_0
100
AcDbLine
 10
637.4421387318712
 20
156.3314873297037
 30
0.0
 11
676.7380379472902
 21
156.3314873297037
 31
0.0
  0
LINE
  5
AB6B6
330
1F
100
AcDbEntity
  8
AM_1
100
AcDbLine
 10
637.4421387318712
 20
145.5596373675188
 30
0.0
 11
676.7380379472902
 21
145.5596373675188
 31
0.0
  0
LINE
  5
AB6B7
330
1F
100
AcDbEntity
  8
AM_11
100
AcDbLine
 10
637.4421387318712
 20
124.4904803377541
 30
0.0
 11
676.7380379472902
 21
124.4904803377541
 31
0.0
  0
LINE
  5
AB6B8
330
1F
100
AcDbEntity
  8
AM_2
100
AcDbLine
 10
637.4421387318712
 20
114.6360917082298
 30
0.0
 11
676.7380379472902
 21
114.6360917082298
 31
0.0
  0
LINE
  5
AB6B9
330
1F
100
AcDbEntity
  8
AM_3
100
AcDbLine
 10
637.4421387318712
 20
105.4387166307803
 30
0.0
 11
676.7380379472902
 21
105.4387166307803
 31
0.0
  0
LINE
  5
AB6BA
330
1F
100
AcDbEntity
  8
AM_5
100
AcDbLine
 10
637.4421387318712
 20
95.0136831378926
 30
0.0
 11
676.7380379472902
 21
95.0136831378926
 31
0.0
  0
LINE
  5
AB6BB
330
1F
100
AcDbEntity
  8
AM_6
100
AcDbLine
 10
637.4421387318712
 20
85.63822792397639
 30
0.0
 11
676.7380379472902
 21
85.63822792397639
 31
0.0
  0
LINE
  5
AB6BC
330
1F
100
AcDbEntity
  8
AM_7
100
AcDbLine
 10
637.4421387318712
 20
77.22653722980282
 30
0.0
 11
676.7380379472902
 21
77.22653722980282
 31
0.0
  0
LINE
  5
AB6BD
330
1F
100
AcDbEntity
  8
AM_8
100
AcDbLine
 10
637.4421387318712
 20
67.48335916230974
 30
0.0
 11
676.7380379472902
 21
67.48335916230974
 31
0.0
  0
LINE
  5
AB6BE
330
1F
100
AcDbEntity
  8
Defpoints
100
AcDbLine
 10
637.4421387318712
 20
50.87692029850462
 30
0.0
 11
676.7380379472902
 21
50.87692029850462
 31
0.0
  0
LINE
  5
AB6BF
330
1F
100
AcDbEntity
  8
hyomoji
100
AcDbLine
 10
637.4421387318712
 20
41.21744848393302
 30
0.0
 11
676.7380379472902
 21
41.21744848393302
 31
0.0
  0
LINE
  5
AB6C0
330
1F
100
AcDbEntity
  8
hyosen1
100
AcDbLine
 10
637.4421387318712
 20
31.80330776035123
 30
0.0
 11
676.7380379472902
 21
31.80330776035123
 31
0.0
  0
LINE
  5
AB6C1
330
1F
100
AcDbEntity
  8
hyosen2
100
AcDbLine
 10
637.4421387318712
 20
23.87458702474635
 30
0.0
 11
676.7380379472902
 21
23.87458702474635
 31
0.0
  0
LINE
  5
AB6C2
330
1F
100
AcDbEntity
  8
JISSEN
100
AcDbLine
 10
637.4421387318712
 20
14.95111975417819
 30
0.0
 11
676.7380379472902
 21
14.95111975417819
 31
0.0
  0
LINE
  5
AB6C3
330
1F
100
AcDbEntity
  8
size
100
AcDbLine
 10
637.4421387318712
 20
7.008989678916918
 30
0.0
 11
676.7380379472902
 21
7.008989678916918
 31
0.0
  0
LINE
  5
AB6C4
330
1F
100
AcDbEntity
  8
waku
100
AcDbLine
 10
637.4421387318712
 20
-0.9116199015055599
 30
0.0
 11
676.7380379472902
 21
-0.9116199015055599
 31
0.0
  0
LINE
  5
AB6C5
330
1F
100
AcDbEntity
  8
AM_CL
100
AcDbLine
 10
637.4421387318712
 20
59.83742144046516
 30
0.0
 11
676.7380379472902
 21
59.83742144046516
 31
0.0
  0
LINE
  5
AB6C6
330
1F
100
AcDbEntity
  8
AM_10
100
AcDbLine
 10
637.4421387318712
 20
134.7515860612592
 30
0.0
 11
676.7380379472902
 21
134.7515860612592
 31
0.0
  0
MTEXT
  5
AB6C7
330
1F
100
AcDbEntity
  8
AM_6
 62
     2
100
AcDbMText
 10
681.7918280459544
 20
163.3670387834901
 30
0.0
 40
5.0
 41
0.0
 71
     7
 72
     1
  1
0 : 0画層
 73
     1
 44
1.0
1001
ACAD
1000
MTEXTBEGIN
1070
    73
1070
     1
1070
    44
1040
1.0
1070
    74
1070
     0
1000
MTEXTEND
  0
MTEXT
  5
AB6C8
330
1F
100
AcDbEntity
  8
AM_6
 62
     2
100
AcDbMText
 10
681.7918280459544
 20
153.8165553211184
 30
0.0
 40
5.0
 41
0.0
 71
     7
 72
     1
  1
AM_0 : 中線　（実線）
 73
     1
 44
1.0
1001
ACAD
1000
MTEXTBEGIN
1070
    73
1070
     1
1070
    44
1040
1.0
1070
    74
1070
     0
1000
MTEXTEND
  0
MTEXT
  5
AB6C9
330
1F
100
AcDbEntity
  8
AM_6
 62
     2
100
AcDbMText
 10
681.7918280459544
 20
143.6635443460146
 30
0.0
 40
5.0
 41
0.0
 71
     7
 72
     1
  1
AM_1 : 太線
 73
     1
 44
1.0
1001
ACAD
1000
MTEXTBEGIN
1070
    73
1070
     1
1070
    44
1040
1.0
1070
    74
1070
     0
1000
MTEXTEND
  0
MTEXT
  5
AB6CA
330
1F
100
AcDbEntity
  8
AM_6
 62
     2
100
AcDbMText
 10
681.7918280459544
 20
132.8333463293567
 30
0.0
 40
5.0
 41
0.0
 71
     7
 72
     1
  1
AM_10 : 遮断線
 73
     1
 44
1.0
1001
ACAD
1000
MTEXTBEGIN
1070
    73
1070
     1
1070
    44
1040
1.0
1070
    74
1070
     0
1000
MTEXTEND
  0
MTEXT
  5
AB6CB
330
1F
100
AcDbEntity
  8
AM_6
 62
     2
100
AcDbMText
 10
681.7918280459544
 20
122.7349086237453
 30
0.0
 40
5.0
 41
0.0
 71
     7
 72
     1
  1
AM_11 : 想像線1
 73
     1
 44
1.0
1001
ACAD
1000
MTEXTBEGIN
1070
    73
1070
     1
1070
    44
1040
1.0
1070
    74
1070
     0
1000
MTEXTEND
  0
MTEXT
  5
AB6CC
330
1F
100
AcDbEntity
  8
AM_6
 62
     2
100
AcDbMText
 10
681.7918280459544
 20
112.6364709181342
 30
0.0
 40
5.0
 41
0.0
 71
     7
 72
     1
  1
AM_2 : 細線
 73
     1
 44
1.0
1001
ACAD
1000
MTEXTBEGIN
1070
    73
1070
     1
1070
    44
1040
1.0
1070
    74
1070
     0
1000
MTEXTEND
  0
MTEXT
  5
AB6CD
330
1F
100
AcDbEntity
  8
AM_6
 62
     2
100
AcDbMText
 10
681.7918280459544
 20
102.5380332125229
 30
0.0
 40
5.0
 41
0.0
 71
     7
 72
     1
  1
AM_3 : 陰線1
 73
     1
 44
1.0
1001
ACAD
1000
MTEXTBEGIN
1070
    73
1070
     1
1070
    44
1040
1.0
1070
    74
1070
     0
1000
MTEXTEND
  0
MTEXT
  5
AB6CE
330
1F
100
AcDbEntity
  8
AM_6
 62
     2
100
AcDbMText
 10
681.7918280459544
 20
92.12824119553841
 30
0.0
 40
5.0
 41
0.0
 71
     7
 72
     1
  1
AM_5 : 寸法線
 73
     1
 44
1.0
1001
ACAD
1000
MTEXTBEGIN
1070
    73
1070
     1
1070
    44
1040
1.0
1070
    74
1070
     0
1000
MTEXTEND
  0
MTEXT
  5
AB6CF
330
1F
100
AcDbEntity
  8
AM_6
 62
     2
100
AcDbMText
 10
681.7918280459544
 20
82.80784443908407
 30
0.0
 40
5.0
 41
0.0
 71
     7
 72
     1
  1
AM_6 : 文字
 73
     1
 44
1.0
1001
ACAD
1000
MTEXTBEGIN
1070
    73
1070
     1
1070
    44
1040
1.0
1070
    74
1070
     0
1000
MTEXTEND
  0
MTEXT
  5
AB6D0
330
1F
100
AcDbEntity
  8
AM_6
 62
     2
100
AcDbMText
 10
681.7918280459544
 20
74.57684606378655
 30
0.0
 40
5.0
 41
0.0
 71
     7
 72
     1
  1
AM_7 : 中心線
 73
     1
 44
1.0
1001
ACAD
1000
MTEXTBEGIN
1070
    73
1070
     1
1070
    44
1040
1.0
1070
    74
1070
     0
1000
MTEXTEND
  0
MTEXT
  5
AB6D1
330
1F
100
AcDbEntity
  8
AM_6
 62
     2
100
AcDbMText
 10
681.7918280459544
 20
65.59477051638044
 30
0.0
 40
5.0
 41
0.0
 71
     7
 72
     1
  1
AM_8 : ハッチング
 73
     1
 44
1.0
1001
ACAD
1000
MTEXTBEGIN
1070
    73
1070
     1
1070
    44
1040
1.0
1070
    74
1070
     0
1000
MTEXTEND
  0
MTEXT
  5
AB6D2
330
1F
100
AcDbEntity
  8
AM_6
 62
     2
100
AcDbMText
 10
681.7918280459544
 20
56.88537066977858
 30
0.0
 40
5.0
 41
0.0
 71
     7
 72
     1
  1
AM_CL : Amconstr
 73
     1
 44
1.0
1001
ACAD
1000
MTEXTBEGIN
1070
    73
1070
     1
1070
    44
1040
1.0
1070
    74
1070
     0
1000
MTEXTEND
  0
MTEXT
  5
AB6D3
330
1F
100
AcDbEntity
  8
AM_6
 62
     2
100
AcDbMText
 10
681.7918280459544
 20
48.05330365922839
 30
0.0
 40
5.0
 41
0.0
 71
     7
 72
     1
  1
DEFPOINTS
 73
     1
 44
1.0
1001
ACAD
1000
MTEXTBEGIN
1070
    73
1070
     1
1070
    44
1040
1.0
1070
    74
1070
     0
1000
MTEXTEND
  0
MTEXT
  5
AB6D4
330
1F
100
AcDbEntity
  8
AM_6
 62
     2
100
AcDbMText
 10
681.7918280459544
 20
37.50389011214736
 30
0.0
 40
5.0
 41
0.0
 71
     7
 72
     1
  1
hyomoji
 73
     1
 44
1.0
1001
ACAD
1000
MTEXTBEGIN
1070
    73
1070
     1
1070
    44
1040
1.0
1070
    74
1070
     0
1000
MTEXTEND
  0
MTEXT
  5
AB6D5
330
1F
100
AcDbEntity
  8
AM_6
 62
     2
100
AcDbMText
 10
681.7918280459544
 20
28.54915593764884
 30
0.0
 40
5.0
 41
0.0
 71
     7
 72
     1
  1
hyosen1
 73
     1
 44
1.0
1001
ACAD
1000
MTEXTBEGIN
1070
    73
1070
     1
1070
    44
1040
1.0
1070
    74
1070
     0
1000
MTEXTEND
  0
MTEXT
  5
AB6D6
330
1F
100
AcDbEntity
  8
AM_6
 62
     2
100
AcDbMText
 10
681.7918280459544
 20
20.08509041894342
 30
0.0
 40
5.0
 41
0.0
 71
     7
 72
     1
  1
hyosen2
 73
     1
 44
1.0
1001
ACAD
1000
MTEXTBEGIN
1070
    73
1070
     1
1070
    44
1040
1.0
1070
    74
1070
     0
1000
MTEXTEND
  0
MTEXT
  5
AB6D7
330
1F
100
AcDbEntity
  8
AM_6
 62
     2
100
AcDbMText
 10
681.7918280459544
 20
12.35703100455509
 30
0.0
 40
5.0
 41
0.0
 71
     7
 72
     1
  1
JISSEN
 73
     1
 44
1.0
1001
ACAD
1000
MTEXTBEGIN
1070
    73
1070
     1
1070
    44
1040
1.0
1070
    74
1070
     0
1000
MTEXTEND
  0
MTEXT
  5
AB6D8
330
1F
100
AcDbEntity
  8
AM_6
 62
     2
100
AcDbMText
 10
681.7918280459544
 20
4.996974642325426
 30
0.0
 40
5.0
 41
0.0
 71
     7
 72
     1
  1
size
 73
     1
 44
1.0
1001
ACAD
1000
MTEXTBEGIN
1070
    73
1070
     1
1070
    44
1040
1.0
1070
    74
1070
     0
1000
MTEXTEND
  0
MTEXT
  5
AB6D9
330
1F
100
AcDbEntity
  8
AM_6
 62
     2
100
AcDbMText
 10
681.7918280459544
 20
-5.307104576858932
 30
0.0
 40
5.0
 41
0.0
 71
     7
 72
     1
  1
WAKU
 73
     1
 44
1.0
1001
ACAD
1000
MTEXTBEGIN
1070
    73
1070
     1
1070
    44
1040
1.0
1070
    74
1070
     0
1000
MTEXTEND
  0
MTEXT
  5
AC1ED
330
1F
100
AcDbEntity
  8
AM_6
100
AcDbMText
 10
107.999999999994
 20
134.5557924908987
 30
0.0
 40
3.5
 41
17.5
 71
     5
 72
     5
  1
D（mm）
 73
     1
 44
1.0
1001
ACAD
1000
MTEXTBEGIN
1070
    73
1070
     1
1070
    44
1040
1.0
1070
    74
1070
     0
1000
MTEXTEND
  0
LINE
  5
AC1EF
330
1F
100
AcDbEntity
  8
AM_5
100
AcDbLine
 10
204.249999999994
 20
147.6807924909728
 30
0.0
 11
204.2500000000294
 21
17.00000000006673
 31
0.0
  0
LINE
  5
AC1F1
330
1F
100
AcDbEntity
  8
AM_0
100
AcDbLine
 10
22.99999999989102
 20
130.180792490912
 30
0.0
 11
309.2499999999944
 21
130.1807924908995
 31
0.0
  0
LINE
  5
AC1F4
330
1F
100
AcDbEntity
  8
AM_5
100
AcDbLine
 10
116.749999999994
 20
147.6807924909404
 30
0.0
 11
116.7500000000293
 21
17.00000000002603
 31
0.0
  0
LINE
  5
AC1F5
330
1F
100
AcDbEntity
  8
AM_5
100
AcDbLine
 10
134.249999999994
 20
147.6807924909479
 30
0.0
 11
134.2500000000299
 21
17.0000000000341
 31
0.0
  0
LINE
  5
AC203
330
1F
100
AcDbEntity
  8
AM_0
100
AcDbLine
 10
22.99999999992086
 20
147.6807924909117
 30
0.0
 11
309.249999999996
 21
147.6807924910355
 31
0.0
  0
MTEXT
  5
AC205
330
1F
100
AcDbEntity
  8
AM_6
100
AcDbMText
 10
40.60092944483348
 20
138.930792490876
 30
0.0
 40
3.5
 41
26.25000000003146
 71
     5
 72
     5
  1
品　番
 73
     1
 44
1.0
1001
ACAD
1000
MTEXTBEGIN
1070
    73
1070
     1
1070
    44
1040
1.0
1070
    74
1070
     0
1000
MTEXTEND
1000
ACAD_MTEXT_DEFINED_HEIGHT_BEGIN
1070
    46
1040
6.999999999847306
1000
ACAD_MTEXT_DEFINED_HEIGHT_END
  0
MTEXT
  5
AC209
330
1F
100
AcDbEntity
  8
AM_6
100
AcDbMText
 10
107.999999999994
 20
143.3057924909365
 30
0.0
 40
3.5
 41
17.5
 71
     5
 72
     5
  1
車輪径
 73
     1
 44
1.0
1001
ACAD
1000
MTEXTBEGIN
1070
    73
1070
     1
1070
    44
1040
1.0
1070
    74
1070
     0
1000
MTEXTEND
  0
MTEXT
  5
AC20A
330
1F
100
AcDbEntity
  8
AM_6
100
AcDbMText
 10
125.499999999994
 20
143.5127348735221
 30
0.0
 40
3.5
 41
17.5
 71
     5
 72
     5
  1
車幅
 73
     1
 44
1.0
1001
ACAD
1000
MTEXTBEGIN
1070
    73
1070
     1
1070
    44
1040
1.0
1070
    74
1070
     0
1000
MTEXTEND
  0
MTEXT
  5
AC217
330
1F
100
AcDbEntity
  8
AM_6
100
AcDbMText
 10
164.8749999999941
 20
134.5557924908742
 30
0.0
 40
3.5
 41
26.25
 71
     5
 72
     5
  1
A  \U+00D7 B（mm）
 73
     1
 44
1.0
1001
ACAD
1000
MTEXTBEGIN
1070
    73
1070
     1
1070
    44
1040
1.0
1070
    74
1070
     0
1000
MTEXTEND
  0
MTEXT
  5
AC219
330
1F
100
AcDbEntity
  8
AM_6
100
AcDbMText
 10
164.8749999999941
 20
143.305792490912
 30
0.0
 40
3.5
 41
26.25
 71
     5
 72
     5
  1
取付座寸法
 73
     1
 44
1.0
1001
ACAD
1000
MTEXTBEGIN
1070
    73
1070
     1
1070
    44
1040
1.0
1070
    74
1070
     0
1000
MTEXTEND
  0
LINE
  5
AC21B
330
1F
100
AcDbEntity
  8
AM_5
100
AcDbLine
 10
291.7499999999941
 20
147.6807924910091
 30
0.0
 11
291.7500000000293
 21
17.00000000010743
 31
0.0
  0
MTEXT
  5
AC21F
330
1F
100
AcDbEntity
  8
AM_6
100
AcDbMText
 10
230.499999999994
 20
134.555792490849
 30
0.0
 40
3.5
 41
17.5
 71
     5
 72
     5
  1
E（mm）
 73
     1
 44
1.0
1001
ACAD
1000
MTEXTBEGIN
1070
    73
1070
     1
1070
    44
1040
1.0
1070
    74
1070
     0
1000
MTEXTEND
  0
LINE
  5
AC220
330
1F
100
AcDbEntity
  8
AM_5
100
AcDbLine
 10
239.2499999999941
 20
147.6807924909624
 30
0.0
 11
239.2500000000293
 21
17.0000000000831
 31
0.0
  0
MTEXT
  5
AC224
330
1F
100
AcDbEntity
  8
AM_6
100
AcDbMText
 10
230.499999999994
 20
143.3057924908868
 30
0.0
 40
3.5
 41
17.5
 71
     5
 72
     5
  1
偏芯
 73
     1
 44
1.0
1001
ACAD
1000
MTEXTBEGIN
1070
    73
1070
     1
1070
    44
1040
1.0
1070
    74
1070
     0
1000
MTEXTEND
  0
MTEXT
  5
AC225
330
1F
100
AcDbEntity
  8
AM_6
100
AcDbMText
 10
265.499999999983
 20
134.5557924909035
 30
0.0
 40
3.5
 41
17.5
 71
     5
 72
     5
  1
daN
 73
     1
 44
1.0
1001
ACAD
1000
MTEXTBEGIN
1070
    73
1070
     1
1070
    44
1040
1.0
1070
    74
1070
     0
1000
MTEXTEND
  0
MTEXT
  5
AC226
330
1F
100
AcDbEntity
  8
AM_6
100
AcDbMText
 10
282.9999999999829
 20
134.5557924908468
 30
0.0
 40
3.5
 41
17.5
 71
     5
 72
     5
  1
kgf
 73
     1
 44
1.0
1001
ACAD
1000
MTEXTBEGIN
1070
    73
1070
     1
1070
    44
1040
1.0
1070
    74
1070
     0
1000
MTEXTEND
  0
LINE
  5
AC227
330
1F
100
AcDbEntity
  8
AM_5
100
AcDbLine
 10
274.2499999999844
 20
138.9307924909038
 30
0.0
 11
274.2500000000198
 21
17.00000000009936
 31
0.0
  0
MTEXT
  5
AC22C
330
1F
100
AcDbEntity
  8
AM_6
100
AcDbMText
 10
274.2499999999844
 20
143.3057924909411
 30
0.0
 40
3.5
 41
35.0
 71
     5
 72
     5
  1
許容荷重
 73
     1
 44
1.0
1001
ACAD
1000
MTEXTBEGIN
1070
    73
1070
     1
1070
    44
1040
1.0
1070
    74
1070
     0
1000
MTEXTEND
  0
MTEXT
  5
AC231
330
1F
100
AcDbEntity
  8
AM_6
100
AcDbMText
 10
212.999999999994
 20
134.5557924908678
 30
0.0
 40
3.5
 41
17.5
 71
     5
 72
     5
  1
P（mm）
 73
     1
 44
1.0
1001
ACAD
1000
MTEXTBEGIN
1070
    73
1070
     1
1070
    44
1040
1.0
1070
    74
1070
     0
1000
MTEXTEND
  0
LINE
  5
AC232
330
1F
100
AcDbEntity
  8
AM_5
100
AcDbLine
 10
221.749999999994
 20
147.6807924909812
 30
0.0
 11
221.7500000000293
 21
17.00000000007492
 31
0.0
  0
MTEXT
  5
AC236
330
1F
100
AcDbEntity
  8
AM_6
100
AcDbMText
 10
212.999999999994
 20
143.3057924909056
 30
0.0
 40
3.5
 41
17.5
 71
     5
 72
     5
  1
穴径
 73
     1
 44
1.0
1001
ACAD
1000
MTEXTBEGIN
1070
    73
1070
     1
1070
    44
1040
1.0
1070
    74
1070
     0
1000
MTEXTEND
  0
LINE
  5
AC238
330
1F
100
AcDbEntity
  8
AM_0
100
AcDbLine
 10
309.249999999996
 20
147.6807924909728
 30
0.0
 11
309.250000000032
 21
17.0000000001238
 31
0.0
  0
MTEXT
  5
AC270
330
1F
100
AcDbEntity
  8
AM_6
100
AcDbMText
 10
78.3578073313313
 20
138.930792490892
 30
0.0
 40
3.5
 41
26.25
 71
     5
 72
     5
  1
車　輪
 73
     1
 44
1.0
1001
ACAD
1000
MTEXTBEGIN
1070
    73
1070
     1
1070
    44
1040
1.0
1070
    74
1070
     0
1000
MTEXTEND
  0
LINE
  5
AC276
330
1F
100
AcDbEntity
  8
AM_5
100
AcDbLine
 10
177.999999999994
 20
147.6807924909643
 30
0.0
 11
178.0000000000293
 21
17.00000000005445
 31
0.0
  0
LINE
  5
AC28D
330
1F
100
AcDbEntity
  8
AM_0
100
AcDbLine
 10
22.99999999999272
 20
403.0
 30
0.0
 11
22.9999999999975
 21
331.0
 31
0.0
  0
LINE
  5
AC28E
330
1F
100
AcDbEntity
  8
AM_0
100
AcDbLine
 10
22.99999999999272
 20
403.0
 30
0.0
 11
112.9999999999927
 21
403.0
 31
0.0
  0
LINE
  5
AC28F
330
1F
100
AcDbEntity
  8
AM_0
100
AcDbLine
 10
112.9999999999927
 20
403.0
 30
0.0
 11
112.999999999992
 21
331.0
 31
0.0
  0
LINE
  5
AC290
330
1F
100
AcDbEntity
  8
AM_0
100
AcDbLine
 10
42.99999999999158
 20
331.0
 30
0.0
 11
42.99999999999272
 21
403.0
 31
0.0
  0
LINE
  5
AC291
330
1F
100
AcDbEntity
  8
AM_5
100
AcDbLine
 10
22.99999999999272
 20
395.0
 30
0.0
 11
112.9999999999927
 21
395.0
 31
0.0
  0
LINE
  5
AC292
330
1F
100
AcDbEntity
  8
AM_5
100
AcDbLine
 10
22.99999999999272
 20
387.0
 30
0.0
 11
112.9999999999927
 21
387.0
 31
0.0
  0
MTEXT
  5
AC293
330
1F
100
AcDbEntity
  8
AM_6
100
AcDbMText
 10
32.99999999999272
 20
399.0
 30
0.0
 40
3.2
 41
20.0
 71
     5
 72
     5
  1
品　名
 73
     1
 44
1.0
1001
ACAD
1000
MTEXTBEGIN
1070
    73
1070
     1
1070
    44
1040
1.0
1070
    74
1070
     0
1000
MTEXTEND
  0
MTEXT
  5
AC294
330
1F
100
AcDbEntity
  8
AM_6
100
AcDbMText
 10
42.99999999999272
 20
399.0
 30
0.0
 40
3.2
 41
70.0
 71
     4
 72
     5
  1
  ステンレス製旋回キャスター
 73
     1
 44
1.0
1001
ACAD
1000
MTEXTBEGIN
1070
    73
1070
     1
1070
    44
1040
1.0
1070
    74
1070
     0
1000
MTEXTEND
  0
MTEXT
  5
AC295
330
1F
100
AcDbEntity
  8
AM_6
100
AcDbMText
 10
32.99999999999272
 20
391.0
 30
0.0
 40
3.2
 41
20.0
 71
     5
 72
     5
  1
品　番
 73
     1
 44
1.0
1001
ACAD
1000
MTEXTBEGIN
1070
    73
1070
     1
1070
    44
1040
1.0
1070
    74
1070
     0
1000
MTEXTEND
  0
MTEXT
  5
AC296
330
1F
100
AcDbEntity
  8
AM_6
100
AcDbMText
 10
42.99999999999272
 20
391.0
 30
0.0
 40
3.2
 41
70.0
 71
     4
 72
     5
  1
　SUS-SG
 73
     1
 44
1.0
1001
ACAD
1000
MTEXTBEGIN
1070
    73
1070
     1
1070
    44
1040
1.0
1070
    74
1070
     0
1000
MTEXTEND
  0
MTEXT
  5
AC297
330
1F
100
AcDbEntity
  8
AM_6
100
AcDbMText
 10
32.99999999999272
 20
383.0
 30
0.0
 40
3.2
 41
20.0
 71
     5
 72
     5
  1
材　質
 73
     1
 44
1.0
1001
ACAD
1000
MTEXTBEGIN
1070
    73
1070
     1
1070
    44
1040
1.0
1070
    74
1070
     0
1000
MTEXTEND
  0
MTEXT
  5
AC298
330
1F
100
AcDbEntity
  8
AM_6
100
AcDbMText
 10
42.99999999999272
 20
383.0
 30
0.0
 40
3.2
 41
70.0
 71
     4
 72
     5
  1
　本体 ： ステンレス（SUS304）
 73
     1
 44
1.0
1001
ACAD
1000
MTEXTBEGIN
1070
    73
1070
     1
1070
    44
1040
1.0
1070
    74
1070
     0
1000
MTEXTEND
  0
LINE
  5
AC299
330
1F
100
AcDbEntity
  8
AM_5
100
AcDbLine
 10
22.99999999999204
 20
339.0
 30
0.0
 11
112.999999999992
 21
339.0
 31
0.0
  0
MTEXT
  5
AC29A
330
1F
100
AcDbEntity
  8
AM_6
100
AcDbMText
 10
32.99999999999204
 20
335.0
 30
0.0
 40
3.2
 41
20.0
 71
     5
 72
     5
  1
仕上げ
 73
     1
 44
1.0
1001
ACAD
1000
MTEXTBEGIN
1070
    73
1070
     1
1070
    44
1040
1.0
1070
    74
1070
     0
1000
MTEXTEND
  0
MTEXT
  5
AC29B
330
1F
100
AcDbEntity
  8
AM_6
100
AcDbMText
 10
42.99999999999204
 20
335.0
 30
0.0
 40
3.2
 41
70.0
 71
     4
 72
     5
  1
　-
 73
     1
 44
1.0
1001
ACAD
1000
MTEXTBEGIN
1070
    73
1070
     1
1070
    44
1040
1.0
1070
    74
1070
     0
1000
MTEXTEND
  0
LINE
  5
AC29C
330
1F
100
AcDbEntity
  8
AM_5
100
AcDbLine
 10
42.99999999999181
 20
379.0
 30
0.0
 11
112.9999999999927
 21
379.0
 31
0.0
  0
MTEXT
  5
AC29D
330
1F
100
AcDbEntity
  8
AM_6
100
AcDbMText
 10
42.99999999999272
 20
375.0
 30
0.0
 40
3.2
 41
70.0
 71
     4
 72
     5
  1
　キャスター ： ゴム （RH）
 73
     1
 44
1.0
1001
ACAD
1000
MTEXTBEGIN
1070
    73
1070
     1
1070
    44
1040
1.0
1070
    74
1070
     0
1000
MTEXTEND
  0
MTEXT
  5
AC29E
330
1F
100
AcDbEntity
  8
AM_6
100
AcDbMText
 10
42.99999999999204
 20
359.0
 30
0.0
 40
3.2
 41
70.0
 71
     4
 72
     5
  1
　        　　　ナイロン　（N）
 73
     1
 44
1.0
1001
ACAD
1000
MTEXTBEGIN
1070
    73
1070
     1
1070
    44
1040
1.0
1070
    74
1070
     0
1000
MTEXTEND
  0
LINE
  5
AC2A3
330
1F
100
AcDbEntity
  8
AM_0
100
AcDbLine
 10
22.99999999999659
 20
331.0
 30
0.0
 11
112.9999999999938
 21
331.0
 31
0.0
  0
DIMENSION
  5
AC63E
330
1F
100
AcDbEntity
  8
AM_5
100
AcDbDimension
  2
*D2
 10
548.9205779366511
 20
270.4168915087906
 30
0.0
 11
545.670577936651
 21
299.4168915087907
 31
0.0
 70
    32
  1
B
 71
     5
 42
58.0
  3
S-1
100
AcDbAlignedDimension
 13
512.1310973121293
 23
328.4168915087906
 33
0.0
 14
512.1310973121293
 24
270.4168915087906
 34
0.0
 50
90.0
100
AcDbRotatedDimension
  0
DIMENSION
  5
AC64B
330
1F
100
AcDbEntity
  8
AM_5
100
AcDbDimension
  2
*D3
 10
540.3159396851915
 20
278.4168915087906
 30
0.0
 11
537.0659396851914
 21
299.4168915087907
 31
0.0
 70
    32
  1
Y
 71
     5
 42
42.0
  3
S-1
100
AcDbAlignedDimension
 13
519.0310973121293
 23
320.4168915087906
 33
0.0
 14
519.0310973121292
 24
278.4168915087906
 34
0.0
 50
90.0
100
AcDbRotatedDimension
  0
DIMENSION
  5
AC658
330
1F
100
AcDbEntity
  8
AM_5
100
AcDbDimension
  2
*D4
 10
512.6310973121293
 20
253.1611197913185
 30
0.0
 11
485.1310973121293
 21
256.4111197913184
 31
0.0
 70
    32
  1
X
 71
     5
 42
55.0
  3
S-1
100
AcDbAlignedDimension
 13
457.6310973121293
 23
272.0168915087906
 33
0.0
 14
512.6310973121293
 24
272.0168915087906
 34
0.0
100
AcDbRotatedDimension
  0
DIMENSION
  5
AC665
330
1F
100
AcDbEntity
  8
AM_5
100
AcDbDimension
  2
*D5
 10
450.1310973121294
 20
245.8223574866593
 30
0.0
 11
485.1310973121293
 21
249.0723574866593
 31
0.0
 70
    32
  1
A
 71
     5
 42
69.99999999999989
  3
S-1
100
AcDbAlignedDimension
 13
520.1310973121293
 23
278.4168915087906
 33
0.0
 14
450.1310973121294
 24
278.4168915087906
 34
0.0
100
AcDbRotatedDimension
  0
DIMENSION
  5
AC68A
330
1F
100
AcDbEntity
  8
AM_5
100
AcDbDimension
  2
*D6
 10
418.5681009065835
 20
313.4168915087904
 30
0.0
 11
415.3181009065835
 21
299.4168915087906
 31
0.0
 70
    32
  1
W
 71
     5
 42
27.99999999999978
  3
S-1
100
AcDbAlignedDimension
 13
436.1310973121293
 23
285.4168915087906
 33
0.0
 14
436.1310973121293
 24
313.4168915087904
 34
0.0
 50
270.0
100
AcDbRotatedDimension
  0
LEADER
  5
AC6C5
330
1F
100
AcDbEntity
  8
AM_6
100
AcDbLeader
  3
S-1
 73
     0
 74
     0
 75
     1
 40
3.5
 41
1.633333333333333
 76
     3
 10
515.5858991674967
 20
275.2056811098521
 30
0.0
 10
528.6011437215393
 20
254.8464950915386
 30
0.0
 10
529.6011437215394
 20
254.8464950915386
 30
0.0
340
AC6C6
  0
MTEXT
  5
AC6C6
102
{ACAD_REACTORS
330
AC6C5
102
}
330
1F
100
AcDbEntity
  8
AM_6
 62
     2
100
AcDbMText
 10
531.1011437215394
 20
256.3464950915386
 30
0.0
 40
3.5
 41
0.0
 71
     7
 72
     1
  1
P
 73
     1
 44
1.0
1001
ACAD
1000
MTEXTBEGIN
1070
    73
1070
     1
1070
    44
1040
1.0
1070
    74
1070
     0
1000
MTEXTEND
  0
LINE
  5
AC943
330
1F
100
AcDbEntity
  8
AM_0
100
AcDbLine
 10
23.00000000006105
 20
16.99999999999994
 30
0.0
 11
22.99999999988255
 21
147.6807924909117
 31
0.0
  0
LINE
  5
AC951
330
1F
100
AcDbEntity
  8
AM_5
100
AcDbLine
 10
59.25000000013895
 20
16.9999999999992
 30
0.0
 11
59.24999999996943
 21
147.6807924909158
 31
0.0
  0
LINE
  5
AC953
330
1F
100
AcDbEntity
  8
AM_5
100
AcDbLine
 10
99.2500000000289
 20
17.00000000001785
 30
0.0
 11
99.24999999999405
 21
147.680792490933
 31
0.0
  0
MTEXT
  5
AC9B8
330
1F
100
AcDbEntity
  8
AM_6
100
AcDbMText
 10
125.6843729430743
 20
134.5557924908987
 30
0.0
 40
3.5
 41
17.5
 71
     5
 72
     5
  1
W（mm）
 73
     1
 44
1.0
1001
ACAD
1000
MTEXTBEGIN
1070
    73
1070
     1
1070
    44
1040
1.0
1070
    74
1070
     0
1000
MTEXTEND
  0
MTEXT
  5
AC9B9
330
1F
100
AcDbEntity
  8
AM_6
100
AcDbMText
 10
142.999999999994
 20
134.5557924908514
 30
0.0
 40
3.5
 41
17.5
 71
     5
 72
     5
  1
H（mm）
 73
     1
 44
1.0
1001
ACAD
1000
MTEXTBEGIN
1070
    73
1070
     1
1070
    44
1040
1.0
1070
    74
1070
     0
1000
MTEXTEND
  0
LINE
  5
AC9BA
330
1F
100
AcDbEntity
  8
AM_5
100
AcDbLine
 10
151.749999999994
 20
147.6807924909648
 30
0.0
 11
151.7500000000294
 21
17.00000000004229
 31
0.0
  0
MTEXT
  5
AC9BE
330
1F
100
AcDbEntity
  8
AM_6
100
AcDbMText
 10
142.999999999994
 20
143.3057924908893
 30
0.0
 40
3.5
 41
17.5
 71
     5
 72
     5
  1
取付高
 73
     1
 44
1.0
1001
ACAD
1000
MTEXTBEGIN
1070
    73
1070
     1
1070
    44
1040
1.0
1070
    74
1070
     0
1000
MTEXTEND
  0
MTEXT
  5
AC9C3
330
1F
100
AcDbEntity
  8
AM_6
100
AcDbMText
 10
191.124999999994
 20
134.5557924908742
 30
0.0
 40
3.5
 41
26.25
 71
     5
 72
     5
  1
X  \U+00D7 Y（mm）
 73
     1
 44
1.0
1001
ACAD
1000
MTEXTBEGIN
1070
    73
1070
     1
1070
    44
1040
1.0
1070
    74
1070
     0
1000
MTEXTEND
  0
MTEXT
  5
AC9C4
330
1F
100
AcDbEntity
  8
AM_6
100
AcDbMText
 10
191.124999999994
 20
143.3057924909121
 30
0.0
 40
3.5
 41
26.25
 71
     5
 72
     5
  1
取付寸法
 73
     1
 44
1.0
1001
ACAD
1000
MTEXTBEGIN
1070
    73
1070
     1
1070
    44
1040
1.0
1070
    74
1070
     0
1000
MTEXTEND
  0
MTEXT
  5
AC9C5
330
1F
100
AcDbEntity
  8
AM_6
100
AcDbMText
 10
247.999999999994
 20
134.5557924908516
 30
0.0
 40
3.5
 41
17.5
 71
     5
 72
     5
  1
R（mm）
 73
     1
 44
1.0
1001
ACAD
1000
MTEXTBEGIN
1070
    73
1070
     1
1070
    44
1040
1.0
1070
    74
1070
     0
1000
MTEXTEND
  0
LINE
  5
AC9C6
330
1F
100
AcDbEntity
  8
AM_5
100
AcDbLine
 10
256.749999999994
 20
147.680792490965
 30
0.0
 11
256.7500000000293
 21
17.00000000009118
 31
0.0
  0
MTEXT
  5
AC9CA
330
1F
100
AcDbEntity
  8
AM_6
100
AcDbMText
 10
247.999999999994
 20
143.3057924908894
 30
0.0
 40
3.5
 41
17.5
 71
     5
 72
     5
  1
旋回半径
 73
     1
 44
1.0
1001
ACAD
1000
MTEXTBEGIN
1070
    73
1070
     1
1070
    44
1040
1.0
1070
    74
1070
     0
1000
MTEXTEND
  0
LINE
  5
AC9D4
330
1F
100
AcDbEntity
  8
AM_5
100
AcDbLine
 10
99.24999999999535
 20
138.9307924909037
 30
0.0
 11
309.2499999999952
 21
138.9307924909038
 31
0.0
  0
MTEXT
  5
AC9D6
330
1F
100
AcDbEntity
  8
AM_6
100
AcDbMText
 10
301.3629797107526
 20
134.5557924908468
 30
0.0
 40
3.5
 41
17.5
 71
     5
 72
     5
  1
g
 73
     1
 44
1.0
1001
ACAD
1000
MTEXTBEGIN
1070
    73
1070
     1
1070
    44
1040
1.0
1070
    74
1070
     0
1000
MTEXTEND
  0
MTEXT
  5
AC9D7
330
1F
100
AcDbEntity
  8
AM_6
100
AcDbMText
 10
301.2843879794553
 20
143.3057924909411
 30
0.0
 40
3.5
 41
35.0
 71
     5
 72
     5
  1
自重
 73
     1
 44
1.0
1001
ACAD
1000
MTEXTBEGIN
1070
    73
1070
     1
1070
    44
1040
1.0
1070
    74
1070
     0
1000
MTEXTEND
  0
LINE
  5
ACAE3
330
1F
100
AcDbEntity
  8
AM_5
100
AcDbLine
 10
23.00000000001235
 20
95.37052832726681
 30
0.0
 11
309.2500000000097
 21
95.37052832726676
 31
0.0
  0
MTEXT
  5
ACAE4
330
1F
100
AcDbEntity
  8
AM_6
100
AcDbMText
 10
108.0000000000529
 20
112.4661535882359
 30
0.0
 40
3.5
 41
17.5
 71
     5
 72
     5
  1
50
 73
     1
 44
1.0
1001
ACAD
1000
MTEXTBEGIN
1070
    73
1070
     1
1070
    44
1040
1.0
1070
    74
1070
     0
1000
MTEXTEND
  0
MTEXT
  5
ACAE5
330
1F
100
AcDbEntity
  8
AM_6
100
AcDbMText
 10
40.60092944487426
 20
117.2455283272766
 30
0.0
 40
3.5
 41
26.25
 71
     5
 72
     5
  1
SUS-SG-50N
 73
     1
 44
1.0
1001
ACAD
1000
MTEXTBEGIN
1070
    73
1070
     1
1070
    44
1040
1.0
1070
    74
1070
     0
1000
MTEXTEND
  0
MTEXT
  5
ACAE7
330
1F
100
AcDbEntity
  8
AM_6
100
AcDbMText
 10
164.8750000000599
 20
112.9941056052436
 30
0.0
 40
3.5
 41
26.24999999998582
 71
     5
 72
     5
  1
70 \U+00D758
 73
     1
 44
1.0
1001
ACAD
1000
MTEXTBEGIN
1070
    73
1070
     1
1070
    44
1040
1.0
1070
    74
1070
     0
1000
MTEXTEND
  0
MTEXT
  5
ACAE8
330
1F
100
AcDbEntity
  8
AM_6
100
AcDbMText
 10
230.5000000000671
 20
112.9941056052312
 30
0.0
 40
3.5
 41
17.5
 71
     5
 72
     5
  1
27
 73
     1
 44
1.0
1001
ACAD
1000
MTEXTBEGIN
1070
    73
1070
     1
1070
    44
1040
1.0
1070
    74
1070
     0
1000
MTEXTEND
  0
MTEXT
  5
ACAEB
330
1F
100
AcDbEntity
  8
AM_6
100
AcDbMText
 10
213.0000000000674
 20
112.9941056052506
 30
0.0
 40
3.5
 41
17.5
 71
     5
 72
     5
  1
8.8
 73
     1
 44
1.0
1001
ACAD
1000
MTEXTBEGIN
1070
    73
1070
     1
1070
    44
1040
1.0
1070
    74
1070
     0
1000
MTEXTEND
  0
MTEXT
  5
ACAEC
330
1F
100
AcDbEntity
  8
AM_6
100
AcDbMText
 10
41.91604094799474
 20
125.9955283272796
 30
0.0
 40
3.5
 41
26.25
 71
     5
 72
     5
  1
SUS-SG-50RH
 73
     1
 44
1.0
1001
ACAD
1000
MTEXTBEGIN
1070
    73
1070
     1
1070
    44
1040
1.0
1070
    74
1070
     0
1000
MTEXTEND
  0
MTEXT
  5
ACAED
330
1F
100
AcDbEntity
  8
AM_6
100
AcDbMText
 10
78.35781584944133
 20
125.9686495613189
 30
0.0
 40
3.5
 41
26.25
 71
     5
 72
     5
  1
ゴム車
 73
     1
 44
1.0
1001
ACAD
1000
MTEXTBEGIN
1070
    73
1070
     1
1070
    44
1040
1.0
1070
    74
1070
     0
1000
MTEXTEND
  0
MTEXT
  5
ACAEE
330
1F
100
AcDbEntity
  8
AM_6
100
AcDbMText
 10
41.83711865452379
 20
99.74552832725159
 30
0.0
 40
3.5
 41
26.25
 71
     5
 72
     5
  1
SUS-SG-50EL
 73
     1
 44
1.0
1001
ACAD
1000
MTEXTBEGIN
1070
    73
1070
     1
1070
    44
1040
1.0
1070
    74
1070
     0
1000
MTEXTEND
  0
MTEXT
  5
ACAEF
330
1F
100
AcDbEntity
  8
AM_6
100
AcDbMText
 10
78.35781584944133
 20
117.1038950694713
 30
0.0
 40
3.5
 41
26.25
 71
     5
 72
     5
  1
ナイロン車
 73
     1
 44
1.0
1001
ACAD
1000
MTEXTBEGIN
1070
    73
1070
     1
1070
    44
1040
1.0
1070
    74
1070
     0
1000
MTEXTEND
  0
MTEXT
  5
ACAF0
330
1F
100
AcDbEntity
  8
AM_6
100
AcDbMText
 10
79.25000000003341
 20
99.3336142006969
 30
0.0
 40
3.5
 41
39.9999999999709
 71
     5
 72
     5
  1
エラストマー車
 73
     1
 44
1.0
1001
ACAD
1000
MTEXTBEGIN
1070
    73
1070
     1
1070
    44
1040
1.0
1070
    74
1070
     0
1000
MTEXTEND
  0
MTEXT
  5
ACAF1
330
1F
100
AcDbEntity
  8
AM_6
100
AcDbMText
 10
143.0000000000673
 20
112.9941056052337
 30
0.0
 40
3.5
 41
17.5
 71
     5
 72
     5
  1
70
 73
     1
 44
1.0
1001
ACAD
1000
MTEXTBEGIN
1070
    73
1070
     1
1070
    44
1040
1.0
1070
    74
1070
     0
1000
MTEXTEND
  0
MTEXT
  5
ACAF2
330
1F
100
AcDbEntity
  8
AM_6
100
AcDbMText
 10
191.1250000000598
 20
112.9941056052436
 30
0.0
 40
3.5
 41
26.24999999998582
 71
     5
 72
     5
  1
55 \U+00D742
 73
     1
 44
1.0
1001
ACAD
1000
MTEXTBEGIN
1070
    73
1070
     1
1070
    44
1040
1.0
1070
    74
1070
     0
1000
MTEXTEND
  0
MTEXT
  5
ACAF3
330
1F
100
AcDbEntity
  8
AM_6
100
AcDbMText
 10
248.0000000000671
 20
112.9941056052338
 30
0.0
 40
3.5
 41
17.5
 71
     5
 72
     5
  1
53
 73
     1
 44
1.0
1001
ACAD
1000
MTEXTBEGIN
1070
    73
1070
     1
1070
    44
1040
1.0
1070
    74
1070
     0
1000
MTEXTEND
  0
LINE
  5
ACAF4
330
1F
100
AcDbEntity
  8
AM_5
100
AcDbLine
 10
99.2500000000221
 20
112.870528327292
 30
0.0
 11
23.00000000000975
 21
112.8705283272925
 31
0.0
  0
LINE
  5
ACAF5
330
1F
100
AcDbEntity
  8
AM_5
100
AcDbLine
 10
99.25000000001494
 20
121.6205283272874
 30
0.0
 11
23.00000000000844
 21
121.6205283272879
 31
0.0
  0
LINE
  5
ACAF6
330
1F
100
AcDbEntity
  8
AM_5
100
AcDbLine
 10
309.2500000000421
 20
112.8705283273266
 30
0.0
 11
256.7500000000401
 21
112.8705283273272
 31
0.0
  0
LINE
  5
ACAF7
330
1F
100
AcDbEntity
  8
AM_5
100
AcDbLine
 10
309.250000000035
 20
121.620528327322
 30
0.0
 11
256.7500000000388
 21
121.6205283273225
 31
0.0
  0
LINE
  5
ACAFD
330
1F
100
AcDbEntity
  8
AM_5
100
AcDbLine
 10
99.25000000002926
 20
104.1205283272966
 30
0.0
 11
23.00000000001105
 21
104.1205283272971
 31
0.0
  0
LINE
  5
ACAFE
330
1F
100
AcDbEntity
  8
AM_5
100
AcDbLine
 10
309.2500000000493
 20
104.1205283273312
 30
0.0
 11
256.7500000000473
 21
104.1205283273317
 31
0.0
  0
LINE
  5
ACAFF
330
1F
100
AcDbEntity
  8
AM_5
100
AcDbLine
 10
23.00000000001753
 20
60.56026416362477
 30
0.0
 11
309.2500000000149
 21
60.5602641636246
 31
0.0
  0
LINE
  5
ACB10
330
1F
100
AcDbEntity
  8
AM_5
100
AcDbLine
 10
99.25000000002722
 20
78.06026416364989
 30
0.0
 11
23.00000000001493
 21
78.0602641636504
 31
0.0
  0
LINE
  5
ACB11
330
1F
100
AcDbEntity
  8
AM_5
100
AcDbLine
 10
99.25000000002006
 20
86.81026416364529
 30
0.0
 11
23.00000000001363
 21
86.81026416364579
 31
0.0
  0
LINE
  5
ACB12
330
1F
100
AcDbEntity
  8
AM_5
100
AcDbLine
 10
309.2500000000472
 20
78.06026416368445
 30
0.0
 11
256.7500000000452
 21
78.06026416368502
 31
0.0
  0
LINE
  5
ACB13
330
1F
100
AcDbEntity
  8
AM_5
100
AcDbLine
 10
309.2500000000401
 20
86.81026416367984
 30
0.0
 11
256.7500000000439
 21
86.81026416368041
 31
0.0
  0
LINE
  5
ACB19
330
1F
100
AcDbEntity
  8
AM_5
100
AcDbLine
 10
99.25000000003437
 20
69.31026416365444
 30
0.0
 11
23.00000000001623
 21
69.31026416365495
 31
0.0
  0
LINE
  5
ACB1A
330
1F
100
AcDbEntity
  8
AM_5
100
AcDbLine
 10
309.2500000000544
 20
69.31026416368905
 30
0.0
 11
256.7500000000523
 21
69.31026416368957
 31
0.0
  0
LINE
  5
ACB2C
330
1F
100
AcDbEntity
  8
AM_5
100
AcDbLine
 10
99.2500000000221
 20
43.25000000000772
 30
0.0
 11
23.00000000002011
 21
43.25000000000829
 31
0.0
  0
LINE
  5
ACB2D
330
1F
100
AcDbEntity
  8
AM_5
100
AcDbLine
 10
99.25000000001494
 20
52.00000000000312
 30
0.0
 11
23.00000000001881
 21
52.00000000000364
 31
0.0
  0
LINE
  5
ACB2E
330
1F
100
AcDbEntity
  8
AM_5
100
AcDbLine
 10
309.2500000000421
 20
43.25000000004229
 30
0.0
 11
256.7500000000401
 21
43.25000000004286
 31
0.0
  0
LINE
  5
ACB2F
330
1F
100
AcDbEntity
  8
AM_5
100
AcDbLine
 10
309.250000000035
 20
52.00000000003768
 30
0.0
 11
256.7500000000388
 21
52.00000000003825
 31
0.0
  0
LINE
  5
ACB35
330
1F
100
AcDbEntity
  8
AM_5
100
AcDbLine
 10
99.25000000002926
 20
34.50000000001228
 30
0.0
 11
23.00000000002142
 21
34.50000000001285
 31
0.0
  0
LINE
  5
ACB36
330
1F
100
AcDbEntity
  8
AM_5
100
AcDbLine
 10
309.2500000000493
 20
34.50000000004695
 30
0.0
 11
256.7500000000473
 21
34.50000000004741
 31
0.0
  0
LINE
  5
ACB37
330
1F
100
AcDbEntity
  8
AM_0
100
AcDbLine
 10
23.0
 20
17.0
 30
0.0
 11
309.2500000000752
 21
17.0000000001238
 31
0.0
  0
MTEXT
  5
AD80B
330
1F
100
AcDbEntity
  8
AM_6
100
AcDbMText
 10
41.83711865452385
 20
108.4955283272817
 30
0.0
 40
3.5
 41
26.25
 71
     5
 72
     5
  1
SUS-SG-50UR
 73
     1
 44
1.0
1001
ACAD
1000
MTEXTBEGIN
1070
    73
1070
     1
1070
    44
1040
1.0
1070
    74
1070
     0
1000
MTEXTEND
  0
MTEXT
  5
AD80C
330
1F
100
AcDbEntity
  8
AM_6
100
AcDbMText
 10
79.25000000003347
 20
108.0836142007271
 30
0.0
 40
3.5
 41
39.9999999999709
 71
     5
 72
     5
  1
\W0.7;ナイロンホイルウレタン車
 73
     1
 44
1.0
1001
ACAD
1000
MTEXTBEGIN
1070
    73
1070
     1
1070
    44
1040
1.0
1070
    74
1070
     0
1000
MTEXTEND
  0
LINE
  5
AD80D
330
1F
100
AcDbEntity
  8
AM_5
100
AcDbLine
 10
116.7499999999986
 20
112.8705283272921
 30
0.0
 11
134.2499999999986
 21
112.8705283272921
 31
0.0
  0
LINE
  5
AD80E
330
1F
100
AcDbEntity
  8
AM_5
100
AcDbLine
 10
116.7500000000284
 20
104.1205283272966
 30
0.0
 11
134.2500000000284
 21
104.1205283272966
 31
0.0
  0
MTEXT
  5
AD80F
330
1F
100
AcDbEntity
  8
AM_6
100
AcDbMText
 10
125.5000000000476
 20
121.8978256042772
 30
0.0
 40
3.5
 41
17.5
 71
     5
 72
     5
  1
28
 73
     1
 44
1.0
1001
ACAD
1000
MTEXTBEGIN
1070
    73
1070
     1
1070
    44
1040
1.0
1070
    74
1070
     0
1000
MTEXTEND
  0
MTEXT
  5
AD810
330
1F
100
AcDbEntity
  8
AM_6
100
AcDbMText
 10
125.500000000057
 20
99.91659012168391
 30
0.0
 40
3.5
 41
17.5
 71
     5
 72
     5
  1
27
 73
     1
 44
1.0
1001
ACAD
1000
MTEXTBEGIN
1070
    73
1070
     1
1070
    44
1040
1.0
1070
    74
1070
     0
1000
MTEXTEND
  0
MTEXT
  5
AD814
330
1F
100
AcDbEntity
  8
AM_6
100
AcDbMText
 10
265.500000000035
 20
125.5920708646981
 30
0.0
 40
3.5
 41
17.5
 71
     5
 72
     5
  1
50
 73
     1
 44
1.0
1001
ACAD
1000
MTEXTBEGIN
1070
    73
1070
     1
1070
    44
1040
1.0
1070
    74
1070
     0
1000
MTEXTEND
  0
MTEXT
  5
AD815
330
1F
100
AcDbEntity
  8
AM_6
100
AcDbMText
 10
283.000000000035
 20
125.5920708646981
 30
0.0
 40
3.5
 41
17.5
 71
     5
 72
     5
  1
51.0
 73
     1
 44
1.0
1001
ACAD
1000
MTEXTBEGIN
1070
    73
1070
     1
1070
    44
1040
1.0
1070
    74
1070
     0
1000
MTEXTEND
  0
MTEXT
  5
AD816
330
1F
100
AcDbEntity
  8
AM_6
100
AcDbMText
 10
301.085247061436
 20
125.5920708647026
 30
0.0
 40
3.5
 41
17.5
 71
     5
 72
     5
  1
275
 73
     1
 44
1.0
1001
ACAD
1000
MTEXTBEGIN
1070
    73
1070
     1
1070
    44
1040
1.0
1070
    74
1070
     0
1000
MTEXTEND
  0
MTEXT
  5
AD817
330
1F
100
AcDbEntity
  8
AM_6
100
AcDbMText
 10
265.5000000000392
 20
116.8420708647027
 30
0.0
 40
3.5
 41
17.5
 71
     5
 72
     5
  1
60
 73
     1
 44
1.0
1001
ACAD
1000
MTEXTBEGIN
1070
    73
1070
     1
1070
    44
1040
1.0
1070
    74
1070
     0
1000
MTEXTEND
  0
MTEXT
  5
AD818
330
1F
100
AcDbEntity
  8
AM_6
100
AcDbMText
 10
283.0000000000392
 20
116.8420708647027
 30
0.0
 40
3.5
 41
17.5
 71
     5
 72
     5
  1
61.2
 73
     1
 44
1.0
1001
ACAD
1000
MTEXTBEGIN
1070
    73
1070
     1
1070
    44
1040
1.0
1070
    74
1070
     0
1000
MTEXTEND
  0
MTEXT
  5
AD819
330
1F
100
AcDbEntity
  8
AM_6
100
AcDbMText
 10
301.0852470614402
 20
116.8420708647072
 30
0.0
 40
3.5
 41
17.5
 71
     5
 72
     5
  1
240
 73
     1
 44
1.0
1001
ACAD
1000
MTEXTBEGIN
1070
    73
1070
     1
1070
    44
1040
1.0
1070
    74
1070
     0
1000
MTEXTEND
  0
MTEXT
  5
AD81C
330
1F
100
AcDbEntity
  8
AM_6
100
AcDbMText
 10
301.0852470614401
 20
108.0920708647118
 30
0.0
 40
3.5
 41
17.5
 71
     5
 72
     5
  1
245
 73
     1
 44
1.0
1001
ACAD
1000
MTEXTBEGIN
1070
    73
1070
     1
1070
    44
1040
1.0
1070
    74
1070
     0
1000
MTEXTEND
  0
MTEXT
  5
AD81D
330
1F
100
AcDbEntity
  8
AM_6
100
AcDbMText
 10
265.5000000000392
 20
99.34207086464262
 30
0.0
 40
3.5
 41
17.5
 71
     5
 72
     5
  1
35
 73
     1
 44
1.0
1001
ACAD
1000
MTEXTBEGIN
1070
    73
1070
     1
1070
    44
1040
1.0
1070
    74
1070
     0
1000
MTEXTEND
  0
MTEXT
  5
AD81E
330
1F
100
AcDbEntity
  8
AM_6
100
AcDbMText
 10
283.0000000000392
 20
99.34207086464262
 30
0.0
 40
3.5
 41
17.5
 71
     5
 72
     5
  1
35.7
 73
     1
 44
1.0
1001
ACAD
1000
MTEXTBEGIN
1070
    73
1070
     1
1070
    44
1040
1.0
1070
    74
1070
     0
1000
MTEXTEND
  0
MTEXT
  5
AD820
330
1F
100
AcDbEntity
  8
AM_6
100
AcDbMText
 10
40.60092944490271
 20
82.43526416363449
 30
0.0
 40
3.5
 41
26.25
 71
     5
 72
     5
  1
SUS-SG-65N
 73
     1
 44
1.0
1001
ACAD
1000
MTEXTBEGIN
1070
    73
1070
     1
1070
    44
1040
1.0
1070
    74
1070
     0
1000
MTEXTEND
  0
MTEXT
  5
AD821
330
1F
100
AcDbEntity
  8
AM_6
100
AcDbMText
 10
41.91604094802319
 20
91.18526416363744
 30
0.0
 40
3.5
 41
26.25
 71
     5
 72
     5
  1
SUS-SG-65RH
 73
     1
 44
1.0
1001
ACAD
1000
MTEXTBEGIN
1070
    73
1070
     1
1070
    44
1040
1.0
1070
    74
1070
     0
1000
MTEXTEND
  0
MTEXT
  5
AD822
330
1F
100
AcDbEntity
  8
AM_6
100
AcDbMText
 10
78.35781584946978
 20
91.15838539767679
 30
0.0
 40
3.5
 41
26.25
 71
     5
 72
     5
  1
ゴム車
 73
     1
 44
1.0
1001
ACAD
1000
MTEXTBEGIN
1070
    73
1070
     1
1070
    44
1040
1.0
1070
    74
1070
     0
1000
MTEXTEND
  0
MTEXT
  5
AD823
330
1F
100
AcDbEntity
  8
AM_6
100
AcDbMText
 10
41.83711865455224
 20
64.93526416360942
 30
0.0
 40
3.5
 41
26.25
 71
     5
 72
     5
  1
SUS-SG-65EL
 73
     1
 44
1.0
1001
ACAD
1000
MTEXTBEGIN
1070
    73
1070
     1
1070
    44
1040
1.0
1070
    74
1070
     0
1000
MTEXTEND
  0
MTEXT
  5
AD824
330
1F
100
AcDbEntity
  8
AM_6
100
AcDbMText
 10
78.35781584946978
 20
82.29363090582916
 30
0.0
 40
3.5
 41
26.25
 71
     5
 72
     5
  1
ナイロン車
 73
     1
 44
1.0
1001
ACAD
1000
MTEXTBEGIN
1070
    73
1070
     1
1070
    44
1040
1.0
1070
    74
1070
     0
1000
MTEXTEND
  0
MTEXT
  5
AD825
330
1F
100
AcDbEntity
  8
AM_6
100
AcDbMText
 10
79.25000000006185
 20
64.52335003705474
 30
0.0
 40
3.5
 41
39.9999999999709
 71
     5
 72
     5
  1
エラストマー車
 73
     1
 44
1.0
1001
ACAD
1000
MTEXTBEGIN
1070
    73
1070
     1
1070
    44
1040
1.0
1070
    74
1070
     0
1000
MTEXTEND
  0
MTEXT
  5
AD826
330
1F
100
AcDbEntity
  8
AM_6
100
AcDbMText
 10
41.83711865455229
 20
73.68526416363955
 30
0.0
 40
3.5
 41
26.25
 71
     5
 72
     5
  1
SUS-SG-65UR
 73
     1
 44
1.0
1001
ACAD
1000
MTEXTBEGIN
1070
    73
1070
     1
1070
    44
1040
1.0
1070
    74
1070
     0
1000
MTEXTEND
  0
MTEXT
  5
AD827
330
1F
100
AcDbEntity
  8
AM_6
100
AcDbMText
 10
79.25000000006192
 20
73.27335003708492
 30
0.0
 40
3.5
 41
39.9999999999709
 71
     5
 72
     5
  1
\W0.7;ナイロンホイルウレタン車
 73
     1
 44
1.0
1001
ACAD
1000
MTEXTBEGIN
1070
    73
1070
     1
1070
    44
1040
1.0
1070
    74
1070
     0
1000
MTEXTEND
  0
MTEXT
  5
AD828
330
1F
100
AcDbEntity
  8
AM_6
100
AcDbMText
 10
42.05279380930737
 20
47.62499999999238
 30
0.0
 40
3.5
 41
26.25
 71
     5
 72
     5
  1
SUS-SG-75NR
 73
     1
 44
1.0
1001
ACAD
1000
MTEXTBEGIN
1070
    73
1070
     1
1070
    44
1040
1.0
1070
    74
1070
     0
1000
MTEXTEND
  0
MTEXT
  5
AD829
330
1F
100
AcDbEntity
  8
AM_6
100
AcDbMText
 10
41.91604094805164
 20
56.37499999999528
 30
0.0
 40
3.5
 41
26.25
 71
     5
 72
     5
  1
SUS-SG-75RH
 73
     1
 44
1.0
1001
ACAD
1000
MTEXTBEGIN
1070
    73
1070
     1
1070
    44
1040
1.0
1070
    74
1070
     0
1000
MTEXTEND
  0
MTEXT
  5
AD82A
330
1F
100
AcDbEntity
  8
AM_6
100
AcDbMText
 10
78.35781584949824
 20
56.34812123403463
 30
0.0
 40
3.5
 41
26.25
 71
     5
 72
     5
  1
ゴム車
 73
     1
 44
1.0
1001
ACAD
1000
MTEXTBEGIN
1070
    73
1070
     1
1070
    44
1040
1.0
1070
    74
1070
     0
1000
MTEXTEND
  0
MTEXT
  5
AD82B
330
1F
100
AcDbEntity
  8
AM_6
100
AcDbMText
 10
41.83711865459204
 20
21.37499999997181
 30
0.0
 40
3.5
 41
26.25
 71
     5
 72
     5
  1
SUS-SG-75EL
 73
     1
 44
1.0
1001
ACAD
1000
MTEXTBEGIN
1070
    73
1070
     1
1070
    44
1040
1.0
1070
    74
1070
     0
1000
MTEXTEND
  0
MTEXT
  5
AD82D
330
1F
100
AcDbEntity
  8
AM_6
100
AcDbMText
 10
79.25000000010166
 20
20.96308587341718
 30
0.0
 40
3.5
 41
39.9999999999709
 71
     5
 72
     5
  1
エラストマー車
 73
     1
 44
1.0
1001
ACAD
1000
MTEXTBEGIN
1070
    73
1070
     1
1070
    44
1040
1.0
1070
    74
1070
     0
1000
MTEXTEND
  0
MTEXT
  5
AD82E
330
1F
100
AcDbEntity
  8
AM_6
100
AcDbMText
 10
40.56617157423329
 20
38.8749999999975
 30
0.0
 40
3.5
 41
26.25
 71
     5
 72
     5
  1
SUS-SG-75N
 73
     1
 44
1.0
1001
ACAD
1000
MTEXTBEGIN
1070
    73
1070
     1
1070
    44
1040
1.0
1070
    74
1070
     0
1000
MTEXTEND
  0
MTEXT
  5
AD87D
330
1F
100
AcDbEntity
  8
AM_6
100
AcDbMText
 10
108.0000000000529
 20
77.6558894245938
 30
0.0
 40
3.5
 41
17.5
 71
     5
 72
     5
  1
65
 73
     1
 44
1.0
1001
ACAD
1000
MTEXTBEGIN
1070
    73
1070
     1
1070
    44
1040
1.0
1070
    74
1070
     0
1000
MTEXTEND
  0
MTEXT
  5
AD87E
330
1F
100
AcDbEntity
  8
AM_6
100
AcDbMText
 10
164.8750000000599
 20
78.18384144160143
 30
0.0
 40
3.5
 41
26.24999999998582
 71
     5
 72
     5
  1
70 \U+00D758
 73
     1
 44
1.0
1001
ACAD
1000
MTEXTBEGIN
1070
    73
1070
     1
1070
    44
1040
1.0
1070
    74
1070
     0
1000
MTEXTEND
  0
MTEXT
  5
AD87F
330
1F
100
AcDbEntity
  8
AM_6
100
AcDbMText
 10
230.5000000000671
 20
78.18384144158909
 30
0.0
 40
3.5
 41
17.5
 71
     5
 72
     5
  1
27
 73
     1
 44
1.0
1001
ACAD
1000
MTEXTBEGIN
1070
    73
1070
     1
1070
    44
1040
1.0
1070
    74
1070
     0
1000
MTEXTEND
  0
MTEXT
  5
AD880
330
1F
100
AcDbEntity
  8
AM_6
100
AcDbMText
 10
213.0000000000674
 20
78.18384144160842
 30
0.0
 40
3.5
 41
17.5
 71
     5
 72
     5
  1
8.8
 73
     1
 44
1.0
1001
ACAD
1000
MTEXTBEGIN
1070
    73
1070
     1
1070
    44
1040
1.0
1070
    74
1070
     0
1000
MTEXTEND
  0
MTEXT
  5
AD881
330
1F
100
AcDbEntity
  8
AM_6
100
AcDbMText
 10
143.0000000000673
 20
78.1838414415916
 30
0.0
 40
3.5
 41
17.5
 71
     5
 72
     5
  1
85
 73
     1
 44
1.0
1001
ACAD
1000
MTEXTBEGIN
1070
    73
1070
     1
1070
    44
1040
1.0
1070
    74
1070
     0
1000
MTEXTEND
  0
MTEXT
  5
AD882
330
1F
100
AcDbEntity
  8
AM_6
100
AcDbMText
 10
191.1250000000598
 20
78.18384144160148
 30
0.0
 40
3.5
 41
26.24999999998582
 71
     5
 72
     5
  1
55 \U+00D742
 73
     1
 44
1.0
1001
ACAD
1000
MTEXTBEGIN
1070
    73
1070
     1
1070
    44
1040
1.0
1070
    74
1070
     0
1000
MTEXTEND
  0
MTEXT
  5
AD883
330
1F
100
AcDbEntity
  8
AM_6
100
AcDbMText
 10
248.0000000000671
 20
78.18384144159171
 30
0.0
 40
3.5
 41
17.5
 71
     5
 72
     5
  1
61
 73
     1
 44
1.0
1001
ACAD
1000
MTEXTBEGIN
1070
    73
1070
     1
1070
    44
1040
1.0
1070
    74
1070
     0
1000
MTEXTEND
  0
LINE
  5
AD885
330
1F
100
AcDbEntity
  8
AM_5
100
AcDbLine
 10
116.7500000000284
 20
69.31026416365449
 30
0.0
 11
134.2500000000284
 21
69.31026416365449
 31
0.0
  0
MTEXT
  5
AD887
330
1F
100
AcDbEntity
  8
AM_6
100
AcDbMText
 10
125.500000000057
 20
65.10632595804174
 30
0.0
 40
3.5
 41
17.5
 71
     5
 72
     5
  1
27
 73
     1
 44
1.0
1001
ACAD
1000
MTEXTBEGIN
1070
    73
1070
     1
1070
    44
1040
1.0
1070
    74
1070
     0
1000
MTEXTEND
  0
MTEXT
  5
AD888
330
1F
100
AcDbEntity
  8
AM_6
100
AcDbMText
 10
125.5000000000485
 20
82.30643387960531
 30
0.0
 40
3.5
 41
17.5
 71
     5
 72
     5
  1
25
 73
     1
 44
1.0
1001
ACAD
1000
MTEXTBEGIN
1070
    73
1070
     1
1070
    44
1040
1.0
1070
    74
1070
     0
1000
MTEXTEND
  0
MTEXT
  5
AD88B
330
1F
100
AcDbEntity
  8
AM_6
100
AcDbMText
 10
301.085247061436
 20
90.78180670106041
 30
0.0
 40
3.5
 41
17.5
 71
     5
 72
     5
  1
375
 73
     1
 44
1.0
1001
ACAD
1000
MTEXTBEGIN
1070
    73
1070
     1
1070
    44
1040
1.0
1070
    74
1070
     0
1000
MTEXTEND
  0
MTEXT
  5
AD88C
330
1F
100
AcDbEntity
  8
AM_6
100
AcDbMText
 10
265.5000000000392
 20
82.03180670106059
 30
0.0
 40
3.5
 41
17.5
 71
     5
 72
     5
  1
70
 73
     1
 44
1.0
1001
ACAD
1000
MTEXTBEGIN
1070
    73
1070
     1
1070
    44
1040
1.0
1070
    74
1070
     0
1000
MTEXTEND
  0
MTEXT
  5
AD88D
330
1F
100
AcDbEntity
  8
AM_6
100
AcDbMText
 10
283.0000000000392
 20
82.03180670106059
 30
0.0
 40
3.5
 41
17.5
 71
     5
 72
     5
  1
71.4
 73
     1
 44
1.0
1001
ACAD
1000
MTEXTBEGIN
1070
    73
1070
     1
1070
    44
1040
1.0
1070
    74
1070
     0
1000
MTEXTEND
  0
MTEXT
  5
AD88E
330
1F
100
AcDbEntity
  8
AM_6
100
AcDbMText
 10
301.0852470614402
 20
82.03180670106503
 30
0.0
 40
3.5
 41
17.5
 71
     5
 72
     5
  1
260
 73
     1
 44
1.0
1001
ACAD
1000
MTEXTBEGIN
1070
    73
1070
     1
1070
    44
1040
1.0
1070
    74
1070
     0
1000
MTEXTEND
  0
MTEXT
  5
AD891
330
1F
100
AcDbEntity
  8
AM_6
100
AcDbMText
 10
301.0852470614401
 20
73.28180670106963
 30
0.0
 40
3.5
 41
17.5
 71
     5
 72
     5
  1
285
 73
     1
 44
1.0
1001
ACAD
1000
MTEXTBEGIN
1070
    73
1070
     1
1070
    44
1040
1.0
1070
    74
1070
     0
1000
MTEXTEND
  0
MTEXT
  5
AD892
330
1F
100
AcDbEntity
  8
AM_6
100
AcDbMText
 10
265.5000000000392
 20
64.53180670100045
 30
0.0
 40
3.5
 41
17.5
 71
     5
 72
     5
  1
40
 73
     1
 44
1.0
1001
ACAD
1000
MTEXTBEGIN
1070
    73
1070
     1
1070
    44
1040
1.0
1070
    74
1070
     0
1000
MTEXTEND
  0
MTEXT
  5
AD893
330
1F
100
AcDbEntity
  8
AM_6
100
AcDbMText
 10
283.0000000000392
 20
64.53180670100045
 30
0.0
 40
3.5
 41
17.5
 71
     5
 72
     5
  1
40.8
 73
     1
 44
1.0
1001
ACAD
1000
MTEXTBEGIN
1070
    73
1070
     1
1070
    44
1040
1.0
1070
    74
1070
     0
1000
MTEXTEND
  0
MTEXT
  5
AD895
330
1F
100
AcDbEntity
  8
AM_6
100
AcDbMText
 10
108.0000000000529
 20
39.09808965419813
 30
0.0
 40
3.5
 41
17.5
 71
     5
 72
     5
  1
75
 73
     1
 44
1.0
1001
ACAD
1000
MTEXTBEGIN
1070
    73
1070
     1
1070
    44
1040
1.0
1070
    74
1070
     0
1000
MTEXTEND
  0
MTEXT
  5
AD896
330
1F
100
AcDbEntity
  8
AM_6
100
AcDbMText
 10
164.8750000000599
 20
39.16197435113224
 30
0.0
 40
3.5
 41
26.24999999998582
 71
     5
 72
     5
  1
70 \U+00D758
 73
     1
 44
1.0
1001
ACAD
1000
MTEXTBEGIN
1070
    73
1070
     1
1070
    44
1040
1.0
1070
    74
1070
     0
1000
MTEXTEND
  0
MTEXT
  5
AD899
330
1F
100
AcDbEntity
  8
AM_6
100
AcDbMText
 10
143.0000000000673
 20
39.16197435112247
 30
0.0
 40
3.5
 41
17.5
 71
     5
 72
     5
  1
93
 73
     1
 44
1.0
1001
ACAD
1000
MTEXTBEGIN
1070
    73
1070
     1
1070
    44
1040
1.0
1070
    74
1070
     0
1000
MTEXTEND
  0
MTEXT
  5
AD89B
330
1F
100
AcDbEntity
  8
AM_6
100
AcDbMText
 10
248.0000000000671
 20
39.16197435112258
 30
0.0
 40
3.5
 41
17.5
 71
     5
 72
     5
  1
66
 73
     1
 44
1.0
1001
ACAD
1000
MTEXTBEGIN
1070
    73
1070
     1
1070
    44
1040
1.0
1070
    74
1070
     0
1000
MTEXTEND
  0
LINE
  5
AD89C
330
1F
100
AcDbEntity
  8
AM_5
100
AcDbLine
 10
116.7499999999985
 20
43.25000000000772
 30
0.0
 11
134.2499999999986
 21
43.25000000000772
 31
0.0
  0
LINE
  5
AD89D
330
1F
100
AcDbEntity
  8
AM_5
100
AcDbLine
 10
116.7500000000284
 20
34.50000000001239
 30
0.0
 11
134.2500000000284
 21
34.50000000001239
 31
0.0
  0
MTEXT
  5
AD89F
330
1F
100
AcDbEntity
  8
AM_6
100
AcDbMText
 10
125.5000000000683
 20
21.54606179440418
 30
0.0
 40
3.5
 41
17.5
 71
     5
 72
     5
  1
27
 73
     1
 44
1.0
1001
ACAD
1000
MTEXTBEGIN
1070
    73
1070
     1
1070
    44
1040
1.0
1070
    74
1070
     0
1000
MTEXTEND
  0
MTEXT
  5
AD8A0
330
1F
100
AcDbEntity
  8
AM_6
100
AcDbMText
 10
125.5000000000491
 20
38.83440865803891
 30
0.0
 40
3.5
 41
17.5
 71
     5
 72
     5
  1
25
 73
     1
 44
1.0
1001
ACAD
1000
MTEXTBEGIN
1070
    73
1070
     1
1070
    44
1040
1.0
1070
    74
1070
     0
1000
MTEXTEND
  0
MTEXT
  5
AD8A3
330
1F
100
AcDbEntity
  8
AM_6
100
AcDbMText
 10
301.085247061436
 20
55.97154253741826
 30
0.0
 40
3.5
 41
17.5
 71
     5
 72
     5
  1
360
 73
     1
 44
1.0
1001
ACAD
1000
MTEXTBEGIN
1070
    73
1070
     1
1070
    44
1040
1.0
1070
    74
1070
     0
1000
MTEXTEND
  0
MTEXT
  5
AD8A6
330
1F
100
AcDbEntity
  8
AM_6
100
AcDbMText
 10
301.0852470614402
 20
47.22154253742291
 30
0.0
 40
3.5
 41
17.5
 71
     5
 72
     5
  1
290
 73
     1
 44
1.0
1001
ACAD
1000
MTEXTBEGIN
1070
    73
1070
     1
1070
    44
1040
1.0
1070
    74
1070
     0
1000
MTEXTEND
  0
MTEXT
  5
AD8A7
330
1F
100
AcDbEntity
  8
AM_6
100
AcDbMText
 10
265.5000000000391
 20
38.47154253742303
 30
0.0
 40
3.5
 41
17.5
 71
     5
 72
     5
  1
80
 73
     1
 44
1.0
1001
ACAD
1000
MTEXTBEGIN
1070
    73
1070
     1
1070
    44
1040
1.0
1070
    74
1070
     0
1000
MTEXTEND
  0
MTEXT
  5
AD8A8
330
1F
100
AcDbEntity
  8
AM_6
100
AcDbMText
 10
283.0000000000392
 20
38.47154253742303
 30
0.0
 40
3.5
 41
17.5
 71
     5
 72
     5
  1
81.6
 73
     1
 44
1.0
1001
ACAD
1000
MTEXTBEGIN
1070
    73
1070
     1
1070
    44
1040
1.0
1070
    74
1070
     0
1000
MTEXTEND
  0
MTEXT
  5
AD8A9
330
1F
100
AcDbEntity
  8
AM_6
100
AcDbMText
 10
301.0852470614401
 20
38.47154253742747
 30
0.0
 40
3.5
 41
17.5
 71
     5
 72
     5
  1
275
 73
     1
 44
1.0
1001
ACAD
1000
MTEXTBEGIN
1070
    73
1070
     1
1070
    44
1040
1.0
1070
    74
1070
     0
1000
MTEXTEND
  0
MTEXT
  5
AD8AC
330
1F
100
AcDbEntity
  8
AM_6
100
AcDbMText
 10
301.0852470614516
 20
20.97154253736733
 30
0.0
 40
3.5
 41
17.5
 71
     5
 72
     5
  1
300
 73
     1
 44
1.0
1001
ACAD
1000
MTEXTBEGIN
1070
    73
1070
     1
1070
    44
1040
1.0
1070
    74
1070
     0
1000
MTEXTEND
  0
MTEXT
  5
AD8C2
330
1F
100
AcDbEntity
  8
AM_6
100
AcDbMText
 10
191.125000000065
 20
39.16197435113236
 30
0.0
 40
3.5
 41
26.24999999998582
 71
     5
 72
     5
  1
55 \U+00D742
 73
     1
 44
1.0
1001
ACAD
1000
MTEXTBEGIN
1070
    73
1070
     1
1070
    44
1040
1.0
1070
    74
1070
     0
1000
MTEXTEND
  0
MTEXT
  5
AD8C3
330
1F
100
AcDbEntity
  8
AM_6
100
AcDbMText
 10
230.5000000000671
 20
39.16197435111996
 30
0.0
 40
3.5
 41
17.5
 71
     5
 72
     5
  1
28
 73
     1
 44
1.0
1001
ACAD
1000
MTEXTBEGIN
1070
    73
1070
     1
1070
    44
1040
1.0
1070
    74
1070
     0
1000
MTEXTEND
  0
MTEXT
  5
AD8C4
330
1F
100
AcDbEntity
  8
AM_6
100
AcDbMText
 10
213.0000000000673
 20
39.16197435113929
 30
0.0
 40
3.5
 41
17.5
 71
     5
 72
     5
  1
8.8
 73
     1
 44
1.0
1001
ACAD
1000
MTEXTBEGIN
1070
    73
1070
     1
1070
    44
1040
1.0
1070
    74
1070
     0
1000
MTEXTEND
  0
MTEXT
  5
AD93C
330
1F
100
AcDbEntity
  8
AM_6
100
AcDbMText
 10
42.99999999999204
 20
351.0
 30
0.0
 40
3.2
 41
70.0
 71
     4
 72
     5
  1
　        　　　ナイロンホイルウレタン　（UR）
 73
     1
 44
1.0
1001
ACAD
1000
MTEXTBEGIN
1070
    73
1070
     1
1070
    44
1040
1.0
1070
    74
1070
     0
1000
MTEXTEND
  0
MTEXT
  5
AD93D
330
1F
100
AcDbEntity
  8
AM_6
100
AcDbMText
 10
42.99999999999204
 20
343.0
 30
0.0
 40
3.2
 41
70.0
 71
     4
 72
     5
  1
　        　　　エラストマー　（EL）
 73
     1
 44
1.0
1001
ACAD
1000
MTEXTBEGIN
1070
    73
1070
     1
1070
    44
1040
1.0
1070
    74
1070
     0
1000
MTEXTEND
  0
MTEXT
  5
AE6D1
330
1F
100
AcDbEntity
  8
AM_6
100
AcDbMText
 10
42.99999999999227
 20
367.0
 30
0.0
 40
3.2
 41
70.0
 71
     4
 72
     5
  1
　        　　　ナイロンホイルゴム　（NR）
 73
     1
 44
1.0
1001
ACAD
1000
MTEXTBEGIN
1070
    73
1070
     1
1070
    44
1040
1.0
1070
    74
1070
     0
1000
MTEXTEND
  0
CIRCLE
  5
AE7B7
330
1F
100
AcDbEntity
  8
AM_0
100
AcDbCircle
 10
512.6310973121293
 20
278.4168915087906
 30
0.0
 40
4.4
  0
LINE
  5
AE7B8
330
1F
100
AcDbEntity
  8
AM_7
100
AcDbLine
 10
512.6310973121293
 20
284.8168915087903
 30
0.0
 11
512.6310973121293
 21
272.0168915087906
 31
0.0
  0
ARC
  5
AE7B9
330
1F
100
AcDbEntity
  8
AM_0
100
AcDbCircle
 10
587.2510014654229
 20
299.4168915087906
 30
0.0
 40
70.0
100
AcDbArc
 50
180.0
 51
195.6184982756451
  0
CIRCLE
  5
AE7BA
330
1F
100
AcDbEntity
  8
AM_0
100
AcDbCircle
 10
457.6310973121293
 20
278.4168915087906
 30
0.0
 40
4.4
  0
LINE
  5
AE7BB
330
1F
100
AcDbEntity
  8
AM_7
100
AcDbLine
 10
457.6310973121293
 20
284.8168915087903
 30
0.0
 11
457.6310973121293
 21
272.0168915087906
 31
0.0
  0
ARC
  5
AE7BC
330
1F
100
AcDbEntity
  8
AM_0
100
AcDbCircle
 10
383.0111931588359
 20
299.4168915087906
 30
0.0
 40
70.0
100
AcDbArc
 50
344.3815017243482
 51
0.0
  0
CIRCLE
  5
AE7BD
330
1F
100
AcDbEntity
  8
AM_0
100
AcDbCircle
 10
485.1310973121293
 20
299.4168915087906
 30
0.0
 40
22.0
  0
CIRCLE
  5
AE7BE
330
1F
100
AcDbEntity
  8
AM_0
100
AcDbCircle
 10
485.1310973121293
 20
299.4168915087906
 30
0.0
 40
23.5
  0
LINE
  5
AE7BF
330
1F
100
AcDbEntity
  8
AM_7
100
AcDbLine
 10
485.1310973121293
 20
331.4168915087905
 30
0.0
 11
485.1310973121293
 21
267.4168915087906
 31
0.0
  0
LINE
  5
AE7C0
330
1F
100
AcDbEntity
  8
AM_0
100
AcDbLine
 10
386.4545250070371
 20
214.7247879115097
 30
0.0
 11
386.4545250070371
 21
198.9327819804874
 31
0.0
  0
ARC
  5
AE7C1
330
1F
100
AcDbEntity
  8
AM_0
100
AcDbCircle
 10
374.9545250070373
 20
208.3012562118307
 30
0.0
 40
2.0
100
AcDbArc
 50
0.0
 51
90.0
  0
ARC
  5
AE7C2
330
1F
100
AcDbEntity
  8
AM_0
100
AcDbCircle
 10
374.9545250070373
 20
208.2936456080143
 30
0.0
 40
4.0
100
AcDbArc
 50
0.0
 51
90.0
  0
ARC
  5
AE7C3
330
1F
100
AcDbEntity
  8
AM_0
100
AcDbCircle
 10
346.9545250070373
 20
208.2936456080143
 30
0.0
 40
4.0
100
AcDbArc
 50
90.0
 51
180.0
  0
ARC
  5
AE7C4
330
1F
100
AcDbEntity
  8
AM_0
100
AcDbCircle
 10
346.9545250070373
 20
208.3012562118307
 30
0.0
 40
2.0
100
AcDbArc
 50
90.0
 51
180.0
  0
LINE
  5
AE7C5
330
1F
100
AcDbEntity
  8
AM_0
100
AcDbLine
 10
335.4545250070373
 20
214.7247879115097
 30
0.0
 11
335.4545250070373
 21
198.9327819804874
 31
0.0
  0
LINE
  5
AE7C6
330
1F
100
AcDbEntity
  8
AM_7
100
AcDbLine
 10
360.9545250070373
 20
228.3810379115104
 30
0.0
 11
360.9545250070373
 21
152.4847879115105
 31
0.0
  0
LINE
  5
AE7C7
330
1F
100
AcDbEntity
  8
AM_0
100
AcDbLine
 10
376.9545250070373
 20
176.3810379115106
 30
0.0
 11
374.9545250070373
 21
176.3810379115104
 31
0.0
  0
LINE
  5
AE7C8
330
1F
100
AcDbEntity
  8
AM_0
100
AcDbLine
 10
376.9545250070373
 20
208.2247879115103
 30
0.0
 11
344.9545250070373
 21
208.2247879115103
 31
0.0
  0
LINE
  5
AE7C9
330
1F
100
AcDbEntity
  8
AM_7
100
AcDbLine
 10
384.9545250070373
 20
180.3810379115105
 30
0.0
 11
337.9545250070373
 21
180.3810379115105
 31
0.0
  0
ARC
  5
AE7CA
330
1F
100
AcDbEntity
  8
AM_0
100
AcDbCircle
 10
337.2593014833549
 20
172.2978973919185
 30
0.0
 40
5.695223523682471
100
AcDbArc
 50
0.0
 51
21.91865666331493
  0
LINE
  5
AE7CB
330
1F
100
AcDbEntity
  8
AM_0
100
AcDbLine
 10
342.9545250070373
 20
169.4847879115105
 30
0.0
 11
342.9545250070373
 21
208.2936456080143
 31
0.0
  0
LINE
  5
AE7CC
330
1F
100
AcDbEntity
  8
AM_0
100
AcDbLine
 10
344.9545250070373
 20
169.4847879115105
 30
0.0
 11
344.9545250070373
 21
208.3012562118307
 31
0.0
  0
LINE
  5
AE7CD
330
1F
100
AcDbEntity
  8
AM_0
100
AcDbLine
 10
342.9545250070373
 20
169.4847879115105
 30
0.0
 11
344.9545250070373
 21
169.4847879115105
 31
0.0
  0
ARC
  5
AE7CE
330
1F
100
AcDbEntity
  8
AM_0
100
AcDbCircle
 10
380.8814371390383
 20
198.9327819804874
 30
0.0
 40
45.42691213200099
100
AcDbArc
 50
180.0
 51
208.4868748968961
  0
LINE
  5
AE7CF
330
1F
100
AcDbEntity
  8
AM_0
100
AcDbLine
 10
346.9545250070373
 20
202.3810379115105
 30
0.0
 11
346.9545250070373
 21
158.3810379115105
 31
0.0
  0
ARC
  5
AE7D0
330
1F
100
AcDbEntity
  8
AM_0
100
AcDbCircle
 10
342.9545250070373
 20
176.3810379115107
 30
0.0
 40
2.0
100
AcDbArc
 50
180.0
 51
270.0
  0
LINE
  5
AE7D1
330
1F
100
AcDbEntity
  8
AM_0
100
AcDbLine
 10
340.9545250070373
 20
176.3810379115107
 30
0.0
 11
340.9545250070373
 21
184.3810379115107
 31
0.0
  0
ARC
  5
AE7D2
330
1F
100
AcDbEntity
  8
AM_0
100
AcDbCircle
 10
342.9545250070373
 20
184.3810379115107
 30
0.0
 40
2.0
100
AcDbArc
 50
90.0
 51
180.0
  0
LINE
  5
AE7D3
330
1F
100
AcDbEntity
  8
AM_0
100
AcDbLine
 10
346.9545250070373
 20
184.3810379115105
 30
0.0
 11
344.9545250070373
 21
184.3810379115105
 31
0.0
  0
ARC
  5
AE7D4
330
1F
100
AcDbEntity
  8
AM_0
100
AcDbCircle
 10
384.6497485307196
 20
172.2978973919185
 30
0.0
 40
5.695223523682471
100
AcDbArc
 50
158.5446525474039
 51
180.0
  0
LINE
  5
AE7D5
330
1F
100
AcDbEntity
  8
AM_0
100
AcDbLine
 10
378.9545250070373
 20
169.4847879115105
 30
0.0
 11
378.9545250070373
 21
208.2936456080143
 31
0.0
  0
LINE
  5
AE7D6
330
1F
100
AcDbEntity
  8
AM_0
100
AcDbLine
 10
376.9545250070373
 20
169.4847879115105
 30
0.0
 11
376.9545250070373
 21
208.3012562118307
 31
0.0
  0
LINE
  5
AE7D7
330
1F
100
AcDbEntity
  8
AM_0
100
AcDbLine
 10
376.9545250070373
 20
169.4847879115105
 30
0.0
 11
378.9545250070373
 21
169.4847879115105
 31
0.0
  0
ARC
  5
AE7D8
330
1F
100
AcDbEntity
  8
AM_0
100
AcDbCircle
 10
379.9545250070373
 20
176.3810379115105
 30
0.0
 40
2.0
100
AcDbArc
 50
270.0
 51
0.0
  0
ARC
  5
AE7D9
330
1F
100
AcDbEntity
  8
AM_0
100
AcDbCircle
 10
379.9545250070373
 20
184.3810379115105
 30
0.0
 40
2.0
100
AcDbArc
 50
0.0
 51
90.0
  0
ARC
  5
AE7DA
330
1F
100
AcDbEntity
  8
AM_0
100
AcDbCircle
 10
341.0276128750363
 20
198.9327819804874
 30
0.0
 40
45.42691213200099
100
AcDbArc
 50
334.2818731371302
 51
0.0
  0
LINE
  5
AE7DB
330
1F
100
AcDbEntity
  8
AM_0
100
AcDbLine
 10
374.9545250070373
 20
202.3810379115105
 30
0.0
 11
374.9545250070373
 21
158.3810379115105
 31
0.0
  0
ARC
  5
AE7DC
330
1F
100
AcDbEntity
  8
AM_0
100
AcDbCircle
 10
379.3545250070373
 20
174.7810379115105
 30
0.0
 40
0.4
100
AcDbArc
 50
180.0
 51
270.0
  0
LINE
  5
AE7DD
330
1F
100
AcDbEntity
  8
AM_0
100
AcDbLine
 10
379.3545250070373
 20
174.3810379115105
 30
0.0
 11
379.9545250070373
 21
174.3810379115105
 31
0.0
  0
ARC
  5
AE7DE
330
1F
100
AcDbEntity
  8
AM_0
100
AcDbCircle
 10
379.3545250070373
 20
185.9810379115105
 30
0.0
 40
0.4
100
AcDbArc
 50
90.0
 51
180.0
  0
LINE
  5
AE7DF
330
1F
100
AcDbEntity
  8
AM_0
100
AcDbLine
 10
379.9545250070372
 20
186.3810379115106
 30
0.0
 11
379.3545250070373
 21
186.3810379115106
 31
0.0
  0
LINE
  5
AE7E0
330
1F
100
AcDbEntity
  8
AM_0
100
AcDbLine
 10
381.9545250070373
 20
176.3810379115105
 30
0.0
 11
381.9545250070373
 21
184.3810379115105
 31
0.0
  0
LINE
  5
AE7E1
330
1F
100
AcDbEntity
  8
AM_0
100
AcDbLine
 10
376.9545250070373
 20
184.3810379115105
 30
0.0
 11
374.9545250070373
 21
184.3810379115105
 31
0.0
  0
LINE
  5
AE7E2
330
1F
100
AcDbEntity
  8
AM_0
100
AcDbLine
 10
331.9545250070373
 20
225.3810379115104
 30
0.0
 11
389.9545250070373
 21
225.3810379115104
 31
0.0
  0
LINE
  5
AE7E3
330
1F
100
AcDbEntity
  8
AM_0
100
AcDbLine
 10
336.2397046033768
 20
217.6292471732052
 30
0.0
 11
385.6693454106975
 21
217.6292471732001
 31
0.0
  0
LINE
  5
AE7E4
330
1F
100
AcDbEntity
  8
AM_0
100
AcDbLine
 10
385.6693454106975
 20
219.6292471732079
 30
0.0
 11
336.2397046033768
 21
219.6292471732052
 31
0.0
  0
LINE
  5
AE7E5
330
1F
100
AcDbEntity
  8
AM_0
100
AcDbLine
 10
331.9545250070373
 20
223.3810379115104
 30
0.0
 11
389.9545250070373
 21
223.3810379115104
 31
0.0
  0
LINE
  5
AE7E6
330
1F
100
AcDbEntity
  8
AM_0
100
AcDbLine
 10
374.9545250070373
 20
212.2936456080143
 30
0.0
 11
346.9545250070373
 21
212.2936456080143
 31
0.0
  0
LINE
  5
AE7E7
330
1F
100
AcDbEntity
  8
AM_0
100
AcDbLine
 10
346.9545250070373
 20
210.3012562118304
 30
0.0
 11
374.9545250070373
 21
210.3012562118304
 31
0.0
  0
ARC
  5
AE7E8
330
1F
100
AcDbEntity
  8
AM_0
100
AcDbCircle
 10
338.9545250070373
 20
214.7247879115105
 30
0.0
 40
3.5
100
AcDbArc
 50
123.9171292680944
 51
180.000000000013
  0
LINE
  5
AE7E9
330
1F
100
AcDbEntity
  8
AM_0
100
AcDbLine
 10
331.9545250070373
 20
223.3810379115104
 30
0.0
 11
331.9545250070373
 21
225.3810379115104
 31
0.0
  0
LINE
  5
AE7EA
330
1F
100
AcDbEntity
  8
AM_0
100
AcDbLine
 10
336.2397046033768
 20
219.6292471732052
 30
0.0
 11
336.2397046033768
 21
217.6292471732052
 31
0.0
  0
LINE
  5
AE7EB
330
1F
100
AcDbEntity
  8
AM_0
100
AcDbLine
 10
334.2450202909797
 20
222.8810379115105
 30
0.0
 11
335.399720829359
 21
220.8810379115105
 31
0.0
  0
ARC
  5
AE7EC
330
1F
100
AcDbEntity
  8
AM_0
100
AcDbCircle
 10
333.3789948871952
 20
222.3810379115104
 30
0.0
 40
1.0
100
AcDbArc
 50
30.00000000000197
 51
90.0
  0
ARC
  5
AE7ED
330
1F
100
AcDbEntity
  8
AM_0
100
AcDbCircle
 10
337.9977970407122
 20
222.3810379115104
 30
0.0
 40
3.0
100
AcDbArc
 50
210.000000000002
 51
246.5292585810241
  0
ARC
  5
AE7EE
330
1F
100
AcDbEntity
  8
AM_0
100
AcDbCircle
 10
388.5300551268792
 20
222.3810379115104
 30
0.0
 40
1.0
100
AcDbArc
 50
90.0
 51
149.999999999998
  0
LINE
  5
AE7EF
330
1F
100
AcDbEntity
  8
AM_0
100
AcDbLine
 10
387.6640297230947
 20
222.8810379115105
 30
0.0
 11
386.5093291847156
 21
220.8810379115105
 31
0.0
  0
ARC
  5
AE7F0
330
1F
100
AcDbEntity
  8
AM_0
100
AcDbCircle
 10
383.9112529733622
 20
222.3810379115104
 30
0.0
 40
3.0
100
AcDbArc
 50
293.4707414189758
 51
329.999999999998
  0
LINE
  5
AE7F1
330
1F
100
AcDbEntity
  8
AM_0
100
AcDbLine
 10
385.6693454106975
 20
219.6292471732052
 30
0.0
 11
385.6693454106975
 21
217.6292471732052
 31
0.0
  0
LINE
  5
AE7F2
330
1F
100
AcDbEntity
  8
AM_0
100
AcDbLine
 10
389.9545250070373
 20
223.3810379115104
 30
0.0
 11
389.9545250070373
 21
225.3810379115104
 31
0.0
  0
ARC
  5
AE7F3
330
1F
100
AcDbEntity
  8
AM_0
100
AcDbCircle
 10
382.9545250070373
 20
214.7247879115105
 30
0.0
 40
3.5
100
AcDbArc
 50
359.999999999987
 51
56.08287073176383
  0
LINE
  5
AE7F4
330
1F
100
AcDbEntity
  8
AM_0
100
AcDbLine
 10
485.1310973121293
 20
225.3810379115104
 30
0.0
 11
520.1310973121293
 21
225.3810379115104
 31
0.0
  0
ARC
  5
AE7F5
330
1F
100
AcDbEntity
  8
AM_0
100
AcDbCircle
 10
497.9964401854285
 20
196.2247879115105
 30
0.0
 40
12.0
100
AcDbArc
 50
90.0
 51
144.0000000000107
  0
LINE
  5
AE7F6
330
1F
100
AcDbEntity
  8
AM_0
100
AcDbLine
 10
458.1310973121294
 20
270.4168915087906
 30
0.0
 11
512.1310973121293
 21
270.4168915087906
 31
0.0
  0
LINE
  5
AE7F7
330
1F
100
AcDbEntity
  8
AM_7
100
AcDbLine
 10
485.1310973121293
 20
228.3810379115104
 30
0.0
 11
485.1310973121293
 21
195.9327819804874
 31
0.0
  0
LINE
  5
AE7F8
330
1F
100
AcDbEntity
  8
AM_0
100
AcDbLine
 10
447.298212028995
 20
182.3949178658468
 30
0.0
 11
452.6083805051456
 21
212.5103798037464
 31
0.0
  0
LINE
  5
AE7F9
330
1F
100
AcDbEntity
  8
AM_0
100
AcDbLine
 10
467.3727190077906
 20
214.7247879115105
 30
0.0
 11
467.3727190077906
 21
175.5502589936338
 31
0.0
  0
ARC
  5
AE7FA
330
1F
100
AcDbEntity
  8
AM_0
100
AcDbCircle
 10
458.1310973121294
 20
180.4847879115105
 30
0.0
 40
11.0
100
AcDbArc
 50
170.0000000000014
 51
324.0
  0
LINE
  5
AE7FB
330
1F
100
AcDbEntity
  8
AM_7
100
AcDbLine
 10
486.1310973121293
 20
180.3810379115105
 30
0.0
 11
430.1310973121294
 21
180.3810379115105
 31
0.0
  0
ARC
  5
AE7FC
330
1F
100
AcDbEntity
  8
AM_0
100
AcDbCircle
 10
458.1310973121294
 20
180.3810379115105
 30
0.0
 40
25.0
100
AcDbArc
 50
106.1038811373386
 51
27.89611886265847
  0
LINE
  5
AE7FD
330
1F
100
AcDbEntity
  8
AM_7
100
AcDbLine
 10
458.1310973121294
 20
189.5310379115105
 30
0.0
 11
458.1310973121294
 21
152.3810379115105
 31
0.0
  0
CIRCLE
  5
AE7FE
330
1F
100
AcDbEntity
  8
AM_0
100
AcDbCircle
 10
458.1310973121294
 20
180.3810379115105
 30
0.0
 40
6.150000000000002
  0
LINE
  5
AE7FF
330
1F
100
AcDbEntity
  8
AM_0
100
AcDbLine
 10
488.2882362529277
 20
203.2782109390181
 30
0.0
 11
467.0302842502537
 21
174.0191501362934
 31
0.0
  0
LINE
  5
AE800
330
1F
100
AcDbEntity
  8
AM_0
100
AcDbLine
 10
460.4162769084689
 20
217.6292471732052
 30
0.0
 11
509.2826674155571
 21
217.6292471732001
 31
0.0
  0
LINE
  5
AE801
330
1F
100
AcDbEntity
  8
AM_0
100
AcDbLine
 10
509.8459177157897
 20
219.6292471732078
 30
0.0
 11
460.4162769084689
 21
219.6292471732052
 31
0.0
  0
LINE
  5
AE802
330
1F
100
AcDbEntity
  8
AM_0
100
AcDbLine
 10
485.1310973121293
 20
225.3810379115104
 30
0.0
 11
450.1310973121294
 21
225.3810379115104
 31
0.0
  0
LINE
  5
AE803
330
1F
100
AcDbEntity
  8
AM_0
100
AcDbLine
 10
450.1310973121294
 20
223.3810379115104
 30
0.0
 11
520.1310973121293
 21
223.3810379115104
 31
0.0
  0
LINE
  5
AE804
330
1F
100
AcDbEntity
  8
AM_0
100
AcDbLine
 10
466.1245195033812
 20
213.6928887407326
 30
0.0
 11
450.1310973121294
 21
212.2936456080143
 31
0.0
  0
LINE
  5
AE805
330
1F
100
AcDbEntity
  8
AM_0
100
AcDbLine
 10
450.1310973121294
 20
212.2936456080143
 30
0.0
 11
450.3054087976247
 21
210.3012562118304
 31
0.0
  0
LINE
  5
AE806
330
1F
100
AcDbEntity
  8
AM_0
100
AcDbLine
 10
452.2488328609251
 20
210.471283785793
 30
0.0
 11
450.3054087976247
 21
210.3012562118304
 31
0.0
  0
LINE
  5
AE807
330
1F
100
AcDbEntity
  8
AM_0
100
AcDbLine
 10
450.1310973121294
 20
225.3810379115104
 30
0.0
 11
450.1310973121294
 21
223.3810379115104
 31
0.0
  0
LINE
  5
AE808
330
1F
100
AcDbEntity
  8
AM_0
100
AcDbLine
 10
460.4162769084689
 20
219.6292471732052
 30
0.0
 11
460.4162769084689
 21
217.6292471732052
 31
0.0
  0
LINE
  5
AE809
330
1F
100
AcDbEntity
  8
AM_0
100
AcDbLine
 10
459.6310973121294
 20
215.2247879115104
 30
0.0
 11
459.6310973121294
 21
214.4992846725367
 31
0.0
  0
ARC
  5
AE80A
330
1F
100
AcDbEntity
  8
AM_0
100
AcDbCircle
 10
458.1310973121294
 20
214.4992846725367
 30
0.0
 40
1.5
100
AcDbArc
 50
274.9999999999998
 51
0.0
  0
ARC
  5
AE80B
330
1F
100
AcDbEntity
  8
AM_0
100
AcDbCircle
 10
462.6310973121294
 20
215.1247879115104
 30
0.0
 40
3.0
100
AcDbArc
 50
123.4029255985068
 51
180.0
  0
LINE
  5
AE80C
330
1F
100
AcDbEntity
  8
AM_0
100
AcDbLine
 10
458.4215925960717
 20
222.8810379115105
 30
0.0
 11
459.5762931344511
 21
220.8810379115105
 31
0.0
  0
ARC
  5
AE80D
330
1F
100
AcDbEntity
  8
AM_0
100
AcDbCircle
 10
457.5555671922873
 20
222.3810379115104
 30
0.0
 40
1.0
100
AcDbArc
 50
30.00000000000197
 51
90.0
  0
ARC
  5
AE80E
330
1F
100
AcDbEntity
  8
AM_0
100
AcDbCircle
 10
462.1743693458042
 20
222.3810379115104
 30
0.0
 40
3.0
100
AcDbArc
 50
210.0000000000019
 51
246.5292585810241
  0
LINE
  5
AE80F
330
1F
100
AcDbEntity
  8
AM_7
100
AcDbLine
 10
451.2310973121294
 20
278.4168915087906
 30
0.0
 11
464.0310973121292
 21
278.4168915087906
 31
0.0
  0
ARC
  5
AE810
330
1F
100
AcDbEntity
  8
AM_0
100
AcDbCircle
 10
458.1310973121294
 20
278.4168915087906
 30
0.0
 40
8.0
100
AcDbArc
 50
164.3815017243481
 51
270.0
  0
LINE
  5
AE811
330
1F
100
AcDbEntity
  8
AM_0
100
AcDbLine
 10
510.6310973121293
 20
215.2247879115104
 30
0.0
 11
510.6310973121293
 21
208.2247879115103
 31
0.0
  0
LINE
  5
AE812
330
1F
100
AcDbEntity
  8
AM_0
100
AcDbLine
 10
497.9964401854285
 20
208.2247879115103
 30
0.0
 11
510.6310973121293
 21
208.2247879115103
 31
0.0
  0
ARC
  5
AE813
330
1F
100
AcDbEntity
  8
AM_0
100
AcDbCircle
 10
512.7066274319713
 20
222.3810379115104
 30
0.0
 40
1.0
100
AcDbArc
 50
90.0
 51
149.999999999998
  0
ARC
  5
AE814
330
1F
100
AcDbEntity
  8
AM_0
100
AcDbCircle
 10
508.0878252784541
 20
222.3810379115104
 30
0.0
 40
3.0
100
AcDbArc
 50
293.4707414190965
 51
329.999999999998
  0
LINE
  5
AE815
330
1F
100
AcDbEntity
  8
AM_0
100
AcDbLine
 10
511.8406020281867
 20
222.8810379115105
 30
0.0
 11
510.6859014898077
 21
220.8810379115105
 31
0.0
  0
LINE
  5
AE816
330
1F
100
AcDbEntity
  8
AM_0
100
AcDbLine
 10
509.8459177157897
 20
217.6292471732052
 30
0.0
 11
509.2826674155495
 21
217.6292471732052
 31
0.0
  0
LINE
  5
AE817
330
1F
100
AcDbEntity
  8
AM_0
100
AcDbLine
 10
509.8459177157897
 20
219.6292471732052
 30
0.0
 11
509.8459177157897
 21
217.6292471732052
 31
0.0
  0
ARC
  5
AE818
330
1F
100
AcDbEntity
  8
AM_0
100
AcDbCircle
 10
507.6310973121293
 20
215.1247879115104
 30
0.0
 40
3.0
100
AcDbArc
 50
359.9999999999935
 51
56.59707440148557
  0
LINE
  5
AE819
330
1F
100
AcDbEntity
  8
AM_0
100
AcDbLine
 10
520.1310973121293
 20
225.3810379115104
 30
0.0
 11
520.1310973121293
 21
223.3810379115104
 31
0.0
  0
LINE
  5
AE81A
330
1F
100
AcDbEntity
  8
AM_7
100
AcDbLine
 10
506.2310973121293
 20
278.4168915087906
 30
0.0
 11
519.0310973121293
 21
278.4168915087906
 31
0.0
  0
ARC
  5
AE81B
330
1F
100
AcDbEntity
  8
AM_0
100
AcDbCircle
 10
512.1310973121293
 20
278.4168915087906
 30
0.0
 40
8.0
100
AcDbArc
 50
270.0
 51
15.61849827564512
  0
LINE
  5
AE81C
330
1F
100
AcDbEntity
  8
AM_7
100
AcDbLine
 10
430.1310973121293
 20
299.4168915087906
 30
0.0
 11
520.2510014654226
 21
299.4168915087906
 31
0.0
  0
CIRCLE
  5
AE81D
330
1F
100
AcDbEntity
  8
AM_0
100
AcDbCircle
 10
485.1310973121293
 20
299.4168915087906
 30
0.0
 40
12.0
  0
CIRCLE
  5
AE81E
330
1F
100
AcDbEntity
  8
AM_0
100
AcDbCircle
 10
485.1310973121293
 20
299.4168915087906
 30
0.0
 40
9.5
  0
LINE
  5
AE81F
330
1F
100
AcDbEntity
  8
AM_0
100
AcDbLine
 10
458.1310973121294
 20
328.4168915087906
 30
0.0
 11
512.1310973121293
 21
328.4168915087906
 31
0.0
  0
LINE
  5
AE820
330
1F
100
AcDbEntity
  8
AM_0
100
AcDbLine
 10
451.5969059567648
 20
285.4168915087906
 30
0.0
 11
436.1310973121293
 21
285.4168915087906
 31
0.0
  0
LINE
  5
AE821
330
1F
100
AcDbEntity
  8
AM_0
100
AcDbLine
 10
451.5969059567648
 20
313.4168915087906
 30
0.0
 11
436.1310973121293
 21
313.4168915087906
 31
0.0
  0
ARC
  5
AE822
330
1F
100
AcDbEntity
  8
AM_0
100
AcDbCircle
 10
458.1310973121294
 20
320.4168915087906
 30
0.0
 40
8.0
100
AcDbArc
 50
90.0
 51
195.6184982756451
  0
CIRCLE
  5
AE823
330
1F
100
AcDbEntity
  8
AM_0
100
AcDbCircle
 10
457.6310973121293
 20
320.4168915087906
 30
0.0
 40
4.4
  0
LINE
  5
AE824
330
1F
100
AcDbEntity
  8
AM_7
100
AcDbLine
 10
457.6310973121293
 20
326.8168915087903
 30
0.0
 11
457.6310973121293
 21
314.0168915087904
 31
0.0
  0
ARC
  5
AE825
330
1F
100
AcDbEntity
  8
AM_0
100
AcDbCircle
 10
510.1310973121293
 20
299.4168915087906
 30
0.0
 40
60.0
100
AcDbArc
 50
166.9342189179344
 51
193.0657810820656
  0
ARC
  5
AE826
330
1F
100
AcDbEntity
  8
AM_0
100
AcDbCircle
 10
383.0111931588359
 20
299.4168915087906
 30
0.0
 40
70.0
100
AcDbArc
 50
0.0
 51
15.61849827564512
  0
LINE
  5
AE827
330
1F
100
AcDbEntity
  8
AM_0
100
AcDbLine
 10
450.6573312599868
 20
281.4168915087906
 30
0.0
 11
447.1310973121294
 21
281.4168915087908
 31
0.0
  0
LINE
  5
AE828
330
1F
100
AcDbEntity
  8
AM_0
100
AcDbLine
 10
447.1310973121294
 20
281.4168915087905
 30
0.0
 11
447.1310973121294
 21
283.4168915087906
 31
0.0
  0
LINE
  5
AE829
330
1F
100
AcDbEntity
  8
AM_0
100
AcDbLine
 10
451.1580933084387
 20
283.4168915087905
 30
0.0
 11
447.1310973121294
 21
283.4168915087906
 31
0.0
  0
LINE
  5
AE82A
330
1F
100
AcDbEntity
  8
AM_0
100
AcDbLine
 10
450.6573312599868
 20
317.4168915087903
 30
0.0
 11
447.1310973121294
 21
317.4168915087903
 31
0.0
  0
LINE
  5
AE82B
330
1F
100
AcDbEntity
  8
AM_0
100
AcDbLine
 10
447.1310973121294
 20
317.4168915087907
 30
0.0
 11
447.1310973121294
 21
315.4168915087906
 31
0.0
  0
LINE
  5
AE82C
330
1F
100
AcDbEntity
  8
AM_0
100
AcDbLine
 10
451.1580933084387
 20
315.4168915087907
 30
0.0
 11
447.1310973121294
 21
315.4168915087906
 31
0.0
  0
LINE
  5
AE82D
330
1F
100
AcDbEntity
  8
AM_7
100
AcDbLine
 10
451.2310973121294
 20
320.4168915087906
 30
0.0
 11
464.0310973121292
 21
320.4168915087906
 31
0.0
  0
LINE
  5
AE82E
330
1F
100
AcDbEntity
  8
AM_7
100
AcDbLine
 10
512.6310973121293
 20
326.8168915087903
 30
0.0
 11
512.6310973121293
 21
314.0168915087904
 31
0.0
  0
ARC
  5
AE82F
330
1F
100
AcDbEntity
  8
AM_0
100
AcDbCircle
 10
512.1310973121293
 20
320.4168915087906
 30
0.0
 40
8.0
100
AcDbArc
 50
344.3815017243482
 51
90.0
  0
CIRCLE
  5
AE830
330
1F
100
AcDbEntity
  8
AM_0
100
AcDbCircle
 10
512.6310973121293
 20
320.4168915087906
 30
0.0
 40
4.4
  0
ARC
  5
AE831
330
1F
100
AcDbEntity
  8
AM_0
100
AcDbCircle
 10
587.2510014654229
 20
299.4168915087906
 30
0.0
 40
70.0
100
AcDbArc
 50
164.3815017243481
 51
180.0
  0
LINE
  5
AE832
330
1F
100
AcDbEntity
  8
AM_7
100
AcDbLine
 10
506.2310973121293
 20
320.4168915087906
 30
0.0
 11
519.0310973121293
 21
320.4168915087906
 31
0.0
  0
LINE
  5
AE833
330
1F
100
AcDbEntity
  8
AM_0
100
AcDbLine
 10
346.9545250070373
 20
176.3810379115106
 30
0.0
 11
344.9545250070373
 21
176.3810379115106
 31
0.0
  0
LINE
  5
AE834
330
1F
100
AcDbEntity
  8
AM_0
100
AcDbLine
 10
349.9545250070373
 20
155.3810379115105
 30
0.0
 11
371.9545250070373
 21
155.3810379115105
 31
0.0
  0
LINE
  5
AE835
330
1F
100
AcDbEntity
  8
AM_0
100
AcDbLine
 10
433.1310973121293
 20
310.4168915087906
 30
0.0
 11
433.1310973121293
 21
288.4168915087906
 31
0.0
  0
ARC
  5
AE836
330
1F
100
AcDbEntity
  8
AM_0
100
AcDbCircle
 10
436.1310973121293
 20
310.4168915087904
 30
0.0
 40
3.0
100
AcDbArc
 50
90.0
 51
180.0
  0
ARC
  5
AE837
330
1F
100
AcDbEntity
  8
AM_0
100
AcDbCircle
 10
436.1310973121293
 20
288.4168915087906
 30
0.0
 40
3.0
100
AcDbArc
 50
180.0000000000016
 51
270.0
  0
ARC
  5
AE838
330
1F
100
AcDbEntity
  8
AM_0
100
AcDbCircle
 10
349.9545250070373
 20
158.3810379115105
 30
0.0
 40
3.0
100
AcDbArc
 50
180.0
 51
270.0
  0
ARC
  5
AE839
330
1F
100
AcDbEntity
  8
AM_0
100
AcDbCircle
 10
371.9545250070373
 20
158.3810379115105
 30
0.0
 40
3.0
100
AcDbArc
 50
270.0
 51
0.0
  0
ARC
  5
AE83A
330
1F
100
AcDbEntity
  8
AM_0
100
AcDbCircle
 10
349.9545250070373
 20
202.3810379115105
 30
0.0
 40
3.0
100
AcDbArc
 50
90.0
 51
180.0
  0
LINE
  5
AE83B
330
1F
100
AcDbEntity
  8
AM_0
100
AcDbLine
 10
349.9545250070373
 20
205.3810379115105
 30
0.0
 11
371.9545250070373
 21
205.3810379115105
 31
0.0
  0
ARC
  5
AE83C
330
1F
100
AcDbEntity
  8
AM_0
100
AcDbCircle
 10
371.9545250070373
 20
202.3810379115105
 30
0.0
 40
3.0
100
AcDbArc
 50
0.0
 51
90.0
  0
LINE
  5
AE83D
330
1F
100
AcDbEntity
  8
AM_0
100
AcDbLine
 10
453.8909544586306
 20
205.1810379115122
 30
0.0
 11
456.6910973121292
 21
205.1810379115122
 31
0.0
  0
LINE
  5
AE83E
330
1F
100
AcDbEntity
  8
AM_0
100
AcDbLine
 10
453.8909544586306
 20
205.1810379115122
 30
0.0
 11
456.6910973121292
 21
202.3808950580132
 31
0.0
  0
LINE
  5
AE83F
330
1F
100
AcDbEntity
  8
AM_0
100
AcDbLine
 10
455.9673505616981
 20
201.7197846619438
 30
0.0
 11
454.9491167967899
 21
202.7380184268513
 31
0.0
  0
ARC
  5
AE840
330
1F
100
AcDbEntity
  8
AM_0
100
AcDbCircle
 10
458.1310973121294
 20
199.5560379115122
 30
0.0
 40
4.5
100
AcDbArc
 50
135.0000000000002
 51
44.99999999999974
  0
LINE
  5
AE841
330
1F
100
AcDbEntity
  8
AM_0
100
AcDbLine
 10
459.5710973121297
 20
199.5560379115122
 30
0.0
 11
459.5710973121297
 21
202.3808950580132
 31
0.0
  0
LINE
  5
AE842
330
1F
100
AcDbEntity
  8
AM_0
100
AcDbLine
 10
456.6910973121292
 20
199.5560379115122
 30
0.0
 11
456.6910973121292
 21
202.3808950580132
 31
0.0
  0
ARC
  5
AE843
330
1F
100
AcDbEntity
  8
AM_0
100
AcDbCircle
 10
458.1310973121294
 20
199.5560379115122
 30
0.0
 40
3.06
100
AcDbArc
 50
135.0000000000002
 51
44.99999999999974
  0
TEXT
  5
AE844
330
1F
100
AcDbEntity
  8
AM_0
100
AcDbText
 10
458.5201927589489
 20
191.1865636493821
 30
0.0
 40
3.0
  1
0
  7
K
100
AcDbText
  0
TEXT
  5
AE845
330
1F
100
AcDbEntity
  8
AM_0
100
AcDbText
 10
454.8858512159664
 20
191.1865636493821
 30
0.0
 40
3.0
  1
5
  7
K
100
AcDbText
  0
ARC
  5
AE846
330
1F
100
AcDbEntity
  8
AM_0
100
AcDbCircle
 10
458.1310973121294
 20
199.5560379115122
 30
0.0
 40
1.439999999999999
100
AcDbArc
 50
180.0
 51
0.0
  0
HATCH
  5
AE847
330
1F
100
AcDbEntity
  8
SAISEN
100
AcDbHatch
 10
0.0
 20
0.0
 30
0.0
210
0.0
220
0.0
230
1.0
  2
SOLID
 70
     1
 71
     0
 91
        2
 92
        7
 72
     1
 73
     1
 93
        3
 10
458.1310973121294
 20
198.7460379115127
 42
0.0
 10
458.1310973121294
 20
200.3660379115117
 42
0.4142135623730966
 10
457.3210973121297
 20
199.5560379115122
 42
0.4142135623730966
 97
        0
 92
        7
 72
     1
 73
     1
 93
        3
 10
458.1310973121294
 20
198.7460379115127
 42
0.4142135623730966
 10
458.9410973121295
 20
199.5560379115122
 42
0.4142135623730966
 10
458.1310973121294
 20
200.3660379115117
 42
0.0
 97
        0
 75
     0
 76
     1
 47
0.0310016584543801
 98
        2
 10
457.6486367619044
 20
199.3131692935967
 10
458.4862091592782
 20
199.4991792855687
  0
CIRCLE
  5
AE848
330
1F
100
AcDbEntity
  8
SAISEN
100
AcDbCircle
 10
458.1310973121294
 20
199.5560379115122
 30
0.0
 40
0.8100000000000001
  0
LINE
  5
AE849
330
1F
100
AcDbEntity
  8
AM_0
100
AcDbLine
 10
459.5710973121297
 20
205.1810379115122
 30
0.0
 11
458.1310973121294
 21
203.7410379115117
 31
0.0
  0
LINE
  5
AE84A
330
1F
100
AcDbEntity
  8
AM_0
100
AcDbLine
 10
456.6910973121292
 20
205.1810379115122
 30
0.0
 11
458.1310973121294
 21
203.7410379115117
 31
0.0
  0
LINE
  5
AE84B
330
1F
100
AcDbEntity
  8
AM_0
100
AcDbLine
 10
459.5710973121297
 20
205.1810379115122
 30
0.0
 11
462.3712401656287
 21
205.1810379115122
 31
0.0
  0
LINE
  5
AE84C
330
1F
100
AcDbEntity
  8
AM_0
100
AcDbLine
 10
462.3712401656287
 20
205.1810379115122
 30
0.0
 11
459.5710973121297
 21
202.3808950580132
 31
0.0
  0
LINE
  5
AE84D
330
1F
100
AcDbEntity
  8
AM_0
100
AcDbLine
 10
461.3130778274692
 20
202.7380184268513
 30
0.0
 11
460.2948440625607
 21
201.7197846619438
 31
0.0
  0
DIMENSION
  5
AE8AB
330
1F
100
AcDbEntity
  8
AM_5
100
AcDbDimension
  2
*D7
 10
416.9028329509562
 20
225.3810379115104
 30
0.0
 11
413.6528329509562
 21
190.3810379115105
 31
0.0
 70
    32
  1
H
 71
     5
 42
69.99999999999983
  3
S-1
100
AcDbAlignedDimension
 13
458.1310973121294
 23
155.3810379115105
 33
0.0
 14
450.1310973121294
 24
225.3810379115104
 34
0.0
 50
90.0
100
AcDbRotatedDimension
  0
DIMENSION
  5
AE8AC
330
1F
100
AcDbEntity
  8
AM_5
100
AcDbDimension
  2
*D8
 10
485.1310973121293
 20
139.8180415059625
 30
0.0
 11
471.6310973121293
 21
143.0680415059625
 31
0.0
 70
    32
  1
E
 71
     5
 42
26.99999999999989
  3
S-1
100
AcDbAlignedDimension
 13
458.1310973121294
 23
152.3810379115105
 33
0.0
 14
485.1310973121293
 24
195.9327819804874
 34
0.0
100
AcDbRotatedDimension
  0
DIMENSION
  5
AE8AD
330
1F
100
AcDbEntity
  8
AM_5
100
AcDbDimension
  2
*D9
 10
434.8059538030939
 20
189.3775750388087
 30
0.0
 11
488.9915044268702
 21
168.4781401538299
 31
0.0
 70
   163
  1
D
 71
     5
 42
49.99999999999994
  3
S-1
100
AcDbDiametricDimension
 15
481.4562408211669
 25
171.3845007842125
 35
0.0
 40
0.0
1001
ACAD_DSTYLE_DIMRADIAL_EXTENSION
1070
   387
1070
     1
1070
   388
1040
1.808523499199771
1070
   390
1040
0.7172430333676673
1001
ACAD
1000
DSTYLE
1002
{
1070
   288
1070
     1
1002
}
  0
ARC
  5
AE9AD
330
1F
100
AcDbEntity
  8
AM_2
100
AcDbCircle
 10
485.1310973121293
 20
299.4168915087906
 30
0.0
 40
53.0
100
AcDbArc
 50
161.6790121008309
 51
198.3513074670812
  0
DIMENSION
  5
AE9B9
330
1F
100
AcDbEntity
  8
AM_5
100
AcDbDimension
  2
*D10
 10
485.1310973121295
 20
299.4168915087904
 30
0.0
 11
433.6113673106589
 21
274.0894321345587
 31
0.0
 70
    36
  1
R
 71
     5
 42
53.0
  3
S-1
100
AcDbRadialDimension
 15
438.967846945647
 25
273.3793356403633
 35
0.0
 40
0.0
1001
ACAD
1000
DSTYLE
1002
{
1070
   288
1070
     1
1002
}
1001
ACAD_DSTYLE_DIMRADIAL_EXTENSION
1070
   387
1070
     1
1070
   388
1040
2.821831092531254
1070
   390
1040
3.461883390936189
  0
LINE
  5
AEAB2
330
1F
100
AcDbEntity
  8
AM_5
100
AcDbLine
 10
99.25000000003182
 20
25.75000000001683
 30
0.0
 11
23.00000000002398
 21
25.7500000000174
 31
0.0
  0
LINE
  5
AEAB3
330
1F
100
AcDbEntity
  8
AM_5
100
AcDbLine
 10
309.2500000000518
 20
25.7500000000515
 30
0.0
 11
256.7500000000499
 21
25.75000000005196
 31
0.0
  0
MTEXT
  5
AEAB4
330
1F
100
AcDbEntity
  8
AM_6
100
AcDbMText
 10
41.83711865458332
 20
30.12500000000205
 30
0.0
 40
3.5
 41
26.25
 71
     5
 72
     5
  1
SUS-SG-75UR
 73
     1
 44
1.0
1001
ACAD
1000
MTEXTBEGIN
1070
    73
1070
     1
1070
    44
1040
1.0
1070
    74
1070
     0
1000
MTEXTEND
  0
MTEXT
  5
AEAB5
330
1F
100
AcDbEntity
  8
AM_6
100
AcDbMText
 10
79.25000000009292
 20
29.71308587344731
 30
0.0
 40
3.5
 41
39.9999999999709
 71
     5
 72
     5
  1
\W0.7;ナイロンホイルウレタン車
 73
     1
 44
1.0
1001
ACAD
1000
MTEXTBEGIN
1070
    73
1070
     1
1070
    44
1040
1.0
1070
    74
1070
     0
1000
MTEXTEND
  0
LINE
  5
AEAB6
330
1F
100
AcDbEntity
  8
AM_5
100
AcDbLine
 10
116.7500000000309
 20
25.75000000001694
 30
0.0
 11
134.250000000031
 21
25.75000000001694
 31
0.0
  0
MTEXT
  5
AEAB7
330
1F
100
AcDbEntity
  8
AM_6
100
AcDbMText
 10
125.5000000000516
 20
30.08440865804346
 30
0.0
 40
3.5
 41
17.5
 71
     5
 72
     5
  1
26
 73
     1
 44
1.0
1001
ACAD
1000
MTEXTBEGIN
1070
    73
1070
     1
1070
    44
1040
1.0
1070
    74
1070
     0
1000
MTEXTEND
  0
MTEXT
  5
AEABA
330
1F
100
AcDbEntity
  8
AM_6
100
AcDbMText
 10
301.0852470614427
 20
29.72154253743202
 30
0.0
 40
3.5
 41
17.5
 71
     5
 72
     5
  1
300
 73
     1
 44
1.0
1001
ACAD
1000
MTEXTBEGIN
1070
    73
1070
     1
1070
    44
1040
1.0
1070
    74
1070
     0
1000
MTEXTEND
  0
MTEXT
  5
AEAE0
330
1F
100
AcDbEntity
  8
AM_6
100
AcDbMText
 10
79.25000000007902
 20
47.21308587343822
 30
0.0
 40
3.5
 41
39.9999999999709
 71
     5
 72
     5
  1
\W0.7;ナイロンホイルゴム車
 73
     1
 44
1.0
1001
ACAD
1000
MTEXTBEGIN
1070
    73
1070
     1
1070
    44
1040
1.0
1070
    74
1070
     0
1000
MTEXTEND
  0
MTEXT
  5
AEAE1
330
1F
100
AcDbEntity
  8
AM_6
100
AcDbMText
 10
78.35781584948643
 20
38.73336674219155
 30
0.0
 40
3.5
 41
26.25
 71
     5
 72
     5
  1
ナイロン車
 73
     1
 44
1.0
1001
ACAD
1000
MTEXTBEGIN
1070
    73
1070
     1
1070
    44
1040
1.0
1070
    74
1070
     0
1000
MTEXTEND
  0
MTEXT
  5
AEB05
330
1F
100
AcDbEntity
  8
AM_6
100
AcDbMText
 10
125.500000000077
 20
108.6665901217138
 30
0.0
 40
3.5
 41
17.5
 71
     5
 72
     5
  1
25
 73
     1
 44
1.0
1001
ACAD
1000
MTEXTBEGIN
1070
    73
1070
     1
1070
    44
1040
1.0
1070
    74
1070
     0
1000
MTEXTEND
  0
LINE
  5
AEB06
330
1F
100
AcDbEntity
  8
AM_5
100
AcDbLine
 10
116.749999999996
 20
52.00000000000319
 30
0.0
 11
134.249999999996
 21
52.00000000000319
 31
0.0
  0
MTEXT
  5
AEB07
330
1F
100
AcDbEntity
  8
AM_6
100
AcDbMText
 10
125.5000000000167
 20
56.3344086580297
 30
0.0
 40
3.5
 41
17.5
 71
     5
 72
     5
  1
25
 73
     1
 44
1.0
1001
ACAD
1000
MTEXTBEGIN
1070
    73
1070
     1
1070
    44
1040
1.0
1070
    74
1070
     0
1000
MTEXTEND
  0
MTEXT
  5
AEB08
330
1F
100
AcDbEntity
  8
AM_6
100
AcDbMText
 10
125.5000000000192
 20
47.58440865803424
 30
0.0
 40
3.5
 41
17.5
 71
     5
 72
     5
  1
27
 73
     1
 44
1.0
1001
ACAD
1000
MTEXTBEGIN
1070
    73
1070
     1
1070
    44
1040
1.0
1070
    74
1070
     0
1000
MTEXTEND
  0
MTEXT
  5
AEB6B
330
1F
100
AcDbEntity
  8
AM_6
100
AcDbMText
 10
265.5000000000418
 20
108.0920708647073
 30
0.0
 40
3.5
 41
17.5
 71
     5
 72
     5
  1
60
 73
     1
 44
1.0
1001
ACAD
1000
MTEXTBEGIN
1070
    73
1070
     1
1070
    44
1040
1.0
1070
    74
1070
     0
1000
MTEXTEND
  0
MTEXT
  5
AEB6C
330
1F
100
AcDbEntity
  8
AM_6
100
AcDbMText
 10
283.0000000000418
 20
108.0920708647073
 30
0.0
 40
3.5
 41
17.5
 71
     5
 72
     5
  1
61.2
 73
     1
 44
1.0
1001
ACAD
1000
MTEXTBEGIN
1070
    73
1070
     1
1070
    44
1040
1.0
1070
    74
1070
     0
1000
MTEXTEND
  0
MTEXT
  5
AEB6D
330
1F
100
AcDbEntity
  8
AM_6
100
AcDbMText
 10
265.5000000000346
 20
90.78180670105599
 30
0.0
 40
3.5
 41
17.5
 71
     5
 72
     5
  1
50
 73
     1
 44
1.0
1001
ACAD
1000
MTEXTBEGIN
1070
    73
1070
     1
1070
    44
1040
1.0
1070
    74
1070
     0
1000
MTEXTEND
  0
MTEXT
  5
AEB6E
330
1F
100
AcDbEntity
  8
AM_6
100
AcDbMText
 10
283.0000000000346
 20
90.78180670105599
 30
0.0
 40
3.5
 41
17.5
 71
     5
 72
     5
  1
51.0
 73
     1
 44
1.0
1001
ACAD
1000
MTEXTBEGIN
1070
    73
1070
     1
1070
    44
1040
1.0
1070
    74
1070
     0
1000
MTEXTEND
  0
MTEXT
  5
AEB6F
330
1F
100
AcDbEntity
  8
AM_6
100
AcDbMText
 10
265.5000000000378
 20
20.97154253738242
 30
0.0
 40
3.5
 41
17.5
 71
     5
 72
     5
  1
50
 73
     1
 44
1.0
1001
ACAD
1000
MTEXTBEGIN
1070
    73
1070
     1
1070
    44
1040
1.0
1070
    74
1070
     0
1000
MTEXTEND
  0
MTEXT
  5
AEB70
330
1F
100
AcDbEntity
  8
AM_6
100
AcDbMText
 10
283.0000000000378
 20
20.97154253738242
 30
0.0
 40
3.5
 41
17.5
 71
     5
 72
     5
  1
51.0
 73
     1
 44
1.0
1001
ACAD
1000
MTEXTBEGIN
1070
    73
1070
     1
1070
    44
1040
1.0
1070
    74
1070
     0
1000
MTEXTEND
  0
MTEXT
  5
AEB71
330
1F
100
AcDbEntity
  8
AM_6
100
AcDbMText
 10
265.5000000000518
 20
73.28180670106515
 30
0.0
 40
3.5
 41
17.5
 71
     5
 72
     5
  1
60
 73
     1
 44
1.0
1001
ACAD
1000
MTEXTBEGIN
1070
    73
1070
     1
1070
    44
1040
1.0
1070
    74
1070
     0
1000
MTEXTEND
  0
MTEXT
  5
AEB72
330
1F
100
AcDbEntity
  8
AM_6
100
AcDbMText
 10
283.0000000000518
 20
73.28180670106515
 30
0.0
 40
3.5
 41
17.5
 71
     5
 72
     5
  1
61.2
 73
     1
 44
1.0
1001
ACAD
1000
MTEXTBEGIN
1070
    73
1070
     1
1070
    44
1040
1.0
1070
    74
1070
     0
1000
MTEXTEND
  0
MTEXT
  5
AEB73
330
1F
100
AcDbEntity
  8
AM_6
100
AcDbMText
 10
265.5000000000569
 20
55.97154253741383
 30
0.0
 40
3.5
 41
17.5
 71
     5
 72
     5
  1
60
 73
     1
 44
1.0
1001
ACAD
1000
MTEXTBEGIN
1070
    73
1070
     1
1070
    44
1040
1.0
1070
    74
1070
     0
1000
MTEXTEND
  0
MTEXT
  5
AEB74
330
1F
100
AcDbEntity
  8
AM_6
100
AcDbMText
 10
283.0000000000568
 20
55.97154253741383
 30
0.0
 40
3.5
 41
17.5
 71
     5
 72
     5
  1
61.2
 73
     1
 44
1.0
1001
ACAD
1000
MTEXTBEGIN
1070
    73
1070
     1
1070
    44
1040
1.0
1070
    74
1070
     0
1000
MTEXTEND
  0
MTEXT
  5
AEB75
330
1F
100
AcDbEntity
  8
AM_6
100
AcDbMText
 10
265.5000000000594
 20
47.22154253741843
 30
0.0
 40
3.5
 41
17.5
 71
     5
 72
     5
  1
60
 73
     1
 44
1.0
1001
ACAD
1000
MTEXTBEGIN
1070
    73
1070
     1
1070
    44
1040
1.0
1070
    74
1070
     0
1000
MTEXTEND
  0
MTEXT
  5
AEB76
330
1F
100
AcDbEntity
  8
AM_6
100
AcDbMText
 10
283.0000000000594
 20
47.22154253741843
 30
0.0
 40
3.5
 41
17.5
 71
     5
 72
     5
  1
61.2
 73
     1
 44
1.0
1001
ACAD
1000
MTEXTBEGIN
1070
    73
1070
     1
1070
    44
1040
1.0
1070
    74
1070
     0
1000
MTEXTEND
  0
MTEXT
  5
AEB77
330
1F
100
AcDbEntity
  8
AM_6
100
AcDbMText
 10
265.5000000000388
 20
29.72154253742757
 30
0.0
 40
3.5
 41
17.5
 71
     5
 72
     5
  1
70
 73
     1
 44
1.0
1001
ACAD
1000
MTEXTBEGIN
1070
    73
1070
     1
1070
    44
1040
1.0
1070
    74
1070
     0
1000
MTEXTEND
  0
MTEXT
  5
AEB78
330
1F
100
AcDbEntity
  8
AM_6
100
AcDbMText
 10
283.0000000000388
 20
29.72154253742757
 30
0.0
 40
3.5
 41
17.5
 71
     5
 72
     5
  1
71.4
 73
     1
 44
1.0
1001
ACAD
1000
MTEXTBEGIN
1070
    73
1070
     1
1070
    44
1040
1.0
1070
    74
1070
     0
1000
MTEXTEND
  0
MTEXT
  5
AEB79
330
1F
100
AcDbEntity
  8
AM_6
100
AcDbMText
 10
301.0852470614425
 20
99.34207086464716
 30
0.0
 40
3.5
 41
17.5
 71
     5
 72
     5
  1
245
 73
     1
 44
1.0
1001
ACAD
1000
MTEXTBEGIN
1070
    73
1070
     1
1070
    44
1040
1.0
1070
    74
1070
     0
1000
MTEXTEND
  0
MTEXT
  5
AEB7A
330
1F
100
AcDbEntity
  8
AM_6
100
AcDbMText
 10
301.0852470614401
 20
64.53180670100501
 30
0.0
 40
3.5
 41
17.5
 71
     5
 72
     5
  1
285
 73
     1
 44
1.0
1001
ACAD
1000
MTEXTBEGIN
1070
    73
1070
     1
1070
    44
1040
1.0
1070
    74
1070
     0
1000
MTEXTEND
  0
ENDSEC
  0
SECTION
  2
OBJECTS
  0
DICTIONARY
  5
C
330
0
100
AcDbDictionary
281
     1
  3
ACAD_2007HEADERVARS_RT
350
AEC63
  3
ACAD_BGPLOT_KEY
350
AB06
  3
ACAD_CIP_PREVIOUS_PRODUCT_INFO
350
AB488
  3
ACAD_COLOR
350
A91D
  3
ACAD_DETAILVIEWSTYLE
350
AB273
  3
ACAD_GROUP
350
D
  3
ACAD_LAYOUT
350
1A
  3
ACAD_MATERIAL
350
A91C
  3
ACAD_MLEADERSTYLE
350
AB26F
  3
ACAD_MLINESTYLE
350
17
  3
ACAD_PLOTSETTINGS
350
19
  3
ACAD_PLOTSTYLENAME
350
E
  3
ACAD_SCALELIST
350
AB25D
  3
ACAD_SECTIONVIEWSTYLE
350
AB271
  3
ACAD_TABLESTYLE
350
AAB9
  3
ACAD_VISUALSTYLE
350
B0F1
  3
AcAsAppObject
350
3DA1
  3
ACASGREF_MASTER
350
3DE9
  3
ACDB_RECOMPOSE_DATA
350
AEC61
  3
AcDbVariableDictionary
350
34
  3
AcDsDecomposeData
350
AEC6A
  3
AcmDictionary
350
47
  3
AD_GREF_MODULE
350
3DEA
  3
AD_MAPI_MODULE
350
3E06
  3
AMG
350
2B
  3
AMGSNAPSETTINGS
350
7D
  3
ASE_INDEX_DICTIONARY
350
AA8D8
  3
DWGPROPS
350
AEC62
  3
MAPISURF_MODULE
350
3DEB
  0
DICTIONARY
  5
3F95
330
2
100
AcDbDictionary
280
     1
281
     1
  3
ACAD_LAYERFILTERS
360
B466
  3
ACAD_LAYERSTATES
360
3F96
  3
ACLYDICTIONARY
360
B465
  3
AMLAYER_GROUPCOLORS
360
AAB4
  0
DICTIONARY
  5
AB489
330
10
100
AcDbDictionary
280
     1
281
     1
  3
ADSK_XREC_LAYER_RECONCILED
360
AB48A
  0
DICTIONARY
  5
AB491
330
ACA1
100
AcDbDictionary
280
     1
281
     1
  3
ADSK_XREC_LAYER_RECONCILED
360
AB492
  0
DICTIONARY
  5
AB502
330
AB501
100
AcDbDictionary
280
     1
281
     1
  0
DICTIONARY
  5
AB504
330
AB503
100
AcDbDictionary
280
     1
281
     1
  0
DICTIONARY
  5
AB506
330
AB505
100
AcDbDictionary
280
     1
281
     1
  0
DICTIONARY
  5
AB508
330
AB507
100
AcDbDictionary
280
     1
281
     1
  0
DICTIONARY
  5
AB50A
330
AB509
100
AcDbDictionary
280
     1
281
     1
  0
DICTIONARY
  5
AB50C
330
AB50B
100
AcDbDictionary
280
     1
281
     1
  0
DICTIONARY
  5
AB50E
330
AB50D
100
AcDbDictionary
280
     1
281
     1
  0
DICTIONARY
  5
AB510
330
AB50F
100
AcDbDictionary
280
     1
281
     1
  0
DICTIONARY
  5
AB512
330
AB511
100
AcDbDictionary
280
     1
281
     1
  0
DICTIONARY
  5
AB514
330
AB513
100
AcDbDictionary
280
     1
281
     1
  0
DICTIONARY
  5
AB516
330
AB515
100
AcDbDictionary
280
     1
281
     1
  0
DICTIONARY
  5
AB518
330
AB517
100
AcDbDictionary
280
     1
281
     1
  0
DICTIONARY
  5
AB51A
330
AB519
100
AcDbDictionary
280
     1
281
     1
  0
DICTIONARY
  5
AB51C
330
AB51B
100
AcDbDictionary
280
     1
281
     1
  0
DICTIONARY
  5
AB51E
330
AB51D
100
AcDbDictionary
280
     1
281
     1
  0
DICTIONARY
  5
AB520
330
AB51F
100
AcDbDictionary
280
     1
281
     1
  0
DICTIONARY
  5
8A
330
1F
100
AcDbDictionary
280
     1
281
     1
  3
ACAD_SORTENTS
360
B1BA
  0
DICTIONARY
  5
AEC63
102
{ACAD_REACTORS
330
C
102
}
330
C
100
AcDbDictionary
281
     1
  3
DIMARCSYM
350
AEC64
  0
DICTIONARY
  5
AB06
102
{ACAD_REACTORS
330
C
102
}
330
C
100
AcDbDictionary
280
     1
281
     1
  0
XRECORD
  5
AB488
102
{ACAD_REACTORS
330
C
102
}
330
C
100
AcDbXrecord
280
     1
300
ACDLT
300
2013
300
ACDLT_F_S
  0
DICTIONARY
  5
A91D
102
{ACAD_REACTORS
330
C
102
}
330
C
100
AcDbDictionary
281
     1
  0
DICTIONARY
  5
AB273
102
{ACAD_REACTORS
330
C
102
}
330
C
100
AcDbDictionary
281
     1
  3
Metric50
350
AB274
  0
DICTIONARY
  5
D
102
{ACAD_REACTORS
330
C
102
}
330
C
100
AcDbDictionary
281
     1
  0
DICTIONARY
  5
1A
102
{ACAD_REACTORS
330
C
102
}
330
C
100
AcDbDictionary
281
     1
  3
Model
350
22
  3
ﾚｲｱｳﾄ1
350
1E
  3
ﾚｲｱｳﾄ2
350
26
  0
DICTIONARY
  5
A91C
102
{ACAD_REACTORS
330
C
102
}
330
C
100
AcDbDictionary
281
     1
  3
ByBlock
350
B0EF
  3
ByLayer
350
B0EE
  3
Global
350
B0F0
  0
DICTIONARY
  5
AB26F
102
{ACAD_REACTORS
330
C
102
}
330
C
100
AcDbDictionary
281
     1
  3
Standard
350
AB270
  0
DICTIONARY
  5
17
102
{ACAD_REACTORS
330
C
102
}
330
C
100
AcDbDictionary
281
     1
  3
Standard
350
18
  0
DICTIONARY
  5
19
102
{ACAD_REACTORS
330
C
102
}
330
C
100
AcDbDictionary
281
     1
  0
ACDBDICTIONARYWDFLT
  5
E
102
{ACAD_REACTORS
330
C
102
}
330
C
100
AcDbDictionary
281
     1
  3
Normal
350
F
100
AcDbDictionaryWithDefault
340
F
  0
DICTIONARY
  5
AB25D
102
{ACAD_REACTORS
330
C
102
}
330
C
100
AcDbDictionary
281
     1
  3
A0
350
AB25E
  3
A1
350
AB25F
  3
A2
350
AB260
  3
A3
350
AB261
  3
A4
350
AB262
  3
A5
350
AB263
  3
A6
350
AB264
  3
A7
350
AB265
  3
A8
350
AB266
  3
A9
350
AB267
  3
B0
350
AB268
  3
B1
350
AB269
  3
B2
350
AB26A
  3
B3
350
AB26B
  3
B4
350
AB26C
  3
B5
350
AB26D
  3
B6
350
AB26E
  0
DICTIONARY
  5
AB271
102
{ACAD_REACTORS
330
C
102
}
330
C
100
AcDbDictionary
281
     1
  3
Metric50
350
AB272
  0
DICTIONARY
  5
AAB9
102
{ACAD_REACTORS
330
C
102
}
330
C
100
AcDbDictionary
281
     1
  3
Standard
350
AABA
  0
DICTIONARY
  5
B0F1
102
{ACAD_REACTORS
330
C
102
}
330
C
100
AcDbDictionary
281
     1
  3
2dWireframe
350
B0F7
  3
3D Hidden
350
B0F9
  3
3dWireframe
350
B0F8
  3
Basic
350
B0F6
  3
Brighten
350
B0FD
  3
ColorChange
350
B101
  3
Conceptual
350
B0FA
  3
Dim
350
B0FC
  3
EdgeColorOff
350
AB25C
  3
Facepattern
350
B100
  3
Flat
350
B0F2
  3
FlatWithEdges
350
B0F3
  3
Gouraud
350
B0F4
  3
GouraudWithEdges
350
B0F5
  3
Hidden
350
AB254
  3
JitterOff
350
AB25A
  3
Linepattern
350
B0FF
  3
OverhangOff
350
AB25B
  3
Realistic
350
B0FB
  3
Shaded
350
AB259
  3
Shaded with edges
350
AB258
  3
Shades of Gray
350
AB255
  3
Sketchy
350
AB256
  3
Thicken
350
B0FE
  3
Wireframe
350
AB253
  3
X-Ray
350
AB257
  0
ACAD_PROXY_OBJECT
  5
3DA1
102
{ACAD_REACTORS
330
C
102
}
330
C
100
AcDbProxyObject
 90
      499
 91
      576
 95
   917527
 70
     0
 93
       10
310
404C
 94
        0
1001
ACAD
1000
AcRTDxfName
1000
ASAPP
1000
AcRTDxfName
1000
ASAPP
  0
ACAD_PROXY_OBJECT
  5
3DE9
102
{ACAD_REACTORS
330
C
102
}
330
C
100
AcDbProxyObject
 90
      499
 91
      581
 95
   917527
 70
     0
 93
       34
310
010000404C
 94
        0
1001
ACAD
1000
AcRTDxfName
1000
ACASGREFMASTER
1000
AcRTDxfName
1000
ACASGREFMASTER
  0
XRECORD
  5
AEC61
102
{ACAD_REACTORS
330
C
102
}
330
C
100
AcDbXrecord
280
     1
 90
        1
330
AABA
  0
DICTIONARY
  5
34
102
{ACAD_REACTORS
330
C
102
}
330
C
100
AcDbDictionary
281
     1
  3
CANNOSCALE
350
AB68F
  3
CMLEADERSTYLE
350
AB68B
  3
CTABLESTYLE
350
AAF3
  3
CVIEWDETAILSTYLE
350
AB68C
  3
CVIEWSECTIONSTYLE
350
AB68D
  3
DIMASSOC
350
A10C
  3
FIELDEVAL
350
AB07
  3
INDEXCTL
350
35
  3
LAYEREVAL
350
AB691
  3
LAYERNOTIFY
350
AB692
  3
LIGHTINGUNITS
350
AB690
  3
MSLTSCALE
350
AB68E
  3
SORTENTS
350
194C
  3
XCLIPFRAME
350
AEC5E
  0
DICTIONARY
  5
AEC6A
102
{ACAD_REACTORS
330
C
102
}
330
C
100
AcDbDictionary
281
     1
  3
AcDsRecords
350
AEC6C
  3
AcDsSchemas
350
AEC6B
1001
ACAD
1070
     2
  0
DICTIONARY
  5
47
102
{ACAD_REACTORS
330
C
102
}
330
C
100
AcDbDictionary
281
     1
  3
AcmBOM
350
7E8
  3
AcmStdDictionary
350
4C
  3
AMDTSECTSYM_ARROWCOLOR
350
A929
  0
ACAD_PROXY_OBJECT
  5
3DEA
102
{ACAD_REACTORS
330
C
102
}
330
C
100
AcDbProxyObject
 90
      499
 91
      582
 95
   917527
 70
     0
 93
      114
310
00000043800000000000000000000C
 94
        0
1001
ACAD
1000
AcRTDxfName
1000
ACADGREFMODULE
1000
AcRTDxfName
1000
ACADGREFMODULE
  0
ACAD_PROXY_OBJECT
  5
3E06
102
{ACAD_REACTORS
330
C
102
}
330
C
100
AcDbProxyObject
 90
      499
 91
      594
 95
   917527
 70
     0
 93
       34
310
05000044CC
 94
        0
1001
ACAD
1000
AcRTDxfName
1000
MAPIADMODULE
1000
AcRTDxfName
1000
MAPIADMODULE
  0
DICTIONARY
  5
2B
102
{ACAD_REACTORS
330
C
102
}
330
C
100
AcDbDictionary
281
     1
  0
DICTIONARY
  5
7D
102
{ACAD_REACTORS
330
C
102
}
330
C
100
AcDbDictionary
281
     1
  0
DICTIONARY
  5
AA8D8
102
{ACAD_REACTORS
330
C
102
}
330
C
100
AcDbDictionary
281
     1
  3
ASEBlockHierarchyIndexRecord
350
AA8D9
1001
DCO15
1040
1749812023.093
  0
XRECORD
  5
AEC62
102
{ACAD_REACTORS
330
C
102
}
330
C
100
AcDbXrecord
280
     1
  1
DWGPROPS COOKIE
  2

  3

  4

  6

  7

  8
LT2013
  9

300
AmdtFileType=84
301
=
302
=
303
=
304
=
305
=
306
=
307
=
308
=
309
=
 40
3.353017407407407
 41
2455567.561054317
 42
2457192.340891991
  1

 90
        1
  0
ACAD_PROXY_OBJECT
  5
3DEB
102
{ACAD_REACTORS
330
C
102
}
330
C
100
AcDbProxyObject
 90
      499
 91
      583
 95
   917527
 70
     0
 93
        8
310
047E
 94
        0
1001
ACAD
1000
AcRTDxfName
1000
AMDTMAPISURFMOUDULE
1000
AcRTDxfName
1000
AMDTMAPISURFMOUDULE
  0
DICTIONARY
  5
B466
102
{ACAD_REACTORS
330
3F95
102
}
330
3F95
100
AcDbDictionary
281
     1
  0
DICTIONARY
  5
3F96
102
{ACAD_REACTORS
330
3F95
102
}
330
3F95
100
AcDbDictionary
281
     1
  3
20011210
350
3FB7
  0
DICTIONARY
  5
B465
102
{ACAD_REACTORS
330
3F95
102
}
330
3F95
100
AcDbDictionary
281
     1
1001
ACAD
1000
<All
  0
DICTIONARY
  5
AAB4
102
{ACAD_REACTORS
330
3F95
102
}
330
3F95
100
AcDbDictionary
280
     1
281
     1
  0
XRECORD
  5
AB48A
102
{ACAD_REACTORS
330
AB489
102
}
330
AB489
100
AcDbXrecord
280
     1
290
     1
  0
XRECORD
  5
AB492
102
{ACAD_REACTORS
330
AB491
102
}
330
AB491
100
AcDbXrecord
280
     1
290
     1
  0
SORTENTSTABLE
  5
B1BA
102
{ACAD_REACTORS
330
8A
102
}
330
8A
100
AcDbSortentsTable
330
1F
331
AC29B
  5
AC68A
331
AB6B6
  5
AB6B6
331
AC2A3
  5
AC945
331
AC224
  5
AC234
331
AB6BE
  5
AB6BE
331
AD87F
  5
AD87F
331
AD887
  5
AD887
331
AC22C
  5
AC23E
331
AC1ED
  5
AC1F3
331
AB6C6
  5
AB6C6
331
AC68A
  5
AC94E
331
AB6CE
  5
AB6CE
331
AEB08
  5
AEB08
331
AE7D5
  5
AE7D5
331
AE80C
  5
AE80C
331
AE84B
  5
AE84B
331
AE7DD
  5
AE7DD
331
AE814
  5
AE814
331
AE8AB
  5
AE8AB
331
AEB70
  5
AEB70
331
AE7E5
  5
AE7E5
331
AE81C
  5
AE81C
331
AEB78
  5
AEB78
331
AE824
  5
AE824
331
7AC05
  5
7BAAD
331
AC1F5
  5
AC1FF
331
AB6D6
  5
AB6D6
331
AD810
  5
AD810
331
AD818
  5
AD818
331
AC64B
  5
AC94A
331
AC205
  5
AC211
331
ACAF1
  5
ACAF1
331
AD820
  5
AD820
331
AC9BA
  5
AC9BA
331
AD828
  5
AD828
331
AC294
  5
AC55D
331
ACB11
  5
ACB11
331
AE7ED
  5
AE7ED
331
AE82C
  5
AE82C
331
AD89F
  5
AD89F
331
AE7BE
  5
AE7BE
331
AE7F5
  5
AE7F5
331
AE834
  5
AE834
331
AEAE1
  5
AEAE1
331
AD8A7
  5
AD8A7
331
AE7C6
  5
AE7C6
331
AE7FD
  5
AE7FD
331
AE83C
  5
AE83C
331
AE7CE
  5
AE7CE
331
AE805
  5
AE805
331
AE844
  5
AE844
331
ACB19
  5
ACB19
331
AC9CA
  5
AC9CA
331
AB6B7
  5
AB6B7
331
AC29C
  5
AC697
331
AC225
  5
AC235
331
AB6BF
  5
AB6BF
331
AD880
  5
AD880
331
AD888
  5
AD888
331
AB6C7
  5
AB6C7
331
AB6CF
  5
AB6CF
331
AE7D6
  5
AE7D6
331
AE80D
  5
AE80D
331
AE84C
  5
AE84C
331
AE7DE
  5
AE7DE
331
AE815
  5
AE815
331
AE8AC
  5
AE8AC
331
AEB71
  5
AEB71
331
AE7E6
  5
AE7E6
331
AE81D
  5
AE81D
331
AEB79
  5
AEB79
331
AE825
  5
AE825
331
7AC06
  5
7BAAE
331
AB6D7
  5
AB6D7
331
AC943
  5
AC210
331
AD819
  5
AD819
331
ACAF2
  5
ACAF2
331
AC953
  5
AC1FC
331
AD821
  5
AD821
331
AC28D
  5
AC2A4
331
AD829
  5
AD829
331
ACB12
  5
ACB12
331
AC9C3
  5
AC9C3
331
AC295
  5
AC55E
331
AE7B7
  5
AE7B7
331
AE7EE
  5
AE7EE
331
AE82D
  5
AE82D
331
AEAB2
  5
AEAB2
331
AD8A0
  5
AD8A0
331
AE7BF
  5
AE7BF
331
AE7F6
  5
AE7F6
331
AE835
  5
AE835
331
AEABA
  5
AEABA
331
AD8A8
  5
AD8A8
331
AE7C7
  5
AE7C7
331
AE7FE
  5
AE7FE
331
AE83D
  5
AE83D
331
AE7CF
  5
AE7CF
331
AE806
  5
AE806
331
AE845
  5
AE845
331
ACB1A
  5
ACB1A
331
AB6B8
  5
AB6B8
331
AC29D
  5
AC6A4
331
AD881
  5
AD881
331
AB6C0
  5
AB6C0
331
AC226
  5
AC236
331
ACAE3
  5
ACAE3
331
AB6C8
  5
AB6C8
331
AC1EF
  5
AC1F5
331
AC236
  5
AC249
331
AE7D7
  5
AE7D7
331
AE80E
  5
AE80E
331
AE84D
  5
AE84D
331
AE7DF
  5
AE7DF
331
AE816
  5
AE816
331
AE8AD
  5
AE8AD
331
AEB72
  5
AEB72
331
AE7E7
  5
AE7E7
331
AE81E
  5
AE81E
331
AEB7A
  5
AEB7A
331
AE826
  5
AE826
331
AB6D0
  5
AB6D0
331
AB559
  5
AB559
331
AB6D8
  5
AB6D8
331
ACAEB
  5
ACAEB
331
ACAF3
  5
ACAF3
331
AC276
  5
AC28C
331
AD822
  5
AD822
331
AC28E
  5
AC2A5
331
AD82A
  5
AD82A
331
ACB13
  5
ACB13
331
AC9C4
  5
AC9C4
331
AC296
  5
AC63E
331
AC217
  5
AC224
331
AC665
  5
AC94C
331
AD891
  5
AD891
331
AD899
  5
AD899
331
AE7B8
  5
AE7B8
331
AE7EF
  5
AE7EF
331
AE82E
  5
AE82E
331
AEAB3
  5
AEAB3
331
AE7C0
  5
AE7C0
331
AE7F7
  5
AE7F7
331
AE836
  5
AE836
331
AD8A9
  5
AD8A9
331
AE7C8
  5
AE7C8
331
AE7FF
  5
AE7FF
331
AE83E
  5
AE83E
331
AE9AD
  5
AE9AD
331
AE807
  5
AE807
331
AE846
  5
AE846
331
AC29E
  5
AC6B1
331
AB6B9
  5
AB6B9
331
AC21F
  5
AC22E
331
AD882
  5
AD882
331
AC9D4
  5
AC9D4
331
AB6C1
  5
AB6C1
331
AC227
  5
AC237
331
ACAE4
  5
ACAE4
331
AB6C9
  5
AB6C9
331
AC63E
  5
AC949
331
AD80B
  5
AD80B
331
AC6C5
  5
AC952
331
AE7D0
  5
AE7D0
331
AE7D8
  5
AE7D8
331
AE80F
  5
AE80F
331
AEB6B
  5
AEB6B
331
AE7E0
  5
AE7E0
331
AE6D1
  5
AE6D1
331
AE817
  5
AE817
331
AEB73
  5
AEB73
331
AE81F
  5
AE81F
331
AE827
  5
AE827
331
AB6D1
  5
AB6D1
331
AB55A
  5
AB55A
331
AB6D9
  5
AB6D9
331
ACAEC
  5
ACAEC
331
ACAF4
  5
ACAF4
331
AD823
  5
AD823
331
AC28F
  5
AC2A6
331
AD82B
  5
AD82B
331
AC9C5
  5
AC9C5
331
AC297
  5
AC64B
331
AD892
  5
AD892
331
AE7E8
  5
AE7E8
331
AE7B9
  5
AE7B9
331
AE7F0
  5
AE7F0
331
AE82F
  5
AE82F
331
AEAB4
  5
AEAB4
331
AE7C1
  5
AE7C1
331
AE7F8
  5
AE7F8
331
AE837
  5
AE837
331
AE7C9
  5
AE7C9
331
AE800
  5
AE800
331
AE83F
  5
AE83F
331
AE847
  5
AE847
331
AB6BA
  5
AB6BA
331
AC220
  5
AC22F
331
AD883
  5
AD883
331
AB6C2
  5
AB6C2
331
ACB2C
  5
ACB2C
331
ACAE5
  5
ACAE5
331
AB6CA
  5
AB6CA
331
AD88B
  5
AD88B
331
AC6C6
  5
AC953
331
AD80C
  5
AD80C
331
AD8C2
  5
AD8C2
331
AE7D1
  5
AE7D1
331
AE808
  5
AE808
331
AE7D9
  5
AE7D9
331
AE810
  5
AE810
331
AEB6C
  5
AEB6C
331
AE7E1
  5
AE7E1
331
AE818
  5
AE818
331
AEB74
  5
AEB74
331
AE820
  5
AE820
331
AC238
  5
AC24B
331
AC1F1
  5
AC1F8
331
AB6D2
  5
AB6D2
331
AB55B
  5
AB55B
331
ACAED
  5
ACAED
331
AC270
  5
AC285
331
AD814
  5
AD814
331
ACAF5
  5
ACAF5
331
AC209
  5
AC215
331
AD81C
  5
AD81C
331
ACAFD
  5
ACAFD
331
AC9BE
  5
AC9BE
331
AC290
  5
AC559
331
AD824
  5
AD824
331
AE7E9
  5
AE7E9
331
AC9C6
  5
AC9C6
331
AD893
  5
AD893
331
AE828
  5
AE828
331
AE7BA
  5
AE7BA
331
AD89B
  5
AD89B
331
AE7F1
  5
AE7F1
331
AE830
  5
AE830
331
AEAB5
  5
AEAB5
331
AE7C2
  5
AE7C2
331
AD8A3
  5
AD8A3
331
AE7F9
  5
AE7F9
331
AE838
  5
AE838
331
AE7CA
  5
AE7CA
331
AE801
  5
AE801
331
AE840
  5
AE840
331
AEB05
  5
AEB05
331
AC298
  5
AC658
331
AC219
  5
AC227
331
AB6BB
  5
AB6BB
331
ACB2D
  5
ACB2D
331
AC9D6
  5
AC9D6
331
AB6C3
  5
AB6C3
331
AD88C
  5
AD88C
331
AC231
  5
AC243
331
AB6CB
  5
AB6CB
331
ACB35
  5
ACB35
331
AE7D2
  5
AE7D2
331
AD80D
  5
AD80D
331
AD8C3
  5
AD8C3
331
AE809
  5
AE809
331
AE848
  5
AE848
331
AE7DA
  5
AE7DA
331
AE811
  5
AE811
331
AEB6D
  5
AEB6D
331
AE7E2
  5
AE7E2
331
AE819
  5
AE819
331
AEB75
  5
AEB75
331
AE821
  5
AE821
331
AB6D3
  5
AB6D3
331
AD815
  5
AD815
331
ACAEE
  5
ACAEE
331
AD81D
  5
AD81D
331
AC658
  5
AC94B
331
AC20A
  5
AC216
331
ACAF6
  5
ACAF6
331
AD825
  5
AD825
331
AC291
  5
AC55A
331
ACAFE
  5
ACAFE
331
AD82D
  5
AD82D
331
AE7EA
  5
AE7EA
331
AE829
  5
AE829
331
AE7BB
  5
AE7BB
331
AD89C
  5
AD89C
331
AE7F2
  5
AE7F2
331
AE831
  5
AE831
331
AEAB6
  5
AEAB6
331
AE7C3
  5
AE7C3
331
AE7FA
  5
AE7FA
331
AE839
  5
AE839
331
AE7CB
  5
AE7CB
331
AD8AC
  5
AD8AC
331
AE802
  5
AE802
331
AE841
  5
AE841
331
AEB06
  5
AEB06
331
AC299
  5
AC665
331
AB6B4
  5
AB6B4
331
AB6BC
  5
AB6BC
331
AD87D
  5
AD87D
331
AD885
  5
AD885
331
AC9D7
  5
AC9D7
331
AB6C4
  5
AB6C4
331
ACB2E
  5
ACB2E
331
AD88D
  5
AD88D
331
ACB36
  5
ACB36
331
AC232
  5
AC244
331
AB6CC
  5
AB6CC
331
ACAE7
  5
ACAE7
331
AD80E
  5
AD80E
331
AD8C4
  5
AD8C4
331
AE7D3
  5
AE7D3
331
AE80A
  5
AE80A
331
AE849
  5
AE849
331
AD93C
  5
AD93C
331
AE7DB
  5
AE7DB
331
AE812
  5
AE812
331
AEB6E
  5
AEB6E
331
AE7E3
  5
AE7E3
331
AE81A
  5
AE81A
331
AEB76
  5
AEB76
331
AE822
  5
AE822
331
AB6D4
  5
AB6D4
331
AD816
  5
AD816
331
AC203
  5
AC20E
331
ACAEF
  5
ACAEF
331
AD81E
  5
AD81E
331
ACAF7
  5
ACAF7
331
AC9B8
  5
AC9B8
331
AD826
  5
AD826
331
AC292
  5
AC55B
331
ACAFF
  5
ACAFF
331
AD82E
  5
AD82E
331
AD895
  5
AD895
331
AE7EB
  5
AE7EB
331
AE82A
  5
AE82A
331
AD89D
  5
AD89D
331
AE7BC
  5
AE7BC
331
AE7F3
  5
AE7F3
331
AE832
  5
AE832
331
AEAB7
  5
AEAB7
331
AE7C4
  5
AE7C4
331
AE7FB
  5
AE7FB
331
AE83A
  5
AE83A
331
AE7CC
  5
AE7CC
331
AE803
  5
AE803
331
AE842
  5
AE842
331
AEB07
  5
AEB07
331
AC29A
  5
AC680
331
AC21B
  5
AC229
331
AB6B5
  5
AB6B5
331
AB6BD
  5
AB6BD
331
AD87E
  5
AD87E
331
AB6C5
  5
AB6C5
331
ACB2F
  5
ACB2F
331
AD88E
  5
AD88E
331
AB6CD
  5
AB6CD
331
ACB37
  5
ACB37
331
AE9B9
  5
AE9B9
331
AD80F
  5
AD80F
331
AE7D4
  5
AE7D4
331
AE80B
  5
AE80B
331
AE84A
  5
AE84A
331
AD93D
  5
AD93D
331
AE7DC
  5
AE7DC
331
AE813
  5
AE813
331
AEB6F
  5
AEB6F
331
AE7E4
  5
AE7E4
331
AE81B
  5
AE81B
331
AEB77
  5
AEB77
331
AE823
  5
AE823
331
AC1F4
  5
AC1FD
331
AB6D5
  5
AB6D5
331
ACAE8
  5
ACAE8
331
AD817
  5
AD817
331
ACAF0
  5
ACAF0
331
AC951
  5
AC287
331
AC9B9
  5
AC9B9
331
AD827
  5
AD827
331
AC293
  5
AC55C
331
ACB10
  5
ACB10
331
AD896
  5
AD896
331
AE7EC
  5
AE7EC
331
AE82B
  5
AE82B
331
AE7BD
  5
AE7BD
331
AE7F4
  5
AE7F4
331
AE833
  5
AE833
331
AEAE0
  5
AEAE0
331
AD8A6
  5
AD8A6
331
AE7C5
  5
AE7C5
331
AE7FC
  5
AE7FC
331
AE83B
  5
AE83B
331
AE7CD
  5
AE7CD
331
AE804
  5
AE804
331
AE843
  5
AE843
  0
XRECORD
  5
AEC64
102
{ACAD_REACTORS
330
AEC63
102
}
330
AEC63
100
AcDbXrecord
280
     1
 70
     1
  0
ACDBDETAILVIEWSTYLE
  5
AB274
102
{ACAD_REACTORS
330
AB273
102
}
330
AB273
100
AcDbModelDocViewStyle
 70
     0
  3
Metric50
290
     0
100
AcDbDetailViewStyle
 70
     0
 71
     0
 90
        3
 71
     1
340
11
 40
5.0
340
0
 40
5.0
300

 40
0.0
280
     1
 71
     2
340
16
 90
       25
 71
     3
340
11
 40
5.0
 90
        0
 40
15.0
 90
        1
300
%<\AcVar ViewDetailId>% (%<\AcVar ViewScale \f "%sn">%)
 71
     4
340
16
 90
       25
340
16
 90
       25
280
     0
  0
LAYOUT
  5
22
102
{ACAD_XDICTIONARY
360
AEC6F
102
}
102
{ACAD_REACTORS
330
1A
102
}
330
1A
100
AcDbPlotSettings
  1

  2
Adobe PDF
  4
User66
  6

 40
3.174999952316283
 41
3.174999952316283
 42
3.17498779296875
 43
3.17498779296875
 44
420.0
 45
594.0
 46
-3.174993872642517
 47
-3.174993872642517
 48
0.0
 49
0.0
140
1188.0
141
840.0
142
1.0
143
2.0
 70
  3748
 72
     1
 73
     1
 74
     4
  7
monochrome.ctb
 75
     0
147
0.4848174396015349
148
0.0
149
0.0
100
AcDbLayout
  1
Model
 70
     1
 71
     0
 10
0.0
 20
0.0
 11
12.0
 21
9.0
 12
0.0
 22
0.0
 32
0.0
 14
0.0
 24
0.0
 34
0.0
 15
0.0
 25
0.0
 35
0.0
146
0.0
 13
0.0
 23
0.0
 33
0.0
 16
1.0
 26
0.0
 36
0.0
 17
0.0
 27
1.0
 37
0.0
 76
     0
330
1F
331
B0EC
1001
ACAD_PSEXT
1000
Adobe PDF
1000
Adobe PDF Converter
1000
My Documents\*.pdf
1000

1070
     0
  0
LAYOUT
  5
1E
102
{ACAD_XDICTIONARY
360
AEC6D
102
}
102
{ACAD_REACTORS
330
1A
102
}
330
1A
100
AcDbPlotSettings
  1

  2
\\ML370\XEROX
  4
A4
  6

 40
3.174999952316283
 41
3.174999952316283
 42
3.175003051757812
 43
3.17498779296875
 44
209.8674926757813
 45
296.6719970703125
 46
0.0
 47
0.0
 48
0.0
 49
0.0
140
0.0
141
0.0
142
1.0
143
1.0
 70
   688
 72
     1
 73
     1
 74
     5
  7
monochrome.ctb
 75
    16
147
1.0
148
0.0
149
0.0
100
AcDbLayout
  1
ﾚｲｱｳﾄ1
 70
     1
 71
     1
 10
-3.17498779296875
 20
-3.174999952316283
 11
293.4970092773438
 21
206.692492723465
 12
0.0
 22
0.0
 32
0.0
 14
1.000000000000000E+20
 24
1.000000000000000E+20
 34
1.000000000000000E+20
 15
-1.000000000000000E+20
 25
-1.000000000000000E+20
 35
-1.000000000000000E+20
146
0.0
 13
0.0
 23
0.0
 33
0.0
 16
1.0
 26
0.0
 36
0.0
 17
0.0
 27
1.0
 37
0.0
 76
     0
330
1B
  0
LAYOUT
  5
26
102
{ACAD_XDICTIONARY
360
AEC71
102
}
102
{ACAD_REACTORS
330
1A
102
}
330
1A
100
AcDbPlotSettings
  1

  2
\\ML370\XEROX
  4

  6

 40
0.0
 41
0.0
 42
0.0
 43
0.0
 44
0.0
 45
0.0
 46
0.0
 47
0.0
 48
0.0
 49
0.0
140
0.0
141
0.0
142
1.0
143
1.0
 70
   688
 72
     0
 73
     0
 74
     5
  7
monochrome.ctb
 75
    16
147
1.0
148
0.0
149
0.0
100
AcDbLayout
  1
ﾚｲｱｳﾄ2
 70
     1
 71
     2
 10
0.0
 20
0.0
 11
12.0
 21
9.0
 12
0.0
 22
0.0
 32
0.0
 14
0.0
 24
0.0
 34
0.0
 15
0.0
 25
0.0
 35
0.0
146
0.0
 13
0.0
 23
0.0
 33
0.0
 16
1.0
 26
0.0
 36
0.0
 17
0.0
 27
1.0
 37
0.0
 76
     0
330
23
  0
MATERIAL
  5
B0EF
102
{ACAD_XDICTIONARY
360
AB24D
102
}
102
{ACAD_REACTORS
330
A91C
102
}
330
A91C
100
AcDbMaterial
  1
ByBlock
  0
MATERIAL
  5
B0EE
102
{ACAD_XDICTIONARY
360
AB24B
102
}
102
{ACAD_REACTORS
330
A91C
102
}
330
A91C
100
AcDbMaterial
  1
ByLayer
  0
MATERIAL
  5
B0F0
102
{ACAD_XDICTIONARY
360
AB24F
102
}
102
{ACAD_REACTORS
330
A91C
102
}
330
A91C
100
AcDbMaterial
  1
Global
  0
MLEADERSTYLE
  5
AB270
102
{ACAD_REACTORS
330
AB26F
102
}
330
AB26F
100
AcDbMLeaderStyle
170
     2
171
     1
172
     0
 90
        2
 40
0.0
 41
0.0
173
     1
 91
-1056964608
340
14
 92
       -2
290
     1
 42
2.0
291
     1
 43
0.36
  3
Standard
 44
4.0
300

342
11
174
     1
178
     6
175
     1
176
     0
 93
-1056964608
 45
4.0
292
     0
297
     0
 46
4.0
 94
-1056964608
 47
1.0
 49
1.0
140
1.0
293
     1
141
0.0
294
     1
177
     0
142
1.0
295
     0
296
     0
143
0.125
1001
ACAD_MLEADERVER
1070
     2
  0
MLINESTYLE
  5
18
102
{ACAD_REACTORS
330
17
102
}
330
17
100
AcDbMlineStyle
  2
STANDARD
 70
     0
  3

 62
   256
 51
90.0
 52
90.0
 71
     2
 49
0.5
 62
   256
  6
BYLAYER
 49
-0.5
 62
   256
  6
BYLAYER
  0
ACDBPLACEHOLDER
  5
F
102
{ACAD_REACTORS
330
E
102
}
330
E
  0
SCALE
  5
AB25E
102
{ACAD_REACTORS
330
AB25D
102
}
330
AB25D
100
AcDbScale
 70
     0
300
1:1
140
1.0
141
1.0
290
     1
  0
SCALE
  5
AB25F
102
{ACAD_REACTORS
330
AB25D
102
}
330
AB25D
100
AcDbScale
 70
     0
300
1:2
140
1.0
141
2.0
290
     0
  0
SCALE
  5
AB260
102
{ACAD_REACTORS
330
AB25D
102
}
330
AB25D
100
AcDbScale
 70
     0
300
1:4
140
1.0
141
4.0
290
     0
  0
SCALE
  5
AB261
102
{ACAD_REACTORS
330
AB25D
102
}
330
AB25D
100
AcDbScale
 70
     0
300
1:5
140
1.0
141
5.0
290
     0
  0
SCALE
  5
AB262
102
{ACAD_REACTORS
330
AB25D
102
}
330
AB25D
100
AcDbScale
 70
     0
300
1:8
140
1.0
141
8.0
290
     0
  0
SCALE
  5
AB263
102
{ACAD_REACTORS
330
AB25D
102
}
330
AB25D
100
AcDbScale
 70
     0
300
1:10
140
1.0
141
10.0
290
     0
  0
SCALE
  5
AB264
102
{ACAD_REACTORS
330
AB25D
102
}
330
AB25D
100
AcDbScale
 70
     0
300
1:16
140
1.0
141
16.0
290
     0
  0
SCALE
  5
AB265
102
{ACAD_REACTORS
330
AB25D
102
}
330
AB25D
100
AcDbScale
 70
     0
300
1:20
140
1.0
141
20.0
290
     0
  0
SCALE
  5
AB266
102
{ACAD_REACTORS
330
AB25D
102
}
330
AB25D
100
AcDbScale
 70
     0
300
1:30
140
1.0
141
30.0
290
     0
  0
SCALE
  5
AB267
102
{ACAD_REACTORS
330
AB25D
102
}
330
AB25D
100
AcDbScale
 70
     0
300
1:40
140
1.0
141
40.0
290
     0
  0
SCALE
  5
AB268
102
{ACAD_REACTORS
330
AB25D
102
}
330
AB25D
100
AcDbScale
 70
     0
300
1:50
140
1.0
141
50.0
290
     0
  0
SCALE
  5
AB269
102
{ACAD_REACTORS
330
AB25D
102
}
330
AB25D
100
AcDbScale
 70
     0
300
1:100
140
1.0
141
100.0
290
     0
  0
SCALE
  5
AB26A
102
{ACAD_REACTORS
330
AB25D
102
}
330
AB25D
100
AcDbScale
 70
     0
300
2:1
140
2.0
141
1.0
290
     0
  0
SCALE
  5
AB26B
102
{ACAD_REACTORS
330
AB25D
102
}
330
AB25D
100
AcDbScale
 70
     0
300
4:1
140
4.0
141
1.0
290
     0
  0
SCALE
  5
AB26C
102
{ACAD_REACTORS
330
AB25D
102
}
330
AB25D
100
AcDbScale
 70
     0
300
8:1
140
8.0
141
1.0
290
     0
  0
SCALE
  5
AB26D
102
{ACAD_REACTORS
330
AB25D
102
}
330
AB25D
100
AcDbScale
 70
     0
300
10:1
140
10.0
141
1.0
290
     0
  0
SCALE
  5
AB26E
102
{ACAD_REACTORS
330
AB25D
102
}
330
AB25D
100
AcDbScale
 70
     0
300
100:1
140
100.0
141
1.0
290
     0
  0
ACDBSECTIONVIEWSTYLE
  5
AB272
102
{ACAD_REACTORS
330
AB271
102
}
330
AB271
100
AcDbModelDocViewStyle
 70
     0
  3
Metric50
290
     0
100
AcDbSectionViewStyle
 70
     0
 71
     0
 90
      102
 71
     1
340
11
 40
5.0
340
0
340
0
 40
5.0
300
I, O, Q, S, X, Z
 40
10.0
 90
        0
 40
2.5
 90
        0
 71
     2
340
16
 90
       25
340
16
 90
       50
 40
5.0
 40
2.5
 40
5.0
 71
     3
340
11
 40
5.0
 90
        0
 40
15.0
 90
        1
300
%<\AcVar ViewSectionStartId>%-%<\AcVar ViewSectionEndId>% (%<\AcVar ViewScale \f "%sn">%)
 71
     4
300
ANSI31
 40
1.0
 90
        0
290
     0
290
     0
 90
        6
 40
0.0
 40
1.570796326794896
 40
0.2617993877991494
 40
1.308996938995747
 40
-0.2617993877991494
 40
1.832595714594046
  0
TABLESTYLE
  5
AABA
102
{ACAD_XDICTIONARY
360
AEC5F
102
}
102
{ACAD_REACTORS
330
AAB9
102
}
330
AAB9
100
AcDbTableStyle
  3
Standard
 70
     0
 71
     0
 40
1.5
 41
1.5
280
     0
281
     0
  7
STANDARD
140
4.5
170
     2
 62
     0
 63
     7
283
     0
274
    -2
284
     1
 64
     0
275
    -2
285
     1
 65
     0
276
    -2
286
     1
 66
     0
277
    -2
287
     1
 67
     0
278
    -2
288
     1
 68
     0
279
    -2
289
     1
 69
     0
  7
STANDARD
140
6.0
170
     5
 62
     0
 63
     7
283
     0
274
    -2
284
     1
 64
     0
275
    -2
285
     1
 65
     0
276
    -2
286
     1
 66
     0
277
    -2
287
     1
 67
     0
278
    -2
288
     1
 68
     0
279
    -2
289
     1
 69
     0
  7
STANDARD
140
4.5
170
     5
 62
     0
 63
     7
283
     0
274
    -2
284
     1
 64
     0
275
    -2
285
     1
 65
     0
276
    -2
286
     1
 66
     0
277
    -2
287
     1
 67
     0
278
    -2
288
     1
 68
     0
279
    -2
289
     1
 69
     0
  0
VISUALSTYLE
  5
B0F7
102
{ACAD_XDICTIONARY
360
AEC7E
102
}
102
{ACAD_REACTORS
330
B0F1
102
}
330
B0F1
100
AcDbVisualStyle
  2

 70
     4
 71
     0
 72
     2
 73
     0
 90
        0
 40
-0.6
 41
-30.0
 62
     5
 63
     7
 74
     1
 91
        4
 64
     7
 65
   257
 75
     1
175
     1
 42
1.0
 92
        0
 66
   257
 43
1.0
 76
     1
 77
     6
 78
     2
 67
     7
 79
     5
170
     0
171
     0
290
     0
174
     0
 93
        1
 44
0.0
173
     0
291
     0
 45
0.0
1001
ACAD
1000
AcDbSavedByObjectVersion
1070
     0
  0
VISUALSTYLE
  5
B0F9
102
{ACAD_XDICTIONARY
360
AEC82
102
}
102
{ACAD_REACTORS
330
B0F1
102
}
330
B0F1
100
AcDbVisualStyle
  2

 70
     6
 71
     1
 72
     2
 73
     2
 90
        0
 40
-0.6
 41
-30.0
 62
     5
 63
     7
 74
     2
 91
        2
 64
     7
 65
   257
 75
     2
175
     1
 42
40.0
 92
        0
 66
   257
 43
1.0
 76
     1
 77
     6
 78
     2
 67
     7
 79
     3
170
     0
171
     0
290
     0
174
     0
 93
        1
 44
0.0
173
     0
291
     0
 45
0.0
1001
ACAD
1000
AcDbSavedByObjectVersion
1070
     0
  0
VISUALSTYLE
  5
B0F8
102
{ACAD_XDICTIONARY
360
AEC80
102
}
102
{ACAD_REACTORS
330
B0F1
102
}
330
B0F1
100
AcDbVisualStyle
  2

 70
     5
 71
     0
 72
     2
 73
     0
 90
        0
 40
-0.6
 41
-30.0
 62
     5
 63
     7
 74
     1
 91
        4
 64
     7
 65
   257
 75
     1
175
     1
 42
1.0
 92
        0
 66
   257
 43
1.0
 76
     1
 77
     6
 78
     2
 67
     7
 79
     5
170
     0
171
     0
290
     0
174
     0
 93
        1
 44
0.0
173
     0
291
     0
 45
0.0
1001
ACAD
1000
AcDbSavedByObjectVersion
1070
     0
  0
VISUALSTYLE
  5
B0F6
102
{ACAD_XDICTIONARY
360
AEC7C
102
}
102
{ACAD_REACTORS
330
B0F1
102
}
330
B0F1
100
AcDbVisualStyle
  2

 70
     7
 71
     1
 72
     0
 73
     1
 90
        0
 40
-0.6
 41
-30.0
 62
     5
 63
     7
 74
     0
 91
        4
 64
     7
 65
   257
 75
     1
175
     1
 42
1.0
 92
        8
 66
     7
 43
1.0
 76
     1
 77
     6
 78
     2
 67
     7
 79
     5
170
     0
171
     0
290
     0
174
     0
 93
        1
 44
0.0
173
     0
291
     1
 45
0.0
1001
ACAD
1000
AcDbSavedByObjectVersion
1070
     0
  0
VISUALSTYLE
  5
B0FD
102
{ACAD_XDICTIONARY
360
AEC8A
102
}
102
{ACAD_REACTORS
330
B0F1
102
}
330
B0F1
100
AcDbVisualStyle
  2

 70
    12
 71
     2
 72
     2
 73
     0
 90
        0
 40
-0.6
 41
-30.0
 62
     5
 63
     7
 74
     1
 91
        4
 64
     7
 65
   257
 75
     1
175
     1
 42
1.0
 92
        8
 66
     7
 43
1.0
 76
     1
 77
     6
 78
     2
 67
     7
 79
     5
170
     0
171
     0
290
     0
174
     0
 93
        1
 44
50.0
173
     0
291
     1
 45
0.0
1001
ACAD
1000
AcDbSavedByObjectVersion
1070
     0
  0
VISUALSTYLE
  5
B101
102
{ACAD_XDICTIONARY
360
AEC92
102
}
102
{ACAD_REACTORS
330
B0F1
102
}
330
B0F1
100
AcDbVisualStyle
  2

 70
    16
 71
     2
 72
     2
 73
     3
 90
        0
 40
-0.6
 41
-30.0
 62
     5
 63
     8
 74
     1
 91
        4
 64
     7
 65
   257
 75
     1
175
     1
 42
1.0
 92
        8
 66
     8
 43
1.0
 76
     1
 77
     6
 78
     2
 67
     7
 79
     5
170
     0
171
     0
290
     0
174
     0
 93
        1
 44
0.0
173
     0
291
     1
 45
0.0
1001
ACAD
1000
AcDbSavedByObjectVersion
1070
     0
  0
VISUALSTYLE
  5
B0FA
102
{ACAD_XDICTIONARY
360
AEC84
102
}
102
{ACAD_REACTORS
330
B0F1
102
}
330
B0F1
100
AcDbVisualStyle
  2

 70
     9
 71
     3
 72
     2
 73
     0
 90
        0
 40
-0.6
 41
-30.0
 62
     5
 63
     7
 74
     2
 91
        2
 64
     7
 65
   257
 75
     1
175
     1
 42
40.0
 92
        8
 66
     7
 43
1.0
 76
     1
 77
     6
 78
     2
 67
     7
 79
     3
170
     0
171
     0
290
     0
174
     0
 93
        1
 44
0.0
173
     0
291
     0
 45
0.0
1001
ACAD
1000
AcDbSavedByObjectVersion
1070
     0
  0
VISUALSTYLE
  5
B0FC
102
{ACAD_XDICTIONARY
360
AEC88
102
}
102
{ACAD_REACTORS
330
B0F1
102
}
330
B0F1
100
AcDbVisualStyle
  2

 70
    11
 71
     2
 72
     2
 73
     0
 90
        0
 40
-0.6
 41
-30.0
 62
     5
 63
     7
 74
     1
 91
        4
 64
     7
 65
   257
 75
     1
175
     1
 42
1.0
 92
        8
 66
     7
 43
1.0
 76
     1
 77
     6
 78
     2
 67
     7
 79
     5
170
     0
171
     0
290
     0
174
     0
 93
        1
 44
-50.0
173
     0
291
     1
 45
0.0
1001
ACAD
1000
AcDbSavedByObjectVersion
1070
     0
  0
VISUALSTYLE
  5
AB25C
102
{ACAD_XDICTIONARY
360
AECA6
102
}
102
{ACAD_REACTORS
330
B0F1
102
}
330
B0F1
100
AcDbVisualStyle
  2
EdgeColorOff
 70
    22
 71
     2
 72
     2
 73
     0
 90
        0
 40
-0.6
 41
-30.0
 62
     5
 63
     7
 74
     1
 91
        4
 64
     7
 65
   257
 75
     1
175
     1
 42
1.0
 92
        8
 66
     7
 43
1.0
 76
     1
 77
     6
 78
     2
 67
     7
 79
     5
170
     0
171
     0
290
     0
174
     0
 93
        1
 44
0.0
173
     0
291
     1
 45
0.0
1001
ACAD
1000
AcDbSavedByObjectVersion
1070
     0
  0
VISUALSTYLE
  5
B100
102
{ACAD_XDICTIONARY
360
AEC90
102
}
102
{ACAD_REACTORS
330
B0F1
102
}
330
B0F1
100
AcDbVisualStyle
  2

 70
    15
 71
     2
 72
     2
 73
     0
 90
        0
 40
-0.6
 41
-30.0
 62
     5
 63
     7
 74
     1
 91
        4
 64
     7
 65
   257
 75
     1
175
     1
 42
1.0
 92
        8
 66
     7
 43
1.0
 76
     1
 77
     6
 78
     2
 67
     7
 79
     5
170
     0
171
     0
290
     0
174
     0
 93
        1
 44
0.0
173
     0
291
     1
 45
0.0
1001
ACAD
1000
AcDbSavedByObjectVersion
1070
     0
  0
VISUALSTYLE
  5
B0F2
102
{ACAD_XDICTIONARY
360
AEC74
102
}
102
{ACAD_REACTORS
330
B0F1
102
}
330
B0F1
100
AcDbVisualStyle
  2

 70
     0
 71
     2
 72
     1
 73
     1
 90
        2
 40
-0.6
 41
30.0
 62
     5
 63
     7
 74
     0
 91
        4
 64
     7
 65
   257
 75
     1
175
     1
 42
1.0
 92
        8
 66
     7
 43
1.0
 76
     1
 77
     6
 78
     2
 67
     7
 79
     5
170
     0
171
     0
290
     0
174
     0
 93
       13
 44
0.0
173
     0
291
     1
 45
0.0
1001
ACAD
1000
AcDbSavedByObjectVersion
1070
     0
  0
VISUALSTYLE
  5
B0F3
102
{ACAD_XDICTIONARY
360
AEC76
102
}
102
{ACAD_REACTORS
330
B0F1
102
}
330
B0F1
100
AcDbVisualStyle
  2

 70
     1
 71
     2
 72
     1
 73
     1
 90
        2
 40
-0.6
 41
30.0
 62
     5
 63
     7
 74
     1
 91
        4
 64
     7
 65
   257
 75
     1
175
     1
 42
1.0
 92
        0
 66
   257
 43
1.0
 76
     1
 77
     6
 78
     2
 67
     7
 79
     5
170
     0
171
     0
290
     0
174
     0
 93
       13
 44
0.0
173
     0
291
     1
 45
0.0
1001
ACAD
1000
AcDbSavedByObjectVersion
1070
     0
  0
VISUALSTYLE
  5
B0F4
102
{ACAD_XDICTIONARY
360
AEC78
102
}
102
{ACAD_REACTORS
330
B0F1
102
}
330
B0F1
100
AcDbVisualStyle
  2

 70
     2
 71
     2
 72
     2
 73
     1
 90
        2
 40
-0.6
 41
30.0
 62
     5
 63
     7
 74
     0
 91
        4
 64
     7
 65
   257
 75
     1
175
     1
 42
1.0
 92
        0
 66
     7
 43
1.0
 76
     1
 77
     6
 78
     2
 67
     7
 79
     5
170
     0
171
     0
290
     0
174
     0
 93
       13
 44
0.0
173
     0
291
     1
 45
0.0
1001
ACAD
1000
AcDbSavedByObjectVersion
1070
     0
  0
VISUALSTYLE
  5
B0F5
102
{ACAD_XDICTIONARY
360
AEC7A
102
}
102
{ACAD_REACTORS
330
B0F1
102
}
330
B0F1
100
AcDbVisualStyle
  2

 70
     3
 71
     2
 72
     2
 73
     1
 90
        2
 40
-0.6
 41
30.0
 62
     5
 63
     7
 74
     1
 91
        4
 64
     7
 65
   257
 75
     1
175
     1
 42
1.0
 92
        0
 66
   257
 43
1.0
 76
     1
 77
     6
 78
     2
 67
     7
 79
     5
170
     0
171
     0
290
     0
174
     0
 93
       13
 44
0.0
173
     0
291
     1
 45
0.0
1001
ACAD
1000
AcDbSavedByObjectVersion
1070
     0
  0
VISUALSTYLE
  5
AB254
102
{ACAD_XDICTIONARY
360
AEC96
102
}
102
{ACAD_REACTORS
330
B0F1
102
}
330
B0F1
100
AcDbVisualStyle
  2
Hidden
 70
     6
 71
     1
 72
     2
 73
     2
 90
        0
 40
-0.6
 41
-30.0
 62
     5
 63
     7
 74
     2
 91
        2
 64
     7
 65
   257
 75
     2
175
     1
 42
40.0
 92
        0
 66
   257
 43
1.0
 76
     1
 77
     6
 78
     2
 67
     7
 79
     3
170
     0
171
     0
290
     0
174
     0
 93
        1
 44
0.0
173
     0
291
     0
 45
0.0
1001
ACAD
1000
AcDbSavedByObjectVersion
1070
     0
  0
VISUALSTYLE
  5
AB25A
102
{ACAD_XDICTIONARY
360
AECA2
102
}
102
{ACAD_REACTORS
330
B0F1
102
}
330
B0F1
100
AcDbVisualStyle
  2
JitterOff
 70
    20
 71
     2
 72
     2
 73
     0
 90
        0
 40
-0.6
 41
-30.0
 62
     5
 63
     7
 74
     1
 91
        4
 64
     7
 65
   257
 75
     1
175
     1
 42
1.0
 92
       10
 66
     7
 43
1.0
 76
     1
 77
     6
 78
     2
 67
     7
 79
     5
170
     0
171
     0
290
     0
174
     0
 93
        1
 44
0.0
173
     0
291
     1
 45
0.0
1001
ACAD
1000
AcDbSavedByObjectVersion
1070
     0
  0
VISUALSTYLE
  5
B0FF
102
{ACAD_XDICTIONARY
360
AEC8E
102
}
102
{ACAD_REACTORS
330
B0F1
102
}
330
B0F1
100
AcDbVisualStyle
  2

 70
    14
 71
     2
 72
     2
 73
     0
 90
        0
 40
-0.6
 41
-30.0
 62
     5
 63
     7
 74
     1
 91
        4
 64
     7
 65
   257
 75
     7
175
     7
 42
1.0
 92
        8
 66
     7
 43
1.0
 76
     1
 77
     6
 78
     2
 67
     7
 79
     5
170
     0
171
     0
290
     0
174
     0
 93
        1
 44
0.0
173
     0
291
     1
 45
0.0
1001
ACAD
1000
AcDbSavedByObjectVersion
1070
     0
  0
VISUALSTYLE
  5
AB25B
102
{ACAD_XDICTIONARY
360
AECA4
102
}
102
{ACAD_REACTORS
330
B0F1
102
}
330
B0F1
100
AcDbVisualStyle
  2
OverhangOff
 70
    21
 71
     2
 72
     2
 73
     0
 90
        0
 40
-0.6
 41
-30.0
 62
     5
 63
     7
 74
     1
 91
        4
 64
     7
 65
   257
 75
     1
175
     1
 42
1.0
 92
        9
 66
     7
 43
1.0
 76
     1
 77
     6
 78
     2
 67
     7
 79
     5
170
     0
171
     0
290
     0
174
     0
 93
        1
 44
0.0
173
     0
291
     1
 45
0.0
1001
ACAD
1000
AcDbSavedByObjectVersion
1070
     0
  0
VISUALSTYLE
  5
B0FB
102
{ACAD_XDICTIONARY
360
AEC86
102
}
102
{ACAD_REACTORS
330
B0F1
102
}
330
B0F1
100
AcDbVisualStyle
  2

 70
     8
 71
     2
 72
     2
 73
     0
 90
        0
 40
-0.6
 41
-30.0
 62
     5
 63
     7
 74
     1
 91
        0
 64
     7
 65
   257
 75
     1
175
     1
 42
1.0
 92
        8
 66
     8
 43
1.0
 76
     1
 77
     6
 78
     2
 67
     7
 79
     5
170
     0
171
     0
290
     0
174
     0
 93
       13
 44
0.0
173
     0
291
     0
 45
0.0
1001
ACAD
1000
AcDbSavedByObjectVersion
1070
     0
  0
VISUALSTYLE
  5
AB259
102
{ACAD_XDICTIONARY
360
AECA0
102
}
102
{ACAD_REACTORS
330
B0F1
102
}
330
B0F1
100
AcDbVisualStyle
  2
Shaded
 70
    27
 71
     2
 72
     2
 73
     1
 90
        2
 40
-0.6
 41
30.0
 62
     5
 63
     7
 74
     0
 91
        4
 64
     7
 65
   257
 75
     1
175
     1
 42
1.0
 92
        8
 66
   257
 43
1.0
 76
     1
 77
     6
 78
     2
 67
     8
 79
     3
170
     0
171
     0
290
     0
174
     0
 93
        5
 44
0.0
173
     0
291
     0
 45
0.0
1001
ACAD
1000
AcDbSavedByObjectVersion
1070
     0
  0
VISUALSTYLE
  5
AB258
102
{ACAD_XDICTIONARY
360
AEC9E
102
}
102
{ACAD_REACTORS
330
B0F1
102
}
330
B0F1
100
AcDbVisualStyle
  2
Shaded with edges
 70
    26
 71
     2
 72
     2
 73
     1
 90
        2
 40
-0.6
 41
30.0
 62
     5
 63
     7
 74
     1
 91
       10
 64
     7
 65
   257
 75
     2
175
     1
 42
1.0
 92
        8
 66
   257
 43
1.0
 76
     1
 77
     6
 78
     2
 67
     7
 79
     3
170
     0
171
     0
290
     0
174
     0
 93
        5
 44
0.0
173
     0
291
     0
 45
0.0
1001
ACAD
1000
AcDbSavedByObjectVersion
1070
     0
  0
VISUALSTYLE
  5
AB255
102
{ACAD_XDICTIONARY
360
AEC98
102
}
102
{ACAD_REACTORS
330
B0F1
102
}
330
B0F1
100
AcDbVisualStyle
  2
Shades of Gray
 70
    23
 71
     2
 72
     2
 73
     3
 90
        0
 40
-0.6
 41
-30.0
 62
     5
 63
     7
 74
     2
 91
        2
 64
     7
 65
     7
 75
     1
175
     1
 42
40.0
 92
        8
 66
     7
 43
1.0
 76
     1
 77
     6
 78
     2
 67
     7
 79
     3
170
     0
171
     0
290
     0
174
     0
 93
        1
 44
0.0
173
     0
291
     0
 45
0.0
1001
ACAD
1000
AcDbSavedByObjectVersion
1070
     0
  0
VISUALSTYLE
  5
AB256
102
{ACAD_XDICTIONARY
360
AEC9A
102
}
102
{ACAD_REACTORS
330
B0F1
102
}
330
B0F1
100
AcDbVisualStyle
  2
Sketchy
 70
    24
 71
     1
 72
     2
 73
     2
 90
        0
 40
-0.6
 41
-30.0
 62
     5
 63
     7
 74
     2
 91
        2
 64
     7
 65
     7
 75
     1
175
     1
 42
40.0
 92
       11
 66
     7
 43
1.0
 76
     1
 77
     6
 78
     2
 67
     7
 79
     6
170
     0
171
     0
290
     0
174
     0
 93
        1
 44
0.0
173
     0
291
     0
 45
0.0
1001
ACAD
1000
AcDbSavedByObjectVersion
1070
     0
  0
VISUALSTYLE
  5
B0FE
102
{ACAD_XDICTIONARY
360
AEC8C
102
}
102
{ACAD_REACTORS
330
B0F1
102
}
330
B0F1
100
AcDbVisualStyle
  2

 70
    13
 71
     2
 72
     2
 73
     0
 90
        0
 40
-0.6
 41
-30.0
 62
     5
 63
     7
 74
     1
 91
        4
 64
     7
 65
   257
 75
     1
175
     1
 42
1.0
 92
       12
 66
     7
 43
1.0
 76
     1
 77
     6
 78
     2
 67
     7
 79
     5
170
     0
171
     0
290
     0
174
     0
 93
        1
 44
0.0
173
     0
291
     1
 45
0.0
1001
ACAD
1000
AcDbSavedByObjectVersion
1070
     0
  0
VISUALSTYLE
  5
AB253
102
{ACAD_XDICTIONARY
360
AEC94
102
}
102
{ACAD_REACTORS
330
B0F1
102
}
330
B0F1
100
AcDbVisualStyle
  2
Wireframe
 70
     5
 71
     0
 72
     2
 73
     0
 90
        0
 40
-0.6
 41
-30.0
 62
     5
 63
     7
 74
     1
 91
        4
 64
     7
 65
   257
 75
     1
175
     1
 42
1.0
 92
        0
 66
   257
 43
1.0
 76
     1
 77
     6
 78
     2
 67
     7
 79
     3
170
     0
171
     0
290
     0
174
     0
 93
        1
 44
0.0
173
     0
291
     0
 45
0.0
1001
ACAD
1000
AcDbSavedByObjectVersion
1070
     0
  0
VISUALSTYLE
  5
AB257
102
{ACAD_XDICTIONARY
360
AEC9C
102
}
102
{ACAD_REACTORS
330
B0F1
102
}
330
B0F1
100
AcDbVisualStyle
  2
X-Ray
 70
    25
 71
     2
 72
     2
 73
     1
 90
        1
 40
0.5
 41
-30.0
 62
     5
 63
     7
 74
     1
 91
        0
 64
     7
 65
   257
 75
     1
175
     1
 42
1.0
 92
        8
 66
     7
 43
1.0
 76
     1
 77
     6
 78
     2
 67
     7
 79
     3
170
     0
171
     0
290
     0
174
     0
 93
       13
 44
0.0
173
     0
291
     0
 45
0.0
1001
ACAD
1000
AcDbSavedByObjectVersion
1070
     0
  0
DICTIONARYVAR
  5
AB68F
102
{ACAD_REACTORS
330
34
102
}
330
34
100
DictionaryVariables
280
     0
  1
1:1
  0
DICTIONARYVAR
  5
AB68B
102
{ACAD_REACTORS
330
34
102
}
330
34
100
DictionaryVariables
280
     0
  1
STANDARD
  0
DICTIONARYVAR
  5
AAF3
102
{ACAD_REACTORS
330
34
102
}
330
34
100
DictionaryVariables
280
     0
  1
STANDARD
  0
DICTIONARYVAR
  5
AB68C
102
{ACAD_REACTORS
330
34
102
}
330
34
100
DictionaryVariables
280
     0
  1
Metric50
  0
DICTIONARYVAR
  5
AB68D
102
{ACAD_REACTORS
330
34
102
}
330
34
100
DictionaryVariables
280
     0
  1
Metric50
  0
DICTIONARYVAR
  5
A10C
102
{ACAD_REACTORS
330
34
102
}
330
34
100
DictionaryVariables
280
     0
  1
1
  0
DICTIONARYVAR
  5
AB07
102
{ACAD_REACTORS
330
34
102
}
330
34
100
DictionaryVariables
280
     0
  1
4
  0
DICTIONARYVAR
  5
35
102
{ACAD_REACTORS
330
34
102
}
330
34
100
DictionaryVariables
280
     0
  1
0
  0
DICTIONARYVAR
  5
AB691
102
{ACAD_REACTORS
330
34
102
}
330
34
100
DictionaryVariables
280
     0
  1
1
  0
DICTIONARYVAR
  5
AB692
102
{ACAD_REACTORS
330
34
102
}
330
34
100
DictionaryVariables
280
     0
  1
15
  0
DICTIONARYVAR
  5
AB690
102
{ACAD_REACTORS
330
34
102
}
330
34
100
DictionaryVariables
280
     0
  1
0
  0
DICTIONARYVAR
  5
AB68E
102
{ACAD_REACTORS
330
34
102
}
330
34
100
DictionaryVariables
280
     0
  1
0
  0
DICTIONARYVAR
  5
194C
102
{ACAD_REACTORS
330
34
102
}
330
34
100
DictionaryVariables
280
     0
  1
96
  0
DICTIONARYVAR
  5
AEC5E
102
{ACAD_REACTORS
330
34
102
}
330
34
100
DictionaryVariables
280
     0
  1
2
  0
DICTIONARY
  5
AEC6C
102
{ACAD_REACTORS
330
AEC6A
102
}
330
AEC6A
100
AcDbDictionary
281
     1
  0
DICTIONARY
  5
AEC6B
102
{ACAD_REACTORS
330
AEC6A
102
}
330
AEC6A
100
AcDbDictionary
281
     1
  3
2129710760
350
AEC65
  3
2129710768
350
AEC66
  3
2129710776
350
AEC67
  3
2129710784
350
AEC68
  3
2129710792
350
AEC69
  0
DICTIONARY
  5
7E8
102
{ACAD_REACTORS
330
47
102
}
330
47
100
AcDbDictionary
281
     1
  0
DICTIONARY
  5
4C
102
{ACAD_REACTORS
330
47
102
}
330
47
100
AcDbDictionary
281
     1
  0
XRECORD
  5
A929
102
{ACAD_REACTORS
330
47
102
}
330
47
100
AcDbXrecord
280
     1
 90
-1023410169
  0
XRECORD
  5
AA8D9
102
{ACAD_REACTORS
330
AA8D8
102
}
330
AA8D8
100
AcDbXrecord
280
     1
330
0
330
0
330
0
330
0
330
0
330
0
330
0
330
0
330
0
330
0
330
0
330
0
330
0
330
0
330
0
330
0
330
0
330
0
330
0
330
0
330
0
330
0
330
0
330
0
330
0
330
0
330
0
330
0
330
0
330
0
330
0
330
0
330
0
330
0
330
0
330
0
330
0
330
0
330
0
330
0
330
0
330
0
330
0
330
0
330
0
330
0
330
0
330
0
330
0
330
0
330
0
330
0
330
0
330
0
330
0
330
0
330
0
330
0
330
0
330
0
330
0
330
0
330
0
330
0
330
0
330
0
330
0
330
0
330
0
330
0
330
0
330
0
330
0
330
0
330
0
330
0
330
0
330
0
330
0
330
0
330
0
330
0
330
0
330
0
330
0
330
0
330
0
330
0
330
0
330
0
330
0
330
0
330
0
330
0
330
0
330
0
330
0
330
0
330
0
330
0
330
0
330
0
330
0
330
0
330
0
330
0
330
0
330
0
330
0
330
0
330
0
330
0
330
0
330
0
330
0
330
0
330
0
330
0
330
0
330
0
330
0
330
0
330
0
330
0
330
0
330
0
330
0
330
0
330
0
330
0
330
0
330
0
330
0
330
0
330
0
330
0
330
0
330
0
330
0
330
0
330
0
330
0
330
0
330
0
330
0
330
0
330
0
330
0
330
0
330
0
330
0
330
0
330
0
330
0
330
0
330
0
330
0
330
0
330
0
330
0
330
0
330
0
330
0
330
0
330
0
330
0
330
0
330
0
330
0
330
0
330
0
330
0
330
0
330
0
330
0
330
0
330
0
330
0
330
0
330
0
330
0
330
0
330
0
330
0
330
0
330
0
330
0
330
0
330
0
330
0
330
0
330
0
330
0
330
0
330
0
330
0
330
0
330
0
330
0
330
0
330
0
330
0
330
0
330
0
330
0
330
0
330
0
330
0
330
0
330
0
330
0
330
0
330
0
330
0
330
0
330
0
330
0
330
0
330
0
330
0
330
0
330
0
330
0
330
0
330
0
330
0
330
0
330
0
330
0
330
0
330
0
330
0
330
0
330
0
330
0
330
0
330
0
330
0
330
0
330
0
330
0
330
0
330
0
330
0
330
0
330
0
330
0
330
0
330
0
330
0
330
0
330
0
330
0
330
0
330
0
330
0
330
0
330
0
330
0
330
0
330
0
330
0
330
0
330
0
330
0
330
0
330
0
330
0
330
0
330
0
330
0
330
0
330
0
330
0
330
0
330
0
330
0
330
0
330
0
330
0
330
0
330
0
330
0
330
0
330
0
330
0
330
0
330
0
330
0
330
0
330
0
330
0
330
0
330
0
330
0
330
0
330
0
330
0
330
0
330
0
330
0
330
0
330
0
330
0
330
0
330
0
330
0
330
0
330
0
330
0
330
0
330
0
330
0
330
0
330
0
330
0
330
0
330
0
330
0
330
0
330
0
330
0
330
0
330
0
330
0
330
0
330
0
330
0
330
0
330
0
330
0
330
0
330
0
330
0
330
0
330
0
330
0
330
0
330
0
330
0
330
0
330
0
330
0
330
0
330
0
330
0
330
0
330
0
330
0
330
0
330
0
330
0
330
0
330
0
330
0
330
0
330
0
330
0
330
0
330
0
330
0
330
0
330
0
330
0
330
0
330
0
330
0
330
0
330
0
330
0
330
0
330
0
330
0
330
0
330
0
330
0
330
0
330
0
330
0
330
0
330
0
330
0
330
0
330
0
330
0
330
0
330
0
330
0
330
0
330
0
330
0
330
0
330
0
330
0
330
0
330
0
330
0
330
0
330
0
330
0
330
0
330
0
330
0
330
0
330
0
330
0
330
0
330
0
330
0
330
0
330
0
330
0
330
0
330
0
330
0
330
0
330
0
330
0
330
0
330
0
330
0
330
0
330
0
330
0
330
0
330
0
330
0
330
0
330
0
330
0
330
0
330
0
330
0
330
0
330
0
330
0
330
0
330
0
330
0
330
0
330
0
330
0
330
0
330
0
330
0
330
0
330
0
330
0
330
0
330
0
330
0
330
0
330
0
330
0
330
0
330
0
330
0
330
0
330
0
330
0
330
0
330
0
330
0
330
0
330
0
330
0
330
0
330
0
330
0
330
0
330
0
330
0
330
0
330
0
330
0
330
0
330
0
330
0
330
0
330
0
330
0
330
0
330
0
330
0
330
0
330
0
330
0
330
0
330
0
330
0
330
0
330
0
330
0
330
0
330
0
330
0
  0
XRECORD
  5
3FB7
102
{ACAD_REACTORS
330
3F96
102
}
330
3F96
100
AcDbXrecord
280
     1
 91
        3
330
0
 90
        8
 62
     7
370
    40
331
16
  1
Color_7
330
0
 90
        0
 62
    14
370
    -3
331
16
  1
Color_14
330
0
 90
        8
 62
     7
370
    20
331
16
  1
Color_7
330
6D1
 90
        0
 62
     7
370
    -3
331
16
  1
Color_7
330
0
 90
        8
 62
     7
370
    50
331
16
  1
Color_7
330
0
 90
        8
 62
     2
370
    35
331
16
  1
Color_2
330
0
 90
        8
 62
     7
370
    -3
331
16
  1
Color_7
330
10
 90
        8
 62
     7
370
    -3
331
16
  1
Color_7
  0
DICTIONARY
  5
AEC6F
330
22
100
AcDbDictionary
280
     1
281
     1
  3
ACAD_XREC_ROUNDTRIP
360
AEC70
  0
DICTIONARY
  5
AEC6D
330
1E
100
AcDbDictionary
280
     1
281
     1
  3
ACAD_XREC_ROUNDTRIP
360
AEC6E
  0
DICTIONARY
  5
AEC71
330
26
100
AcDbDictionary
280
     1
281
     1
  3
ACAD_XREC_ROUNDTRIP
360
AEC72
  0
DICTIONARY
  5
AB24D
330
B0EF
100
AcDbDictionary
280
     1
281
     1
  3
ACAD_XREC_ROUNDTRIP
360
AB24E
  0
DICTIONARY
  5
AB24B
330
B0EE
100
AcDbDictionary
280
     1
281
     1
  3
ACAD_XREC_ROUNDTRIP
360
AB24C
  0
DICTIONARY
  5
AB24F
330
B0F0
100
AcDbDictionary
280
     1
281
     1
  3
ACAD_XREC_ROUNDTRIP
360
AB250
  0
DICTIONARY
  5
AEC5F
330
AABA
100
AcDbDictionary
280
     1
281
     1
  3
ACAD_ROUNDTRIP_2008_TABLESTYLE_CELLSTYLEMAP
360
AEC60
  3
ACAD_XREC_ROUNDTRIP
360
AEC73
  0
DICTIONARY
  5
AEC7E
330
B0F7
100
AcDbDictionary
280
     1
281
     1
  3
ACAD_XREC_ROUNDTRIP
360
AEC7F
  0
DICTIONARY
  5
AEC82
330
B0F9
100
AcDbDictionary
280
     1
281
     1
  3
ACAD_XREC_ROUNDTRIP
360
AEC83
  0
DICTIONARY
  5
AEC80
330
B0F8
100
AcDbDictionary
280
     1
281
     1
  3
ACAD_XREC_ROUNDTRIP
360
AEC81
  0
DICTIONARY
  5
AEC7C
330
B0F6
100
AcDbDictionary
280
     1
281
     1
  3
ACAD_XREC_ROUNDTRIP
360
AEC7D
  0
DICTIONARY
  5
AEC8A
330
B0FD
100
AcDbDictionary
280
     1
281
     1
  3
ACAD_XREC_ROUNDTRIP
360
AEC8B
  0
DICTIONARY
  5
AEC92
330
B101
100
AcDbDictionary
280
     1
281
     1
  3
ACAD_XREC_ROUNDTRIP
360
AEC93
  0
DICTIONARY
  5
AEC84
330
B0FA
100
AcDbDictionary
280
     1
281
     1
  3
ACAD_XREC_ROUNDTRIP
360
AEC85
  0
DICTIONARY
  5
AEC88
330
B0FC
100
AcDbDictionary
280
     1
281
     1
  3
ACAD_XREC_ROUNDTRIP
360
AEC89
  0
DICTIONARY
  5
AECA6
330
AB25C
100
AcDbDictionary
280
     1
281
     1
  3
ACAD_XREC_ROUNDTRIP
360
AECA7
  0
DICTIONARY
  5
AEC90
330
B100
100
AcDbDictionary
280
     1
281
     1
  3
ACAD_XREC_ROUNDTRIP
360
AEC91
  0
DICTIONARY
  5
AEC74
330
B0F2
100
AcDbDictionary
280
     1
281
     1
  3
ACAD_XREC_ROUNDTRIP
360
AEC75
  0
DICTIONARY
  5
AEC76
330
B0F3
100
AcDbDictionary
280
     1
281
     1
  3
ACAD_XREC_ROUNDTRIP
360
AEC77
  0
DICTIONARY
  5
AEC78
330
B0F4
100
AcDbDictionary
280
     1
281
     1
  3
ACAD_XREC_ROUNDTRIP
360
AEC79
  0
DICTIONARY
  5
AEC7A
330
B0F5
100
AcDbDictionary
280
     1
281
     1
  3
ACAD_XREC_ROUNDTRIP
360
AEC7B
  0
DICTIONARY
  5
AEC96
330
AB254
100
AcDbDictionary
280
     1
281
     1
  3
ACAD_XREC_ROUNDTRIP
360
AEC97
  0
DICTIONARY
  5
AECA2
330
AB25A
100
AcDbDictionary
280
     1
281
     1
  3
ACAD_XREC_ROUNDTRIP
360
AECA3
  0
DICTIONARY
  5
AEC8E
330
B0FF
100
AcDbDictionary
280
     1
281
     1
  3
ACAD_XREC_ROUNDTRIP
360
AEC8F
  0
DICTIONARY
  5
AECA4
330
AB25B
100
AcDbDictionary
280
     1
281
     1
  3
ACAD_XREC_ROUNDTRIP
360
AECA5
  0
DICTIONARY
  5
AEC86
330
B0FB
100
AcDbDictionary
280
     1
281
     1
  3
ACAD_XREC_ROUNDTRIP
360
AEC87
  0
DICTIONARY
  5
AECA0
330
AB259
100
AcDbDictionary
280
     1
281
     1
  3
ACAD_XREC_ROUNDTRIP
360
AECA1
  0
DICTIONARY
  5
AEC9E
330
AB258
100
AcDbDictionary
280
     1
281
     1
  3
ACAD_XREC_ROUNDTRIP
360
AEC9F
  0
DICTIONARY
  5
AEC98
330
AB255
100
AcDbDictionary
280
     1
281
     1
  3
ACAD_XREC_ROUNDTRIP
360
AEC99
  0
DICTIONARY
  5
AEC9A
330
AB256
100
AcDbDictionary
280
     1
281
     1
  3
ACAD_XREC_ROUNDTRIP
360
AEC9B
  0
DICTIONARY
  5
AEC8C
330
B0FE
100
AcDbDictionary
280
     1
281
     1
  3
ACAD_XREC_ROUNDTRIP
360
AEC8D
  0
DICTIONARY
  5
AEC94
330
AB253
100
AcDbDictionary
280
     1
281
     1
  3
ACAD_XREC_ROUNDTRIP
360
AEC95
  0
DICTIONARY
  5
AEC9C
330
AB257
100
AcDbDictionary
280
     1
281
     1
  3
ACAD_XREC_ROUNDTRIP
360
AEC9D
  0
XRECORD
  5
AEC65
102
{ACAD_REACTORS
330
AEC6B
102
}
330
AEC6B
100
AcDbXrecord
280
     1
  1
AcDb_Thumbnail_Schema
102
{ATTRRECORD
341
AEC66
  2
AcDbDs::TreatedAsObjectData
280
     1
291
     1
102
ATTRRECORD}
102
{ATTRRECORD
341
AEC67
  2
AcDbDs::Legacy
280
     1
291
     1
102
ATTRRECORD}
  2
AcDbDs::ID
280
    10
 91
        8
102
{ATTRRECORD
341
AEC68
  2
AcDs:Indexable
280
     1
291
     1
102
ATTRRECORD}
102
{ATTRRECORD
341
AEC69
  2
AcDbDs::HandleAttribute
280
     7
282
     1
102
ATTRRECORD}
  2
Thumbnail_Data
280
    15
 91
        0
  0
XRECORD
  5
AEC66
102
{ACAD_REACTORS
330
AEC6B
102
}
330
AEC6B
100
AcDbXrecord
280
     1
  1
AcDbDs::TreatedAsObjectDataSchema
  2
AcDbDs::TreatedAsObjectData
280
     1
 91
        0
  0
XRECORD
  5
AEC67
102
{ACAD_REACTORS
330
AEC6B
102
}
330
AEC6B
100
AcDbXrecord
280
     1
  1
AcDbDs::LegacySchema
  2
AcDbDs::Legacy
280
     1
 91
        0
  0
XRECORD
  5
AEC68
102
{ACAD_REACTORS
330
AEC6B
102
}
330
AEC6B
100
AcDbXrecord
280
     1
  1
AcDbDs::IndexedPropertySchema
  2
AcDs:Indexable
280
     1
 91
        0
  0
XRECORD
  5
AEC69
102
{ACAD_REACTORS
330
AEC6B
102
}
330
AEC6B
100
AcDbXrecord
280
     1
  1
AcDbDs::HandleAttributeSchema
  2
AcDbDs::HandleAttribute
280
     7
 91
        1
284
     1
  0
XRECORD
  5
AEC70
102
{ACAD_REACTORS
330
AEC6F
102
}
330
AEC6F
100
AcDbXrecord
280
     1
102
SHADEPLOT
 70
     1
102
SHADEPLOTRESLEVEL
 70
     2
102
SHADEPLOTCUSTOMDPI
 70
   300
  0
XRECORD
  5
AEC6E
102
{ACAD_REACTORS
330
AEC6D
102
}
330
AEC6D
100
AcDbXrecord
280
     1
102
SHADEPLOT
 70
     0
102
SHADEPLOTRESLEVEL
 70
     2
102
SHADEPLOTCUSTOMDPI
 70
   300
  0
XRECORD
  5
AEC72
102
{ACAD_REACTORS
330
AEC71
102
}
330
AEC71
100
AcDbXrecord
280
     1
102
SHADEPLOT
 70
     0
102
SHADEPLOTRESLEVEL
 70
     2
102
SHADEPLOTCUSTOMDPI
 70
   300
  0
XRECORD
  5
AB24E
102
{ACAD_REACTORS
330
AB24D
102
}
330
AB24D
100
AcDbXrecord
280
     1
102
MATERIAL
148
0.0
149
0.0
149
0.0
 93
        0
 94
      127
282
     0
 72
     1
 77
     1
171
     1
175
     1
179
     1
273
     0
  0
XRECORD
  5
AB24C
102
{ACAD_REACTORS
330
AB24B
102
}
330
AB24B
100
AcDbXrecord
280
     1
102
MATERIAL
148
0.0
149
0.0
149
0.0
 93
        0
 94
      127
282
     0
 72
     1
 77
     1
171
     1
175
     1
179
     1
273
     0
  0
XRECORD
  5
AB250
102
{ACAD_REACTORS
330
AB24F
102
}
330
AB24F
100
AcDbXrecord
280
     1
102
MATERIAL
148
0.0
149
0.0
149
0.0
 93
        0
 94
      127
282
     0
 72
     1
 77
     1
171
     1
175
     1
179
     1
273
     0
  0
CELLSTYLEMAP
  5
AEC60
102
{ACAD_REACTORS
330
AEC5F
102
}
330
AEC5F
100
AcDbCellStyleMap
 90
        3
300
CELLSTYLE
  1
TABLEFORMAT_BEGIN
 90
        5
170
     1
 91
        0
 92
    32768
 62
   257
 93
        1
300
CONTENTFORMAT
  1
CONTENTFORMAT_BEGIN
 90
        0
 91
        0
 92
        4
 93
        0
300

 40
0.0
140
1.0
 94
        5
 62
     0
340
11
144
6.0
309
CONTENTFORMAT_END
171
     1
301
MARGIN
  1
CELLMARGIN_BEGIN
 40
1.5
 40
1.5
 40
1.5
 40
1.5
 40
0.18
 40
0.18
309
CELLMARGIN_END
 94
        6
 95
        1
302
GRIDFORMAT
  1
GRIDFORMAT_BEGIN
 90
        0
 91
        1
 62
     0
 92
       -2
340
0
 93
        0
 40
0.045
309
GRIDFORMAT_END
 95
        2
302
GRIDFORMAT
  1
GRIDFORMAT_BEGIN
 90
        0
 91
        1
 62
     0
 92
       -2
340
0
 93
        0
 40
0.045
309
GRIDFORMAT_END
 95
        4
302
GRIDFORMAT
  1
GRIDFORMAT_BEGIN
 90
        0
 91
        1
 62
     0
 92
       -2
340
0
 93
        0
 40
0.045
309
GRIDFORMAT_END
 95
        8
302
GRIDFORMAT
  1
GRIDFORMAT_BEGIN
 90
        0
 91
        1
 62
     0
 92
       -2
340
0
 93
        0
 40
0.045
309
GRIDFORMAT_END
 95
       16
302
GRIDFORMAT
  1
GRIDFORMAT_BEGIN
 90
        0
 91
        1
 62
     0
 92
       -2
340
0
 93
        0
 40
0.045
309
GRIDFORMAT_END
 95
       32
302
GRIDFORMAT
  1
GRIDFORMAT_BEGIN
 90
        0
 91
        1
 62
     0
 92
       -2
340
0
 93
        0
 40
0.045
309
GRIDFORMAT_END
309
TABLEFORMAT_END
  1
CELLSTYLE_BEGIN
 90
        1
 91
        1
300
_TITLE
309
CELLSTYLE_END
300
CELLSTYLE
  1
TABLEFORMAT_BEGIN
 90
        5
170
     1
 91
        0
 92
        0
 62
   257
 93
        1
300
CONTENTFORMAT
  1
CONTENTFORMAT_BEGIN
 90
        0
 91
        0
 92
        4
 93
        0
300

 40
0.0
140
1.0
 94
        5
 62
     0
340
11
144
4.5
309
CONTENTFORMAT_END
171
     1
301
MARGIN
  1
CELLMARGIN_BEGIN
 40
1.5
 40
1.5
 40
1.5
 40
1.5
 40
0.18
 40
0.18
309
CELLMARGIN_END
 94
        6
 95
        1
302
GRIDFORMAT
  1
GRIDFORMAT_BEGIN
 90
        0
 91
        1
 62
     0
 92
       -2
340
0
 93
        0
 40
0.045
309
GRIDFORMAT_END
 95
        2
302
GRIDFORMAT
  1
GRIDFORMAT_BEGIN
 90
        0
 91
        1
 62
     0
 92
       -2
340
0
 93
        0
 40
0.045
309
GRIDFORMAT_END
 95
        4
302
GRIDFORMAT
  1
GRIDFORMAT_BEGIN
 90
        0
 91
        1
 62
     0
 92
       -2
340
0
 93
        0
 40
0.045
309
GRIDFORMAT_END
 95
        8
302
GRIDFORMAT
  1
GRIDFORMAT_BEGIN
 90
        0
 91
        1
 62
     0
 92
       -2
340
0
 93
        0
 40
0.045
309
GRIDFORMAT_END
 95
       16
302
GRIDFORMAT
  1
GRIDFORMAT_BEGIN
 90
        0
 91
        1
 62
     0
 92
       -2
340
0
 93
        0
 40
0.045
309
GRIDFORMAT_END
 95
       32
302
GRIDFORMAT
  1
GRIDFORMAT_BEGIN
 90
        0
 91
        1
 62
     0
 92
       -2
340
0
 93
        0
 40
0.045
309
GRIDFORMAT_END
309
TABLEFORMAT_END
  1
CELLSTYLE_BEGIN
 90
        2
 91
        1
300
_HEADER
309
CELLSTYLE_END
300
CELLSTYLE
  1
TABLEFORMAT_BEGIN
 90
        5
170
     1
 91
        0
 92
        0
 62
   257
 93
        1
300
CONTENTFORMAT
  1
CONTENTFORMAT_BEGIN
 90
        0
 91
        0
 92
        4
 93
        0
300

 40
0.0
140
1.0
 94
        2
 62
     0
340
11
144
4.5
309
CONTENTFORMAT_END
171
     1
301
MARGIN
  1
CELLMARGIN_BEGIN
 40
1.5
 40
1.5
 40
1.5
 40
1.5
 40
0.18
 40
0.18
309
CELLMARGIN_END
 94
        6
 95
        1
302
GRIDFORMAT
  1
GRIDFORMAT_BEGIN
 90
        0
 91
        1
 62
     0
 92
       -2
340
0
 93
        0
 40
0.045
309
GRIDFORMAT_END
 95
        2
302
GRIDFORMAT
  1
GRIDFORMAT_BEGIN
 90
        0
 91
        1
 62
     0
 92
       -2
340
0
 93
        0
 40
0.045
309
GRIDFORMAT_END
 95
        4
302
GRIDFORMAT
  1
GRIDFORMAT_BEGIN
 90
        0
 91
        1
 62
     0
 92
       -2
340
0
 93
        0
 40
0.045
309
GRIDFORMAT_END
 95
        8
302
GRIDFORMAT
  1
GRIDFORMAT_BEGIN
 90
        0
 91
        1
 62
     0
 92
       -2
340
0
 93
        0
 40
0.045
309
GRIDFORMAT_END
 95
       16
302
GRIDFORMAT
  1
GRIDFORMAT_BEGIN
 90
        0
 91
        1
 62
     0
 92
       -2
340
0
 93
        0
 40
0.045
309
GRIDFORMAT_END
 95
       32
302
GRIDFORMAT
  1
GRIDFORMAT_BEGIN
 90
        0
 91
        1
 62
     0
 92
       -2
340
0
 93
        0
 40
0.045
309
GRIDFORMAT_END
309
TABLEFORMAT_END
  1
CELLSTYLE_BEGIN
 90
        3
 91
        2
300
_DATA
309
CELLSTYLE_END
  0
XRECORD
  5
AEC73
102
{ACAD_REACTORS
330
AEC5F
102
}
330
AEC5F
100
AcDbXrecord
280
     1
102
ACAD_ROUNDTRIP_PRE2007_TABLESTYLE
 90
        4
 91
        0
  1

 92
        4
 93
        0
  2

 94
        4
 95
        0
  3

  0
XRECORD
  5
AEC7F
102
{ACAD_REACTORS
330
AEC7E
102
}
330
AEC7E
100
AcDbXrecord
280
     1
102
RTVSPost2010Prop28
280
     1
102
RTVSPost2010PropOp28
 70
     1
102
RTVSPost2010Prop29
280
     1
102
RTVSPost2010PropOp29
 70
     1
102
RTVSPost2010Prop30
280
     0
102
RTVSPost2010PropOp30
 70
     1
102
RTVSPost2010Prop31
280
     0
102
RTVSPost2010PropOp31
 70
     1
102
RTVSPost2010Prop32
280
     0
102
RTVSPost2010PropOp32
 70
     1
102
RTVSPost2010Prop33
280
     0
102
RTVSPost2010PropOp33
 70
     1
102
RTVSPost2010Prop34
280
     0
102
RTVSPost2010PropOp34
 70
     1
102
RTVSPost2010Prop35
280
     0
102
RTVSPost2010PropOp35
 70
     1
102
RTVSPost2010Prop36
280
     0
102
RTVSPost2010PropOp36
 70
     1
102
RTVSPost2010Prop37
 90
       50
102
RTVSPost2010PropOp37
 70
     1
102
RTVSPost2010Prop38
140
0.0
102
RTVSPost2010PropOp38
 70
     1
102
RTVSPost2010Prop39
140
1.0
102
RTVSPost2010PropOp39
 70
     1
102
RTVSPost2010Prop40
 90
        0
102
RTVSPost2010PropOp40
 70
     1
102
RTVSPost2010Prop41ColorIndex
 90
       18
102
RTVSPost2010Prop41ColorRGB
 90
        0
102
RTVSPost2010PropOp41
 70
     1
102
RTVSPost2010Prop42
 90
       50
102
RTVSPost2010PropOp42
 70
     1
102
RTVSPost2010Prop43
 90
        3
102
RTVSPost2010PropOp43
 70
     1
102
RTVSPost2010Prop44ColorIndex
 90
        5
102
RTVSPost2010Prop44ColorRGB
 90
      255
102
RTVSPost2010PropOp44
 70
     1
102
RTVSPost2010Prop45
280
     0
102
RTVSPost2010PropOp45
 70
     1
102
RTVSPost2010Prop46
 90
       50
102
RTVSPost2010PropOp46
 70
     1
102
RTVSPost2010Prop47
 90
       50
102
RTVSPost2010PropOp47
 70
     1
102
RTVSPost2010Prop48
 90
       50
102
RTVSPost2010PropOp48
 70
     1
102
RTVSPost2010Prop49
280
     0
102
RTVSPost2010PropOp49
 70
     1
102
RTVSPost2010Prop50
 90
       50
102
RTVSPost2010PropOp50
 70
     1
102
RTVSPost2010Prop51ColorIndex
 90
      256
102
RTVSPost2010Prop51ColorRGB
 90
-16777216
102
RTVSPost2010PropOp51
 70
     0
102
RTVSPost2010Prop52
140
1.0
102
RTVSPost2010PropOp52
 70
     0
102
RTVSPost2010Prop53
 90
        2
102
RTVSPost2010PropOp53
 70
     1
102
RTVSPost2010Prop54
  1
strokes_ogs.tif
102
RTVSPost2010PropOp54
 70
     1
102
RTVSPost2010Prop55
280
     0
102
RTVSPost2010PropOp55
 70
     1
102
RTVSPost2010Prop56
140
1.0
102
RTVSPost2010PropOp56
 70
     1
102
RTVSPost2010Prop57
140
1.0
102
RTVSPost2010PropOp57
 70
     1
102
RTVSPropertyOp0
 70
     1
102
RTVSPropertyOp1
 70
     1
102
RTVSPropertyOp2
 70
     1
102
RTVSPropertyOp3
 70
     1
102
RTVSPropertyOp4
 70
     1
102
RTVSPropertyOp5
 70
     1
102
RTVSPropertyOp6
 70
     1
102
RTVSPropertyOp7
 70
     1
102
RTVSPropertyOp8
 70
     1
102
RTVSPropertyOp9
 70
     1
102
RTVSPropertyOp10
 70
     1
102
RTVSPropertyOp11
 70
     1
102
RTVSPropertyOp12
 70
     1
102
RTVSPropertyOp13
 70
     1
102
RTVSPropertyOp14
 70
     1
102
RTVSPropertyOp15
 70
     1
102
RTVSPropertyOp16
 70
     1
102
RTVSPropertyOp17
 70
     1
102
RTVSPropertyOp18
 70
     1
102
RTVSPropertyOp19
 70
     1
102
RTVSPropertyOp20
 70
     1
102
RTVSPropertyOp21
 70
     1
102
RTVSPropertyOp22
 70
     1
102
RTVSPropertyOp23
 70
     1
102
RTVSPropertyOp24
 70
     1
102
RTVSPropertyOp25
 70
     1
102
RTVSPropertyOp26
 70
     1
102
RTVSPropertyOp27
 70
     1
102
RTVSPropertyOp28
 70
     1
102
RTVSPropertyOp29
 70
     1
102
RTVSPropertyOp30
 70
     1
102
RTVSPropertyOp31
 70
     1
102
RTVSPropertyOp32
 70
     1
102
RTVSPropertyOp33
 70
     1
102
RTVSPropertyOp34
 70
     1
102
RTVSPropertyOp35
 70
     1
102
RTVSPropertyOp36
 70
     1
102
RTVSPropertyOp37
 70
     1
102
RTVSPropertyOp38
 70
     1
102
RTVSPropertyOp39
 70
     1
102
RTVSPropertyOp40
 70
     1
102
RTVSPropertyOp41
 70
     1
102
RTVSPropertyOp42
 70
     1
102
RTVSPropertyOp43
 70
     1
102
RTVSPropertyOp44
 70
     1
102
RTVSPropertyOp45
 70
     1
102
RTVSPropertyOp46
 70
     1
102
RTVSPropertyOp47
 70
     1
102
RTVSPropertyOp48
 70
     1
102
RTVSPropertyOp49
 70
     1
102
RTVSPropertyOp50
 70
     1
102
RTVSPropertyOp51
 70
     0
102
RTVSPropertyOp52
 70
     0
102
RTVSPropertyOp53
 70
     1
102
RTVSPropertyOp54
 70
     1
102
RTVSPropertyOp55
 70
     1
102
RTVSPropertyOp56
 70
     1
102
RTVSPropertyOp57
 70
     1
102
RTVSPropertyOp58
 70
     1
102
RTVSPropertyOp59
 70
     1
102
RTVSPropertyOp60
 70
     1
102
RTVSPropertyOp61
 70
     1
102
RTVSPropertyOp62
 70
     1
  0
XRECORD
  5
AEC83
102
{ACAD_REACTORS
330
AEC82
102
}
330
AEC82
100
AcDbXrecord
280
     1
102
RTVSPost2010Prop28
280
     0
102
RTVSPost2010PropOp28
 70
     1
102
RTVSPost2010Prop29
280
     1
102
RTVSPost2010PropOp29
 70
     1
102
RTVSPost2010Prop30
280
     1
102
RTVSPost2010PropOp30
 70
     1
102
RTVSPost2010Prop31
280
     0
102
RTVSPost2010PropOp31
 70
     1
102
RTVSPost2010Prop32
280
     0
102
RTVSPost2010PropOp32
 70
     1
102
RTVSPost2010Prop33
280
     0
102
RTVSPost2010PropOp33
 70
     1
102
RTVSPost2010Prop34
280
     0
102
RTVSPost2010PropOp34
 70
     1
102
RTVSPost2010Prop35
280
     0
102
RTVSPost2010PropOp35
 70
     1
102
RTVSPost2010Prop36
280
     0
102
RTVSPost2010PropOp36
 70
     1
102
RTVSPost2010Prop37
 90
       50
102
RTVSPost2010PropOp37
 70
     1
102
RTVSPost2010Prop38
140
0.0
102
RTVSPost2010PropOp38
 70
     1
102
RTVSPost2010Prop39
140
1.0
102
RTVSPost2010PropOp39
 70
     1
102
RTVSPost2010Prop40
 90
        0
102
RTVSPost2010PropOp40
 70
     1
102
RTVSPost2010Prop41ColorIndex
 90
       18
102
RTVSPost2010Prop41ColorRGB
 90
        0
102
RTVSPost2010PropOp41
 70
     1
102
RTVSPost2010Prop42
 90
       50
102
RTVSPost2010PropOp42
 70
     1
102
RTVSPost2010Prop43
 90
        3
102
RTVSPost2010PropOp43
 70
     1
102
RTVSPost2010Prop44ColorIndex
 90
        5
102
RTVSPost2010Prop44ColorRGB
 90
      255
102
RTVSPost2010PropOp44
 70
     1
102
RTVSPost2010Prop45
280
     0
102
RTVSPost2010PropOp45
 70
     1
102
RTVSPost2010Prop46
 90
       50
102
RTVSPost2010PropOp46
 70
     1
102
RTVSPost2010Prop47
 90
       50
102
RTVSPost2010PropOp47
 70
     1
102
RTVSPost2010Prop48
 90
       50
102
RTVSPost2010PropOp48
 70
     1
102
RTVSPost2010Prop49
280
     0
102
RTVSPost2010PropOp49
 70
     1
102
RTVSPost2010Prop50
 90
       50
102
RTVSPost2010PropOp50
 70
     1
102
RTVSPost2010Prop51ColorIndex
 90
      256
102
RTVSPost2010Prop51ColorRGB
 90
-16777216
102
RTVSPost2010PropOp51
 70
     0
102
RTVSPost2010Prop52
140
1.0
102
RTVSPost2010PropOp52
 70
     0
102
RTVSPost2010Prop53
 90
        2
102
RTVSPost2010PropOp53
 70
     1
102
RTVSPost2010Prop54
  1
strokes_ogs.tif
102
RTVSPost2010PropOp54
 70
     1
102
RTVSPost2010Prop55
280
     0
102
RTVSPost2010PropOp55
 70
     1
102
RTVSPost2010Prop56
140
1.0
102
RTVSPost2010PropOp56
 70
     1
102
RTVSPost2010Prop57
140
1.0
102
RTVSPost2010PropOp57
 70
     1
102
RTVSPropertyOp0
 70
     1
102
RTVSPropertyOp1
 70
     1
102
RTVSPropertyOp2
 70
     1
102
RTVSPropertyOp3
 70
     1
102
RTVSPropertyOp4
 70
     1
102
RTVSPropertyOp5
 70
     1
102
RTVSPropertyOp6
 70
     1
102
RTVSPropertyOp7
 70
     1
102
RTVSPropertyOp8
 70
     1
102
RTVSPropertyOp9
 70
     1
102
RTVSPropertyOp10
 70
     1
102
RTVSPropertyOp11
 70
     1
102
RTVSPropertyOp12
 70
     1
102
RTVSPropertyOp13
 70
     1
102
RTVSPropertyOp14
 70
     1
102
RTVSPropertyOp15
 70
     1
102
RTVSPropertyOp16
 70
     1
102
RTVSPropertyOp17
 70
     1
102
RTVSPropertyOp18
 70
     1
102
RTVSPropertyOp19
 70
     1
102
RTVSPropertyOp20
 70
     1
102
RTVSPropertyOp21
 70
     1
102
RTVSPropertyOp22
 70
     1
102
RTVSPropertyOp23
 70
     1
102
RTVSPropertyOp24
 70
     1
102
RTVSPropertyOp25
 70
     1
102
RTVSPropertyOp26
 70
     1
102
RTVSPropertyOp27
 70
     1
102
RTVSPropertyOp28
 70
     1
102
RTVSPropertyOp29
 70
     1
102
RTVSPropertyOp30
 70
     1
102
RTVSPropertyOp31
 70
     1
102
RTVSPropertyOp32
 70
     1
102
RTVSPropertyOp33
 70
     1
102
RTVSPropertyOp34
 70
     1
102
RTVSPropertyOp35
 70
     1
102
RTVSPropertyOp36
 70
     1
102
RTVSPropertyOp37
 70
     1
102
RTVSPropertyOp38
 70
     1
102
RTVSPropertyOp39
 70
     1
102
RTVSPropertyOp40
 70
     1
102
RTVSPropertyOp41
 70
     1
102
RTVSPropertyOp42
 70
     1
102
RTVSPropertyOp43
 70
     1
102
RTVSPropertyOp44
 70
     1
102
RTVSPropertyOp45
 70
     1
102
RTVSPropertyOp46
 70
     1
102
RTVSPropertyOp47
 70
     1
102
RTVSPropertyOp48
 70
     1
102
RTVSPropertyOp49
 70
     1
102
RTVSPropertyOp50
 70
     1
102
RTVSPropertyOp51
 70
     0
102
RTVSPropertyOp52
 70
     0
102
RTVSPropertyOp53
 70
     1
102
RTVSPropertyOp54
 70
     1
102
RTVSPropertyOp55
 70
     1
102
RTVSPropertyOp56
 70
     1
102
RTVSPropertyOp57
 70
     1
102
RTVSPropertyOp58
 70
     1
102
RTVSPropertyOp59
 70
     1
102
RTVSPropertyOp60
 70
     1
102
RTVSPropertyOp61
 70
     1
102
RTVSPropertyOp62
 70
     1
  0
XRECORD
  5
AEC81
102
{ACAD_REACTORS
330
AEC80
102
}
330
AEC80
100
AcDbXrecord
280
     1
102
RTVSPost2010Prop28
280
     0
102
RTVSPost2010PropOp28
 70
     1
102
RTVSPost2010Prop29
280
     1
102
RTVSPost2010PropOp29
 70
     1
102
RTVSPost2010Prop30
280
     1
102
RTVSPost2010PropOp30
 70
     1
102
RTVSPost2010Prop31
280
     0
102
RTVSPost2010PropOp31
 70
     1
102
RTVSPost2010Prop32
280
     0
102
RTVSPost2010PropOp32
 70
     1
102
RTVSPost2010Prop33
280
     0
102
RTVSPost2010PropOp33
 70
     1
102
RTVSPost2010Prop34
280
     0
102
RTVSPost2010PropOp34
 70
     1
102
RTVSPost2010Prop35
280
     0
102
RTVSPost2010PropOp35
 70
     1
102
RTVSPost2010Prop36
280
     0
102
RTVSPost2010PropOp36
 70
     1
102
RTVSPost2010Prop37
 90
       50
102
RTVSPost2010PropOp37
 70
     1
102
RTVSPost2010Prop38
140
0.0
102
RTVSPost2010PropOp38
 70
     1
102
RTVSPost2010Prop39
140
1.0
102
RTVSPost2010PropOp39
 70
     1
102
RTVSPost2010Prop40
 90
        0
102
RTVSPost2010PropOp40
 70
     1
102
RTVSPost2010Prop41ColorIndex
 90
       18
102
RTVSPost2010Prop41ColorRGB
 90
        0
102
RTVSPost2010PropOp41
 70
     1
102
RTVSPost2010Prop42
 90
       50
102
RTVSPost2010PropOp42
 70
     1
102
RTVSPost2010Prop43
 90
        3
102
RTVSPost2010PropOp43
 70
     1
102
RTVSPost2010Prop44ColorIndex
 90
        5
102
RTVSPost2010Prop44ColorRGB
 90
      255
102
RTVSPost2010PropOp44
 70
     1
102
RTVSPost2010Prop45
280
     0
102
RTVSPost2010PropOp45
 70
     1
102
RTVSPost2010Prop46
 90
       50
102
RTVSPost2010PropOp46
 70
     1
102
RTVSPost2010Prop47
 90
       50
102
RTVSPost2010PropOp47
 70
     1
102
RTVSPost2010Prop48
 90
       50
102
RTVSPost2010PropOp48
 70
     1
102
RTVSPost2010Prop49
280
     0
102
RTVSPost2010PropOp49
 70
     1
102
RTVSPost2010Prop50
 90
       50
102
RTVSPost2010PropOp50
 70
     1
102
RTVSPost2010Prop51ColorIndex
 90
      256
102
RTVSPost2010Prop51ColorRGB
 90
-16777216
102
RTVSPost2010PropOp51
 70
     0
102
RTVSPost2010Prop52
140
1.0
102
RTVSPost2010PropOp52
 70
     0
102
RTVSPost2010Prop53
 90
        2
102
RTVSPost2010PropOp53
 70
     1
102
RTVSPost2010Prop54
  1
strokes_ogs.tif
102
RTVSPost2010PropOp54
 70
     1
102
RTVSPost2010Prop55
280
     0
102
RTVSPost2010PropOp55
 70
     1
102
RTVSPost2010Prop56
140
1.0
102
RTVSPost2010PropOp56
 70
     1
102
RTVSPost2010Prop57
140
1.0
102
RTVSPost2010PropOp57
 70
     1
102
RTVSPropertyOp0
 70
     1
102
RTVSPropertyOp1
 70
     1
102
RTVSPropertyOp2
 70
     1
102
RTVSPropertyOp3
 70
     1
102
RTVSPropertyOp4
 70
     1
102
RTVSPropertyOp5
 70
     1
102
RTVSPropertyOp6
 70
     1
102
RTVSPropertyOp7
 70
     1
102
RTVSPropertyOp8
 70
     1
102
RTVSPropertyOp9
 70
     1
102
RTVSPropertyOp10
 70
     1
102
RTVSPropertyOp11
 70
     1
102
RTVSPropertyOp12
 70
     1
102
RTVSPropertyOp13
 70
     1
102
RTVSPropertyOp14
 70
     1
102
RTVSPropertyOp15
 70
     1
102
RTVSPropertyOp16
 70
     1
102
RTVSPropertyOp17
 70
     1
102
RTVSPropertyOp18
 70
     1
102
RTVSPropertyOp19
 70
     1
102
RTVSPropertyOp20
 70
     1
102
RTVSPropertyOp21
 70
     1
102
RTVSPropertyOp22
 70
     1
102
RTVSPropertyOp23
 70
     1
102
RTVSPropertyOp24
 70
     1
102
RTVSPropertyOp25
 70
     1
102
RTVSPropertyOp26
 70
     1
102
RTVSPropertyOp27
 70
     1
102
RTVSPropertyOp28
 70
     1
102
RTVSPropertyOp29
 70
     1
102
RTVSPropertyOp30
 70
     1
102
RTVSPropertyOp31
 70
     1
102
RTVSPropertyOp32
 70
     1
102
RTVSPropertyOp33
 70
     1
102
RTVSPropertyOp34
 70
     1
102
RTVSPropertyOp35
 70
     1
102
RTVSPropertyOp36
 70
     1
102
RTVSPropertyOp37
 70
     1
102
RTVSPropertyOp38
 70
     1
102
RTVSPropertyOp39
 70
     1
102
RTVSPropertyOp40
 70
     1
102
RTVSPropertyOp41
 70
     1
102
RTVSPropertyOp42
 70
     1
102
RTVSPropertyOp43
 70
     1
102
RTVSPropertyOp44
 70
     1
102
RTVSPropertyOp45
 70
     1
102
RTVSPropertyOp46
 70
     1
102
RTVSPropertyOp47
 70
     1
102
RTVSPropertyOp48
 70
     1
102
RTVSPropertyOp49
 70
     1
102
RTVSPropertyOp50
 70
     1
102
RTVSPropertyOp51
 70
     0
102
RTVSPropertyOp52
 70
     0
102
RTVSPropertyOp53
 70
     1
102
RTVSPropertyOp54
 70
     1
102
RTVSPropertyOp55
 70
     1
102
RTVSPropertyOp56
 70
     1
102
RTVSPropertyOp57
 70
     1
102
RTVSPropertyOp58
 70
     1
102
RTVSPropertyOp59
 70
     1
102
RTVSPropertyOp60
 70
     1
102
RTVSPropertyOp61
 70
     1
102
RTVSPropertyOp62
 70
     1
  0
XRECORD
  5
AEC7D
102
{ACAD_REACTORS
330
AEC7C
102
}
330
AEC7C
100
AcDbXrecord
280
     1
102
RTVSPost2010Prop28
280
     0
102
RTVSPost2010PropOp28
 70
     1
102
RTVSPost2010Prop29
280
     1
102
RTVSPost2010PropOp29
 70
     1
102
RTVSPost2010Prop30
280
     1
102
RTVSPost2010PropOp30
 70
     1
102
RTVSPost2010Prop31
280
     0
102
RTVSPost2010PropOp31
 70
     1
102
RTVSPost2010Prop32
280
     0
102
RTVSPost2010PropOp32
 70
     1
102
RTVSPost2010Prop33
280
     0
102
RTVSPost2010PropOp33
 70
     1
102
RTVSPost2010Prop34
280
     0
102
RTVSPost2010PropOp34
 70
     1
102
RTVSPost2010Prop35
280
     0
102
RTVSPost2010PropOp35
 70
     1
102
RTVSPost2010Prop36
280
     0
102
RTVSPost2010PropOp36
 70
     1
102
RTVSPost2010Prop37
 90
       50
102
RTVSPost2010PropOp37
 70
     1
102
RTVSPost2010Prop38
140
0.0
102
RTVSPost2010PropOp38
 70
     1
102
RTVSPost2010Prop39
140
1.0
102
RTVSPost2010PropOp39
 70
     1
102
RTVSPost2010Prop40
 90
        0
102
RTVSPost2010PropOp40
 70
     1
102
RTVSPost2010Prop41ColorIndex
 90
       18
102
RTVSPost2010Prop41ColorRGB
 90
        0
102
RTVSPost2010PropOp41
 70
     1
102
RTVSPost2010Prop42
 90
       50
102
RTVSPost2010PropOp42
 70
     1
102
RTVSPost2010Prop43
 90
        3
102
RTVSPost2010PropOp43
 70
     1
102
RTVSPost2010Prop44ColorIndex
 90
        5
102
RTVSPost2010Prop44ColorRGB
 90
      255
102
RTVSPost2010PropOp44
 70
     1
102
RTVSPost2010Prop45
280
     0
102
RTVSPost2010PropOp45
 70
     1
102
RTVSPost2010Prop46
 90
       50
102
RTVSPost2010PropOp46
 70
     1
102
RTVSPost2010Prop47
 90
       50
102
RTVSPost2010PropOp47
 70
     1
102
RTVSPost2010Prop48
 90
       50
102
RTVSPost2010PropOp48
 70
     1
102
RTVSPost2010Prop49
280
     0
102
RTVSPost2010PropOp49
 70
     1
102
RTVSPost2010Prop50
 90
       50
102
RTVSPost2010PropOp50
 70
     1
102
RTVSPost2010Prop51ColorIndex
 90
      256
102
RTVSPost2010Prop51ColorRGB
 90
-16777216
102
RTVSPost2010PropOp51
 70
     0
102
RTVSPost2010Prop52
140
1.0
102
RTVSPost2010PropOp52
 70
     0
102
RTVSPost2010Prop53
 90
        2
102
RTVSPost2010PropOp53
 70
     1
102
RTVSPost2010Prop54
  1
strokes_ogs.tif
102
RTVSPost2010PropOp54
 70
     1
102
RTVSPost2010Prop55
280
     0
102
RTVSPost2010PropOp55
 70
     1
102
RTVSPost2010Prop56
140
1.0
102
RTVSPost2010PropOp56
 70
     1
102
RTVSPost2010Prop57
140
1.0
102
RTVSPost2010PropOp57
 70
     1
102
RTVSPropertyOp0
 70
     1
102
RTVSPropertyOp1
 70
     1
102
RTVSPropertyOp2
 70
     1
102
RTVSPropertyOp3
 70
     1
102
RTVSPropertyOp4
 70
     1
102
RTVSPropertyOp5
 70
     1
102
RTVSPropertyOp6
 70
     1
102
RTVSPropertyOp7
 70
     1
102
RTVSPropertyOp8
 70
     1
102
RTVSPropertyOp9
 70
     1
102
RTVSPropertyOp10
 70
     1
102
RTVSPropertyOp11
 70
     1
102
RTVSPropertyOp12
 70
     1
102
RTVSPropertyOp13
 70
     1
102
RTVSPropertyOp14
 70
     1
102
RTVSPropertyOp15
 70
     1
102
RTVSPropertyOp16
 70
     1
102
RTVSPropertyOp17
 70
     1
102
RTVSPropertyOp18
 70
     1
102
RTVSPropertyOp19
 70
     1
102
RTVSPropertyOp20
 70
     1
102
RTVSPropertyOp21
 70
     1
102
RTVSPropertyOp22
 70
     1
102
RTVSPropertyOp23
 70
     1
102
RTVSPropertyOp24
 70
     1
102
RTVSPropertyOp25
 70
     1
102
RTVSPropertyOp26
 70
     1
102
RTVSPropertyOp27
 70
     1
102
RTVSPropertyOp28
 70
     1
102
RTVSPropertyOp29
 70
     1
102
RTVSPropertyOp30
 70
     1
102
RTVSPropertyOp31
 70
     1
102
RTVSPropertyOp32
 70
     1
102
RTVSPropertyOp33
 70
     1
102
RTVSPropertyOp34
 70
     1
102
RTVSPropertyOp35
 70
     1
102
RTVSPropertyOp36
 70
     1
102
RTVSPropertyOp37
 70
     1
102
RTVSPropertyOp38
 70
     1
102
RTVSPropertyOp39
 70
     1
102
RTVSPropertyOp40
 70
     1
102
RTVSPropertyOp41
 70
     1
102
RTVSPropertyOp42
 70
     1
102
RTVSPropertyOp43
 70
     1
102
RTVSPropertyOp44
 70
     1
102
RTVSPropertyOp45
 70
     1
102
RTVSPropertyOp46
 70
     1
102
RTVSPropertyOp47
 70
     1
102
RTVSPropertyOp48
 70
     1
102
RTVSPropertyOp49
 70
     1
102
RTVSPropertyOp50
 70
     1
102
RTVSPropertyOp51
 70
     0
102
RTVSPropertyOp52
 70
     0
102
RTVSPropertyOp53
 70
     1
102
RTVSPropertyOp54
 70
     1
102
RTVSPropertyOp55
 70
     1
102
RTVSPropertyOp56
 70
     1
102
RTVSPropertyOp57
 70
     1
102
RTVSPropertyOp58
 70
     1
102
RTVSPropertyOp59
 70
     1
102
RTVSPropertyOp60
 70
     1
102
RTVSPropertyOp61
 70
     1
102
RTVSPropertyOp62
 70
     1
  0
XRECORD
  5
AEC8B
102
{ACAD_REACTORS
330
AEC8A
102
}
330
AEC8A
100
AcDbXrecord
280
     1
102
RTVSPost2010Prop28
280
     0
102
RTVSPost2010PropOp28
 70
     1
102
RTVSPost2010Prop29
280
     1
102
RTVSPost2010PropOp29
 70
     1
102
RTVSPost2010Prop30
280
     1
102
RTVSPost2010PropOp30
 70
     1
102
RTVSPost2010Prop31
280
     0
102
RTVSPost2010PropOp31
 70
     1
102
RTVSPost2010Prop32
280
     0
102
RTVSPost2010PropOp32
 70
     1
102
RTVSPost2010Prop33
280
     0
102
RTVSPost2010PropOp33
 70
     1
102
RTVSPost2010Prop34
280
     0
102
RTVSPost2010PropOp34
 70
     1
102
RTVSPost2010Prop35
280
     0
102
RTVSPost2010PropOp35
 70
     1
102
RTVSPost2010Prop36
280
     0
102
RTVSPost2010PropOp36
 70
     1
102
RTVSPost2010Prop37
 90
       50
102
RTVSPost2010PropOp37
 70
     1
102
RTVSPost2010Prop38
140
0.0
102
RTVSPost2010PropOp38
 70
     1
102
RTVSPost2010Prop39
140
1.0
102
RTVSPost2010PropOp39
 70
     1
102
RTVSPost2010Prop40
 90
        0
102
RTVSPost2010PropOp40
 70
     1
102
RTVSPost2010Prop41ColorIndex
 90
       18
102
RTVSPost2010Prop41ColorRGB
 90
        0
102
RTVSPost2010PropOp41
 70
     1
102
RTVSPost2010Prop42
 90
       50
102
RTVSPost2010PropOp42
 70
     1
102
RTVSPost2010Prop43
 90
        3
102
RTVSPost2010PropOp43
 70
     1
102
RTVSPost2010Prop44ColorIndex
 90
        5
102
RTVSPost2010Prop44ColorRGB
 90
      255
102
RTVSPost2010PropOp44
 70
     1
102
RTVSPost2010Prop45
280
     0
102
RTVSPost2010PropOp45
 70
     1
102
RTVSPost2010Prop46
 90
       50
102
RTVSPost2010PropOp46
 70
     1
102
RTVSPost2010Prop47
 90
       50
102
RTVSPost2010PropOp47
 70
     1
102
RTVSPost2010Prop48
 90
       50
102
RTVSPost2010PropOp48
 70
     1
102
RTVSPost2010Prop49
280
     0
102
RTVSPost2010PropOp49
 70
     1
102
RTVSPost2010Prop50
 90
       50
102
RTVSPost2010PropOp50
 70
     1
102
RTVSPost2010Prop51ColorIndex
 90
      256
102
RTVSPost2010Prop51ColorRGB
 90
-16777216
102
RTVSPost2010PropOp51
 70
     0
102
RTVSPost2010Prop52
140
1.0
102
RTVSPost2010PropOp52
 70
     0
102
RTVSPost2010Prop53
 90
        2
102
RTVSPost2010PropOp53
 70
     1
102
RTVSPost2010Prop54
  1
strokes_ogs.tif
102
RTVSPost2010PropOp54
 70
     1
102
RTVSPost2010Prop55
280
     0
102
RTVSPost2010PropOp55
 70
     1
102
RTVSPost2010Prop56
140
1.0
102
RTVSPost2010PropOp56
 70
     1
102
RTVSPost2010Prop57
140
1.0
102
RTVSPost2010PropOp57
 70
     1
102
RTVSPropertyOp0
 70
     1
102
RTVSPropertyOp1
 70
     1
102
RTVSPropertyOp2
 70
     1
102
RTVSPropertyOp3
 70
     1
102
RTVSPropertyOp4
 70
     1
102
RTVSPropertyOp5
 70
     1
102
RTVSPropertyOp6
 70
     1
102
RTVSPropertyOp7
 70
     1
102
RTVSPropertyOp8
 70
     1
102
RTVSPropertyOp9
 70
     1
102
RTVSPropertyOp10
 70
     1
102
RTVSPropertyOp11
 70
     1
102
RTVSPropertyOp12
 70
     1
102
RTVSPropertyOp13
 70
     1
102
RTVSPropertyOp14
 70
     1
102
RTVSPropertyOp15
 70
     1
102
RTVSPropertyOp16
 70
     1
102
RTVSPropertyOp17
 70
     1
102
RTVSPropertyOp18
 70
     1
102
RTVSPropertyOp19
 70
     1
102
RTVSPropertyOp20
 70
     1
102
RTVSPropertyOp21
 70
     1
102
RTVSPropertyOp22
 70
     1
102
RTVSPropertyOp23
 70
     1
102
RTVSPropertyOp24
 70
     1
102
RTVSPropertyOp25
 70
     1
102
RTVSPropertyOp26
 70
     1
102
RTVSPropertyOp27
 70
     1
102
RTVSPropertyOp28
 70
     1
102
RTVSPropertyOp29
 70
     1
102
RTVSPropertyOp30
 70
     1
102
RTVSPropertyOp31
 70
     1
102
RTVSPropertyOp32
 70
     1
102
RTVSPropertyOp33
 70
     1
102
RTVSPropertyOp34
 70
     1
102
RTVSPropertyOp35
 70
     1
102
RTVSPropertyOp36
 70
     1
102
RTVSPropertyOp37
 70
     1
102
RTVSPropertyOp38
 70
     1
102
RTVSPropertyOp39
 70
     1
102
RTVSPropertyOp40
 70
     1
102
RTVSPropertyOp41
 70
     1
102
RTVSPropertyOp42
 70
     1
102
RTVSPropertyOp43
 70
     1
102
RTVSPropertyOp44
 70
     1
102
RTVSPropertyOp45
 70
     1
102
RTVSPropertyOp46
 70
     1
102
RTVSPropertyOp47
 70
     1
102
RTVSPropertyOp48
 70
     1
102
RTVSPropertyOp49
 70
     1
102
RTVSPropertyOp50
 70
     1
102
RTVSPropertyOp51
 70
     0
102
RTVSPropertyOp52
 70
     0
102
RTVSPropertyOp53
 70
     1
102
RTVSPropertyOp54
 70
     1
102
RTVSPropertyOp55
 70
     1
102
RTVSPropertyOp56
 70
     1
102
RTVSPropertyOp57
 70
     1
102
RTVSPropertyOp58
 70
     1
102
RTVSPropertyOp59
 70
     1
102
RTVSPropertyOp60
 70
     1
102
RTVSPropertyOp61
 70
     1
102
RTVSPropertyOp62
 70
     1
  0
XRECORD
  5
AEC93
102
{ACAD_REACTORS
330
AEC92
102
}
330
AEC92
100
AcDbXrecord
280
     1
102
RTVSPost2010Prop28
280
     0
102
RTVSPost2010PropOp28
 70
     1
102
RTVSPost2010Prop29
280
     1
102
RTVSPost2010PropOp29
 70
     1
102
RTVSPost2010Prop30
280
     1
102
RTVSPost2010PropOp30
 70
     1
102
RTVSPost2010Prop31
280
     0
102
RTVSPost2010PropOp31
 70
     1
102
RTVSPost2010Prop32
280
     0
102
RTVSPost2010PropOp32
 70
     1
102
RTVSPost2010Prop33
280
     0
102
RTVSPost2010PropOp33
 70
     1
102
RTVSPost2010Prop34
280
     0
102
RTVSPost2010PropOp34
 70
     1
102
RTVSPost2010Prop35
280
     0
102
RTVSPost2010PropOp35
 70
     1
102
RTVSPost2010Prop36
280
     0
102
RTVSPost2010PropOp36
 70
     1
102
RTVSPost2010Prop37
 90
       50
102
RTVSPost2010PropOp37
 70
     1
102
RTVSPost2010Prop38
140
0.0
102
RTVSPost2010PropOp38
 70
     1
102
RTVSPost2010Prop39
140
1.0
102
RTVSPost2010PropOp39
 70
     1
102
RTVSPost2010Prop40
 90
        0
102
RTVSPost2010PropOp40
 70
     1
102
RTVSPost2010Prop41ColorIndex
 90
       18
102
RTVSPost2010Prop41ColorRGB
 90
        0
102
RTVSPost2010PropOp41
 70
     1
102
RTVSPost2010Prop42
 90
       50
102
RTVSPost2010PropOp42
 70
     1
102
RTVSPost2010Prop43
 90
        3
102
RTVSPost2010PropOp43
 70
     1
102
RTVSPost2010Prop44ColorIndex
 90
        5
102
RTVSPost2010Prop44ColorRGB
 90
      255
102
RTVSPost2010PropOp44
 70
     1
102
RTVSPost2010Prop45
280
     0
102
RTVSPost2010PropOp45
 70
     1
102
RTVSPost2010Prop46
 90
       50
102
RTVSPost2010PropOp46
 70
     1
102
RTVSPost2010Prop47
 90
       50
102
RTVSPost2010PropOp47
 70
     1
102
RTVSPost2010Prop48
 90
       50
102
RTVSPost2010PropOp48
 70
     1
102
RTVSPost2010Prop49
280
     0
102
RTVSPost2010PropOp49
 70
     1
102
RTVSPost2010Prop50
 90
       50
102
RTVSPost2010PropOp50
 70
     1
102
RTVSPost2010Prop51ColorIndex
 90
      256
102
RTVSPost2010Prop51ColorRGB
 90
-16777216
102
RTVSPost2010PropOp51
 70
     0
102
RTVSPost2010Prop52
140
1.0
102
RTVSPost2010PropOp52
 70
     0
102
RTVSPost2010Prop53
 90
        2
102
RTVSPost2010PropOp53
 70
     1
102
RTVSPost2010Prop54
  1
strokes_ogs.tif
102
RTVSPost2010PropOp54
 70
     1
102
RTVSPost2010Prop55
280
     0
102
RTVSPost2010PropOp55
 70
     1
102
RTVSPost2010Prop56
140
1.0
102
RTVSPost2010PropOp56
 70
     1
102
RTVSPost2010Prop57
140
1.0
102
RTVSPost2010PropOp57
 70
     1
102
RTVSPropertyOp0
 70
     1
102
RTVSPropertyOp1
 70
     1
102
RTVSPropertyOp2
 70
     1
102
RTVSPropertyOp3
 70
     1
102
RTVSPropertyOp4
 70
     1
102
RTVSPropertyOp5
 70
     1
102
RTVSPropertyOp6
 70
     1
102
RTVSPropertyOp7
 70
     1
102
RTVSPropertyOp8
 70
     1
102
RTVSPropertyOp9
 70
     1
102
RTVSPropertyOp10
 70
     1
102
RTVSPropertyOp11
 70
     1
102
RTVSPropertyOp12
 70
     1
102
RTVSPropertyOp13
 70
     1
102
RTVSPropertyOp14
 70
     1
102
RTVSPropertyOp15
 70
     1
102
RTVSPropertyOp16
 70
     1
102
RTVSPropertyOp17
 70
     1
102
RTVSPropertyOp18
 70
     1
102
RTVSPropertyOp19
 70
     1
102
RTVSPropertyOp20
 70
     1
102
RTVSPropertyOp21
 70
     1
102
RTVSPropertyOp22
 70
     1
102
RTVSPropertyOp23
 70
     1
102
RTVSPropertyOp24
 70
     1
102
RTVSPropertyOp25
 70
     1
102
RTVSPropertyOp26
 70
     1
102
RTVSPropertyOp27
 70
     1
102
RTVSPropertyOp28
 70
     1
102
RTVSPropertyOp29
 70
     1
102
RTVSPropertyOp30
 70
     1
102
RTVSPropertyOp31
 70
     1
102
RTVSPropertyOp32
 70
     1
102
RTVSPropertyOp33
 70
     1
102
RTVSPropertyOp34
 70
     1
102
RTVSPropertyOp35
 70
     1
102
RTVSPropertyOp36
 70
     1
102
RTVSPropertyOp37
 70
     1
102
RTVSPropertyOp38
 70
     1
102
RTVSPropertyOp39
 70
     1
102
RTVSPropertyOp40
 70
     1
102
RTVSPropertyOp41
 70
     1
102
RTVSPropertyOp42
 70
     1
102
RTVSPropertyOp43
 70
     1
102
RTVSPropertyOp44
 70
     1
102
RTVSPropertyOp45
 70
     1
102
RTVSPropertyOp46
 70
     1
102
RTVSPropertyOp47
 70
     1
102
RTVSPropertyOp48
 70
     1
102
RTVSPropertyOp49
 70
     1
102
RTVSPropertyOp50
 70
     1
102
RTVSPropertyOp51
 70
     0
102
RTVSPropertyOp52
 70
     0
102
RTVSPropertyOp53
 70
     1
102
RTVSPropertyOp54
 70
     1
102
RTVSPropertyOp55
 70
     1
102
RTVSPropertyOp56
 70
     1
102
RTVSPropertyOp57
 70
     1
102
RTVSPropertyOp58
 70
     1
102
RTVSPropertyOp59
 70
     1
102
RTVSPropertyOp60
 70
     1
102
RTVSPropertyOp61
 70
     1
102
RTVSPropertyOp62
 70
     1
  0
XRECORD
  5
AEC85
102
{ACAD_REACTORS
330
AEC84
102
}
330
AEC84
100
AcDbXrecord
280
     1
102
RTVSPost2010Prop28
280
     0
102
RTVSPost2010PropOp28
 70
     1
102
RTVSPost2010Prop29
280
     1
102
RTVSPost2010PropOp29
 70
     1
102
RTVSPost2010Prop30
280
     1
102
RTVSPost2010PropOp30
 70
     1
102
RTVSPost2010Prop31
280
     0
102
RTVSPost2010PropOp31
 70
     1
102
RTVSPost2010Prop32
280
     0
102
RTVSPost2010PropOp32
 70
     1
102
RTVSPost2010Prop33
280
     0
102
RTVSPost2010PropOp33
 70
     1
102
RTVSPost2010Prop34
280
     0
102
RTVSPost2010PropOp34
 70
     1
102
RTVSPost2010Prop35
280
     0
102
RTVSPost2010PropOp35
 70
     1
102
RTVSPost2010Prop36
280
     0
102
RTVSPost2010PropOp36
 70
     1
102
RTVSPost2010Prop37
 90
       50
102
RTVSPost2010PropOp37
 70
     1
102
RTVSPost2010Prop38
140
0.0
102
RTVSPost2010PropOp38
 70
     1
102
RTVSPost2010Prop39
140
1.0
102
RTVSPost2010PropOp39
 70
     1
102
RTVSPost2010Prop40
 90
        0
102
RTVSPost2010PropOp40
 70
     1
102
RTVSPost2010Prop41ColorIndex
 90
       18
102
RTVSPost2010Prop41ColorRGB
 90
        0
102
RTVSPost2010PropOp41
 70
     1
102
RTVSPost2010Prop42
 90
       50
102
RTVSPost2010PropOp42
 70
     1
102
RTVSPost2010Prop43
 90
        3
102
RTVSPost2010PropOp43
 70
     1
102
RTVSPost2010Prop44ColorIndex
 90
        5
102
RTVSPost2010Prop44ColorRGB
 90
      255
102
RTVSPost2010PropOp44
 70
     1
102
RTVSPost2010Prop45
280
     0
102
RTVSPost2010PropOp45
 70
     1
102
RTVSPost2010Prop46
 90
       50
102
RTVSPost2010PropOp46
 70
     1
102
RTVSPost2010Prop47
 90
       50
102
RTVSPost2010PropOp47
 70
     1
102
RTVSPost2010Prop48
 90
       50
102
RTVSPost2010PropOp48
 70
     1
102
RTVSPost2010Prop49
280
     0
102
RTVSPost2010PropOp49
 70
     1
102
RTVSPost2010Prop50
 90
       50
102
RTVSPost2010PropOp50
 70
     1
102
RTVSPost2010Prop51ColorIndex
 90
      256
102
RTVSPost2010Prop51ColorRGB
 90
-16777216
102
RTVSPost2010PropOp51
 70
     0
102
RTVSPost2010Prop52
140
1.0
102
RTVSPost2010PropOp52
 70
     0
102
RTVSPost2010Prop53
 90
        2
102
RTVSPost2010PropOp53
 70
     1
102
RTVSPost2010Prop54
  1
strokes_ogs.tif
102
RTVSPost2010PropOp54
 70
     1
102
RTVSPost2010Prop55
280
     0
102
RTVSPost2010PropOp55
 70
     1
102
RTVSPost2010Prop56
140
1.0
102
RTVSPost2010PropOp56
 70
     1
102
RTVSPost2010Prop57
140
1.0
102
RTVSPost2010PropOp57
 70
     1
102
RTVSPropertyOp0
 70
     1
102
RTVSPropertyOp1
 70
     1
102
RTVSPropertyOp2
 70
     1
102
RTVSPropertyOp3
 70
     1
102
RTVSPropertyOp4
 70
     1
102
RTVSPropertyOp5
 70
     1
102
RTVSPropertyOp6
 70
     1
102
RTVSPropertyOp7
 70
     1
102
RTVSPropertyOp8
 70
     1
102
RTVSPropertyOp9
 70
     1
102
RTVSPropertyOp10
 70
     1
102
RTVSPropertyOp11
 70
     1
102
RTVSPropertyOp12
 70
     1
102
RTVSPropertyOp13
 70
     1
102
RTVSPropertyOp14
 70
     1
102
RTVSPropertyOp15
 70
     1
102
RTVSPropertyOp16
 70
     1
102
RTVSPropertyOp17
 70
     1
102
RTVSPropertyOp18
 70
     1
102
RTVSPropertyOp19
 70
     1
102
RTVSPropertyOp20
 70
     1
102
RTVSPropertyOp21
 70
     1
102
RTVSPropertyOp22
 70
     1
102
RTVSPropertyOp23
 70
     1
102
RTVSPropertyOp24
 70
     1
102
RTVSPropertyOp25
 70
     1
102
RTVSPropertyOp26
 70
     1
102
RTVSPropertyOp27
 70
     1
102
RTVSPropertyOp28
 70
     1
102
RTVSPropertyOp29
 70
     1
102
RTVSPropertyOp30
 70
     1
102
RTVSPropertyOp31
 70
     1
102
RTVSPropertyOp32
 70
     1
102
RTVSPropertyOp33
 70
     1
102
RTVSPropertyOp34
 70
     1
102
RTVSPropertyOp35
 70
     1
102
RTVSPropertyOp36
 70
     1
102
RTVSPropertyOp37
 70
     1
102
RTVSPropertyOp38
 70
     1
102
RTVSPropertyOp39
 70
     1
102
RTVSPropertyOp40
 70
     1
102
RTVSPropertyOp41
 70
     1
102
RTVSPropertyOp42
 70
     1
102
RTVSPropertyOp43
 70
     1
102
RTVSPropertyOp44
 70
     1
102
RTVSPropertyOp45
 70
     1
102
RTVSPropertyOp46
 70
     1
102
RTVSPropertyOp47
 70
     1
102
RTVSPropertyOp48
 70
     1
102
RTVSPropertyOp49
 70
     1
102
RTVSPropertyOp50
 70
     1
102
RTVSPropertyOp51
 70
     0
102
RTVSPropertyOp52
 70
     0
102
RTVSPropertyOp53
 70
     1
102
RTVSPropertyOp54
 70
     1
102
RTVSPropertyOp55
 70
     1
102
RTVSPropertyOp56
 70
     1
102
RTVSPropertyOp57
 70
     1
102
RTVSPropertyOp58
 70
     1
102
RTVSPropertyOp59
 70
     1
102
RTVSPropertyOp60
 70
     1
102
RTVSPropertyOp61
 70
     1
102
RTVSPropertyOp62
 70
     1
  0
XRECORD
  5
AEC89
102
{ACAD_REACTORS
330
AEC88
102
}
330
AEC88
100
AcDbXrecord
280
     1
102
RTVSPost2010Prop28
280
     0
102
RTVSPost2010PropOp28
 70
     1
102
RTVSPost2010Prop29
280
     1
102
RTVSPost2010PropOp29
 70
     1
102
RTVSPost2010Prop30
280
     1
102
RTVSPost2010PropOp30
 70
     1
102
RTVSPost2010Prop31
280
     0
102
RTVSPost2010PropOp31
 70
     1
102
RTVSPost2010Prop32
280
     0
102
RTVSPost2010PropOp32
 70
     1
102
RTVSPost2010Prop33
280
     0
102
RTVSPost2010PropOp33
 70
     1
102
RTVSPost2010Prop34
280
     0
102
RTVSPost2010PropOp34
 70
     1
102
RTVSPost2010Prop35
280
     0
102
RTVSPost2010PropOp35
 70
     1
102
RTVSPost2010Prop36
280
     0
102
RTVSPost2010PropOp36
 70
     1
102
RTVSPost2010Prop37
 90
       50
102
RTVSPost2010PropOp37
 70
     1
102
RTVSPost2010Prop38
140
0.0
102
RTVSPost2010PropOp38
 70
     1
102
RTVSPost2010Prop39
140
1.0
102
RTVSPost2010PropOp39
 70
     1
102
RTVSPost2010Prop40
 90
        0
102
RTVSPost2010PropOp40
 70
     1
102
RTVSPost2010Prop41ColorIndex
 90
       18
102
RTVSPost2010Prop41ColorRGB
 90
        0
102
RTVSPost2010PropOp41
 70
     1
102
RTVSPost2010Prop42
 90
       50
102
RTVSPost2010PropOp42
 70
     1
102
RTVSPost2010Prop43
 90
        3
102
RTVSPost2010PropOp43
 70
     1
102
RTVSPost2010Prop44ColorIndex
 90
        5
102
RTVSPost2010Prop44ColorRGB
 90
      255
102
RTVSPost2010PropOp44
 70
     1
102
RTVSPost2010Prop45
280
     0
102
RTVSPost2010PropOp45
 70
     1
102
RTVSPost2010Prop46
 90
       50
102
RTVSPost2010PropOp46
 70
     1
102
RTVSPost2010Prop47
 90
       50
102
RTVSPost2010PropOp47
 70
     1
102
RTVSPost2010Prop48
 90
       50
102
RTVSPost2010PropOp48
 70
     1
102
RTVSPost2010Prop49
280
     0
102
RTVSPost2010PropOp49
 70
     1
102
RTVSPost2010Prop50
 90
       50
102
RTVSPost2010PropOp50
 70
     1
102
RTVSPost2010Prop51ColorIndex
 90
      256
102
RTVSPost2010Prop51ColorRGB
 90
-16777216
102
RTVSPost2010PropOp51
 70
     0
102
RTVSPost2010Prop52
140
1.0
102
RTVSPost2010PropOp52
 70
     0
102
RTVSPost2010Prop53
 90
        2
102
RTVSPost2010PropOp53
 70
     1
102
RTVSPost2010Prop54
  1
strokes_ogs.tif
102
RTVSPost2010PropOp54
 70
     1
102
RTVSPost2010Prop55
280
     0
102
RTVSPost2010PropOp55
 70
     1
102
RTVSPost2010Prop56
140
1.0
102
RTVSPost2010PropOp56
 70
     1
102
RTVSPost2010Prop57
140
1.0
102
RTVSPost2010PropOp57
 70
     1
102
RTVSPropertyOp0
 70
     1
102
RTVSPropertyOp1
 70
     1
102
RTVSPropertyOp2
 70
     1
102
RTVSPropertyOp3
 70
     1
102
RTVSPropertyOp4
 70
     1
102
RTVSPropertyOp5
 70
     1
102
RTVSPropertyOp6
 70
     1
102
RTVSPropertyOp7
 70
     1
102
RTVSPropertyOp8
 70
     1
102
RTVSPropertyOp9
 70
     1
102
RTVSPropertyOp10
 70
     1
102
RTVSPropertyOp11
 70
     1
102
RTVSPropertyOp12
 70
     1
102
RTVSPropertyOp13
 70
     1
102
RTVSPropertyOp14
 70
     1
102
RTVSPropertyOp15
 70
     1
102
RTVSPropertyOp16
 70
     1
102
RTVSPropertyOp17
 70
     1
102
RTVSPropertyOp18
 70
     1
102
RTVSPropertyOp19
 70
     1
102
RTVSPropertyOp20
 70
     1
102
RTVSPropertyOp21
 70
     1
102
RTVSPropertyOp22
 70
     1
102
RTVSPropertyOp23
 70
     1
102
RTVSPropertyOp24
 70
     1
102
RTVSPropertyOp25
 70
     1
102
RTVSPropertyOp26
 70
     1
102
RTVSPropertyOp27
 70
     1
102
RTVSPropertyOp28
 70
     1
102
RTVSPropertyOp29
 70
     1
102
RTVSPropertyOp30
 70
     1
102
RTVSPropertyOp31
 70
     1
102
RTVSPropertyOp32
 70
     1
102
RTVSPropertyOp33
 70
     1
102
RTVSPropertyOp34
 70
     1
102
RTVSPropertyOp35
 70
     1
102
RTVSPropertyOp36
 70
     1
102
RTVSPropertyOp37
 70
     1
102
RTVSPropertyOp38
 70
     1
102
RTVSPropertyOp39
 70
     1
102
RTVSPropertyOp40
 70
     1
102
RTVSPropertyOp41
 70
     1
102
RTVSPropertyOp42
 70
     1
102
RTVSPropertyOp43
 70
     1
102
RTVSPropertyOp44
 70
     1
102
RTVSPropertyOp45
 70
     1
102
RTVSPropertyOp46
 70
     1
102
RTVSPropertyOp47
 70
     1
102
RTVSPropertyOp48
 70
     1
102
RTVSPropertyOp49
 70
     1
102
RTVSPropertyOp50
 70
     1
102
RTVSPropertyOp51
 70
     0
102
RTVSPropertyOp52
 70
     0
102
RTVSPropertyOp53
 70
     1
102
RTVSPropertyOp54
 70
     1
102
RTVSPropertyOp55
 70
     1
102
RTVSPropertyOp56
 70
     1
102
RTVSPropertyOp57
 70
     1
102
RTVSPropertyOp58
 70
     1
102
RTVSPropertyOp59
 70
     1
102
RTVSPropertyOp60
 70
     1
102
RTVSPropertyOp61
 70
     1
102
RTVSPropertyOp62
 70
     1
  0
XRECORD
  5
AECA7
102
{ACAD_REACTORS
330
AECA6
102
}
330
AECA6
100
AcDbXrecord
280
     1
102
RTVSPost2010Prop28
280
     0
102
RTVSPost2010PropOp28
 70
     1
102
RTVSPost2010Prop29
280
     1
102
RTVSPost2010PropOp29
 70
     1
102
RTVSPost2010Prop30
280
     1
102
RTVSPost2010PropOp30
 70
     1
102
RTVSPost2010Prop31
280
     0
102
RTVSPost2010PropOp31
 70
     1
102
RTVSPost2010Prop32
280
     0
102
RTVSPost2010PropOp32
 70
     1
102
RTVSPost2010Prop33
280
     0
102
RTVSPost2010PropOp33
 70
     1
102
RTVSPost2010Prop34
280
     0
102
RTVSPost2010PropOp34
 70
     1
102
RTVSPost2010Prop35
280
     0
102
RTVSPost2010PropOp35
 70
     1
102
RTVSPost2010Prop36
280
     0
102
RTVSPost2010PropOp36
 70
     1
102
RTVSPost2010Prop37
 90
       50
102
RTVSPost2010PropOp37
 70
     0
102
RTVSPost2010Prop38
140
0.0
102
RTVSPost2010PropOp38
 70
     0
102
RTVSPost2010Prop39
140
1.0
102
RTVSPost2010PropOp39
 70
     0
102
RTVSPost2010Prop40
 90
        0
102
RTVSPost2010PropOp40
 70
     0
102
RTVSPost2010Prop41ColorIndex
 90
       18
102
RTVSPost2010Prop41ColorRGB
 90
        0
102
RTVSPost2010PropOp41
 70
     0
102
RTVSPost2010Prop42
 90
       50
102
RTVSPost2010PropOp42
 70
     0
102
RTVSPost2010Prop43
 90
        3
102
RTVSPost2010PropOp43
 70
     0
102
RTVSPost2010Prop44ColorIndex
 90
        5
102
RTVSPost2010Prop44ColorRGB
 90
      255
102
RTVSPost2010PropOp44
 70
     0
102
RTVSPost2010Prop45
280
     0
102
RTVSPost2010PropOp45
 70
     1
102
RTVSPost2010Prop46
 90
       50
102
RTVSPost2010PropOp46
 70
     0
102
RTVSPost2010Prop47
 90
       50
102
RTVSPost2010PropOp47
 70
     0
102
RTVSPost2010Prop48
 90
       50
102
RTVSPost2010PropOp48
 70
     0
102
RTVSPost2010Prop49
280
     0
102
RTVSPost2010PropOp49
 70
     1
102
RTVSPost2010Prop50
 90
       50
102
RTVSPost2010PropOp50
 70
     0
102
RTVSPost2010Prop51ColorIndex
 90
      256
102
RTVSPost2010Prop51ColorRGB
 90
-16777216
102
RTVSPost2010PropOp51
 70
     0
102
RTVSPost2010Prop52
140
1.0
102
RTVSPost2010PropOp52
 70
     0
102
RTVSPost2010Prop53
 90
        2
102
RTVSPost2010PropOp53
 70
     0
102
RTVSPost2010Prop54
  1
strokes_ogs.tif
102
RTVSPost2010PropOp54
 70
     0
102
RTVSPost2010Prop55
280
     0
102
RTVSPost2010PropOp55
 70
     1
102
RTVSPost2010Prop56
140
1.0
102
RTVSPost2010PropOp56
 70
     0
102
RTVSPost2010Prop57
140
1.0
102
RTVSPost2010PropOp57
 70
     0
102
RTVSPropertyOp0
 70
     0
102
RTVSPropertyOp1
 70
     0
102
RTVSPropertyOp2
 70
     0
102
RTVSPropertyOp3
 70
     0
102
RTVSPropertyOp4
 70
     0
102
RTVSPropertyOp5
 70
     0
102
RTVSPropertyOp6
 70
     0
102
RTVSPropertyOp7
 70
     0
102
RTVSPropertyOp8
 70
     0
102
RTVSPropertyOp9
 70
     0
102
RTVSPropertyOp10
 70
     0
102
RTVSPropertyOp11
 70
     0
102
RTVSPropertyOp12
 70
     0
102
RTVSPropertyOp13
 70
     0
102
RTVSPropertyOp14
 70
     2
102
RTVSPropertyOp15
 70
     0
102
RTVSPropertyOp16
 70
     0
102
RTVSPropertyOp17
 70
     0
102
RTVSPropertyOp18
 70
     0
102
RTVSPropertyOp19
 70
     0
102
RTVSPropertyOp20
 70
     0
102
RTVSPropertyOp21
 70
     0
102
RTVSPropertyOp22
 70
     0
102
RTVSPropertyOp23
 70
     0
102
RTVSPropertyOp24
 70
     0
102
RTVSPropertyOp25
 70
     0
102
RTVSPropertyOp26
 70
     0
102
RTVSPropertyOp27
 70
     0
102
RTVSPropertyOp28
 70
     1
102
RTVSPropertyOp29
 70
     1
102
RTVSPropertyOp30
 70
     1
102
RTVSPropertyOp31
 70
     1
102
RTVSPropertyOp32
 70
     1
102
RTVSPropertyOp33
 70
     1
102
RTVSPropertyOp34
 70
     1
102
RTVSPropertyOp35
 70
     1
102
RTVSPropertyOp36
 70
     1
102
RTVSPropertyOp37
 70
     0
102
RTVSPropertyOp38
 70
     0
102
RTVSPropertyOp39
 70
     0
102
RTVSPropertyOp40
 70
     0
102
RTVSPropertyOp41
 70
     0
102
RTVSPropertyOp42
 70
     0
102
RTVSPropertyOp43
 70
     0
102
RTVSPropertyOp44
 70
     0
102
RTVSPropertyOp45
 70
     1
102
RTVSPropertyOp46
 70
     0
102
RTVSPropertyOp47
 70
     0
102
RTVSPropertyOp48
 70
     0
102
RTVSPropertyOp49
 70
     1
102
RTVSPropertyOp50
 70
     0
102
RTVSPropertyOp51
 70
     0
102
RTVSPropertyOp52
 70
     0
102
RTVSPropertyOp53
 70
     0
102
RTVSPropertyOp54
 70
     0
102
RTVSPropertyOp55
 70
     1
102
RTVSPropertyOp56
 70
     0
102
RTVSPropertyOp57
 70
     0
102
RTVSPropertyOp58
 70
     1
102
RTVSPropertyOp59
 70
     1
102
RTVSPropertyOp60
 70
     1
102
RTVSPropertyOp61
 70
     1
102
RTVSPropertyOp62
 70
     1
  0
XRECORD
  5
AEC91
102
{ACAD_REACTORS
330
AEC90
102
}
330
AEC90
100
AcDbXrecord
280
     1
102
RTVSPost2010Prop28
280
     0
102
RTVSPost2010PropOp28
 70
     1
102
RTVSPost2010Prop29
280
     1
102
RTVSPost2010PropOp29
 70
     1
102
RTVSPost2010Prop30
280
     1
102
RTVSPost2010PropOp30
 70
     1
102
RTVSPost2010Prop31
280
     0
102
RTVSPost2010PropOp31
 70
     1
102
RTVSPost2010Prop32
280
     0
102
RTVSPost2010PropOp32
 70
     1
102
RTVSPost2010Prop33
280
     0
102
RTVSPost2010PropOp33
 70
     1
102
RTVSPost2010Prop34
280
     0
102
RTVSPost2010PropOp34
 70
     1
102
RTVSPost2010Prop35
280
     0
102
RTVSPost2010PropOp35
 70
     1
102
RTVSPost2010Prop36
280
     0
102
RTVSPost2010PropOp36
 70
     1
102
RTVSPost2010Prop37
 90
       50
102
RTVSPost2010PropOp37
 70
     1
102
RTVSPost2010Prop38
140
0.0
102
RTVSPost2010PropOp38
 70
     1
102
RTVSPost2010Prop39
140
1.0
102
RTVSPost2010PropOp39
 70
     1
102
RTVSPost2010Prop40
 90
        0
102
RTVSPost2010PropOp40
 70
     1
102
RTVSPost2010Prop41ColorIndex
 90
       18
102
RTVSPost2010Prop41ColorRGB
 90
        0
102
RTVSPost2010PropOp41
 70
     1
102
RTVSPost2010Prop42
 90
       50
102
RTVSPost2010PropOp42
 70
     1
102
RTVSPost2010Prop43
 90
        3
102
RTVSPost2010PropOp43
 70
     1
102
RTVSPost2010Prop44ColorIndex
 90
        5
102
RTVSPost2010Prop44ColorRGB
 90
      255
102
RTVSPost2010PropOp44
 70
     1
102
RTVSPost2010Prop45
280
     0
102
RTVSPost2010PropOp45
 70
     1
102
RTVSPost2010Prop46
 90
       50
102
RTVSPost2010PropOp46
 70
     1
102
RTVSPost2010Prop47
 90
       50
102
RTVSPost2010PropOp47
 70
     1
102
RTVSPost2010Prop48
 90
       50
102
RTVSPost2010PropOp48
 70
     1
102
RTVSPost2010Prop49
280
     0
102
RTVSPost2010PropOp49
 70
     1
102
RTVSPost2010Prop50
 90
       50
102
RTVSPost2010PropOp50
 70
     1
102
RTVSPost2010Prop51ColorIndex
 90
      256
102
RTVSPost2010Prop51ColorRGB
 90
-16777216
102
RTVSPost2010PropOp51
 70
     0
102
RTVSPost2010Prop52
140
1.0
102
RTVSPost2010PropOp52
 70
     0
102
RTVSPost2010Prop53
 90
        2
102
RTVSPost2010PropOp53
 70
     1
102
RTVSPost2010Prop54
  1
strokes_ogs.tif
102
RTVSPost2010PropOp54
 70
     1
102
RTVSPost2010Prop55
280
     0
102
RTVSPost2010PropOp55
 70
     1
102
RTVSPost2010Prop56
140
1.0
102
RTVSPost2010PropOp56
 70
     1
102
RTVSPost2010Prop57
140
1.0
102
RTVSPost2010PropOp57
 70
     1
102
RTVSPropertyOp0
 70
     1
102
RTVSPropertyOp1
 70
     1
102
RTVSPropertyOp2
 70
     1
102
RTVSPropertyOp3
 70
     1
102
RTVSPropertyOp4
 70
     1
102
RTVSPropertyOp5
 70
     1
102
RTVSPropertyOp6
 70
     1
102
RTVSPropertyOp7
 70
     1
102
RTVSPropertyOp8
 70
     1
102
RTVSPropertyOp9
 70
     1
102
RTVSPropertyOp10
 70
     1
102
RTVSPropertyOp11
 70
     1
102
RTVSPropertyOp12
 70
     1
102
RTVSPropertyOp13
 70
     1
102
RTVSPropertyOp14
 70
     1
102
RTVSPropertyOp15
 70
     1
102
RTVSPropertyOp16
 70
     1
102
RTVSPropertyOp17
 70
     1
102
RTVSPropertyOp18
 70
     1
102
RTVSPropertyOp19
 70
     1
102
RTVSPropertyOp20
 70
     1
102
RTVSPropertyOp21
 70
     1
102
RTVSPropertyOp22
 70
     1
102
RTVSPropertyOp23
 70
     1
102
RTVSPropertyOp24
 70
     1
102
RTVSPropertyOp25
 70
     1
102
RTVSPropertyOp26
 70
     1
102
RTVSPropertyOp27
 70
     1
102
RTVSPropertyOp28
 70
     1
102
RTVSPropertyOp29
 70
     1
102
RTVSPropertyOp30
 70
     1
102
RTVSPropertyOp31
 70
     1
102
RTVSPropertyOp32
 70
     1
102
RTVSPropertyOp33
 70
     1
102
RTVSPropertyOp34
 70
     1
102
RTVSPropertyOp35
 70
     1
102
RTVSPropertyOp36
 70
     1
102
RTVSPropertyOp37
 70
     1
102
RTVSPropertyOp38
 70
     1
102
RTVSPropertyOp39
 70
     1
102
RTVSPropertyOp40
 70
     1
102
RTVSPropertyOp41
 70
     1
102
RTVSPropertyOp42
 70
     1
102
RTVSPropertyOp43
 70
     1
102
RTVSPropertyOp44
 70
     1
102
RTVSPropertyOp45
 70
     1
102
RTVSPropertyOp46
 70
     1
102
RTVSPropertyOp47
 70
     1
102
RTVSPropertyOp48
 70
     1
102
RTVSPropertyOp49
 70
     1
102
RTVSPropertyOp50
 70
     1
102
RTVSPropertyOp51
 70
     0
102
RTVSPropertyOp52
 70
     0
102
RTVSPropertyOp53
 70
     1
102
RTVSPropertyOp54
 70
     1
102
RTVSPropertyOp55
 70
     1
102
RTVSPropertyOp56
 70
     1
102
RTVSPropertyOp57
 70
     1
102
RTVSPropertyOp58
 70
     1
102
RTVSPropertyOp59
 70
     1
102
RTVSPropertyOp60
 70
     1
102
RTVSPropertyOp61
 70
     1
102
RTVSPropertyOp62
 70
     1
  0
XRECORD
  5
AEC75
102
{ACAD_REACTORS
330
AEC74
102
}
330
AEC74
100
AcDbXrecord
280
     1
102
RTVSPost2010Prop28
280
     0
102
RTVSPost2010PropOp28
 70
     1
102
RTVSPost2010Prop29
280
     1
102
RTVSPost2010PropOp29
 70
     1
102
RTVSPost2010Prop30
280
     1
102
RTVSPost2010PropOp30
 70
     1
102
RTVSPost2010Prop31
280
     0
102
RTVSPost2010PropOp31
 70
     1
102
RTVSPost2010Prop32
280
     0
102
RTVSPost2010PropOp32
 70
     1
102
RTVSPost2010Prop33
280
     0
102
RTVSPost2010PropOp33
 70
     1
102
RTVSPost2010Prop34
280
     0
102
RTVSPost2010PropOp34
 70
     1
102
RTVSPost2010Prop35
280
     0
102
RTVSPost2010PropOp35
 70
     1
102
RTVSPost2010Prop36
280
     0
102
RTVSPost2010PropOp36
 70
     1
102
RTVSPost2010Prop37
 90
       50
102
RTVSPost2010PropOp37
 70
     1
102
RTVSPost2010Prop38
140
0.0
102
RTVSPost2010PropOp38
 70
     1
102
RTVSPost2010Prop39
140
1.0
102
RTVSPost2010PropOp39
 70
     1
102
RTVSPost2010Prop40
 90
        0
102
RTVSPost2010PropOp40
 70
     1
102
RTVSPost2010Prop41ColorIndex
 90
       18
102
RTVSPost2010Prop41ColorRGB
 90
        0
102
RTVSPost2010PropOp41
 70
     1
102
RTVSPost2010Prop42
 90
       50
102
RTVSPost2010PropOp42
 70
     1
102
RTVSPost2010Prop43
 90
        3
102
RTVSPost2010PropOp43
 70
     1
102
RTVSPost2010Prop44ColorIndex
 90
        5
102
RTVSPost2010Prop44ColorRGB
 90
      255
102
RTVSPost2010PropOp44
 70
     1
102
RTVSPost2010Prop45
280
     0
102
RTVSPost2010PropOp45
 70
     1
102
RTVSPost2010Prop46
 90
       50
102
RTVSPost2010PropOp46
 70
     1
102
RTVSPost2010Prop47
 90
       50
102
RTVSPost2010PropOp47
 70
     1
102
RTVSPost2010Prop48
 90
       50
102
RTVSPost2010PropOp48
 70
     1
102
RTVSPost2010Prop49
280
     0
102
RTVSPost2010PropOp49
 70
     1
102
RTVSPost2010Prop50
 90
       50
102
RTVSPost2010PropOp50
 70
     1
102
RTVSPost2010Prop51ColorIndex
 90
      256
102
RTVSPost2010Prop51ColorRGB
 90
-16777216
102
RTVSPost2010PropOp51
 70
     0
102
RTVSPost2010Prop52
140
1.0
102
RTVSPost2010PropOp52
 70
     0
102
RTVSPost2010Prop53
 90
        2
102
RTVSPost2010PropOp53
 70
     1
102
RTVSPost2010Prop54
  1
strokes_ogs.tif
102
RTVSPost2010PropOp54
 70
     1
102
RTVSPost2010Prop55
280
     0
102
RTVSPost2010PropOp55
 70
     1
102
RTVSPost2010Prop56
140
1.0
102
RTVSPost2010PropOp56
 70
     1
102
RTVSPost2010Prop57
140
1.0
102
RTVSPost2010PropOp57
 70
     1
102
RTVSPropertyOp0
 70
     1
102
RTVSPropertyOp1
 70
     1
102
RTVSPropertyOp2
 70
     1
102
RTVSPropertyOp3
 70
     1
102
RTVSPropertyOp4
 70
     1
102
RTVSPropertyOp5
 70
     1
102
RTVSPropertyOp6
 70
     1
102
RTVSPropertyOp7
 70
     1
102
RTVSPropertyOp8
 70
     1
102
RTVSPropertyOp9
 70
     1
102
RTVSPropertyOp10
 70
     1
102
RTVSPropertyOp11
 70
     1
102
RTVSPropertyOp12
 70
     1
102
RTVSPropertyOp13
 70
     1
102
RTVSPropertyOp14
 70
     1
102
RTVSPropertyOp15
 70
     1
102
RTVSPropertyOp16
 70
     1
102
RTVSPropertyOp17
 70
     1
102
RTVSPropertyOp18
 70
     1
102
RTVSPropertyOp19
 70
     1
102
RTVSPropertyOp20
 70
     1
102
RTVSPropertyOp21
 70
     1
102
RTVSPropertyOp22
 70
     1
102
RTVSPropertyOp23
 70
     1
102
RTVSPropertyOp24
 70
     1
102
RTVSPropertyOp25
 70
     1
102
RTVSPropertyOp26
 70
     1
102
RTVSPropertyOp27
 70
     1
102
RTVSPropertyOp28
 70
     1
102
RTVSPropertyOp29
 70
     1
102
RTVSPropertyOp30
 70
     1
102
RTVSPropertyOp31
 70
     1
102
RTVSPropertyOp32
 70
     1
102
RTVSPropertyOp33
 70
     1
102
RTVSPropertyOp34
 70
     1
102
RTVSPropertyOp35
 70
     1
102
RTVSPropertyOp36
 70
     1
102
RTVSPropertyOp37
 70
     1
102
RTVSPropertyOp38
 70
     1
102
RTVSPropertyOp39
 70
     1
102
RTVSPropertyOp40
 70
     1
102
RTVSPropertyOp41
 70
     1
102
RTVSPropertyOp42
 70
     1
102
RTVSPropertyOp43
 70
     1
102
RTVSPropertyOp44
 70
     1
102
RTVSPropertyOp45
 70
     1
102
RTVSPropertyOp46
 70
     1
102
RTVSPropertyOp47
 70
     1
102
RTVSPropertyOp48
 70
     1
102
RTVSPropertyOp49
 70
     1
102
RTVSPropertyOp50
 70
     1
102
RTVSPropertyOp51
 70
     0
102
RTVSPropertyOp52
 70
     0
102
RTVSPropertyOp53
 70
     1
102
RTVSPropertyOp54
 70
     1
102
RTVSPropertyOp55
 70
     1
102
RTVSPropertyOp56
 70
     1
102
RTVSPropertyOp57
 70
     1
102
RTVSPropertyOp58
 70
     1
102
RTVSPropertyOp59
 70
     1
102
RTVSPropertyOp60
 70
     1
102
RTVSPropertyOp61
 70
     1
102
RTVSPropertyOp62
 70
     1
  0
XRECORD
  5
AEC77
102
{ACAD_REACTORS
330
AEC76
102
}
330
AEC76
100
AcDbXrecord
280
     1
102
RTVSPost2010Prop28
280
     0
102
RTVSPost2010PropOp28
 70
     1
102
RTVSPost2010Prop29
280
     1
102
RTVSPost2010PropOp29
 70
     1
102
RTVSPost2010Prop30
280
     1
102
RTVSPost2010PropOp30
 70
     1
102
RTVSPost2010Prop31
280
     0
102
RTVSPost2010PropOp31
 70
     1
102
RTVSPost2010Prop32
280
     0
102
RTVSPost2010PropOp32
 70
     1
102
RTVSPost2010Prop33
280
     0
102
RTVSPost2010PropOp33
 70
     1
102
RTVSPost2010Prop34
280
     0
102
RTVSPost2010PropOp34
 70
     1
102
RTVSPost2010Prop35
280
     0
102
RTVSPost2010PropOp35
 70
     1
102
RTVSPost2010Prop36
280
     0
102
RTVSPost2010PropOp36
 70
     1
102
RTVSPost2010Prop37
 90
       50
102
RTVSPost2010PropOp37
 70
     1
102
RTVSPost2010Prop38
140
0.0
102
RTVSPost2010PropOp38
 70
     1
102
RTVSPost2010Prop39
140
1.0
102
RTVSPost2010PropOp39
 70
     1
102
RTVSPost2010Prop40
 90
        0
102
RTVSPost2010PropOp40
 70
     1
102
RTVSPost2010Prop41ColorIndex
 90
       18
102
RTVSPost2010Prop41ColorRGB
 90
        0
102
RTVSPost2010PropOp41
 70
     1
102
RTVSPost2010Prop42
 90
       50
102
RTVSPost2010PropOp42
 70
     1
102
RTVSPost2010Prop43
 90
        3
102
RTVSPost2010PropOp43
 70
     1
102
RTVSPost2010Prop44ColorIndex
 90
        5
102
RTVSPost2010Prop44ColorRGB
 90
      255
102
RTVSPost2010PropOp44
 70
     1
102
RTVSPost2010Prop45
280
     0
102
RTVSPost2010PropOp45
 70
     1
102
RTVSPost2010Prop46
 90
       50
102
RTVSPost2010PropOp46
 70
     1
102
RTVSPost2010Prop47
 90
       50
102
RTVSPost2010PropOp47
 70
     1
102
RTVSPost2010Prop48
 90
       50
102
RTVSPost2010PropOp48
 70
     1
102
RTVSPost2010Prop49
280
     0
102
RTVSPost2010PropOp49
 70
     1
102
RTVSPost2010Prop50
 90
       50
102
RTVSPost2010PropOp50
 70
     1
102
RTVSPost2010Prop51ColorIndex
 90
      256
102
RTVSPost2010Prop51ColorRGB
 90
-16777216
102
RTVSPost2010PropOp51
 70
     0
102
RTVSPost2010Prop52
140
1.0
102
RTVSPost2010PropOp52
 70
     0
102
RTVSPost2010Prop53
 90
        2
102
RTVSPost2010PropOp53
 70
     1
102
RTVSPost2010Prop54
  1
strokes_ogs.tif
102
RTVSPost2010PropOp54
 70
     1
102
RTVSPost2010Prop55
280
     0
102
RTVSPost2010PropOp55
 70
     1
102
RTVSPost2010Prop56
140
1.0
102
RTVSPost2010PropOp56
 70
     1
102
RTVSPost2010Prop57
140
1.0
102
RTVSPost2010PropOp57
 70
     1
102
RTVSPropertyOp0
 70
     1
102
RTVSPropertyOp1
 70
     1
102
RTVSPropertyOp2
 70
     1
102
RTVSPropertyOp3
 70
     1
102
RTVSPropertyOp4
 70
     1
102
RTVSPropertyOp5
 70
     1
102
RTVSPropertyOp6
 70
     1
102
RTVSPropertyOp7
 70
     1
102
RTVSPropertyOp8
 70
     1
102
RTVSPropertyOp9
 70
     1
102
RTVSPropertyOp10
 70
     1
102
RTVSPropertyOp11
 70
     1
102
RTVSPropertyOp12
 70
     1
102
RTVSPropertyOp13
 70
     1
102
RTVSPropertyOp14
 70
     1
102
RTVSPropertyOp15
 70
     1
102
RTVSPropertyOp16
 70
     1
102
RTVSPropertyOp17
 70
     1
102
RTVSPropertyOp18
 70
     1
102
RTVSPropertyOp19
 70
     1
102
RTVSPropertyOp20
 70
     1
102
RTVSPropertyOp21
 70
     1
102
RTVSPropertyOp22
 70
     1
102
RTVSPropertyOp23
 70
     1
102
RTVSPropertyOp24
 70
     1
102
RTVSPropertyOp25
 70
     1
102
RTVSPropertyOp26
 70
     1
102
RTVSPropertyOp27
 70
     1
102
RTVSPropertyOp28
 70
     1
102
RTVSPropertyOp29
 70
     1
102
RTVSPropertyOp30
 70
     1
102
RTVSPropertyOp31
 70
     1
102
RTVSPropertyOp32
 70
     1
102
RTVSPropertyOp33
 70
     1
102
RTVSPropertyOp34
 70
     1
102
RTVSPropertyOp35
 70
     1
102
RTVSPropertyOp36
 70
     1
102
RTVSPropertyOp37
 70
     1
102
RTVSPropertyOp38
 70
     1
102
RTVSPropertyOp39
 70
     1
102
RTVSPropertyOp40
 70
     1
102
RTVSPropertyOp41
 70
     1
102
RTVSPropertyOp42
 70
     1
102
RTVSPropertyOp43
 70
     1
102
RTVSPropertyOp44
 70
     1
102
RTVSPropertyOp45
 70
     1
102
RTVSPropertyOp46
 70
     1
102
RTVSPropertyOp47
 70
     1
102
RTVSPropertyOp48
 70
     1
102
RTVSPropertyOp49
 70
     1
102
RTVSPropertyOp50
 70
     1
102
RTVSPropertyOp51
 70
     0
102
RTVSPropertyOp52
 70
     0
102
RTVSPropertyOp53
 70
     1
102
RTVSPropertyOp54
 70
     1
102
RTVSPropertyOp55
 70
     1
102
RTVSPropertyOp56
 70
     1
102
RTVSPropertyOp57
 70
     1
102
RTVSPropertyOp58
 70
     1
102
RTVSPropertyOp59
 70
     1
102
RTVSPropertyOp60
 70
     1
102
RTVSPropertyOp61
 70
     1
102
RTVSPropertyOp62
 70
     1
  0
XRECORD
  5
AEC79
102
{ACAD_REACTORS
330
AEC78
102
}
330
AEC78
100
AcDbXrecord
280
     1
102
RTVSPost2010Prop28
280
     0
102
RTVSPost2010PropOp28
 70
     1
102
RTVSPost2010Prop29
280
     1
102
RTVSPost2010PropOp29
 70
     1
102
RTVSPost2010Prop30
280
     1
102
RTVSPost2010PropOp30
 70
     1
102
RTVSPost2010Prop31
280
     0
102
RTVSPost2010PropOp31
 70
     1
102
RTVSPost2010Prop32
280
     0
102
RTVSPost2010PropOp32
 70
     1
102
RTVSPost2010Prop33
280
     0
102
RTVSPost2010PropOp33
 70
     1
102
RTVSPost2010Prop34
280
     0
102
RTVSPost2010PropOp34
 70
     1
102
RTVSPost2010Prop35
280
     0
102
RTVSPost2010PropOp35
 70
     1
102
RTVSPost2010Prop36
280
     0
102
RTVSPost2010PropOp36
 70
     1
102
RTVSPost2010Prop37
 90
       50
102
RTVSPost2010PropOp37
 70
     1
102
RTVSPost2010Prop38
140
0.0
102
RTVSPost2010PropOp38
 70
     1
102
RTVSPost2010Prop39
140
1.0
102
RTVSPost2010PropOp39
 70
     1
102
RTVSPost2010Prop40
 90
        0
102
RTVSPost2010PropOp40
 70
     1
102
RTVSPost2010Prop41ColorIndex
 90
       18
102
RTVSPost2010Prop41ColorRGB
 90
        0
102
RTVSPost2010PropOp41
 70
     1
102
RTVSPost2010Prop42
 90
       50
102
RTVSPost2010PropOp42
 70
     1
102
RTVSPost2010Prop43
 90
        3
102
RTVSPost2010PropOp43
 70
     1
102
RTVSPost2010Prop44ColorIndex
 90
        5
102
RTVSPost2010Prop44ColorRGB
 90
      255
102
RTVSPost2010PropOp44
 70
     1
102
RTVSPost2010Prop45
280
     0
102
RTVSPost2010PropOp45
 70
     1
102
RTVSPost2010Prop46
 90
       50
102
RTVSPost2010PropOp46
 70
     1
102
RTVSPost2010Prop47
 90
       50
102
RTVSPost2010PropOp47
 70
     1
102
RTVSPost2010Prop48
 90
       50
102
RTVSPost2010PropOp48
 70
     1
102
RTVSPost2010Prop49
280
     0
102
RTVSPost2010PropOp49
 70
     1
102
RTVSPost2010Prop50
 90
       50
102
RTVSPost2010PropOp50
 70
     1
102
RTVSPost2010Prop51ColorIndex
 90
      256
102
RTVSPost2010Prop51ColorRGB
 90
-16777216
102
RTVSPost2010PropOp51
 70
     0
102
RTVSPost2010Prop52
140
1.0
102
RTVSPost2010PropOp52
 70
     0
102
RTVSPost2010Prop53
 90
        2
102
RTVSPost2010PropOp53
 70
     1
102
RTVSPost2010Prop54
  1
strokes_ogs.tif
102
RTVSPost2010PropOp54
 70
     1
102
RTVSPost2010Prop55
280
     0
102
RTVSPost2010PropOp55
 70
     1
102
RTVSPost2010Prop56
140
1.0
102
RTVSPost2010PropOp56
 70
     1
102
RTVSPost2010Prop57
140
1.0
102
RTVSPost2010PropOp57
 70
     1
102
RTVSPropertyOp0
 70
     1
102
RTVSPropertyOp1
 70
     1
102
RTVSPropertyOp2
 70
     1
102
RTVSPropertyOp3
 70
     1
102
RTVSPropertyOp4
 70
     1
102
RTVSPropertyOp5
 70
     1
102
RTVSPropertyOp6
 70
     1
102
RTVSPropertyOp7
 70
     1
102
RTVSPropertyOp8
 70
     1
102
RTVSPropertyOp9
 70
     1
102
RTVSPropertyOp10
 70
     1
102
RTVSPropertyOp11
 70
     1
102
RTVSPropertyOp12
 70
     1
102
RTVSPropertyOp13
 70
     1
102
RTVSPropertyOp14
 70
     1
102
RTVSPropertyOp15
 70
     1
102
RTVSPropertyOp16
 70
     1
102
RTVSPropertyOp17
 70
     1
102
RTVSPropertyOp18
 70
     1
102
RTVSPropertyOp19
 70
     1
102
RTVSPropertyOp20
 70
     1
102
RTVSPropertyOp21
 70
     1
102
RTVSPropertyOp22
 70
     1
102
RTVSPropertyOp23
 70
     1
102
RTVSPropertyOp24
 70
     1
102
RTVSPropertyOp25
 70
     1
102
RTVSPropertyOp26
 70
     1
102
RTVSPropertyOp27
 70
     1
102
RTVSPropertyOp28
 70
     1
102
RTVSPropertyOp29
 70
     1
102
RTVSPropertyOp30
 70
     1
102
RTVSPropertyOp31
 70
     1
102
RTVSPropertyOp32
 70
     1
102
RTVSPropertyOp33
 70
     1
102
RTVSPropertyOp34
 70
     1
102
RTVSPropertyOp35
 70
     1
102
RTVSPropertyOp36
 70
     1
102
RTVSPropertyOp37
 70
     1
102
RTVSPropertyOp38
 70
     1
102
RTVSPropertyOp39
 70
     1
102
RTVSPropertyOp40
 70
     1
102
RTVSPropertyOp41
 70
     1
102
RTVSPropertyOp42
 70
     1
102
RTVSPropertyOp43
 70
     1
102
RTVSPropertyOp44
 70
     1
102
RTVSPropertyOp45
 70
     1
102
RTVSPropertyOp46
 70
     1
102
RTVSPropertyOp47
 70
     1
102
RTVSPropertyOp48
 70
     1
102
RTVSPropertyOp49
 70
     1
102
RTVSPropertyOp50
 70
     1
102
RTVSPropertyOp51
 70
     0
102
RTVSPropertyOp52
 70
     0
102
RTVSPropertyOp53
 70
     1
102
RTVSPropertyOp54
 70
     1
102
RTVSPropertyOp55
 70
     1
102
RTVSPropertyOp56
 70
     1
102
RTVSPropertyOp57
 70
     1
102
RTVSPropertyOp58
 70
     1
102
RTVSPropertyOp59
 70
     1
102
RTVSPropertyOp60
 70
     1
102
RTVSPropertyOp61
 70
     1
102
RTVSPropertyOp62
 70
     1
  0
XRECORD
  5
AEC7B
102
{ACAD_REACTORS
330
AEC7A
102
}
330
AEC7A
100
AcDbXrecord
280
     1
102
RTVSPost2010Prop28
280
     0
102
RTVSPost2010PropOp28
 70
     1
102
RTVSPost2010Prop29
280
     1
102
RTVSPost2010PropOp29
 70
     1
102
RTVSPost2010Prop30
280
     1
102
RTVSPost2010PropOp30
 70
     1
102
RTVSPost2010Prop31
280
     0
102
RTVSPost2010PropOp31
 70
     1
102
RTVSPost2010Prop32
280
     0
102
RTVSPost2010PropOp32
 70
     1
102
RTVSPost2010Prop33
280
     0
102
RTVSPost2010PropOp33
 70
     1
102
RTVSPost2010Prop34
280
     0
102
RTVSPost2010PropOp34
 70
     1
102
RTVSPost2010Prop35
280
     0
102
RTVSPost2010PropOp35
 70
     1
102
RTVSPost2010Prop36
280
     0
102
RTVSPost2010PropOp36
 70
     1
102
RTVSPost2010Prop37
 90
       50
102
RTVSPost2010PropOp37
 70
     1
102
RTVSPost2010Prop38
140
0.0
102
RTVSPost2010PropOp38
 70
     1
102
RTVSPost2010Prop39
140
1.0
102
RTVSPost2010PropOp39
 70
     1
102
RTVSPost2010Prop40
 90
        0
102
RTVSPost2010PropOp40
 70
     1
102
RTVSPost2010Prop41ColorIndex
 90
       18
102
RTVSPost2010Prop41ColorRGB
 90
        0
102
RTVSPost2010PropOp41
 70
     1
102
RTVSPost2010Prop42
 90
       50
102
RTVSPost2010PropOp42
 70
     1
102
RTVSPost2010Prop43
 90
        3
102
RTVSPost2010PropOp43
 70
     1
102
RTVSPost2010Prop44ColorIndex
 90
        5
102
RTVSPost2010Prop44ColorRGB
 90
      255
102
RTVSPost2010PropOp44
 70
     1
102
RTVSPost2010Prop45
280
     0
102
RTVSPost2010PropOp45
 70
     1
102
RTVSPost2010Prop46
 90
       50
102
RTVSPost2010PropOp46
 70
     1
102
RTVSPost2010Prop47
 90
       50
102
RTVSPost2010PropOp47
 70
     1
102
RTVSPost2010Prop48
 90
       50
102
RTVSPost2010PropOp48
 70
     1
102
RTVSPost2010Prop49
280
     0
102
RTVSPost2010PropOp49
 70
     1
102
RTVSPost2010Prop50
 90
       50
102
RTVSPost2010PropOp50
 70
     1
102
RTVSPost2010Prop51ColorIndex
 90
      256
102
RTVSPost2010Prop51ColorRGB
 90
-16777216
102
RTVSPost2010PropOp51
 70
     0
102
RTVSPost2010Prop52
140
1.0
102
RTVSPost2010PropOp52
 70
     0
102
RTVSPost2010Prop53
 90
        2
102
RTVSPost2010PropOp53
 70
     1
102
RTVSPost2010Prop54
  1
strokes_ogs.tif
102
RTVSPost2010PropOp54
 70
     1
102
RTVSPost2010Prop55
280
     0
102
RTVSPost2010PropOp55
 70
     1
102
RTVSPost2010Prop56
140
1.0
102
RTVSPost2010PropOp56
 70
     1
102
RTVSPost2010Prop57
140
1.0
102
RTVSPost2010PropOp57
 70
     1
102
RTVSPropertyOp0
 70
     1
102
RTVSPropertyOp1
 70
     1
102
RTVSPropertyOp2
 70
     1
102
RTVSPropertyOp3
 70
     1
102
RTVSPropertyOp4
 70
     1
102
RTVSPropertyOp5
 70
     1
102
RTVSPropertyOp6
 70
     1
102
RTVSPropertyOp7
 70
     1
102
RTVSPropertyOp8
 70
     1
102
RTVSPropertyOp9
 70
     1
102
RTVSPropertyOp10
 70
     1
102
RTVSPropertyOp11
 70
     1
102
RTVSPropertyOp12
 70
     1
102
RTVSPropertyOp13
 70
     1
102
RTVSPropertyOp14
 70
     1
102
RTVSPropertyOp15
 70
     1
102
RTVSPropertyOp16
 70
     1
102
RTVSPropertyOp17
 70
     1
102
RTVSPropertyOp18
 70
     1
102
RTVSPropertyOp19
 70
     1
102
RTVSPropertyOp20
 70
     1
102
RTVSPropertyOp21
 70
     1
102
RTVSPropertyOp22
 70
     1
102
RTVSPropertyOp23
 70
     1
102
RTVSPropertyOp24
 70
     1
102
RTVSPropertyOp25
 70
     1
102
RTVSPropertyOp26
 70
     1
102
RTVSPropertyOp27
 70
     1
102
RTVSPropertyOp28
 70
     1
102
RTVSPropertyOp29
 70
     1
102
RTVSPropertyOp30
 70
     1
102
RTVSPropertyOp31
 70
     1
102
RTVSPropertyOp32
 70
     1
102
RTVSPropertyOp33
 70
     1
102
RTVSPropertyOp34
 70
     1
102
RTVSPropertyOp35
 70
     1
102
RTVSPropertyOp36
 70
     1
102
RTVSPropertyOp37
 70
     1
102
RTVSPropertyOp38
 70
     1
102
RTVSPropertyOp39
 70
     1
102
RTVSPropertyOp40
 70
     1
102
RTVSPropertyOp41
 70
     1
102
RTVSPropertyOp42
 70
     1
102
RTVSPropertyOp43
 70
     1
102
RTVSPropertyOp44
 70
     1
102
RTVSPropertyOp45
 70
     1
102
RTVSPropertyOp46
 70
     1
102
RTVSPropertyOp47
 70
     1
102
RTVSPropertyOp48
 70
     1
102
RTVSPropertyOp49
 70
     1
102
RTVSPropertyOp50
 70
     1
102
RTVSPropertyOp51
 70
     0
102
RTVSPropertyOp52
 70
     0
102
RTVSPropertyOp53
 70
     1
102
RTVSPropertyOp54
 70
     1
102
RTVSPropertyOp55
 70
     1
102
RTVSPropertyOp56
 70
     1
102
RTVSPropertyOp57
 70
     1
102
RTVSPropertyOp58
 70
     1
102
RTVSPropertyOp59
 70
     1
102
RTVSPropertyOp60
 70
     1
102
RTVSPropertyOp61
 70
     1
102
RTVSPropertyOp62
 70
     1
  0
XRECORD
  5
AEC97
102
{ACAD_REACTORS
330
AEC96
102
}
330
AEC96
100
AcDbXrecord
280
     1
102
RTVSPost2010Prop28
280
     0
102
RTVSPost2010PropOp28
 70
     1
102
RTVSPost2010Prop29
280
     1
102
RTVSPost2010PropOp29
 70
     1
102
RTVSPost2010Prop30
280
     1
102
RTVSPost2010PropOp30
 70
     1
102
RTVSPost2010Prop31
280
     0
102
RTVSPost2010PropOp31
 70
     1
102
RTVSPost2010Prop32
280
     0
102
RTVSPost2010PropOp32
 70
     1
102
RTVSPost2010Prop33
280
     0
102
RTVSPost2010PropOp33
 70
     1
102
RTVSPost2010Prop34
280
     0
102
RTVSPost2010PropOp34
 70
     1
102
RTVSPost2010Prop35
280
     0
102
RTVSPost2010PropOp35
 70
     1
102
RTVSPost2010Prop36
280
     0
102
RTVSPost2010PropOp36
 70
     1
102
RTVSPost2010Prop37
 90
       50
102
RTVSPost2010PropOp37
 70
     1
102
RTVSPost2010Prop38
140
0.0
102
RTVSPost2010PropOp38
 70
     1
102
RTVSPost2010Prop39
140
1.0
102
RTVSPost2010PropOp39
 70
     1
102
RTVSPost2010Prop40
 90
        0
102
RTVSPost2010PropOp40
 70
     1
102
RTVSPost2010Prop41ColorIndex
 90
       18
102
RTVSPost2010Prop41ColorRGB
 90
        0
102
RTVSPost2010PropOp41
 70
     1
102
RTVSPost2010Prop42
 90
       50
102
RTVSPost2010PropOp42
 70
     1
102
RTVSPost2010Prop43
 90
        3
102
RTVSPost2010PropOp43
 70
     1
102
RTVSPost2010Prop44ColorIndex
 90
        5
102
RTVSPost2010Prop44ColorRGB
 90
      255
102
RTVSPost2010PropOp44
 70
     1
102
RTVSPost2010Prop45
280
     0
102
RTVSPost2010PropOp45
 70
     1
102
RTVSPost2010Prop46
 90
       50
102
RTVSPost2010PropOp46
 70
     1
102
RTVSPost2010Prop47
 90
       50
102
RTVSPost2010PropOp47
 70
     1
102
RTVSPost2010Prop48
 90
       50
102
RTVSPost2010PropOp48
 70
     1
102
RTVSPost2010Prop49
280
     0
102
RTVSPost2010PropOp49
 70
     1
102
RTVSPost2010Prop50
 90
       50
102
RTVSPost2010PropOp50
 70
     1
102
RTVSPost2010Prop51ColorIndex
 90
      256
102
RTVSPost2010Prop51ColorRGB
 90
-16777216
102
RTVSPost2010PropOp51
 70
     0
102
RTVSPost2010Prop52
140
1.0
102
RTVSPost2010PropOp52
 70
     0
102
RTVSPost2010Prop53
 90
        2
102
RTVSPost2010PropOp53
 70
     1
102
RTVSPost2010Prop54
  1
strokes_ogs.tif
102
RTVSPost2010PropOp54
 70
     1
102
RTVSPost2010Prop55
280
     0
102
RTVSPost2010PropOp55
 70
     1
102
RTVSPost2010Prop56
140
1.0
102
RTVSPost2010PropOp56
 70
     1
102
RTVSPost2010Prop57
140
1.0
102
RTVSPost2010PropOp57
 70
     1
102
RTVSPropertyOp0
 70
     1
102
RTVSPropertyOp1
 70
     1
102
RTVSPropertyOp2
 70
     1
102
RTVSPropertyOp3
 70
     1
102
RTVSPropertyOp4
 70
     1
102
RTVSPropertyOp5
 70
     1
102
RTVSPropertyOp6
 70
     1
102
RTVSPropertyOp7
 70
     1
102
RTVSPropertyOp8
 70
     1
102
RTVSPropertyOp9
 70
     1
102
RTVSPropertyOp10
 70
     1
102
RTVSPropertyOp11
 70
     1
102
RTVSPropertyOp12
 70
     1
102
RTVSPropertyOp13
 70
     1
102
RTVSPropertyOp14
 70
     1
102
RTVSPropertyOp15
 70
     1
102
RTVSPropertyOp16
 70
     1
102
RTVSPropertyOp17
 70
     1
102
RTVSPropertyOp18
 70
     1
102
RTVSPropertyOp19
 70
     1
102
RTVSPropertyOp20
 70
     1
102
RTVSPropertyOp21
 70
     1
102
RTVSPropertyOp22
 70
     1
102
RTVSPropertyOp23
 70
     1
102
RTVSPropertyOp24
 70
     1
102
RTVSPropertyOp25
 70
     1
102
RTVSPropertyOp26
 70
     1
102
RTVSPropertyOp27
 70
     1
102
RTVSPropertyOp28
 70
     1
102
RTVSPropertyOp29
 70
     1
102
RTVSPropertyOp30
 70
     1
102
RTVSPropertyOp31
 70
     1
102
RTVSPropertyOp32
 70
     1
102
RTVSPropertyOp33
 70
     1
102
RTVSPropertyOp34
 70
     1
102
RTVSPropertyOp35
 70
     1
102
RTVSPropertyOp36
 70
     1
102
RTVSPropertyOp37
 70
     1
102
RTVSPropertyOp38
 70
     1
102
RTVSPropertyOp39
 70
     1
102
RTVSPropertyOp40
 70
     1
102
RTVSPropertyOp41
 70
     1
102
RTVSPropertyOp42
 70
     1
102
RTVSPropertyOp43
 70
     1
102
RTVSPropertyOp44
 70
     1
102
RTVSPropertyOp45
 70
     1
102
RTVSPropertyOp46
 70
     1
102
RTVSPropertyOp47
 70
     1
102
RTVSPropertyOp48
 70
     1
102
RTVSPropertyOp49
 70
     1
102
RTVSPropertyOp50
 70
     1
102
RTVSPropertyOp51
 70
     0
102
RTVSPropertyOp52
 70
     0
102
RTVSPropertyOp53
 70
     1
102
RTVSPropertyOp54
 70
     1
102
RTVSPropertyOp55
 70
     1
102
RTVSPropertyOp56
 70
     1
102
RTVSPropertyOp57
 70
     1
102
RTVSPropertyOp58
 70
     1
102
RTVSPropertyOp59
 70
     1
102
RTVSPropertyOp60
 70
     1
102
RTVSPropertyOp61
 70
     1
102
RTVSPropertyOp62
 70
     1
  0
XRECORD
  5
AECA3
102
{ACAD_REACTORS
330
AECA2
102
}
330
AECA2
100
AcDbXrecord
280
     1
102
RTVSPost2010Prop28
280
     0
102
RTVSPost2010PropOp28
 70
     1
102
RTVSPost2010Prop29
280
     1
102
RTVSPost2010PropOp29
 70
     1
102
RTVSPost2010Prop30
280
     1
102
RTVSPost2010PropOp30
 70
     1
102
RTVSPost2010Prop31
280
     0
102
RTVSPost2010PropOp31
 70
     1
102
RTVSPost2010Prop32
280
     0
102
RTVSPost2010PropOp32
 70
     1
102
RTVSPost2010Prop33
280
     0
102
RTVSPost2010PropOp33
 70
     1
102
RTVSPost2010Prop34
280
     0
102
RTVSPost2010PropOp34
 70
     1
102
RTVSPost2010Prop35
280
     0
102
RTVSPost2010PropOp35
 70
     1
102
RTVSPost2010Prop36
280
     0
102
RTVSPost2010PropOp36
 70
     1
102
RTVSPost2010Prop37
 90
       50
102
RTVSPost2010PropOp37
 70
     0
102
RTVSPost2010Prop38
140
0.0
102
RTVSPost2010PropOp38
 70
     0
102
RTVSPost2010Prop39
140
1.0
102
RTVSPost2010PropOp39
 70
     0
102
RTVSPost2010Prop40
 90
        0
102
RTVSPost2010PropOp40
 70
     0
102
RTVSPost2010Prop41ColorIndex
 90
       18
102
RTVSPost2010Prop41ColorRGB
 90
        0
102
RTVSPost2010PropOp41
 70
     0
102
RTVSPost2010Prop42
 90
       50
102
RTVSPost2010PropOp42
 70
     0
102
RTVSPost2010Prop43
 90
        3
102
RTVSPost2010PropOp43
 70
     0
102
RTVSPost2010Prop44ColorIndex
 90
        5
102
RTVSPost2010Prop44ColorRGB
 90
      255
102
RTVSPost2010PropOp44
 70
     0
102
RTVSPost2010Prop45
280
     0
102
RTVSPost2010PropOp45
 70
     1
102
RTVSPost2010Prop46
 90
       50
102
RTVSPost2010PropOp46
 70
     0
102
RTVSPost2010Prop47
 90
       50
102
RTVSPost2010PropOp47
 70
     0
102
RTVSPost2010Prop48
 90
       50
102
RTVSPost2010PropOp48
 70
     0
102
RTVSPost2010Prop49
280
     0
102
RTVSPost2010PropOp49
 70
     1
102
RTVSPost2010Prop50
 90
       50
102
RTVSPost2010PropOp50
 70
     0
102
RTVSPost2010Prop51ColorIndex
 90
      256
102
RTVSPost2010Prop51ColorRGB
 90
-16777216
102
RTVSPost2010PropOp51
 70
     0
102
RTVSPost2010Prop52
140
1.0
102
RTVSPost2010PropOp52
 70
     0
102
RTVSPost2010Prop53
 90
        2
102
RTVSPost2010PropOp53
 70
     0
102
RTVSPost2010Prop54
  1
strokes_ogs.tif
102
RTVSPost2010PropOp54
 70
     0
102
RTVSPost2010Prop55
280
     0
102
RTVSPost2010PropOp55
 70
     1
102
RTVSPost2010Prop56
140
1.0
102
RTVSPost2010PropOp56
 70
     0
102
RTVSPost2010Prop57
140
1.0
102
RTVSPost2010PropOp57
 70
     0
102
RTVSPropertyOp0
 70
     0
102
RTVSPropertyOp1
 70
     0
102
RTVSPropertyOp2
 70
     0
102
RTVSPropertyOp3
 70
     0
102
RTVSPropertyOp4
 70
     0
102
RTVSPropertyOp5
 70
     0
102
RTVSPropertyOp6
 70
     0
102
RTVSPropertyOp7
 70
     0
102
RTVSPropertyOp8
 70
     0
102
RTVSPropertyOp9
 70
     0
102
RTVSPropertyOp10
 70
     0
102
RTVSPropertyOp11
 70
     0
102
RTVSPropertyOp12
 70
     0
102
RTVSPropertyOp13
 70
     0
102
RTVSPropertyOp14
 70
     2
102
RTVSPropertyOp15
 70
     0
102
RTVSPropertyOp16
 70
     0
102
RTVSPropertyOp17
 70
     0
102
RTVSPropertyOp18
 70
     0
102
RTVSPropertyOp19
 70
     0
102
RTVSPropertyOp20
 70
     0
102
RTVSPropertyOp21
 70
     0
102
RTVSPropertyOp22
 70
     0
102
RTVSPropertyOp23
 70
     0
102
RTVSPropertyOp24
 70
     0
102
RTVSPropertyOp25
 70
     0
102
RTVSPropertyOp26
 70
     0
102
RTVSPropertyOp27
 70
     0
102
RTVSPropertyOp28
 70
     1
102
RTVSPropertyOp29
 70
     1
102
RTVSPropertyOp30
 70
     1
102
RTVSPropertyOp31
 70
     1
102
RTVSPropertyOp32
 70
     1
102
RTVSPropertyOp33
 70
     1
102
RTVSPropertyOp34
 70
     1
102
RTVSPropertyOp35
 70
     1
102
RTVSPropertyOp36
 70
     1
102
RTVSPropertyOp37
 70
     0
102
RTVSPropertyOp38
 70
     0
102
RTVSPropertyOp39
 70
     0
102
RTVSPropertyOp40
 70
     0
102
RTVSPropertyOp41
 70
     0
102
RTVSPropertyOp42
 70
     0
102
RTVSPropertyOp43
 70
     0
102
RTVSPropertyOp44
 70
     0
102
RTVSPropertyOp45
 70
     1
102
RTVSPropertyOp46
 70
     0
102
RTVSPropertyOp47
 70
     0
102
RTVSPropertyOp48
 70
     0
102
RTVSPropertyOp49
 70
     1
102
RTVSPropertyOp50
 70
     0
102
RTVSPropertyOp51
 70
     0
102
RTVSPropertyOp52
 70
     0
102
RTVSPropertyOp53
 70
     0
102
RTVSPropertyOp54
 70
     0
102
RTVSPropertyOp55
 70
     1
102
RTVSPropertyOp56
 70
     0
102
RTVSPropertyOp57
 70
     0
102
RTVSPropertyOp58
 70
     1
102
RTVSPropertyOp59
 70
     1
102
RTVSPropertyOp60
 70
     1
102
RTVSPropertyOp61
 70
     1
102
RTVSPropertyOp62
 70
     1
  0
XRECORD
  5
AEC8F
102
{ACAD_REACTORS
330
AEC8E
102
}
330
AEC8E
100
AcDbXrecord
280
     1
102
RTVSPost2010Prop28
280
     0
102
RTVSPost2010PropOp28
 70
     1
102
RTVSPost2010Prop29
280
     1
102
RTVSPost2010PropOp29
 70
     1
102
RTVSPost2010Prop30
280
     1
102
RTVSPost2010PropOp30
 70
     1
102
RTVSPost2010Prop31
280
     0
102
RTVSPost2010PropOp31
 70
     1
102
RTVSPost2010Prop32
280
     0
102
RTVSPost2010PropOp32
 70
     1
102
RTVSPost2010Prop33
280
     0
102
RTVSPost2010PropOp33
 70
     1
102
RTVSPost2010Prop34
280
     0
102
RTVSPost2010PropOp34
 70
     1
102
RTVSPost2010Prop35
280
     0
102
RTVSPost2010PropOp35
 70
     1
102
RTVSPost2010Prop36
280
     0
102
RTVSPost2010PropOp36
 70
     1
102
RTVSPost2010Prop37
 90
       50
102
RTVSPost2010PropOp37
 70
     1
102
RTVSPost2010Prop38
140
0.0
102
RTVSPost2010PropOp38
 70
     1
102
RTVSPost2010Prop39
140
1.0
102
RTVSPost2010PropOp39
 70
     1
102
RTVSPost2010Prop40
 90
        0
102
RTVSPost2010PropOp40
 70
     1
102
RTVSPost2010Prop41ColorIndex
 90
       18
102
RTVSPost2010Prop41ColorRGB
 90
        0
102
RTVSPost2010PropOp41
 70
     1
102
RTVSPost2010Prop42
 90
       50
102
RTVSPost2010PropOp42
 70
     1
102
RTVSPost2010Prop43
 90
        3
102
RTVSPost2010PropOp43
 70
     1
102
RTVSPost2010Prop44ColorIndex
 90
        5
102
RTVSPost2010Prop44ColorRGB
 90
      255
102
RTVSPost2010PropOp44
 70
     1
102
RTVSPost2010Prop45
280
     0
102
RTVSPost2010PropOp45
 70
     1
102
RTVSPost2010Prop46
 90
       50
102
RTVSPost2010PropOp46
 70
     1
102
RTVSPost2010Prop47
 90
       50
102
RTVSPost2010PropOp47
 70
     1
102
RTVSPost2010Prop48
 90
       50
102
RTVSPost2010PropOp48
 70
     1
102
RTVSPost2010Prop49
280
     0
102
RTVSPost2010PropOp49
 70
     1
102
RTVSPost2010Prop50
 90
       50
102
RTVSPost2010PropOp50
 70
     1
102
RTVSPost2010Prop51ColorIndex
 90
      256
102
RTVSPost2010Prop51ColorRGB
 90
-16777216
102
RTVSPost2010PropOp51
 70
     0
102
RTVSPost2010Prop52
140
1.0
102
RTVSPost2010PropOp52
 70
     0
102
RTVSPost2010Prop53
 90
        2
102
RTVSPost2010PropOp53
 70
     1
102
RTVSPost2010Prop54
  1
strokes_ogs.tif
102
RTVSPost2010PropOp54
 70
     1
102
RTVSPost2010Prop55
280
     0
102
RTVSPost2010PropOp55
 70
     1
102
RTVSPost2010Prop56
140
1.0
102
RTVSPost2010PropOp56
 70
     1
102
RTVSPost2010Prop57
140
1.0
102
RTVSPost2010PropOp57
 70
     1
102
RTVSPropertyOp0
 70
     1
102
RTVSPropertyOp1
 70
     1
102
RTVSPropertyOp2
 70
     1
102
RTVSPropertyOp3
 70
     1
102
RTVSPropertyOp4
 70
     1
102
RTVSPropertyOp5
 70
     1
102
RTVSPropertyOp6
 70
     1
102
RTVSPropertyOp7
 70
     1
102
RTVSPropertyOp8
 70
     1
102
RTVSPropertyOp9
 70
     1
102
RTVSPropertyOp10
 70
     1
102
RTVSPropertyOp11
 70
     1
102
RTVSPropertyOp12
 70
     1
102
RTVSPropertyOp13
 70
     1
102
RTVSPropertyOp14
 70
     1
102
RTVSPropertyOp15
 70
     1
102
RTVSPropertyOp16
 70
     1
102
RTVSPropertyOp17
 70
     1
102
RTVSPropertyOp18
 70
     1
102
RTVSPropertyOp19
 70
     1
102
RTVSPropertyOp20
 70
     1
102
RTVSPropertyOp21
 70
     1
102
RTVSPropertyOp22
 70
     1
102
RTVSPropertyOp23
 70
     1
102
RTVSPropertyOp24
 70
     1
102
RTVSPropertyOp25
 70
     1
102
RTVSPropertyOp26
 70
     1
102
RTVSPropertyOp27
 70
     1
102
RTVSPropertyOp28
 70
     1
102
RTVSPropertyOp29
 70
     1
102
RTVSPropertyOp30
 70
     1
102
RTVSPropertyOp31
 70
     1
102
RTVSPropertyOp32
 70
     1
102
RTVSPropertyOp33
 70
     1
102
RTVSPropertyOp34
 70
     1
102
RTVSPropertyOp35
 70
     1
102
RTVSPropertyOp36
 70
     1
102
RTVSPropertyOp37
 70
     1
102
RTVSPropertyOp38
 70
     1
102
RTVSPropertyOp39
 70
     1
102
RTVSPropertyOp40
 70
     1
102
RTVSPropertyOp41
 70
     1
102
RTVSPropertyOp42
 70
     1
102
RTVSPropertyOp43
 70
     1
102
RTVSPropertyOp44
 70
     1
102
RTVSPropertyOp45
 70
     1
102
RTVSPropertyOp46
 70
     1
102
RTVSPropertyOp47
 70
     1
102
RTVSPropertyOp48
 70
     1
102
RTVSPropertyOp49
 70
     1
102
RTVSPropertyOp50
 70
     1
102
RTVSPropertyOp51
 70
     0
102
RTVSPropertyOp52
 70
     0
102
RTVSPropertyOp53
 70
     1
102
RTVSPropertyOp54
 70
     1
102
RTVSPropertyOp55
 70
     1
102
RTVSPropertyOp56
 70
     1
102
RTVSPropertyOp57
 70
     1
102
RTVSPropertyOp58
 70
     1
102
RTVSPropertyOp59
 70
     1
102
RTVSPropertyOp60
 70
     1
102
RTVSPropertyOp61
 70
     1
102
RTVSPropertyOp62
 70
     1
  0
XRECORD
  5
AECA5
102
{ACAD_REACTORS
330
AECA4
102
}
330
AECA4
100
AcDbXrecord
280
     1
102
RTVSPost2010Prop28
280
     0
102
RTVSPost2010PropOp28
 70
     1
102
RTVSPost2010Prop29
280
     1
102
RTVSPost2010PropOp29
 70
     1
102
RTVSPost2010Prop30
280
     1
102
RTVSPost2010PropOp30
 70
     1
102
RTVSPost2010Prop31
280
     0
102
RTVSPost2010PropOp31
 70
     1
102
RTVSPost2010Prop32
280
     0
102
RTVSPost2010PropOp32
 70
     1
102
RTVSPost2010Prop33
280
     0
102
RTVSPost2010PropOp33
 70
     1
102
RTVSPost2010Prop34
280
     0
102
RTVSPost2010PropOp34
 70
     1
102
RTVSPost2010Prop35
280
     0
102
RTVSPost2010PropOp35
 70
     1
102
RTVSPost2010Prop36
280
     0
102
RTVSPost2010PropOp36
 70
     1
102
RTVSPost2010Prop37
 90
       50
102
RTVSPost2010PropOp37
 70
     0
102
RTVSPost2010Prop38
140
0.0
102
RTVSPost2010PropOp38
 70
     0
102
RTVSPost2010Prop39
140
1.0
102
RTVSPost2010PropOp39
 70
     0
102
RTVSPost2010Prop40
 90
        0
102
RTVSPost2010PropOp40
 70
     0
102
RTVSPost2010Prop41ColorIndex
 90
       18
102
RTVSPost2010Prop41ColorRGB
 90
        0
102
RTVSPost2010PropOp41
 70
     0
102
RTVSPost2010Prop42
 90
       50
102
RTVSPost2010PropOp42
 70
     0
102
RTVSPost2010Prop43
 90
        3
102
RTVSPost2010PropOp43
 70
     0
102
RTVSPost2010Prop44ColorIndex
 90
        5
102
RTVSPost2010Prop44ColorRGB
 90
      255
102
RTVSPost2010PropOp44
 70
     0
102
RTVSPost2010Prop45
280
     0
102
RTVSPost2010PropOp45
 70
     1
102
RTVSPost2010Prop46
 90
       50
102
RTVSPost2010PropOp46
 70
     0
102
RTVSPost2010Prop47
 90
       50
102
RTVSPost2010PropOp47
 70
     0
102
RTVSPost2010Prop48
 90
       50
102
RTVSPost2010PropOp48
 70
     0
102
RTVSPost2010Prop49
280
     0
102
RTVSPost2010PropOp49
 70
     1
102
RTVSPost2010Prop50
 90
       50
102
RTVSPost2010PropOp50
 70
     0
102
RTVSPost2010Prop51ColorIndex
 90
      256
102
RTVSPost2010Prop51ColorRGB
 90
-16777216
102
RTVSPost2010PropOp51
 70
     0
102
RTVSPost2010Prop52
140
1.0
102
RTVSPost2010PropOp52
 70
     0
102
RTVSPost2010Prop53
 90
        2
102
RTVSPost2010PropOp53
 70
     0
102
RTVSPost2010Prop54
  1
strokes_ogs.tif
102
RTVSPost2010PropOp54
 70
     0
102
RTVSPost2010Prop55
280
     0
102
RTVSPost2010PropOp55
 70
     1
102
RTVSPost2010Prop56
140
1.0
102
RTVSPost2010PropOp56
 70
     0
102
RTVSPost2010Prop57
140
1.0
102
RTVSPost2010PropOp57
 70
     0
102
RTVSPropertyOp0
 70
     0
102
RTVSPropertyOp1
 70
     0
102
RTVSPropertyOp2
 70
     0
102
RTVSPropertyOp3
 70
     0
102
RTVSPropertyOp4
 70
     0
102
RTVSPropertyOp5
 70
     0
102
RTVSPropertyOp6
 70
     0
102
RTVSPropertyOp7
 70
     0
102
RTVSPropertyOp8
 70
     0
102
RTVSPropertyOp9
 70
     0
102
RTVSPropertyOp10
 70
     0
102
RTVSPropertyOp11
 70
     0
102
RTVSPropertyOp12
 70
     0
102
RTVSPropertyOp13
 70
     0
102
RTVSPropertyOp14
 70
     2
102
RTVSPropertyOp15
 70
     0
102
RTVSPropertyOp16
 70
     0
102
RTVSPropertyOp17
 70
     0
102
RTVSPropertyOp18
 70
     0
102
RTVSPropertyOp19
 70
     0
102
RTVSPropertyOp20
 70
     0
102
RTVSPropertyOp21
 70
     0
102
RTVSPropertyOp22
 70
     0
102
RTVSPropertyOp23
 70
     0
102
RTVSPropertyOp24
 70
     0
102
RTVSPropertyOp25
 70
     0
102
RTVSPropertyOp26
 70
     0
102
RTVSPropertyOp27
 70
     0
102
RTVSPropertyOp28
 70
     1
102
RTVSPropertyOp29
 70
     1
102
RTVSPropertyOp30
 70
     1
102
RTVSPropertyOp31
 70
     1
102
RTVSPropertyOp32
 70
     1
102
RTVSPropertyOp33
 70
     1
102
RTVSPropertyOp34
 70
     1
102
RTVSPropertyOp35
 70
     1
102
RTVSPropertyOp36
 70
     1
102
RTVSPropertyOp37
 70
     0
102
RTVSPropertyOp38
 70
     0
102
RTVSPropertyOp39
 70
     0
102
RTVSPropertyOp40
 70
     0
102
RTVSPropertyOp41
 70
     0
102
RTVSPropertyOp42
 70
     0
102
RTVSPropertyOp43
 70
     0
102
RTVSPropertyOp44
 70
     0
102
RTVSPropertyOp45
 70
     1
102
RTVSPropertyOp46
 70
     0
102
RTVSPropertyOp47
 70
     0
102
RTVSPropertyOp48
 70
     0
102
RTVSPropertyOp49
 70
     1
102
RTVSPropertyOp50
 70
     0
102
RTVSPropertyOp51
 70
     0
102
RTVSPropertyOp52
 70
     0
102
RTVSPropertyOp53
 70
     0
102
RTVSPropertyOp54
 70
     0
102
RTVSPropertyOp55
 70
     1
102
RTVSPropertyOp56
 70
     0
102
RTVSPropertyOp57
 70
     0
102
RTVSPropertyOp58
 70
     1
102
RTVSPropertyOp59
 70
     1
102
RTVSPropertyOp60
 70
     1
102
RTVSPropertyOp61
 70
     1
102
RTVSPropertyOp62
 70
     1
  0
XRECORD
  5
AEC87
102
{ACAD_REACTORS
330
AEC86
102
}
330
AEC86
100
AcDbXrecord
280
     1
102
RTVSPost2010Prop28
280
     0
102
RTVSPost2010PropOp28
 70
     1
102
RTVSPost2010Prop29
280
     1
102
RTVSPost2010PropOp29
 70
     1
102
RTVSPost2010Prop30
280
     1
102
RTVSPost2010PropOp30
 70
     1
102
RTVSPost2010Prop31
280
     0
102
RTVSPost2010PropOp31
 70
     1
102
RTVSPost2010Prop32
280
     0
102
RTVSPost2010PropOp32
 70
     1
102
RTVSPost2010Prop33
280
     0
102
RTVSPost2010PropOp33
 70
     1
102
RTVSPost2010Prop34
280
     0
102
RTVSPost2010PropOp34
 70
     1
102
RTVSPost2010Prop35
280
     0
102
RTVSPost2010PropOp35
 70
     1
102
RTVSPost2010Prop36
280
     0
102
RTVSPost2010PropOp36
 70
     1
102
RTVSPost2010Prop37
 90
       50
102
RTVSPost2010PropOp37
 70
     1
102
RTVSPost2010Prop38
140
0.0
102
RTVSPost2010PropOp38
 70
     1
102
RTVSPost2010Prop39
140
1.0
102
RTVSPost2010PropOp39
 70
     1
102
RTVSPost2010Prop40
 90
        0
102
RTVSPost2010PropOp40
 70
     1
102
RTVSPost2010Prop41ColorIndex
 90
       18
102
RTVSPost2010Prop41ColorRGB
 90
        0
102
RTVSPost2010PropOp41
 70
     1
102
RTVSPost2010Prop42
 90
       50
102
RTVSPost2010PropOp42
 70
     1
102
RTVSPost2010Prop43
 90
        3
102
RTVSPost2010PropOp43
 70
     1
102
RTVSPost2010Prop44ColorIndex
 90
        5
102
RTVSPost2010Prop44ColorRGB
 90
      255
102
RTVSPost2010PropOp44
 70
     1
102
RTVSPost2010Prop45
280
     0
102
RTVSPost2010PropOp45
 70
     1
102
RTVSPost2010Prop46
 90
       50
102
RTVSPost2010PropOp46
 70
     1
102
RTVSPost2010Prop47
 90
       50
102
RTVSPost2010PropOp47
 70
     1
102
RTVSPost2010Prop48
 90
       50
102
RTVSPost2010PropOp48
 70
     1
102
RTVSPost2010Prop49
280
     0
102
RTVSPost2010PropOp49
 70
     1
102
RTVSPost2010Prop50
 90
       50
102
RTVSPost2010PropOp50
 70
     1
102
RTVSPost2010Prop51ColorIndex
 90
      256
102
RTVSPost2010Prop51ColorRGB
 90
-16777216
102
RTVSPost2010PropOp51
 70
     0
102
RTVSPost2010Prop52
140
1.0
102
RTVSPost2010PropOp52
 70
     0
102
RTVSPost2010Prop53
 90
        2
102
RTVSPost2010PropOp53
 70
     1
102
RTVSPost2010Prop54
  1
strokes_ogs.tif
102
RTVSPost2010PropOp54
 70
     1
102
RTVSPost2010Prop55
280
     0
102
RTVSPost2010PropOp55
 70
     1
102
RTVSPost2010Prop56
140
1.0
102
RTVSPost2010PropOp56
 70
     1
102
RTVSPost2010Prop57
140
1.0
102
RTVSPost2010PropOp57
 70
     1
102
RTVSPropertyOp0
 70
     1
102
RTVSPropertyOp1
 70
     1
102
RTVSPropertyOp2
 70
     1
102
RTVSPropertyOp3
 70
     1
102
RTVSPropertyOp4
 70
     1
102
RTVSPropertyOp5
 70
     1
102
RTVSPropertyOp6
 70
     1
102
RTVSPropertyOp7
 70
     1
102
RTVSPropertyOp8
 70
     1
102
RTVSPropertyOp9
 70
     1
102
RTVSPropertyOp10
 70
     1
102
RTVSPropertyOp11
 70
     1
102
RTVSPropertyOp12
 70
     1
102
RTVSPropertyOp13
 70
     1
102
RTVSPropertyOp14
 70
     1
102
RTVSPropertyOp15
 70
     1
102
RTVSPropertyOp16
 70
     1
102
RTVSPropertyOp17
 70
     1
102
RTVSPropertyOp18
 70
     1
102
RTVSPropertyOp19
 70
     1
102
RTVSPropertyOp20
 70
     1
102
RTVSPropertyOp21
 70
     1
102
RTVSPropertyOp22
 70
     1
102
RTVSPropertyOp23
 70
     1
102
RTVSPropertyOp24
 70
     1
102
RTVSPropertyOp25
 70
     1
102
RTVSPropertyOp26
 70
     1
102
RTVSPropertyOp27
 70
     1
102
RTVSPropertyOp28
 70
     1
102
RTVSPropertyOp29
 70
     1
102
RTVSPropertyOp30
 70
     1
102
RTVSPropertyOp31
 70
     1
102
RTVSPropertyOp32
 70
     1
102
RTVSPropertyOp33
 70
     1
102
RTVSPropertyOp34
 70
     1
102
RTVSPropertyOp35
 70
     1
102
RTVSPropertyOp36
 70
     1
102
RTVSPropertyOp37
 70
     1
102
RTVSPropertyOp38
 70
     1
102
RTVSPropertyOp39
 70
     1
102
RTVSPropertyOp40
 70
     1
102
RTVSPropertyOp41
 70
     1
102
RTVSPropertyOp42
 70
     1
102
RTVSPropertyOp43
 70
     1
102
RTVSPropertyOp44
 70
     1
102
RTVSPropertyOp45
 70
     1
102
RTVSPropertyOp46
 70
     1
102
RTVSPropertyOp47
 70
     1
102
RTVSPropertyOp48
 70
     1
102
RTVSPropertyOp49
 70
     1
102
RTVSPropertyOp50
 70
     1
102
RTVSPropertyOp51
 70
     0
102
RTVSPropertyOp52
 70
     0
102
RTVSPropertyOp53
 70
     1
102
RTVSPropertyOp54
 70
     1
102
RTVSPropertyOp55
 70
     1
102
RTVSPropertyOp56
 70
     1
102
RTVSPropertyOp57
 70
     1
102
RTVSPropertyOp58
 70
     1
102
RTVSPropertyOp59
 70
     1
102
RTVSPropertyOp60
 70
     1
102
RTVSPropertyOp61
 70
     1
102
RTVSPropertyOp62
 70
     1
  0
XRECORD
  5
AECA1
102
{ACAD_REACTORS
330
AECA0
102
}
330
AECA0
100
AcDbXrecord
280
     1
102
RTVSPost2010Prop28
280
     0
102
RTVSPost2010PropOp28
 70
     1
102
RTVSPost2010Prop29
280
     1
102
RTVSPost2010PropOp29
 70
     1
102
RTVSPost2010Prop30
280
     1
102
RTVSPost2010PropOp30
 70
     1
102
RTVSPost2010Prop31
280
     0
102
RTVSPost2010PropOp31
 70
     1
102
RTVSPost2010Prop32
280
     0
102
RTVSPost2010PropOp32
 70
     1
102
RTVSPost2010Prop33
280
     0
102
RTVSPost2010PropOp33
 70
     1
102
RTVSPost2010Prop34
280
     0
102
RTVSPost2010PropOp34
 70
     1
102
RTVSPost2010Prop35
280
     0
102
RTVSPost2010PropOp35
 70
     1
102
RTVSPost2010Prop36
280
     0
102
RTVSPost2010PropOp36
 70
     1
102
RTVSPost2010Prop37
 90
       50
102
RTVSPost2010PropOp37
 70
     1
102
RTVSPost2010Prop38
140
0.0
102
RTVSPost2010PropOp38
 70
     1
102
RTVSPost2010Prop39
140
1.0
102
RTVSPost2010PropOp39
 70
     1
102
RTVSPost2010Prop40
 90
        0
102
RTVSPost2010PropOp40
 70
     1
102
RTVSPost2010Prop41ColorIndex
 90
       18
102
RTVSPost2010Prop41ColorRGB
 90
        0
102
RTVSPost2010PropOp41
 70
     1
102
RTVSPost2010Prop42
 90
       50
102
RTVSPost2010PropOp42
 70
     1
102
RTVSPost2010Prop43
 90
        3
102
RTVSPost2010PropOp43
 70
     1
102
RTVSPost2010Prop44ColorIndex
 90
        5
102
RTVSPost2010Prop44ColorRGB
 90
      255
102
RTVSPost2010PropOp44
 70
     1
102
RTVSPost2010Prop45
280
     0
102
RTVSPost2010PropOp45
 70
     1
102
RTVSPost2010Prop46
 90
       50
102
RTVSPost2010PropOp46
 70
     1
102
RTVSPost2010Prop47
 90
       50
102
RTVSPost2010PropOp47
 70
     1
102
RTVSPost2010Prop48
 90
       50
102
RTVSPost2010PropOp48
 70
     1
102
RTVSPost2010Prop49
280
     0
102
RTVSPost2010PropOp49
 70
     1
102
RTVSPost2010Prop50
 90
       50
102
RTVSPost2010PropOp50
 70
     1
102
RTVSPost2010Prop51ColorIndex
 90
      256
102
RTVSPost2010Prop51ColorRGB
 90
-16777216
102
RTVSPost2010PropOp51
 70
     0
102
RTVSPost2010Prop52
140
1.0
102
RTVSPost2010PropOp52
 70
     0
102
RTVSPost2010Prop53
 90
        2
102
RTVSPost2010PropOp53
 70
     1
102
RTVSPost2010Prop54
  1
strokes_ogs.tif
102
RTVSPost2010PropOp54
 70
     1
102
RTVSPost2010Prop55
280
     0
102
RTVSPost2010PropOp55
 70
     1
102
RTVSPost2010Prop56
140
1.0
102
RTVSPost2010PropOp56
 70
     1
102
RTVSPost2010Prop57
140
1.0
102
RTVSPost2010PropOp57
 70
     1
102
RTVSPropertyOp0
 70
     1
102
RTVSPropertyOp1
 70
     1
102
RTVSPropertyOp2
 70
     1
102
RTVSPropertyOp3
 70
     1
102
RTVSPropertyOp4
 70
     1
102
RTVSPropertyOp5
 70
     1
102
RTVSPropertyOp6
 70
     1
102
RTVSPropertyOp7
 70
     1
102
RTVSPropertyOp8
 70
     1
102
RTVSPropertyOp9
 70
     1
102
RTVSPropertyOp10
 70
     1
102
RTVSPropertyOp11
 70
     1
102
RTVSPropertyOp12
 70
     1
102
RTVSPropertyOp13
 70
     1
102
RTVSPropertyOp14
 70
     1
102
RTVSPropertyOp15
 70
     1
102
RTVSPropertyOp16
 70
     1
102
RTVSPropertyOp17
 70
     1
102
RTVSPropertyOp18
 70
     1
102
RTVSPropertyOp19
 70
     1
102
RTVSPropertyOp20
 70
     1
102
RTVSPropertyOp21
 70
     1
102
RTVSPropertyOp22
 70
     1
102
RTVSPropertyOp23
 70
     1
102
RTVSPropertyOp24
 70
     1
102
RTVSPropertyOp25
 70
     1
102
RTVSPropertyOp26
 70
     1
102
RTVSPropertyOp27
 70
     1
102
RTVSPropertyOp28
 70
     1
102
RTVSPropertyOp29
 70
     1
102
RTVSPropertyOp30
 70
     1
102
RTVSPropertyOp31
 70
     1
102
RTVSPropertyOp32
 70
     1
102
RTVSPropertyOp33
 70
     1
102
RTVSPropertyOp34
 70
     1
102
RTVSPropertyOp35
 70
     1
102
RTVSPropertyOp36
 70
     1
102
RTVSPropertyOp37
 70
     1
102
RTVSPropertyOp38
 70
     1
102
RTVSPropertyOp39
 70
     1
102
RTVSPropertyOp40
 70
     1
102
RTVSPropertyOp41
 70
     1
102
RTVSPropertyOp42
 70
     1
102
RTVSPropertyOp43
 70
     1
102
RTVSPropertyOp44
 70
     1
102
RTVSPropertyOp45
 70
     1
102
RTVSPropertyOp46
 70
     1
102
RTVSPropertyOp47
 70
     1
102
RTVSPropertyOp48
 70
     1
102
RTVSPropertyOp49
 70
     1
102
RTVSPropertyOp50
 70
     1
102
RTVSPropertyOp51
 70
     0
102
RTVSPropertyOp52
 70
     0
102
RTVSPropertyOp53
 70
     1
102
RTVSPropertyOp54
 70
     1
102
RTVSPropertyOp55
 70
     1
102
RTVSPropertyOp56
 70
     1
102
RTVSPropertyOp57
 70
     1
102
RTVSPropertyOp58
 70
     1
102
RTVSPropertyOp59
 70
     1
102
RTVSPropertyOp60
 70
     1
102
RTVSPropertyOp61
 70
     1
102
RTVSPropertyOp62
 70
     1
  0
XRECORD
  5
AEC9F
102
{ACAD_REACTORS
330
AEC9E
102
}
330
AEC9E
100
AcDbXrecord
280
     1
102
RTVSPost2010Prop28
280
     0
102
RTVSPost2010PropOp28
 70
     1
102
RTVSPost2010Prop29
280
     1
102
RTVSPost2010PropOp29
 70
     1
102
RTVSPost2010Prop30
280
     1
102
RTVSPost2010PropOp30
 70
     1
102
RTVSPost2010Prop31
280
     0
102
RTVSPost2010PropOp31
 70
     1
102
RTVSPost2010Prop32
280
     0
102
RTVSPost2010PropOp32
 70
     1
102
RTVSPost2010Prop33
280
     0
102
RTVSPost2010PropOp33
 70
     1
102
RTVSPost2010Prop34
280
     0
102
RTVSPost2010PropOp34
 70
     1
102
RTVSPost2010Prop35
280
     0
102
RTVSPost2010PropOp35
 70
     1
102
RTVSPost2010Prop36
280
     0
102
RTVSPost2010PropOp36
 70
     1
102
RTVSPost2010Prop37
 90
       50
102
RTVSPost2010PropOp37
 70
     1
102
RTVSPost2010Prop38
140
0.0
102
RTVSPost2010PropOp38
 70
     1
102
RTVSPost2010Prop39
140
1.0
102
RTVSPost2010PropOp39
 70
     1
102
RTVSPost2010Prop40
 90
        0
102
RTVSPost2010PropOp40
 70
     1
102
RTVSPost2010Prop41ColorIndex
 90
       18
102
RTVSPost2010Prop41ColorRGB
 90
        0
102
RTVSPost2010PropOp41
 70
     1
102
RTVSPost2010Prop42
 90
       50
102
RTVSPost2010PropOp42
 70
     1
102
RTVSPost2010Prop43
 90
        3
102
RTVSPost2010PropOp43
 70
     1
102
RTVSPost2010Prop44ColorIndex
 90
        5
102
RTVSPost2010Prop44ColorRGB
 90
      255
102
RTVSPost2010PropOp44
 70
     1
102
RTVSPost2010Prop45
280
     0
102
RTVSPost2010PropOp45
 70
     1
102
RTVSPost2010Prop46
 90
       50
102
RTVSPost2010PropOp46
 70
     1
102
RTVSPost2010Prop47
 90
       50
102
RTVSPost2010PropOp47
 70
     1
102
RTVSPost2010Prop48
 90
       50
102
RTVSPost2010PropOp48
 70
     1
102
RTVSPost2010Prop49
280
     0
102
RTVSPost2010PropOp49
 70
     1
102
RTVSPost2010Prop50
 90
       50
102
RTVSPost2010PropOp50
 70
     1
102
RTVSPost2010Prop51ColorIndex
 90
      256
102
RTVSPost2010Prop51ColorRGB
 90
-16777216
102
RTVSPost2010PropOp51
 70
     0
102
RTVSPost2010Prop52
140
1.0
102
RTVSPost2010PropOp52
 70
     0
102
RTVSPost2010Prop53
 90
        2
102
RTVSPost2010PropOp53
 70
     1
102
RTVSPost2010Prop54
  1
strokes_ogs.tif
102
RTVSPost2010PropOp54
 70
     1
102
RTVSPost2010Prop55
280
     0
102
RTVSPost2010PropOp55
 70
     1
102
RTVSPost2010Prop56
140
1.0
102
RTVSPost2010PropOp56
 70
     1
102
RTVSPost2010Prop57
140
1.0
102
RTVSPost2010PropOp57
 70
     1
102
RTVSPropertyOp0
 70
     1
102
RTVSPropertyOp1
 70
     1
102
RTVSPropertyOp2
 70
     1
102
RTVSPropertyOp3
 70
     1
102
RTVSPropertyOp4
 70
     1
102
RTVSPropertyOp5
 70
     1
102
RTVSPropertyOp6
 70
     1
102
RTVSPropertyOp7
 70
     1
102
RTVSPropertyOp8
 70
     1
102
RTVSPropertyOp9
 70
     1
102
RTVSPropertyOp10
 70
     1
102
RTVSPropertyOp11
 70
     1
102
RTVSPropertyOp12
 70
     1
102
RTVSPropertyOp13
 70
     1
102
RTVSPropertyOp14
 70
     1
102
RTVSPropertyOp15
 70
     1
102
RTVSPropertyOp16
 70
     1
102
RTVSPropertyOp17
 70
     1
102
RTVSPropertyOp18
 70
     1
102
RTVSPropertyOp19
 70
     1
102
RTVSPropertyOp20
 70
     1
102
RTVSPropertyOp21
 70
     1
102
RTVSPropertyOp22
 70
     1
102
RTVSPropertyOp23
 70
     1
102
RTVSPropertyOp24
 70
     1
102
RTVSPropertyOp25
 70
     1
102
RTVSPropertyOp26
 70
     1
102
RTVSPropertyOp27
 70
     1
102
RTVSPropertyOp28
 70
     1
102
RTVSPropertyOp29
 70
     1
102
RTVSPropertyOp30
 70
     1
102
RTVSPropertyOp31
 70
     1
102
RTVSPropertyOp32
 70
     1
102
RTVSPropertyOp33
 70
     1
102
RTVSPropertyOp34
 70
     1
102
RTVSPropertyOp35
 70
     1
102
RTVSPropertyOp36
 70
     1
102
RTVSPropertyOp37
 70
     1
102
RTVSPropertyOp38
 70
     1
102
RTVSPropertyOp39
 70
     1
102
RTVSPropertyOp40
 70
     1
102
RTVSPropertyOp41
 70
     1
102
RTVSPropertyOp42
 70
     1
102
RTVSPropertyOp43
 70
     1
102
RTVSPropertyOp44
 70
     1
102
RTVSPropertyOp45
 70
     1
102
RTVSPropertyOp46
 70
     1
102
RTVSPropertyOp47
 70
     1
102
RTVSPropertyOp48
 70
     1
102
RTVSPropertyOp49
 70
     1
102
RTVSPropertyOp50
 70
     1
102
RTVSPropertyOp51
 70
     0
102
RTVSPropertyOp52
 70
     0
102
RTVSPropertyOp53
 70
     1
102
RTVSPropertyOp54
 70
     1
102
RTVSPropertyOp55
 70
     1
102
RTVSPropertyOp56
 70
     1
102
RTVSPropertyOp57
 70
     1
102
RTVSPropertyOp58
 70
     1
102
RTVSPropertyOp59
 70
     1
102
RTVSPropertyOp60
 70
     1
102
RTVSPropertyOp61
 70
     1
102
RTVSPropertyOp62
 70
     1
  0
XRECORD
  5
AEC99
102
{ACAD_REACTORS
330
AEC98
102
}
330
AEC98
100
AcDbXrecord
280
     1
102
RTVSPost2010Prop28
280
     0
102
RTVSPost2010PropOp28
 70
     1
102
RTVSPost2010Prop29
280
     1
102
RTVSPost2010PropOp29
 70
     1
102
RTVSPost2010Prop30
280
     1
102
RTVSPost2010PropOp30
 70
     1
102
RTVSPost2010Prop31
280
     0
102
RTVSPost2010PropOp31
 70
     1
102
RTVSPost2010Prop32
280
     0
102
RTVSPost2010PropOp32
 70
     1
102
RTVSPost2010Prop33
280
     0
102
RTVSPost2010PropOp33
 70
     1
102
RTVSPost2010Prop34
280
     0
102
RTVSPost2010PropOp34
 70
     1
102
RTVSPost2010Prop35
280
     0
102
RTVSPost2010PropOp35
 70
     1
102
RTVSPost2010Prop36
280
     0
102
RTVSPost2010PropOp36
 70
     1
102
RTVSPost2010Prop37
 90
       50
102
RTVSPost2010PropOp37
 70
     1
102
RTVSPost2010Prop38
140
0.0
102
RTVSPost2010PropOp38
 70
     1
102
RTVSPost2010Prop39
140
1.0
102
RTVSPost2010PropOp39
 70
     1
102
RTVSPost2010Prop40
 90
        0
102
RTVSPost2010PropOp40
 70
     1
102
RTVSPost2010Prop41ColorIndex
 90
       18
102
RTVSPost2010Prop41ColorRGB
 90
        0
102
RTVSPost2010PropOp41
 70
     1
102
RTVSPost2010Prop42
 90
       50
102
RTVSPost2010PropOp42
 70
     1
102
RTVSPost2010Prop43
 90
        3
102
RTVSPost2010PropOp43
 70
     1
102
RTVSPost2010Prop44ColorIndex
 90
        5
102
RTVSPost2010Prop44ColorRGB
 90
      255
102
RTVSPost2010PropOp44
 70
     1
102
RTVSPost2010Prop45
280
     0
102
RTVSPost2010PropOp45
 70
     1
102
RTVSPost2010Prop46
 90
       50
102
RTVSPost2010PropOp46
 70
     1
102
RTVSPost2010Prop47
 90
       50
102
RTVSPost2010PropOp47
 70
     1
102
RTVSPost2010Prop48
 90
       50
102
RTVSPost2010PropOp48
 70
     1
102
RTVSPost2010Prop49
280
     0
102
RTVSPost2010PropOp49
 70
     1
102
RTVSPost2010Prop50
 90
       50
102
RTVSPost2010PropOp50
 70
     1
102
RTVSPost2010Prop51ColorIndex
 90
      256
102
RTVSPost2010Prop51ColorRGB
 90
-16777216
102
RTVSPost2010PropOp51
 70
     0
102
RTVSPost2010Prop52
140
1.0
102
RTVSPost2010PropOp52
 70
     0
102
RTVSPost2010Prop53
 90
        2
102
RTVSPost2010PropOp53
 70
     1
102
RTVSPost2010Prop54
  1
strokes_ogs.tif
102
RTVSPost2010PropOp54
 70
     1
102
RTVSPost2010Prop55
280
     0
102
RTVSPost2010PropOp55
 70
     1
102
RTVSPost2010Prop56
140
1.0
102
RTVSPost2010PropOp56
 70
     1
102
RTVSPost2010Prop57
140
1.0
102
RTVSPost2010PropOp57
 70
     1
102
RTVSPropertyOp0
 70
     1
102
RTVSPropertyOp1
 70
     1
102
RTVSPropertyOp2
 70
     1
102
RTVSPropertyOp3
 70
     1
102
RTVSPropertyOp4
 70
     1
102
RTVSPropertyOp5
 70
     1
102
RTVSPropertyOp6
 70
     1
102
RTVSPropertyOp7
 70
     1
102
RTVSPropertyOp8
 70
     1
102
RTVSPropertyOp9
 70
     1
102
RTVSPropertyOp10
 70
     1
102
RTVSPropertyOp11
 70
     1
102
RTVSPropertyOp12
 70
     1
102
RTVSPropertyOp13
 70
     1
102
RTVSPropertyOp14
 70
     1
102
RTVSPropertyOp15
 70
     1
102
RTVSPropertyOp16
 70
     1
102
RTVSPropertyOp17
 70
     1
102
RTVSPropertyOp18
 70
     1
102
RTVSPropertyOp19
 70
     1
102
RTVSPropertyOp20
 70
     1
102
RTVSPropertyOp21
 70
     1
102
RTVSPropertyOp22
 70
     1
102
RTVSPropertyOp23
 70
     1
102
RTVSPropertyOp24
 70
     1
102
RTVSPropertyOp25
 70
     1
102
RTVSPropertyOp26
 70
     1
102
RTVSPropertyOp27
 70
     1
102
RTVSPropertyOp28
 70
     1
102
RTVSPropertyOp29
 70
     1
102
RTVSPropertyOp30
 70
     1
102
RTVSPropertyOp31
 70
     1
102
RTVSPropertyOp32
 70
     1
102
RTVSPropertyOp33
 70
     1
102
RTVSPropertyOp34
 70
     1
102
RTVSPropertyOp35
 70
     1
102
RTVSPropertyOp36
 70
     1
102
RTVSPropertyOp37
 70
     1
102
RTVSPropertyOp38
 70
     1
102
RTVSPropertyOp39
 70
     1
102
RTVSPropertyOp40
 70
     1
102
RTVSPropertyOp41
 70
     1
102
RTVSPropertyOp42
 70
     1
102
RTVSPropertyOp43
 70
     1
102
RTVSPropertyOp44
 70
     1
102
RTVSPropertyOp45
 70
     1
102
RTVSPropertyOp46
 70
     1
102
RTVSPropertyOp47
 70
     1
102
RTVSPropertyOp48
 70
     1
102
RTVSPropertyOp49
 70
     1
102
RTVSPropertyOp50
 70
     1
102
RTVSPropertyOp51
 70
     0
102
RTVSPropertyOp52
 70
     0
102
RTVSPropertyOp53
 70
     1
102
RTVSPropertyOp54
 70
     1
102
RTVSPropertyOp55
 70
     1
102
RTVSPropertyOp56
 70
     1
102
RTVSPropertyOp57
 70
     1
102
RTVSPropertyOp58
 70
     1
102
RTVSPropertyOp59
 70
     1
102
RTVSPropertyOp60
 70
     1
102
RTVSPropertyOp61
 70
     1
102
RTVSPropertyOp62
 70
     1
  0
XRECORD
  5
AEC9B
102
{ACAD_REACTORS
330
AEC9A
102
}
330
AEC9A
100
AcDbXrecord
280
     1
102
RTVSPost2010Prop28
280
     0
102
RTVSPost2010PropOp28
 70
     1
102
RTVSPost2010Prop29
280
     1
102
RTVSPost2010PropOp29
 70
     1
102
RTVSPost2010Prop30
280
     1
102
RTVSPost2010PropOp30
 70
     1
102
RTVSPost2010Prop31
280
     0
102
RTVSPost2010PropOp31
 70
     1
102
RTVSPost2010Prop32
280
     0
102
RTVSPost2010PropOp32
 70
     1
102
RTVSPost2010Prop33
280
     0
102
RTVSPost2010PropOp33
 70
     1
102
RTVSPost2010Prop34
280
     0
102
RTVSPost2010PropOp34
 70
     1
102
RTVSPost2010Prop35
280
     0
102
RTVSPost2010PropOp35
 70
     1
102
RTVSPost2010Prop36
280
     0
102
RTVSPost2010PropOp36
 70
     1
102
RTVSPost2010Prop37
 90
       50
102
RTVSPost2010PropOp37
 70
     1
102
RTVSPost2010Prop38
140
0.0
102
RTVSPost2010PropOp38
 70
     1
102
RTVSPost2010Prop39
140
1.0
102
RTVSPost2010PropOp39
 70
     1
102
RTVSPost2010Prop40
 90
        0
102
RTVSPost2010PropOp40
 70
     1
102
RTVSPost2010Prop41ColorIndex
 90
       18
102
RTVSPost2010Prop41ColorRGB
 90
        0
102
RTVSPost2010PropOp41
 70
     1
102
RTVSPost2010Prop42
 90
       50
102
RTVSPost2010PropOp42
 70
     1
102
RTVSPost2010Prop43
 90
        3
102
RTVSPost2010PropOp43
 70
     1
102
RTVSPost2010Prop44ColorIndex
 90
        5
102
RTVSPost2010Prop44ColorRGB
 90
      255
102
RTVSPost2010PropOp44
 70
     1
102
RTVSPost2010Prop45
280
     0
102
RTVSPost2010PropOp45
 70
     1
102
RTVSPost2010Prop46
 90
       50
102
RTVSPost2010PropOp46
 70
     1
102
RTVSPost2010Prop47
 90
       50
102
RTVSPost2010PropOp47
 70
     1
102
RTVSPost2010Prop48
 90
       50
102
RTVSPost2010PropOp48
 70
     1
102
RTVSPost2010Prop49
280
     0
102
RTVSPost2010PropOp49
 70
     1
102
RTVSPost2010Prop50
 90
       50
102
RTVSPost2010PropOp50
 70
     1
102
RTVSPost2010Prop51ColorIndex
 90
      256
102
RTVSPost2010Prop51ColorRGB
 90
-16777216
102
RTVSPost2010PropOp51
 70
     0
102
RTVSPost2010Prop52
140
1.0
102
RTVSPost2010PropOp52
 70
     0
102
RTVSPost2010Prop53
 90
        2
102
RTVSPost2010PropOp53
 70
     1
102
RTVSPost2010Prop54
  1
strokes_ogs.tif
102
RTVSPost2010PropOp54
 70
     1
102
RTVSPost2010Prop55
280
     0
102
RTVSPost2010PropOp55
 70
     1
102
RTVSPost2010Prop56
140
1.0
102
RTVSPost2010PropOp56
 70
     1
102
RTVSPost2010Prop57
140
1.0
102
RTVSPost2010PropOp57
 70
     1
102
RTVSPropertyOp0
 70
     1
102
RTVSPropertyOp1
 70
     1
102
RTVSPropertyOp2
 70
     1
102
RTVSPropertyOp3
 70
     1
102
RTVSPropertyOp4
 70
     1
102
RTVSPropertyOp5
 70
     1
102
RTVSPropertyOp6
 70
     1
102
RTVSPropertyOp7
 70
     1
102
RTVSPropertyOp8
 70
     1
102
RTVSPropertyOp9
 70
     1
102
RTVSPropertyOp10
 70
     1
102
RTVSPropertyOp11
 70
     1
102
RTVSPropertyOp12
 70
     1
102
RTVSPropertyOp13
 70
     1
102
RTVSPropertyOp14
 70
     1
102
RTVSPropertyOp15
 70
     1
102
RTVSPropertyOp16
 70
     1
102
RTVSPropertyOp17
 70
     1
102
RTVSPropertyOp18
 70
     1
102
RTVSPropertyOp19
 70
     1
102
RTVSPropertyOp20
 70
     1
102
RTVSPropertyOp21
 70
     1
102
RTVSPropertyOp22
 70
     1
102
RTVSPropertyOp23
 70
     1
102
RTVSPropertyOp24
 70
     1
102
RTVSPropertyOp25
 70
     1
102
RTVSPropertyOp26
 70
     1
102
RTVSPropertyOp27
 70
     1
102
RTVSPropertyOp28
 70
     1
102
RTVSPropertyOp29
 70
     1
102
RTVSPropertyOp30
 70
     1
102
RTVSPropertyOp31
 70
     1
102
RTVSPropertyOp32
 70
     1
102
RTVSPropertyOp33
 70
     1
102
RTVSPropertyOp34
 70
     1
102
RTVSPropertyOp35
 70
     1
102
RTVSPropertyOp36
 70
     1
102
RTVSPropertyOp37
 70
     1
102
RTVSPropertyOp38
 70
     1
102
RTVSPropertyOp39
 70
     1
102
RTVSPropertyOp40
 70
     1
102
RTVSPropertyOp41
 70
     1
102
RTVSPropertyOp42
 70
     1
102
RTVSPropertyOp43
 70
     1
102
RTVSPropertyOp44
 70
     1
102
RTVSPropertyOp45
 70
     1
102
RTVSPropertyOp46
 70
     1
102
RTVSPropertyOp47
 70
     1
102
RTVSPropertyOp48
 70
     1
102
RTVSPropertyOp49
 70
     1
102
RTVSPropertyOp50
 70
     1
102
RTVSPropertyOp51
 70
     0
102
RTVSPropertyOp52
 70
     0
102
RTVSPropertyOp53
 70
     1
102
RTVSPropertyOp54
 70
     1
102
RTVSPropertyOp55
 70
     1
102
RTVSPropertyOp56
 70
     1
102
RTVSPropertyOp57
 70
     1
102
RTVSPropertyOp58
 70
     1
102
RTVSPropertyOp59
 70
     1
102
RTVSPropertyOp60
 70
     1
102
RTVSPropertyOp61
 70
     1
102
RTVSPropertyOp62
 70
     1
  0
XRECORD
  5
AEC8D
102
{ACAD_REACTORS
330
AEC8C
102
}
330
AEC8C
100
AcDbXrecord
280
     1
102
RTVSPost2010Prop28
280
     0
102
RTVSPost2010PropOp28
 70
     1
102
RTVSPost2010Prop29
280
     1
102
RTVSPost2010PropOp29
 70
     1
102
RTVSPost2010Prop30
280
     1
102
RTVSPost2010PropOp30
 70
     1
102
RTVSPost2010Prop31
280
     0
102
RTVSPost2010PropOp31
 70
     1
102
RTVSPost2010Prop32
280
     0
102
RTVSPost2010PropOp32
 70
     1
102
RTVSPost2010Prop33
280
     0
102
RTVSPost2010PropOp33
 70
     1
102
RTVSPost2010Prop34
280
     0
102
RTVSPost2010PropOp34
 70
     1
102
RTVSPost2010Prop35
280
     0
102
RTVSPost2010PropOp35
 70
     1
102
RTVSPost2010Prop36
280
     0
102
RTVSPost2010PropOp36
 70
     1
102
RTVSPost2010Prop37
 90
       50
102
RTVSPost2010PropOp37
 70
     1
102
RTVSPost2010Prop38
140
0.0
102
RTVSPost2010PropOp38
 70
     1
102
RTVSPost2010Prop39
140
1.0
102
RTVSPost2010PropOp39
 70
     1
102
RTVSPost2010Prop40
 90
        0
102
RTVSPost2010PropOp40
 70
     1
102
RTVSPost2010Prop41ColorIndex
 90
       18
102
RTVSPost2010Prop41ColorRGB
 90
        0
102
RTVSPost2010PropOp41
 70
     1
102
RTVSPost2010Prop42
 90
       50
102
RTVSPost2010PropOp42
 70
     1
102
RTVSPost2010Prop43
 90
        3
102
RTVSPost2010PropOp43
 70
     1
102
RTVSPost2010Prop44ColorIndex
 90
        5
102
RTVSPost2010Prop44ColorRGB
 90
      255
102
RTVSPost2010PropOp44
 70
     1
102
RTVSPost2010Prop45
280
     0
102
RTVSPost2010PropOp45
 70
     1
102
RTVSPost2010Prop46
 90
       50
102
RTVSPost2010PropOp46
 70
     1
102
RTVSPost2010Prop47
 90
       50
102
RTVSPost2010PropOp47
 70
     1
102
RTVSPost2010Prop48
 90
       50
102
RTVSPost2010PropOp48
 70
     1
102
RTVSPost2010Prop49
280
     0
102
RTVSPost2010PropOp49
 70
     1
102
RTVSPost2010Prop50
 90
       50
102
RTVSPost2010PropOp50
 70
     1
102
RTVSPost2010Prop51ColorIndex
 90
      256
102
RTVSPost2010Prop51ColorRGB
 90
-16777216
102
RTVSPost2010PropOp51
 70
     0
102
RTVSPost2010Prop52
140
1.0
102
RTVSPost2010PropOp52
 70
     0
102
RTVSPost2010Prop53
 90
        2
102
RTVSPost2010PropOp53
 70
     1
102
RTVSPost2010Prop54
  1
strokes_ogs.tif
102
RTVSPost2010PropOp54
 70
     1
102
RTVSPost2010Prop55
280
     0
102
RTVSPost2010PropOp55
 70
     1
102
RTVSPost2010Prop56
140
1.0
102
RTVSPost2010PropOp56
 70
     1
102
RTVSPost2010Prop57
140
1.0
102
RTVSPost2010PropOp57
 70
     1
102
RTVSPropertyOp0
 70
     1
102
RTVSPropertyOp1
 70
     1
102
RTVSPropertyOp2
 70
     1
102
RTVSPropertyOp3
 70
     1
102
RTVSPropertyOp4
 70
     1
102
RTVSPropertyOp5
 70
     1
102
RTVSPropertyOp6
 70
     1
102
RTVSPropertyOp7
 70
     1
102
RTVSPropertyOp8
 70
     1
102
RTVSPropertyOp9
 70
     1
102
RTVSPropertyOp10
 70
     1
102
RTVSPropertyOp11
 70
     1
102
RTVSPropertyOp12
 70
     1
102
RTVSPropertyOp13
 70
     1
102
RTVSPropertyOp14
 70
     1
102
RTVSPropertyOp15
 70
     1
102
RTVSPropertyOp16
 70
     1
102
RTVSPropertyOp17
 70
     1
102
RTVSPropertyOp18
 70
     1
102
RTVSPropertyOp19
 70
     1
102
RTVSPropertyOp20
 70
     1
102
RTVSPropertyOp21
 70
     1
102
RTVSPropertyOp22
 70
     1
102
RTVSPropertyOp23
 70
     1
102
RTVSPropertyOp24
 70
     1
102
RTVSPropertyOp25
 70
     1
102
RTVSPropertyOp26
 70
     1
102
RTVSPropertyOp27
 70
     1
102
RTVSPropertyOp28
 70
     1
102
RTVSPropertyOp29
 70
     1
102
RTVSPropertyOp30
 70
     1
102
RTVSPropertyOp31
 70
     1
102
RTVSPropertyOp32
 70
     1
102
RTVSPropertyOp33
 70
     1
102
RTVSPropertyOp34
 70
     1
102
RTVSPropertyOp35
 70
     1
102
RTVSPropertyOp36
 70
     1
102
RTVSPropertyOp37
 70
     1
102
RTVSPropertyOp38
 70
     1
102
RTVSPropertyOp39
 70
     1
102
RTVSPropertyOp40
 70
     1
102
RTVSPropertyOp41
 70
     1
102
RTVSPropertyOp42
 70
     1
102
RTVSPropertyOp43
 70
     1
102
RTVSPropertyOp44
 70
     1
102
RTVSPropertyOp45
 70
     1
102
RTVSPropertyOp46
 70
     1
102
RTVSPropertyOp47
 70
     1
102
RTVSPropertyOp48
 70
     1
102
RTVSPropertyOp49
 70
     1
102
RTVSPropertyOp50
 70
     1
102
RTVSPropertyOp51
 70
     0
102
RTVSPropertyOp52
 70
     0
102
RTVSPropertyOp53
 70
     1
102
RTVSPropertyOp54
 70
     1
102
RTVSPropertyOp55
 70
     1
102
RTVSPropertyOp56
 70
     1
102
RTVSPropertyOp57
 70
     1
102
RTVSPropertyOp58
 70
     1
102
RTVSPropertyOp59
 70
     1
102
RTVSPropertyOp60
 70
     1
102
RTVSPropertyOp61
 70
     1
102
RTVSPropertyOp62
 70
     1
  0
XRECORD
  5
AEC95
102
{ACAD_REACTORS
330
AEC94
102
}
330
AEC94
100
AcDbXrecord
280
     1
102
RTVSPost2010Prop28
280
     0
102
RTVSPost2010PropOp28
 70
     1
102
RTVSPost2010Prop29
280
     1
102
RTVSPost2010PropOp29
 70
     1
102
RTVSPost2010Prop30
280
     1
102
RTVSPost2010PropOp30
 70
     1
102
RTVSPost2010Prop31
280
     0
102
RTVSPost2010PropOp31
 70
     1
102
RTVSPost2010Prop32
280
     0
102
RTVSPost2010PropOp32
 70
     1
102
RTVSPost2010Prop33
280
     0
102
RTVSPost2010PropOp33
 70
     1
102
RTVSPost2010Prop34
280
     0
102
RTVSPost2010PropOp34
 70
     1
102
RTVSPost2010Prop35
280
     0
102
RTVSPost2010PropOp35
 70
     1
102
RTVSPost2010Prop36
280
     0
102
RTVSPost2010PropOp36
 70
     1
102
RTVSPost2010Prop37
 90
       50
102
RTVSPost2010PropOp37
 70
     1
102
RTVSPost2010Prop38
140
0.0
102
RTVSPost2010PropOp38
 70
     1
102
RTVSPost2010Prop39
140
1.0
102
RTVSPost2010PropOp39
 70
     1
102
RTVSPost2010Prop40
 90
        0
102
RTVSPost2010PropOp40
 70
     1
102
RTVSPost2010Prop41ColorIndex
 90
       18
102
RTVSPost2010Prop41ColorRGB
 90
        0
102
RTVSPost2010PropOp41
 70
     1
102
RTVSPost2010Prop42
 90
       50
102
RTVSPost2010PropOp42
 70
     1
102
RTVSPost2010Prop43
 90
        3
102
RTVSPost2010PropOp43
 70
     1
102
RTVSPost2010Prop44ColorIndex
 90
        5
102
RTVSPost2010Prop44ColorRGB
 90
      255
102
RTVSPost2010PropOp44
 70
     1
102
RTVSPost2010Prop45
280
     0
102
RTVSPost2010PropOp45
 70
     1
102
RTVSPost2010Prop46
 90
       50
102
RTVSPost2010PropOp46
 70
     1
102
RTVSPost2010Prop47
 90
       50
102
RTVSPost2010PropOp47
 70
     1
102
RTVSPost2010Prop48
 90
       50
102
RTVSPost2010PropOp48
 70
     1
102
RTVSPost2010Prop49
280
     0
102
RTVSPost2010PropOp49
 70
     1
102
RTVSPost2010Prop50
 90
       50
102
RTVSPost2010PropOp50
 70
     1
102
RTVSPost2010Prop51ColorIndex
 90
      256
102
RTVSPost2010Prop51ColorRGB
 90
-16777216
102
RTVSPost2010PropOp51
 70
     0
102
RTVSPost2010Prop52
140
1.0
102
RTVSPost2010PropOp52
 70
     0
102
RTVSPost2010Prop53
 90
        2
102
RTVSPost2010PropOp53
 70
     1
102
RTVSPost2010Prop54
  1
strokes_ogs.tif
102
RTVSPost2010PropOp54
 70
     1
102
RTVSPost2010Prop55
280
     0
102
RTVSPost2010PropOp55
 70
     1
102
RTVSPost2010Prop56
140
1.0
102
RTVSPost2010PropOp56
 70
     1
102
RTVSPost2010Prop57
140
1.0
102
RTVSPost2010PropOp57
 70
     1
102
RTVSPropertyOp0
 70
     1
102
RTVSPropertyOp1
 70
     1
102
RTVSPropertyOp2
 70
     1
102
RTVSPropertyOp3
 70
     1
102
RTVSPropertyOp4
 70
     1
102
RTVSPropertyOp5
 70
     1
102
RTVSPropertyOp6
 70
     1
102
RTVSPropertyOp7
 70
     1
102
RTVSPropertyOp8
 70
     1
102
RTVSPropertyOp9
 70
     1
102
RTVSPropertyOp10
 70
     1
102
RTVSPropertyOp11
 70
     1
102
RTVSPropertyOp12
 70
     1
102
RTVSPropertyOp13
 70
     1
102
RTVSPropertyOp14
 70
     1
102
RTVSPropertyOp15
 70
     1
102
RTVSPropertyOp16
 70
     1
102
RTVSPropertyOp17
 70
     1
102
RTVSPropertyOp18
 70
     1
102
RTVSPropertyOp19
 70
     1
102
RTVSPropertyOp20
 70
     1
102
RTVSPropertyOp21
 70
     1
102
RTVSPropertyOp22
 70
     1
102
RTVSPropertyOp23
 70
     1
102
RTVSPropertyOp24
 70
     1
102
RTVSPropertyOp25
 70
     1
102
RTVSPropertyOp26
 70
     1
102
RTVSPropertyOp27
 70
     1
102
RTVSPropertyOp28
 70
     1
102
RTVSPropertyOp29
 70
     1
102
RTVSPropertyOp30
 70
     1
102
RTVSPropertyOp31
 70
     1
102
RTVSPropertyOp32
 70
     1
102
RTVSPropertyOp33
 70
     1
102
RTVSPropertyOp34
 70
     1
102
RTVSPropertyOp35
 70
     1
102
RTVSPropertyOp36
 70
     1
102
RTVSPropertyOp37
 70
     1
102
RTVSPropertyOp38
 70
     1
102
RTVSPropertyOp39
 70
     1
102
RTVSPropertyOp40
 70
     1
102
RTVSPropertyOp41
 70
     1
102
RTVSPropertyOp42
 70
     1
102
RTVSPropertyOp43
 70
     1
102
RTVSPropertyOp44
 70
     1
102
RTVSPropertyOp45
 70
     1
102
RTVSPropertyOp46
 70
     1
102
RTVSPropertyOp47
 70
     1
102
RTVSPropertyOp48
 70
     1
102
RTVSPropertyOp49
 70
     1
102
RTVSPropertyOp50
 70
     1
102
RTVSPropertyOp51
 70
     0
102
RTVSPropertyOp52
 70
     0
102
RTVSPropertyOp53
 70
     1
102
RTVSPropertyOp54
 70
     1
102
RTVSPropertyOp55
 70
     1
102
RTVSPropertyOp56
 70
     1
102
RTVSPropertyOp57
 70
     1
102
RTVSPropertyOp58
 70
     1
102
RTVSPropertyOp59
 70
     1
102
RTVSPropertyOp60
 70
     1
102
RTVSPropertyOp61
 70
     1
102
RTVSPropertyOp62
 70
     1
  0
XRECORD
  5
AEC9D
102
{ACAD_REACTORS
330
AEC9C
102
}
330
AEC9C
100
AcDbXrecord
280
     1
102
RTVSPost2010Prop28
280
     0
102
RTVSPost2010PropOp28
 70
     1
102
RTVSPost2010Prop29
280
     1
102
RTVSPost2010PropOp29
 70
     1
102
RTVSPost2010Prop30
280
     1
102
RTVSPost2010PropOp30
 70
     1
102
RTVSPost2010Prop31
280
     0
102
RTVSPost2010PropOp31
 70
     1
102
RTVSPost2010Prop32
280
     0
102
RTVSPost2010PropOp32
 70
     1
102
RTVSPost2010Prop33
280
     0
102
RTVSPost2010PropOp33
 70
     1
102
RTVSPost2010Prop34
280
     0
102
RTVSPost2010PropOp34
 70
     1
102
RTVSPost2010Prop35
280
     0
102
RTVSPost2010PropOp35
 70
     1
102
RTVSPost2010Prop36
280
     0
102
RTVSPost2010PropOp36
 70
     1
102
RTVSPost2010Prop37
 90
       50
102
RTVSPost2010PropOp37
 70
     1
102
RTVSPost2010Prop38
140
0.0
102
RTVSPost2010PropOp38
 70
     1
102
RTVSPost2010Prop39
140
1.0
102
RTVSPost2010PropOp39
 70
     1
102
RTVSPost2010Prop40
 90
        0
102
RTVSPost2010PropOp40
 70
     1
102
RTVSPost2010Prop41ColorIndex
 90
       18
102
RTVSPost2010Prop41ColorRGB
 90
        0
102
RTVSPost2010PropOp41
 70
     1
102
RTVSPost2010Prop42
 90
       50
102
RTVSPost2010PropOp42
 70
     1
102
RTVSPost2010Prop43
 90
        3
102
RTVSPost2010PropOp43
 70
     1
102
RTVSPost2010Prop44ColorIndex
 90
        5
102
RTVSPost2010Prop44ColorRGB
 90
      255
102
RTVSPost2010PropOp44
 70
     1
102
RTVSPost2010Prop45
280
     0
102
RTVSPost2010PropOp45
 70
     1
102
RTVSPost2010Prop46
 90
       50
102
RTVSPost2010PropOp46
 70
     1
102
RTVSPost2010Prop47
 90
       50
102
RTVSPost2010PropOp47
 70
     1
102
RTVSPost2010Prop48
 90
       50
102
RTVSPost2010PropOp48
 70
     1
102
RTVSPost2010Prop49
280
     0
102
RTVSPost2010PropOp49
 70
     1
102
RTVSPost2010Prop50
 90
       50
102
RTVSPost2010PropOp50
 70
     1
102
RTVSPost2010Prop51ColorIndex
 90
      256
102
RTVSPost2010Prop51ColorRGB
 90
-16777216
102
RTVSPost2010PropOp51
 70
     0
102
RTVSPost2010Prop52
140
1.0
102
RTVSPost2010PropOp52
 70
     0
102
RTVSPost2010Prop53
 90
        2
102
RTVSPost2010PropOp53
 70
     1
102
RTVSPost2010Prop54
  1
strokes_ogs.tif
102
RTVSPost2010PropOp54
 70
     1
102
RTVSPost2010Prop55
280
     0
102
RTVSPost2010PropOp55
 70
     1
102
RTVSPost2010Prop56
140
1.0
102
RTVSPost2010PropOp56
 70
     1
102
RTVSPost2010Prop57
140
1.0
102
RTVSPost2010PropOp57
 70
     1
102
RTVSPropertyOp0
 70
     1
102
RTVSPropertyOp1
 70
     1
102
RTVSPropertyOp2
 70
     1
102
RTVSPropertyOp3
 70
     1
102
RTVSPropertyOp4
 70
     1
102
RTVSPropertyOp5
 70
     1
102
RTVSPropertyOp6
 70
     1
102
RTVSPropertyOp7
 70
     1
102
RTVSPropertyOp8
 70
     1
102
RTVSPropertyOp9
 70
     1
102
RTVSPropertyOp10
 70
     1
102
RTVSPropertyOp11
 70
     1
102
RTVSPropertyOp12
 70
     1
102
RTVSPropertyOp13
 70
     1
102
RTVSPropertyOp14
 70
     1
102
RTVSPropertyOp15
 70
     1
102
RTVSPropertyOp16
 70
     1
102
RTVSPropertyOp17
 70
     1
102
RTVSPropertyOp18
 70
     1
102
RTVSPropertyOp19
 70
     1
102
RTVSPropertyOp20
 70
     1
102
RTVSPropertyOp21
 70
     1
102
RTVSPropertyOp22
 70
     1
102
RTVSPropertyOp23
 70
     1
102
RTVSPropertyOp24
 70
     1
102
RTVSPropertyOp25
 70
     1
102
RTVSPropertyOp26
 70
     1
102
RTVSPropertyOp27
 70
     1
102
RTVSPropertyOp28
 70
     1
102
RTVSPropertyOp29
 70
     1
102
RTVSPropertyOp30
 70
     1
102
RTVSPropertyOp31
 70
     1
102
RTVSPropertyOp32
 70
     1
102
RTVSPropertyOp33
 70
     1
102
RTVSPropertyOp34
 70
     1
102
RTVSPropertyOp35
 70
     1
102
RTVSPropertyOp36
 70
     1
102
RTVSPropertyOp37
 70
     1
102
RTVSPropertyOp38
 70
     1
102
RTVSPropertyOp39
 70
     1
102
RTVSPropertyOp40
 70
     1
102
RTVSPropertyOp41
 70
     1
102
RTVSPropertyOp42
 70
     1
102
RTVSPropertyOp43
 70
     1
102
RTVSPropertyOp44
 70
     1
102
RTVSPropertyOp45
 70
     1
102
RTVSPropertyOp46
 70
     1
102
RTVSPropertyOp47
 70
     1
102
RTVSPropertyOp48
 70
     1
102
RTVSPropertyOp49
 70
     1
102
RTVSPropertyOp50
 70
     1
102
RTVSPropertyOp51
 70
     0
102
RTVSPropertyOp52
 70
     0
102
RTVSPropertyOp53
 70
     1
102
RTVSPropertyOp54
 70
     1
102
RTVSPropertyOp55
 70
     1
102
RTVSPropertyOp56
 70
     1
102
RTVSPropertyOp57
 70
     1
102
RTVSPropertyOp58
 70
     1
102
RTVSPropertyOp59
 70
     1
102
RTVSPropertyOp60
 70
     1
102
RTVSPropertyOp61
 70
     1
102
RTVSPropertyOp62
 70
     1
  0
ENDSEC
  0
EOF
